  0
SECTION
  2
HEADER
  9
$ACADVER
  1
AC1018
  9
$ACADMAINTVER
 70
     2
  9
$DWGCODEPAGE
  3
ANSI_1252
  9
$INSBASE
 10
214.18963059078
 20
83.98788932831553
 30
0.0
  9
$EXTMIN
 10
0.9368276861309823
 20
0.9805760645574537
 30
-0.000000000000013
  9
$EXTMAX
 10
841.0000068533395
 20
595.0000048486772
 30
0.0000000000000023
  9
$LIMMIN
 10
0.0
 20
0.0
  9
$LIMMAX
 10
841.0
 20
595.0
  9
$ORTHOMODE
 70
     1
  9
$REGENMODE
 70
     1
  9
$FILLMODE
 70
     1
  9
$QTEXTMODE
 70
     0
  9
$MIRRTEXT
 70
     1
  9
$LTSCALE
 40
20.0
  9
$ATTMODE
 70
     1
  9
$TEXTSIZE
 40
3.5
  9
$TRACEWID
 40
1.0
  9
$TEXTSTYLE
  7
STANDARD
  9
$CLAYER
  8
BEM
  9
$CELTYPE
  6
ByLayer
  9
$CECOLOR
 62
   256
  9
$CELTSCALE
 40
1.0
  9
$DISPSILH
 70
     0
  9
$DIMSCALE
 40
2.0
  9
$DIMASZ
 40
3.5
  9
$DIMEXO
 40
1.0
  9
$DIMDLI
 40
7.0
  9
$DIMRND
 40
0.0
  9
$DIMDLE
 40
0.0
  9
$DIMEXE
 40
1.0
  9
$DIMTP
 40
2.0
  9
$DIMTM
 40
0.0
  9
$DIMTXT
 40
3.5
  9
$DIMCEN
 40
1.5
  9
$DIMTSZ
 40
0.0
  9
$DIMTOL
 70
     0
  9
$DIMLIM
 70
     0
  9
$DIMTIH
 70
     0
  9
$DIMTOH
 70
     0
  9
$DIMSE1
 70
     0
  9
$DIMSE2
 70
     0
  9
$DIMTAD
 70
     1
  9
$DIMZIN
 70
     8
  9
$DIMBLK
  1

  9
$DIMASO
 70
     1
  9
$DIMSHO
 70
     0
  9
$DIMPOST
  1

  9
$DIMAPOST
  1

  9
$DIMALT
 70
     0
  9
$DIMALTD
 70
     2
  9
$DIMALTF
 40
25.4
  9
$DIMLFAC
 40
1.0
  9
$DIMTOFL
 70
     1
  9
$DIMTVP
 40
0.2857142857142857
  9
$DIMTIX
 70
     0
  9
$DIMSOXD
 70
     0
  9
$DIMSAH
 70
     0
  9
$DIMBLK1
  1

  9
$DIMBLK2
  1

  9
$DIMSTYLE
  2
Standard
  9
$DIMCLRD
 70
     0
  9
$DIMCLRE
 70
     0
  9
$DIMCLRT
 70
     1
  9
$DIMTFAC
 40
0.5
  9
$DIMGAP
 40
1.5
  9
$DIMJUST
 70
     0
  9
$DIMSD1
 70
     0
  9
$DIMSD2
 70
     0
  9
$DIMTOLJ
 70
     1
  9
$DIMTZIN
 70
     8
  9
$DIMALTZ
 70
     8
  9
$DIMALTTZ
 70
     8
  9
$DIMUPT
 70
     0
  9
$DIMDEC
 70
     2
  9
$DIMTDEC
 70
     2
  9
$DIMALTU
 70
     2
  9
$DIMALTTD
 70
     2
  9
$DIMTXSTY
  7
STANDARD
  9
$DIMAUNIT
 70
     0
  9
$DIMADEC
 70
     2
  9
$DIMALTRND
 40
0.0
  9
$DIMAZIN
 70
     2
  9
$DIMDSEP
 70
    46
  9
$DIMATFIT
 70
     3
  9
$DIMFRAC
 70
     0
  9
$DIMLDRBLK
  1

  9
$DIMLUNIT
 70
     2
  9
$DIMLWD
 70
    -2
  9
$DIMLWE
 70
    -2
  9
$DIMTMOVE
 70
     0
  9
$LUNITS
 70
     2
  9
$LUPREC
 70
     2
  9
$SKETCHINC
 40
1.0
  9
$FILLETRAD
 40
0.0
  9
$AUNITS
 70
     0
  9
$AUPREC
 70
     0
  9
$MENU
  1
ACAD
  9
$ELEVATION
 40
0.0
  9
$PELEVATION
 40
0.0
  9
$THICKNESS
 40
0.0
  9
$LIMCHECK
 70
     0
  9
$CHAMFERA
 40
0.5
  9
$CHAMFERB
 40
0.5
  9
$CHAMFERC
 40
0.0
  9
$CHAMFERD
 40
0.0
  9
$SKPOLY
 70
     0
  9
$TDCREATE
 40
2455256.593605671
  9
$TDUCREATE
 40
2455256.551939005
  9
$TDUPDATE
 40
2455537.574547697
  9
$TDUUPDATE
 40
2455537.532881030
  9
$TDINDWG
 40
0.0467437847
  9
$TDUSRTIMER
 40
0.0467437847
  9
$USRTIMER
 70
     1
  9
$ANGBASE
 50
0.0
  9
$ANGDIR
 70
     0
  9
$PDMODE
 70
     0
  9
$PDSIZE
 40
0.0
  9
$PLINEWID
 40
0.0
  9
$SPLFRAME
 70
     0
  9
$SPLINETYPE
 70
     6
  9
$SPLINESEGS
 70
     8
  9
$HANDSEED
  5
554
  9
$SURFTAB1
 70
     6
  9
$SURFTAB2
 70
     6
  9
$SURFTYPE
 70
     6
  9
$SURFU
 70
     6
  9
$SURFV
 70
     6
  9
$UCSBASE
  2

  9
$UCSNAME
  2

  9
$UCSORG
 10
0.0
 20
0.0
 30
0.0
  9
$UCSXDIR
 10
1.0
 20
0.0
 30
0.0
  9
$UCSYDIR
 10
0.0
 20
1.0
 30
0.0
  9
$UCSORTHOREF
  2

  9
$UCSORTHOVIEW
 70
     0
  9
$UCSORGTOP
 10
0.0
 20
0.0
 30
0.0
  9
$UCSORGBOTTOM
 10
0.0
 20
0.0
 30
0.0
  9
$UCSORGLEFT
 10
0.0
 20
0.0
 30
0.0
  9
$UCSORGRIGHT
 10
0.0
 20
0.0
 30
0.0
  9
$UCSORGFRONT
 10
0.0
 20
0.0
 30
0.0
  9
$UCSORGBACK
 10
0.0
 20
0.0
 30
0.0
  9
$PUCSBASE
  2

  9
$PUCSNAME
  2

  9
$PUCSORG
 10
0.0
 20
0.0
 30
0.0
  9
$PUCSXDIR
 10
1.0
 20
0.0
 30
0.0
  9
$PUCSYDIR
 10
0.0
 20
1.0
 30
0.0
  9
$PUCSORTHOREF
  2

  9
$PUCSORTHOVIEW
 70
     0
  9
$PUCSORGTOP
 10
0.0
 20
0.0
 30
0.0
  9
$PUCSORGBOTTOM
 10
0.0
 20
0.0
 30
0.0
  9
$PUCSORGLEFT
 10
0.0
 20
0.0
 30
0.0
  9
$PUCSORGRIGHT
 10
0.0
 20
0.0
 30
0.0
  9
$PUCSORGFRONT
 10
0.0
 20
0.0
 30
0.0
  9
$PUCSORGBACK
 10
0.0
 20
0.0
 30
0.0
  9
$USERI1
 70
     0
  9
$USERI2
 70
     0
  9
$USERI3
 70
     0
  9
$USERI4
 70
     0
  9
$USERI5
 70
     0
  9
$USERR1
 40
0.0
  9
$USERR2
 40
0.0
  9
$USERR3
 40
0.0
  9
$USERR4
 40
0.0
  9
$USERR5
 40
0.0
  9
$WORLDVIEW
 70
     1
  9
$SHADEDGE
 70
     3
  9
$SHADEDIF
 70
    70
  9
$TILEMODE
 70
     1
  9
$MAXACTVP
 70
    16
  9
$PINSBASE
 10
0.0
 20
0.0
 30
0.0
  9
$PLIMCHECK
 70
     0
  9
$PEXTMIN
 10
1.000000000000000E+20
 20
1.000000000000000E+20
 30
1.000000000000000E+20
  9
$PEXTMAX
 10
-1.000000000000000E+20
 20
-1.000000000000000E+20
 30
-1.000000000000000E+20
  9
$PLIMMIN
 10
0.0
 20
0.0
  9
$PLIMMAX
 10
12.0
 20
9.0
  9
$UNITMODE
 70
     0
  9
$VISRETAIN
 70
     0
  9
$PLINEGEN
 70
     0
  9
$PSLTSCALE
 70
     0
  9
$TREEDEPTH
 70
  3020
  9
$CMLSTYLE
  2
Standard
  9
$CMLJUST
 70
     0
  9
$CMLSCALE
 40
1.0
  9
$PROXYGRAPHICS
 70
     1
  9
$MEASUREMENT
 70
     0
  9
$CELWEIGHT
370
    -1
  9
$ENDCAPS
280
     0
  9
$JOINSTYLE
280
     0
  9
$LWDISPLAY
290
     0
  9
$INSUNITS
 70
     0
  9
$HYPERLINKBASE
  1

  9
$STYLESHEET
  1
monochrome 1.ctb
  9
$XEDIT
290
     1
  9
$CEPSNTYPE
380
     0
  9
$PSTYLEMODE
290
     1
  9
$FINGERPRINTGUID
  2
{744B04F1-4E13-421D-AC87-8D975C5F4086}
  9
$VERSIONGUID
  2
{62014629-CD2A-414F-B319-B5E83E817109}
  9
$EXTNAMES
290
     1
  9
$PSVPSCALE
 40
0.0
  9
$OLESTARTUP
290
     0
  9
$SORTENTS
280
   127
  9
$INDEXCTL
280
     0
  9
$HIDETEXT
280
     1
  9
$XCLIPFRAME
290
     0
  9
$HALOGAP
280
     0
  9
$OBSCOLOR
 70
   257
  9
$OBSLTYPE
280
     0
  9
$INTERSECTIONDISPLAY
280
     0
  9
$INTERSECTIONCOLOR
 70
   257
  9
$DIMASSOC
280
     2
  9
$PROJECTNAME
  1

  0
ENDSEC
  0
SECTION
  2
CLASSES
  0
CLASS
  1
ACDBDICTIONARYWDFLT
  2
AcDbDictionaryWithDefault
  3
ObjectDBX Classes
 90
        0
 91
        1
280
     0
281
     0
  0
CLASS
  1
DICTIONARYVAR
  2
AcDbDictionaryVar
  3
ObjectDBX Classes
 90
        0
 91
        3
280
     0
281
     0
  0
CLASS
  1
DIMASSOC
  2
AcDbDimAssoc
  3
"AcDbDimAssoc|Product Desc:     AcDim ARX App For Dimension|Company:          Autodesk, Inc.|WEB Address:      www.autodesk.com"
 90
        0
 91
        3
280
     0
281
     0
  0
ENDSEC
  0
SECTION
  2
TABLES
  0
TABLE
  2
VPORT
  5
8
330
0
100
AcDbSymbolTable
 70
     2
  0
VPORT
  5
553
330
8
100
AcDbSymbolTableRecord
100
AcDbViewportTableRecord
  2
*Active
 70
     0
 10
0.0
 20
0.0
 11
1.0
 21
1.0
 12
420.9684172697353
 22
297.9902904566174
 13
0.0
 23
0.0
 14
2.5
 24
2.5
 15
10.0
 25
10.0
 16
0.0
 26
0.0
 36
1.0
 17
0.0
 27
0.0
 37
0.0
 40
632.149119964688
 41
1.336927223719676
 42
50.0
 43
0.0
 44
0.0
 50
0.0
 51
0.0
 71
     0
 72
   500
 73
     1
 74
     0
 75
     0
 76
     0
 77
     0
 78
     0
281
     0
 65
     1
110
0.0
120
0.0
130
0.0
111
1.0
121
0.0
131
0.0
112
0.0
122
1.0
132
0.0
 79
     0
146
0.0
  0
ENDTAB
  0
TABLE
  2
LTYPE
  5
5
330
0
100
AcDbSymbolTable
 70
     2
  0
LTYPE
  5
13
330
5
100
AcDbSymbolTableRecord
100
AcDbLinetypeTableRecord
  2
ByBlock
 70
     0
  3

 72
    65
 73
     0
 40
0.0
  0
LTYPE
  5
14
330
5
100
AcDbSymbolTableRecord
100
AcDbLinetypeTableRecord
  2
ByLayer
 70
     0
  3

 72
    65
 73
     0
 40
0.0
  0
LTYPE
  5
15
330
5
100
AcDbSymbolTableRecord
100
AcDbLinetypeTableRecord
  2
Continuous
 70
     0
  3
Solid line
 72
    65
 73
     0
 40
0.0
  0
LTYPE
  5
35
330
5
100
AcDbSymbolTableRecord
100
AcDbLinetypeTableRecord
  2
STRICHPUNKT
 70
     0
  3
__ . __ . __ . __ . __ . __ . __ . __ . __ . __
 72
    65
 73
     4
 40
1.0
 49
0.5
 74
     0
 49
-0.25
 74
     0
 49
0.0
 74
     0
 49
-0.25
 74
     0
  0
ENDTAB
  0
TABLE
  2
LAYER
  5
2
330
0
100
AcDbSymbolTable
 70
     9
  0
LAYER
  5
10
330
2
100
AcDbSymbolTableRecord
100
AcDbLayerTableRecord
  2
0
 70
     0
 62
     7
  6
Continuous
370
    -3
390
F
  0
LAYER
  5
50
330
2
100
AcDbSymbolTableRecord
100
AcDbLayerTableRecord
  2
VOLL
 70
     0
 62
     1
  6
Continuous
370
    -3
390
F
  0
LAYER
  5
51
330
2
100
AcDbSymbolTableRecord
100
AcDbLayerTableRecord
  2
MITTEL
 70
     0
 62
     2
  6
STRICHPUNKT
370
    -3
390
F
  0
LAYER
  5
52
330
2
100
AcDbSymbolTableRecord
100
AcDbLayerTableRecord
  2
BEM
 70
     0
 62
     7
  6
Continuous
370
    -3
390
F
  0
LAYER
  5
53
330
2
100
AcDbSymbolTableRecord
100
AcDbLayerTableRecord
  2
HILF
 70
     0
 62
     2
  6
Continuous
370
    -3
390
F
  0
LAYER
  5
54
330
2
100
AcDbSymbolTableRecord
100
AcDbLayerTableRecord
  2
SCHRAFF
 70
     0
 62
     7
  6
Continuous
370
    -3
390
F
  0
LAYER
  5
55
330
2
100
AcDbSymbolTableRecord
100
AcDbLayerTableRecord
  2
STEMPEL
 70
     0
 62
     3
  6
Continuous
370
    -3
390
F
  0
LAYER
  5
5A
330
2
100
AcDbSymbolTableRecord
100
AcDbLayerTableRecord
  2
DEFPOINTS
 70
     0
 62
     7
  6
Continuous
290
     0
370
    -3
390
F
  0
LAYER
  5
5B
330
2
100
AcDbSymbolTableRecord
100
AcDbLayerTableRecord
  2
TEXT
 70
     0
 62
     7
  6
Continuous
370
    -3
390
F
  0
ENDTAB
  0
TABLE
  2
STYLE
  5
3
330
0
100
AcDbSymbolTable
 70
     2
  0
STYLE
  5
11
330
3
100
AcDbSymbolTableRecord
100
AcDbTextStyleTableRecord
  2
STANDARD
 70
     0
 40
0.0
 41
0.8
 50
0.0
 71
     0
 42
3.5
  3
simplex.shx
  4

  0
STYLE
  5
34
330
3
100
AcDbSymbolTableRecord
100
AcDbTextStyleTableRecord
  2
GREEKS
 70
     0
 40
0.0
 41
0.8
 50
0.0
 71
     0
 42
3.6
  3
SIMPLEX.shx
  4

  0
ENDTAB
  0
TABLE
  2
VIEW
  5
6
330
0
100
AcDbSymbolTable
 70
     0
  0
ENDTAB
  0
TABLE
  2
UCS
  5
7
330
0
100
AcDbSymbolTable
 70
     0
  0
ENDTAB
  0
TABLE
  2
APPID
  5
9
330
0
100
AcDbSymbolTable
 70
     1
  0
APPID
  5
12
330
9
100
AcDbSymbolTableRecord
100
AcDbRegAppTableRecord
  2
ACAD
 70
     0
  0
ENDTAB
  0
TABLE
  2
DIMSTYLE
  5
A
330
0
100
AcDbSymbolTable
 70
     1
100
AcDbDimStyleTable
 71
     1
340
3AF
  0
DIMSTYLE
105
3AF
102
{ACAD_REACTORS
330
3AC
330
3AD
330
385
330
4A6
330
4C7
330
50E
102
}
330
A
100
AcDbSymbolTableRecord
100
AcDbDimStyleTableRecord
  2
Standard
 70
     0
340
11
  0
ENDTAB
  0
TABLE
  2
BLOCK_RECORD
  5
1
330
0
100
AcDbSymbolTable
 70
    11
  0
BLOCK_RECORD
  5
20
330
1
100
AcDbSymbolTableRecord
100
AcDbBlockTableRecord
  2
*Model_Space
340
23
  0
BLOCK_RECORD
  5
1C
330
1
100
AcDbSymbolTableRecord
100
AcDbBlockTableRecord
  2
*Paper_Space
340
1F
  0
BLOCK_RECORD
  5
24
330
1
100
AcDbSymbolTableRecord
100
AcDbBlockTableRecord
  2
LOGO
340
0
102
{BLKREFS
331
21E
102
}
  0
BLOCK_RECORD
  5
26
330
1
100
AcDbSymbolTableRecord
100
AcDbBlockTableRecord
  2
*X1
340
0
102
{BLKREFS
331
38A
102
}
  0
BLOCK_RECORD
  5
3B0
330
1
100
AcDbSymbolTableRecord
100
AcDbBlockTableRecord
  2
*D4
340
0
  0
BLOCK_RECORD
  5
3EE
330
1
100
AcDbSymbolTableRecord
100
AcDbBlockTableRecord
  2
*D6
340
0
  0
BLOCK_RECORD
  5
3FA
330
1
100
AcDbSymbolTableRecord
100
AcDbBlockTableRecord
  2
*D7
340
0
  0
BLOCK_RECORD
  5
4A7
330
1
100
AcDbSymbolTableRecord
100
AcDbBlockTableRecord
  2
*D8
340
0
  0
BLOCK_RECORD
  5
4C8
330
1
100
AcDbSymbolTableRecord
100
AcDbBlockTableRecord
  2
*D9
340
0
  0
BLOCK_RECORD
  5
50F
330
1
100
AcDbSymbolTableRecord
100
AcDbBlockTableRecord
  2
*D10
340
0
  0
ENDTAB
  0
ENDSEC
  0
SECTION
  2
BLOCKS
  0
BLOCK
  5
60
330
20
100
AcDbEntity
  8
0
100
AcDbBlockBegin
  2
*Model_Space
 70
     0
 10
0.0
 20
0.0
 30
0.0
  3
*Model_Space
  1

  0
ENDBLK
  5
61
330
20
100
AcDbEntity
  8
0
100
AcDbBlockEnd
  0
BLOCK
  5
5E
330
1C
100
AcDbEntity
 67
     1
  8
0
100
AcDbBlockBegin
  2
*Paper_Space
 70
     0
 10
0.0
 20
0.0
 30
0.0
  3
*Paper_Space
  1

  0
ENDBLK
  5
5F
330
1C
100
AcDbEntity
 67
     1
  8
0
100
AcDbBlockEnd
  0
BLOCK
  5
62
330
24
100
AcDbEntity
  8
0
100
AcDbBlockBegin
  2
LOGO
 70
     0
 10
0.0
 20
0.0
 30
0.0
  3
LOGO
  1

  0
ARC
  5
63
330
24
100
AcDbEntity
  8
0
100
AcDbCircle
 10
11.59973089678112
 20
-9.271599258481501
 30
0.0
 40
4.5
100
AcDbArc
 50
270.0
 51
231.0575587310159
  0
LINE
  5
64
330
24
100
AcDbEntity
  8
0
100
AcDbLine
 10
3.599730896781125
 20
-4.771599258481529
 30
0.0
 11
3.599730896781153
 21
-11.77159925848133
 31
0.0
  0
LINE
  5
65
330
24
100
AcDbEntity
  8
0
100
AcDbLine
 10
2.599730896781125
 20
-4.771599258481529
 30
0.0
 11
2.599730896781153
 21
-11.77159925848133
 31
0.0
  0
CIRCLE
  5
66
330
24
100
AcDbEntity
  8
0
100
AcDbCircle
 10
11.59973089678112
 20
-9.271599258481501
 30
0.0
 40
3.5
  0
ARC
  5
67
330
24
100
AcDbEntity
  8
0
100
AcDbCircle
 10
31.59973089678115
 20
-9.271599258481472
 30
0.0
 40
4.5
100
AcDbArc
 50
270.0
 51
231.0575587310182
  0
LINE
  5
68
330
24
100
AcDbEntity
  8
0
100
AcDbLine
 10
17.59973089678112
 20
-4.771599258481472
 30
0.0
 11
17.59973089678115
 21
-13.77159925848147
 31
0.0
  0
ARC
  5
69
330
24
100
AcDbEntity
  8
0
100
AcDbCircle
 10
22.59973089678116
 20
-7.271599258481472
 30
0.0
 40
2.5
100
AcDbArc
 50
293.1161887722295
 51
90.0
  0
CIRCLE
  5
6A
330
24
100
AcDbEntity
  8
0
100
AcDbCircle
 10
31.59973089678115
 20
-9.271599258481472
 30
0.0
 40
3.5
  0
ARC
  5
6B
330
24
100
AcDbEntity
  8
0
100
AcDbCircle
 10
4.599730896781153
 20
-11.77159925848133
 30
0.0
 40
1.0
100
AcDbArc
 50
180.0
 51
270.0
  0
ARC
  5
6C
330
24
100
AcDbEntity
  8
0
100
AcDbCircle
 10
4.599730896781153
 20
-11.77159925848133
 30
0.0
 40
2.0
100
AcDbArc
 50
179.9999999999992
 51
270.0
  0
LINE
  5
6D
330
24
100
AcDbEntity
  8
0
100
AcDbLine
 10
11.59973089678115
 20
-13.77159925848144
 30
0.0
 11
4.599730896781153
 21
-13.77159925848147
 31
0.0
  0
LINE
  5
6E
330
24
100
AcDbEntity
  8
0
100
AcDbLine
 10
8.771303772034769
 20
-12.77159925848136
 30
0.0
 11
4.599730896781153
 21
-12.77159925848133
 31
0.0
  0
LINE
  5
6F
330
24
100
AcDbEntity
  8
0
100
AcDbLine
 10
31.59973089678115
 20
-13.77159925848147
 30
0.0
 11
23.6715276665056
 21
-13.77159925848144
 31
0.0
  0
LINE
  5
70
330
24
100
AcDbEntity
  8
0
100
AcDbLine
 10
23.56565672307022
 20
-9.51278021337896
 30
0.0
 11
24.4388546544846
 21
-12.77159925848144
 31
0.0
  0
LINE
  5
71
330
24
100
AcDbEntity
  8
0
100
AcDbLine
 10
22.59973089678116
 20
-9.771599258481472
 30
0.0
 11
18.59973089678112
 21
-9.771599258481472
 31
0.0
  0
LINE
  5
72
330
24
100
AcDbEntity
  8
0
100
AcDbLine
 10
18.59973089678115
 20
-13.77159925848144
 30
0.0
 11
17.59973089678115
 21
-13.77159925848144
 31
0.0
  0
LINE
  5
73
330
24
100
AcDbEntity
  8
0
100
AcDbLine
 10
18.59973089678115
 20
-9.771599258481472
 30
0.0
 11
18.59973089678115
 21
-13.77159925848144
 31
0.0
  0
LINE
  5
74
330
24
100
AcDbEntity
  8
0
100
AcDbLine
 10
22.59973089678116
 20
-9.771599258481472
 30
0.0
 11
23.67152766650562
 21
-13.77159925848147
 31
0.0
  0
ARC
  5
75
330
24
100
AcDbEntity
  8
0
100
AcDbCircle
 10
22.59973089678116
 20
-7.271599258481472
 30
0.0
 40
2.5
100
AcDbArc
 50
270.0
 51
270.0000000000007
  0
LINE
  5
76
330
24
100
AcDbEntity
  8
0
100
AcDbLine
 10
28.77130377203494
 20
-12.77159925848147
 30
0.0
 11
24.43885465448463
 21
-12.77159925848144
 31
0.0
  0
LINE
  5
77
330
24
100
AcDbEntity
  8
0
100
AcDbLine
 10
3.599730896781125
 20
-4.771599258481472
 30
0.0
 11
2.599730896781125
 21
-4.771599258481472
 31
0.0
  0
LINE
  5
78
330
24
100
AcDbEntity
  8
0
100
AcDbLine
 10
22.59973089678116
 20
-8.771599258481472
 30
0.0
 11
18.59973089678115
 21
-8.771599258481472
 31
0.0
  0
LINE
  5
79
330
24
100
AcDbEntity
  8
0
100
AcDbLine
 10
22.59973089678116
 20
-5.771599258481472
 30
0.0
 11
18.59973089678115
 21
-5.771599258481472
 31
0.0
  0
LINE
  5
7A
330
24
100
AcDbEntity
  8
0
100
AcDbLine
 10
22.59973089678116
 20
-4.771599258481472
 30
0.0
 11
17.59973089678115
 21
-4.771599258481472
 31
0.0
  0
LINE
  5
7B
330
24
100
AcDbEntity
  8
0
100
AcDbLine
 10
18.59973089678115
 20
-5.771599258481472
 30
0.0
 11
18.59973089678115
 21
-8.771599258481472
 31
0.0
  0
ARC
  5
7C
330
24
100
AcDbEntity
  8
0
100
AcDbCircle
 10
22.59973089678116
 20
-7.271599258481472
 30
0.0
 40
1.5
100
AcDbArc
 50
270.0
 51
90.0
  0
ENDBLK
  5
7D
330
24
100
AcDbEntity
  8
0
100
AcDbBlockEnd
  0
BLOCK
  5
8A
330
26
100
AcDbEntity
  8
0
100
AcDbBlockBegin
  2
*X1
 70
     1
 10
0.0
 20
0.0
 30
0.0
  3
*X1
  1

  0
LINE
  5
8B
330
26
100
AcDbEntity
  8
0
 62
     0
100
AcDbLine
 10
158.5357275735763
 20
396.9673597265754
 30
0.0
 11
158.4567522161699
 21
397.0463350839817
 31
0.0
  0
LINE
  5
8C
330
26
100
AcDbEntity
  8
0
 62
     0
100
AcDbLine
 10
158.5355240887621
 20
396.8261418551523
 30
0.0
 11
158.3713668786799
 21
396.9902990652345
 31
0.0
  0
LINE
  5
8D
330
26
100
AcDbEntity
  8
0
 62
     0
100
AcDbLine
 10
158.535320603948
 20
396.6849239837291
 30
0.0
 11
158.2872572159111
 21
396.932987371766
 31
0.0
  0
LINE
  5
8E
330
26
100
AcDbEntity
  8
0
 62
     0
100
AcDbLine
 10
158.5351171191338
 20
396.5437061123059
 30
0.0
 11
158.2044107203521
 21
396.8744125110877
 31
0.0
  0
LINE
  5
8F
330
26
100
AcDbEntity
  8
0
 62
     0
100
AcDbLine
 10
158.5349136343196
 20
396.4024882408829
 30
0.0
 11
158.1228162043889
 21
396.8145856708136
 31
0.0
  0
LINE
  5
90
330
26
100
AcDbEntity
  8
0
 62
     0
100
AcDbLine
 10
158.5347101495055
 20
396.2612703694597
 30
0.0
 11
158.0424637467031
 21
396.753516772262
 31
0.0
  0
LINE
  5
91
330
26
100
AcDbEntity
  8
0
 62
     0
100
AcDbLine
 10
158.5345066646913
 20
396.1200524980366
 30
0.0
 11
157.963344645601
 21
396.6912145171269
 31
0.0
  0
LINE
  5
92
330
26
100
AcDbEntity
  8
0
 62
     0
100
AcDbLine
 10
158.5343031798771
 20
395.9788346266135
 30
0.0
 11
157.8854513787432
 21
396.6276864277473
 31
0.0
  0
LINE
  5
93
330
26
100
AcDbEntity
  8
0
 62
     0
100
AcDbLine
 10
158.534099695063
 20
395.8376167551902
 30
0.0
 11
157.8087775688324
 21
396.5629388814209
 31
0.0
  0
LINE
  5
94
330
26
100
AcDbEntity
  8
0
 62
     0
100
AcDbLine
 10
158.5338962102488
 20
395.6963988837671
 30
0.0
 11
157.7333179548831
 21
396.4969771391328
 31
0.0
  0
LINE
  5
95
330
26
100
AcDbEntity
  8
0
 62
     0
100
AcDbLine
 10
158.5336927254346
 20
395.555181012344
 30
0.0
 11
157.6590683687702
 21
396.4298053690084
 31
0.0
  0
LINE
  5
96
330
26
100
AcDbEntity
  8
0
 62
     0
100
AcDbLine
 10
158.5334892406204
 20
395.4139631409209
 30
0.0
 11
157.5860257168074
 21
396.3614266647338
 31
0.0
  0
LINE
  5
97
330
26
100
AcDbEntity
  8
0
 62
     0
100
AcDbLine
 10
158.5332857558063
 20
395.2727452694977
 30
0.0
 11
157.514187966165
 21
396.291843059139
 31
0.0
  0
LINE
  5
98
330
26
100
AcDbEntity
  8
0
 62
     0
100
AcDbLine
 10
158.5330822709921
 20
395.1315273980745
 30
0.0
 11
157.4435541359875
 21
396.2210555330792
 31
0.0
  0
LINE
  5
99
330
26
100
AcDbEntity
  8
0
 62
     0
100
AcDbLine
 10
158.532878786178
 20
394.9903095266514
 30
0.0
 11
157.3741242931194
 21
396.14906401971
 31
0.0
  0
LINE
  5
9A
330
26
100
AcDbEntity
  8
0
 62
     0
100
AcDbLine
 10
158.5326753013638
 20
394.8490916552283
 30
0.0
 11
157.3058995523962
 21
396.0758674041959
 31
0.0
  0
LINE
  5
9B
330
26
100
AcDbEntity
  8
0
 62
     0
100
AcDbLine
 10
158.5324718165496
 20
394.7078737838052
 30
0.0
 11
157.2388820815036
 21
396.0014635188512
 31
0.0
  0
LINE
  5
9C
330
26
100
AcDbEntity
  8
0
 62
     0
100
AcDbLine
 10
158.5322683317355
 20
394.566655912382
 30
0.0
 11
157.173075110454
 21
395.9258491336634
 31
0.0
  0
LINE
  5
9D
330
26
100
AcDbEntity
  8
0
 62
     0
100
AcDbLine
 10
158.5320648469213
 20
394.4254380409588
 30
0.0
 11
157.1084829457777
 21
395.8490199421024
 31
0.0
  0
LINE
  5
9E
330
26
100
AcDbEntity
  8
0
 62
     0
100
AcDbLine
 10
158.5318613621071
 20
394.2842201695357
 30
0.0
 11
157.0451109895745
 21
395.7709705420683
 31
0.0
  0
LINE
  5
9F
330
26
100
AcDbEntity
  8
0
 62
     0
100
AcDbLine
 10
158.531657877293
 20
394.1430022981125
 30
0.0
 11
156.9829657636251
 21
395.6916944117804
 31
0.0
  0
LINE
  5
A0
330
26
100
AcDbEntity
  8
0
 62
     0
100
AcDbLine
 10
158.5314543924788
 20
394.0017844266894
 30
0.0
 11
156.9220549388146
 21
395.6111838803536
 31
0.0
  0
LINE
  5
A1
330
26
100
AcDbEntity
  8
0
 62
     0
100
AcDbLine
 10
158.5312509076646
 20
393.8605665552663
 30
0.0
 11
156.8623873701842
 21
395.5294300927467
 31
0.0
  0
LINE
  5
A2
330
26
100
AcDbEntity
  8
0
 62
     0
100
AcDbLine
 10
158.5310474228504
 20
393.7193486838431
 30
0.0
 11
156.8039731379915
 21
395.4464229687021
 31
0.0
  0
LINE
  5
A3
330
26
100
AcDbEntity
  8
0
 62
     0
100
AcDbLine
 10
158.5308439380363
 20
393.57813081242
 30
0.0
 11
156.7468235952359
 21
395.3621511552204
 31
0.0
  0
LINE
  5
A4
330
26
100
AcDbEntity
  8
0
 62
     0
100
AcDbLine
 10
158.5306404532221
 20
393.4369129409968
 30
0.0
 11
156.6909514221873
 21
395.2766019720316
 31
0.0
  0
LINE
  5
A5
330
26
100
AcDbEntity
  8
0
 62
     0
100
AcDbLine
 10
158.5304369684079
 20
393.2956950695738
 30
0.0
 11
156.6363706885544
 21
395.1897613494273
 31
0.0
  0
LINE
  5
A6
330
26
100
AcDbEntity
  8
0
 62
     0
100
AcDbLine
 10
158.5302334835938
 20
393.1544771981506
 30
0.0
 11
156.5830969240336
 21
395.1016137577108
 31
0.0
  0
LINE
  5
A7
330
26
100
AcDbEntity
  8
0
 62
     0
100
AcDbLine
 10
158.5300299987796
 20
393.0132593267274
 30
0.0
 11
156.5311471981097
 21
395.0121421273974
 31
0.0
  0
LINE
  5
A8
330
26
100
AcDbEntity
  8
0
 62
     0
100
AcDbLine
 10
158.5298265139654
 20
392.8720414553043
 30
0.0
 11
156.4805402101208
 21
394.921327759149
 31
0.0
  0
LINE
  5
A9
330
26
100
AcDbEntity
  8
0
 62
     0
100
AcDbLine
 10
158.5296230291513
 20
392.7308235838811
 30
0.0
 11
156.4312963907726
 21
394.8291502222598
 31
0.0
  0
LINE
  5
AA
330
26
100
AcDbEntity
  8
0
 62
     0
100
AcDbLine
 10
158.5294195443371
 20
392.589605712458
 30
0.0
 11
156.3834380164862
 21
394.735587240309
 31
0.0
  0
LINE
  5
AB
330
26
100
AcDbEntity
  8
0
 62
     0
100
AcDbLine
 10
158.529216059523
 20
392.4483878410348
 30
0.0
 11
156.3369893381974
 21
394.6406145623604
 31
0.0
  0
LINE
  5
AC
330
26
100
AcDbEntity
  8
0
 62
     0
100
AcDbLine
 10
158.5290125747088
 20
392.3071699696117
 30
0.0
 11
156.29197672651
 21
394.5442058178104
 31
0.0
  0
LINE
  5
AD
330
26
100
AcDbEntity
  8
0
 62
     0
100
AcDbLine
 10
158.5288090898946
 20
392.1659520981886
 30
0.0
 11
156.2484288354318
 21
394.4463323526514
 31
0.0
  0
LINE
  5
AE
330
26
100
AcDbEntity
  8
0
 62
     0
100
AcDbLine
 10
158.5287468959337
 20
392.0245929359122
 30
0.0
 11
156.2063767873294
 21
394.3469630445165
 31
0.0
  0
LINE
  5
AF
330
26
100
AcDbEntity
  8
0
 62
     0
100
AcDbLine
 10
158.5287468959337
 20
391.8831715796749
 30
0.0
 11
156.1658543822161
 21
394.2460640933925
 31
0.0
  0
LINE
  5
B0
330
26
100
AcDbEntity
  8
0
 62
     0
100
AcDbLine
 10
158.5287468959337
 20
391.7417502234375
 30
0.0
 11
156.1268983350731
 21
394.1435987842981
 31
0.0
  0
LINE
  5
B1
330
26
100
AcDbEntity
  8
0
 62
     0
100
AcDbLine
 10
158.5287468959337
 20
391.6003288672002
 30
0.0
 11
156.0895485456164
 21
394.0395272175176
 31
0.0
  0
LINE
  5
B2
330
26
100
AcDbEntity
  8
0
 62
     0
100
AcDbLine
 10
158.5287468959337
 20
391.4589075109629
 30
0.0
 11
156.0538484057964
 21
393.9338060011003
 31
0.0
  0
LINE
  5
B3
330
26
100
AcDbEntity
  8
0
 62
     0
100
AcDbLine
 10
158.5287468959337
 20
391.3174861547256
 30
0.0
 11
156.0198451513937
 21
393.8263878992657
 31
0.0
  0
LINE
  5
B4
330
26
100
AcDbEntity
  8
0
 62
     0
100
AcDbLine
 10
158.5287468959337
 20
391.1760647984883
 30
0.0
 11
155.9875902654121
 21
393.71722142901
 31
0.0
  0
LINE
  5
B5
330
26
100
AcDbEntity
  8
0
 62
     0
100
AcDbLine
 10
158.5287468959337
 20
391.034643442251
 30
0.0
 11
155.9571399426399
 21
393.6062503955448
 31
0.0
  0
LINE
  5
B6
330
26
100
AcDbEntity
  8
0
 62
     0
100
AcDbLine
 10
158.5287468959337
 20
390.8932220860137
 30
0.0
 11
155.9285556268529
 21
393.4934133550945
 31
0.0
  0
LINE
  5
B7
330
26
100
AcDbEntity
  8
0
 62
     0
100
AcDbLine
 10
158.5287468959337
 20
390.7518007297764
 30
0.0
 11
155.9019046347953
 21
393.3786429909148
 31
0.0
  0
LINE
  5
B8
330
26
100
AcDbEntity
  8
0
 62
     0
100
AcDbLine
 10
158.5287468959337
 20
390.6103793735391
 30
0.0
 11
155.8772608844782
 21
393.2618653849945
 31
0.0
  0
LINE
  5
B9
330
26
100
AcDbEntity
  8
0
 62
     0
100
AcDbLine
 10
158.5287468959337
 20
390.4689580173018
 30
0.0
 11
155.8547057497201
 21
393.1429991635154
 31
0.0
  0
LINE
  5
BA
330
26
100
AcDbEntity
  8
0
 62
     0
100
AcDbLine
 10
158.5287468959337
 20
390.3275366610644
 30
0.0
 11
155.8343290685509
 21
393.0219544884473
 31
0.0
  0
LINE
  5
BB
330
26
100
AcDbEntity
  8
0
 62
     0
100
AcDbLine
 10
158.5287468959337
 20
390.1861153048271
 30
0.0
 11
155.8162303405862
 21
392.8986318601746
 31
0.0
  0
LINE
  5
BC
330
26
100
AcDbEntity
  8
0
 62
     0
100
AcDbLine
 10
158.5287468959337
 20
390.0446939485899
 30
0.0
 11
155.8005201583991
 21
392.7729206861244
 31
0.0
  0
LINE
  5
BD
330
26
100
AcDbEntity
  8
0
 62
     0
100
AcDbLine
 10
158.5287468959337
 20
389.9032725923525
 30
0.0
 11
155.7873219312285
 21
392.6446975570577
 31
0.0
  0
LINE
  5
BE
330
26
100
AcDbEntity
  8
0
 62
     0
100
AcDbLine
 10
158.5287468959337
 20
389.7618512361152
 30
0.0
 11
155.7767739774386
 21
392.5138241546104
 31
0.0
  0
LINE
  5
BF
330
26
100
AcDbEntity
  8
0
 62
     0
100
AcDbLine
 10
158.5287468959337
 20
389.6204298798778
 30
0.0
 11
155.7690320870102
 21
392.3801446888014
 31
0.0
  0
LINE
  5
C0
330
26
100
AcDbEntity
  8
0
 62
     0
100
AcDbLine
 10
158.5287468959337
 20
389.4790085236405
 30
0.0
 11
155.7642726900606
 21
392.2434827295137
 31
0.0
  0
LINE
  5
C1
330
26
100
AcDbEntity
  8
0
 62
     0
100
AcDbLine
 10
158.5287468959337
 20
389.3375871674033
 30
0.0
 11
155.762696816614
 21
392.1036372467231
 31
0.0
  0
LINE
  5
C2
330
26
100
AcDbEntity
  8
0
 62
     0
100
AcDbLine
 10
158.5287468959337
 20
389.1961658111659
 30
0.0
 11
155.7645351038862
 21
391.9603776032135
 31
0.0
  0
LINE
  5
C3
330
26
100
AcDbEntity
  8
0
 62
     0
100
AcDbLine
 10
158.5287468959337
 20
389.0547444549286
 30
0.0
 11
155.770054211848
 21
391.8134371390144
 31
0.0
  0
LINE
  5
C4
330
26
100
AcDbEntity
  8
0
 62
     0
100
AcDbLine
 10
158.5287468959337
 20
388.9133230986914
 30
0.0
 11
155.7795651648891
 21
391.662504829736
 31
0.0
  0
LINE
  5
C5
330
26
100
AcDbEntity
  8
0
 62
     0
100
AcDbLine
 10
158.5287468959337
 20
388.771901742454
 30
0.0
 11
155.7934343791724
 21
391.5072142592153
 31
0.0
  0
LINE
  5
C6
330
26
100
AcDbEntity
  8
0
 62
     0
100
AcDbLine
 10
158.5287468959337
 20
388.6304803862167
 30
0.0
 11
155.8120985176275
 21
391.347128764523
 31
0.0
  0
LINE
  5
C7
330
26
100
AcDbEntity
  8
0
 62
     0
100
AcDbLine
 10
158.5287468959337
 20
388.4890590299794
 30
0.0
 11
155.8360849380879
 21
391.1817209878252
 31
0.0
  0
LINE
  5
C8
330
26
100
AcDbEntity
  8
0
 62
     0
100
AcDbLine
 10
158.5287468959337
 20
388.3476376737421
 30
0.0
 11
155.8660405534716
 21
391.0103440162042
 31
0.0
  0
LINE
  5
C9
330
26
100
AcDbEntity
  8
0
 62
     0
100
AcDbLine
 10
158.5287468959337
 20
388.2062163175048
 30
0.0
 11
155.9027737766468
 21
390.8321894367917
 31
0.0
  0
LINE
  5
CA
330
26
100
AcDbEntity
  8
0
 62
     0
100
AcDbLine
 10
158.5287468959337
 20
388.0647949612675
 30
0.0
 11
155.9473176453936
 21
390.6462242118075
 31
0.0
  0
LINE
  5
CB
330
26
100
AcDbEntity
  8
0
 62
     0
100
AcDbLine
 10
158.5287468959337
 20
387.9233736050302
 30
0.0
 11
156.0010289158361
 21
390.4510915851279
 31
0.0
  0
LINE
  5
CC
330
26
100
AcDbEntity
  8
0
 62
     0
100
AcDbLine
 10
158.5287468959337
 20
387.7819522487929
 30
0.0
 11
156.0657519474053
 21
390.2449471973213
 31
0.0
  0
LINE
  5
CD
330
26
100
AcDbEntity
  8
0
 62
     0
100
AcDbLine
 10
158.5287468959337
 20
387.6405308925556
 30
0.0
 11
156.1441083155088
 21
390.0251694729805
 31
0.0
  0
LINE
  5
CE
330
26
100
AcDbEntity
  8
0
 62
     0
100
AcDbLine
 10
158.5287468959337
 20
387.4991095363183
 30
0.0
 11
156.2400553333566
 21
389.7878010988953
 31
0.0
  0
LINE
  5
CF
330
26
100
AcDbEntity
  8
0
 62
     0
100
AcDbLine
 10
158.5287468959337
 20
387.3576881800809
 30
0.0
 11
156.3601020609488
 21
389.5263330150659
 31
0.0
  0
LINE
  5
D0
330
26
100
AcDbEntity
  8
0
 62
     0
100
AcDbLine
 10
158.5287468959337
 20
387.2162668238436
 30
0.0
 11
156.5164865887094
 21
389.2285271310679
 31
0.0
  0
LINE
  5
D1
330
26
100
AcDbEntity
  8
0
 62
     0
100
AcDbLine
 10
158.3946074012711
 20
387.208984962269
 30
0.0
 11
156.7385864446917
 21
388.8650059188483
 31
0.0
  0
LINE
  5
D2
330
26
100
AcDbEntity
  8
0
 62
     0
100
AcDbLine
 10
157.8198661246376
 20
387.6423048826652
 30
0.0
 11
157.1719063650879
 21
388.2902646422148
 31
0.0
  0
LINE
  5
D3
330
26
100
AcDbEntity
  8
0
 62
     0
100
AcDbLine
 10
377.6626213112378
 20
387.144073220132
 30
0.0
 11
377.6287468959337
 21
387.177947635436
 31
0.0
  0
LINE
  5
D4
330
26
100
AcDbEntity
  8
0
 62
     0
100
AcDbLine
 10
377.7485743902017
 20
387.1995414974055
 30
0.0
 11
377.6287468959337
 21
387.3193689916734
 31
0.0
  0
LINE
  5
D5
330
26
100
AcDbEntity
  8
0
 62
     0
100
AcDbLine
 10
377.8332458347279
 20
387.2562914091166
 30
0.0
 11
377.6287468959337
 21
387.4607903479108
 31
0.0
  0
LINE
  5
D6
330
26
100
AcDbEntity
  8
0
 62
     0
100
AcDbLine
 10
377.916648754259
 20
387.3143098458226
 30
0.0
 11
377.6287468959337
 21
387.6022117041479
 31
0.0
  0
LINE
  5
D7
330
26
100
AcDbEntity
  8
0
 62
     0
100
AcDbLine
 10
377.9987949123039
 20
387.3735850440152
 30
0.0
 11
377.6287468959337
 21
387.7436330603853
 31
0.0
  0
LINE
  5
D8
330
26
100
AcDbEntity
  8
0
 62
     0
100
AcDbLine
 10
378.0796947832905
 20
387.4341065292658
 30
0.0
 11
377.6287468959337
 21
387.8850544166226
 31
0.0
  0
LINE
  5
D9
330
26
100
AcDbEntity
  8
0
 62
     0
100
AcDbLine
 10
378.1593576022292
 20
387.4958650665645
 30
0.0
 11
377.6287468959337
 21
388.02647577286
 31
0.0
  0
LINE
  5
DA
330
26
100
AcDbEntity
  8
0
 62
     0
100
AcDbLine
 10
378.237791407749
 20
387.558852617282
 30
0.0
 11
377.6287468959337
 21
388.1678971290973
 31
0.0
  0
LINE
  5
DB
330
26
100
AcDbEntity
  8
0
 62
     0
100
AcDbLine
 10
378.315003078992
 20
387.6230623022762
 30
0.0
 11
377.6287468959337
 21
388.3093184853345
 31
0.0
  0
LINE
  5
DC
330
26
100
AcDbEntity
  8
0
 62
     0
100
AcDbLine
 10
378.3909983667672
 20
387.6884883707384
 30
0.0
 11
377.6287468959337
 21
388.4507398415718
 31
0.0
  0
LINE
  5
DD
330
26
100
AcDbEntity
  8
0
 62
     0
100
AcDbLine
 10
378.4657819192991
 20
387.7551261744438
 30
0.0
 11
377.6287468959337
 21
388.5921611978091
 31
0.0
  0
LINE
  5
DE
330
26
100
AcDbEntity
  8
0
 62
     0
100
AcDbLine
 10
378.5393573028446
 20
387.8229721471357
 30
0.0
 11
377.6287468959337
 21
388.7335825540465
 31
0.0
  0
LINE
  5
DF
330
26
100
AcDbEntity
  8
0
 62
     0
100
AcDbLine
 10
378.6117270173915
 20
387.8920237888261
 30
0.0
 11
377.6287468959337
 21
388.8750039102839
 31
0.0
  0
LINE
  5
E0
330
26
100
AcDbEntity
  8
0
 62
     0
100
AcDbLine
 10
378.6828925076034
 20
387.9622796548513
 30
0.0
 11
377.6287468959337
 21
389.016425266521
 31
0.0
  0
LINE
  5
E1
330
26
100
AcDbEntity
  8
0
 62
     0
100
AcDbLine
 10
378.7528541691206
 20
388.0337393495715
 30
0.0
 11
377.6287468959337
 21
389.1578466227583
 31
0.0
  0
LINE
  5
E2
330
26
100
AcDbEntity
  8
0
 62
     0
100
AcDbLine
 10
378.8216113502824
 20
388.106403524647
 30
0.0
 11
377.6287468959337
 21
389.2992679789957
 31
0.0
  0
LINE
  5
E3
330
26
100
AcDbEntity
  8
0
 62
     0
100
AcDbLine
 10
378.8891623492898
 20
388.1802738818771
 30
0.0
 11
377.6287468959337
 21
389.4406893352331
 31
0.0
  0
LINE
  5
E4
330
26
100
AcDbEntity
  8
0
 62
     0
100
AcDbLine
 10
378.9555044067764
 20
388.2553531806276
 30
0.0
 11
377.6287468959337
 21
389.5821106914704
 31
0.0
  0
LINE
  5
E5
330
26
100
AcDbEntity
  8
0
 62
     0
100
AcDbLine
 10
379.0206336937155
 20
388.3316452499258
 30
0.0
 11
377.6287468959337
 21
389.7235320477076
 31
0.0
  0
LINE
  5
E6
330
26
100
AcDbEntity
  8
0
 62
     0
100
AcDbLine
 10
379.0845452945354
 20
388.4091550053432
 30
0.0
 11
377.6287468959337
 21
389.8649534039449
 31
0.0
  0
LINE
  5
E7
330
26
100
AcDbEntity
  8
0
 62
     0
100
AcDbLine
 10
379.1472331852713
 20
388.4878884708447
 30
0.0
 11
377.6287468959337
 21
390.0063747601823
 31
0.0
  0
LINE
  5
E8
330
26
100
AcDbEntity
  8
0
 62
     0
100
AcDbLine
 10
379.2086902065226
 20
388.5678528058307
 30
0.0
 11
377.6287468959337
 21
390.1477961164196
 31
0.0
  0
LINE
  5
E9
330
26
100
AcDbEntity
  8
0
 62
     0
100
AcDbLine
 10
379.2689080309299
 20
388.6490563376608
 30
0.0
 11
377.6287468959337
 21
390.289217472657
 31
0.0
  0
LINE
  5
EA
330
26
100
AcDbEntity
  8
0
 62
     0
100
AcDbLine
 10
379.32787712482
 20
388.7315086000079
 30
0.0
 11
377.6287468959337
 21
390.4306388288942
 31
0.0
  0
LINE
  5
EB
330
26
100
AcDbEntity
  8
0
 62
     0
100
AcDbLine
 10
379.3855867035972
 20
388.815220377468
 30
0.0
 11
377.6287468959337
 21
390.5720601851315
 31
0.0
  0
LINE
  5
EC
330
26
100
AcDbEntity
  8
0
 62
     0
100
AcDbLine
 10
379.4420246803801
 20
388.9002037569224
 30
0.0
 11
377.6287468959337
 21
390.7134815413688
 31
0.0
  0
LINE
  5
ED
330
26
100
AcDbEntity
  8
0
 62
     0
100
AcDbLine
 10
379.4971776072917
 20
388.9864721862482
 30
0.0
 11
377.6287468959337
 21
390.8549028976062
 31
0.0
  0
LINE
  5
EE
330
26
100
AcDbEntity
  8
0
 62
     0
100
AcDbLine
 10
379.5510306087114
 20
389.0740405410658
 30
0.0
 11
377.6287468959337
 21
390.9963242538435
 31
0.0
  0
LINE
  5
EF
330
26
100
AcDbEntity
  8
0
 62
     0
100
AcDbLine
 10
379.6035673056762
 20
389.1629252003383
 30
0.0
 11
377.6287468959337
 21
391.1377456100807
 31
0.0
  0
LINE
  5
F0
330
26
100
AcDbEntity
  8
0
 62
     0
100
AcDbLine
 10
379.6547697304845
 20
389.2531441317672
 30
0.0
 11
377.6287468959337
 21
391.279166966318
 31
0.0
  0
LINE
  5
F1
330
26
100
AcDbEntity
  8
0
 62
     0
100
AcDbLine
 10
379.7046182303965
 20
389.3447169880926
 30
0.0
 11
377.6287468959337
 21
391.4205883225554
 31
0.0
  0
LINE
  5
F2
330
26
100
AcDbEntity
  8
0
 62
     0
100
AcDbLine
 10
379.7530913591388
 20
389.4376652155876
 30
0.0
 11
377.6287468959337
 21
391.5620096787927
 31
0.0
  0
LINE
  5
F3
330
26
100
AcDbEntity
  8
0
 62
     0
100
AcDbLine
 10
379.8001657547044
 20
389.5320121762594
 30
0.0
 11
377.6287468959337
 21
391.7034310350301
 31
0.0
  0
LINE
  5
F4
330
26
100
AcDbEntity
  8
0
 62
     0
100
AcDbLine
 10
379.8458160016763
 20
389.6277832855247
 30
0.0
 11
377.6287468959337
 21
391.8448523912672
 31
0.0
  0
LINE
  5
F5
330
26
100
AcDbEntity
  8
0
 62
     0
100
AcDbLine
 10
379.8900144759979
 20
389.7250061674404
 30
0.0
 11
377.6287468959337
 21
391.9862737475046
 31
0.0
  0
LINE
  5
F6
330
26
100
AcDbEntity
  8
0
 62
     0
100
AcDbLine
 10
379.9327311697429
 20
389.8237108299328
 30
0.0
 11
377.5787468959337
 21
392.1776951037419
 31
0.0
  0
LINE
  5
F7
330
26
100
AcDbEntity
  8
0
 62
     0
100
AcDbLine
 10
379.9739334929926
 20
389.9239298629204
 30
0.0
 11
377.5787468959337
 21
392.3191164599792
 31
0.0
  0
LINE
  5
F8
330
26
100
AcDbEntity
  8
0
 62
     0
100
AcDbLine
 10
380.0135860493952
 20
390.0256986627551
 30
0.0
 11
377.5787468959337
 21
392.4605378162166
 31
0.0
  0
LINE
  5
F9
330
26
100
AcDbEntity
  8
0
 62
     0
100
AcDbLine
 10
380.0516503813236
 20
390.1290556870639
 30
0.0
 11
377.5787468959337
 21
392.6019591724538
 31
0.0
  0
LINE
  5
FA
330
26
100
AcDbEntity
  8
0
 62
     0
100
AcDbLine
 10
380.0880846797566
 20
390.2340427448682
 30
0.0
 11
377.5787468959337
 21
392.7433805286911
 31
0.0
  0
LINE
  5
FB
330
26
100
AcDbEntity
  8
0
 62
     0
100
AcDbLine
 10
380.1228434530214
 20
390.3407053278407
 30
0.0
 11
377.5787468959337
 21
392.8848018849284
 31
0.0
  0
LINE
  5
FC
330
26
100
AcDbEntity
  8
0
 62
     0
100
AcDbLine
 10
380.1558771473251
 20
390.4490929897745
 30
0.0
 11
377.5787468959337
 21
393.0262232411658
 31
0.0
  0
LINE
  5
FD
330
26
100
AcDbEntity
  8
0
 62
     0
100
AcDbLine
 10
380.1871317104865
 20
390.5592597828504
 30
0.0
 11
377.5787468959337
 21
393.1676445974031
 31
0.0
  0
LINE
  5
FE
330
26
100
AcDbEntity
  8
0
 62
     0
100
AcDbLine
 10
380.2165480883869
 20
390.6712647611872
 30
0.0
 11
377.5787468959337
 21
393.3090659536403
 31
0.0
  0
LINE
  5
FF
330
26
100
AcDbEntity
  8
0
 62
     0
100
AcDbLine
 10
380.2440616412556
 20
390.7851725645557
 30
0.0
 11
377.5787468959337
 21
393.4504873098776
 31
0.0
  0
LINE
  5
100
330
26
100
AcDbEntity
  8
0
 62
     0
100
AcDbLine
 10
380.2696014638607
 20
390.9010540981881
 30
0.0
 11
377.5787468959337
 21
393.591908666115
 31
0.0
  0
LINE
  5
101
330
26
100
AcDbEntity
  8
0
 62
     0
100
AcDbLine
 10
380.2930895897569
 20
391.0189873285292
 30
0.0
 11
377.5787468959337
 21
393.7333300223524
 31
0.0
  0
LINE
  5
102
330
26
100
AcDbEntity
  8
0
 62
     0
100
AcDbLine
 10
380.3144400546729
 20
391.1390582198505
 30
0.0
 11
377.5787468959337
 21
393.8747513785897
 31
0.0
  0
LINE
  5
103
330
26
100
AcDbEntity
  8
0
 62
     0
100
AcDbLine
 10
380.3335577874942
 20
391.2613618432663
 30
0.0
 11
377.5787468959337
 21
394.0161727348268
 31
0.0
  0
LINE
  5
104
330
26
100
AcDbEntity
  8
0
 62
     0
100
AcDbLine
 10
380.3503372885491
 20
391.3860036984488
 30
0.0
 11
377.5787468959337
 21
394.1575940910642
 31
0.0
  0
LINE
  5
105
330
26
100
AcDbEntity
  8
0
 62
     0
100
AcDbLine
 10
380.3646610432321
 20
391.5131013000031
 30
0.0
 11
377.5787468959337
 21
394.2990154473016
 31
0.0
  0
LINE
  5
106
330
26
100
AcDbEntity
  8
0
 62
     0
100
AcDbLine
 10
380.3763976032317
 20
391.6427860962409
 30
0.0
 11
377.5787468959337
 21
394.4404368035389
 31
0.0
  0
LINE
  5
107
330
26
100
AcDbEntity
  8
0
 62
     0
100
AcDbLine
 10
380.3853992460678
 20
391.7752058096422
 30
0.0
 11
377.5787468959337
 21
394.5818581597762
 31
0.0
  0
LINE
  5
108
330
26
100
AcDbEntity
  8
0
 62
     0
100
AcDbLine
 10
380.3914990937411
 20
391.9105273182061
 30
0.0
 11
377.5787468959337
 21
394.7232795160134
 31
0.0
  0
LINE
  5
109
330
26
100
AcDbEntity
  8
0
 62
     0
100
AcDbLine
 10
380.3945075291931
 20
392.0489402389915
 30
0.0
 11
377.5787468959337
 21
394.8647008722507
 31
0.0
  0
LINE
  5
10A
330
26
100
AcDbEntity
  8
0
 62
     0
100
AcDbLine
 10
380.3942076889955
 20
392.1906614354264
 30
0.0
 11
377.5787468959337
 21
395.0061222284881
 31
0.0
  0
LINE
  5
10B
330
26
100
AcDbEntity
  8
0
 62
     0
100
AcDbLine
 10
380.3903497227852
 20
392.3359407578739
 30
0.0
 11
377.5787468959337
 21
395.1475435847255
 31
0.0
  0
LINE
  5
10C
330
26
100
AcDbEntity
  8
0
 62
     0
100
AcDbLine
 10
380.3826433791328
 20
392.4850684577638
 30
0.0
 11
377.5787468959337
 21
395.2889649409628
 31
0.0
  0
LINE
  5
10D
330
26
100
AcDbEntity
  8
0
 62
     0
100
AcDbLine
 10
380.3707482783263
 20
392.6383849148074
 30
0.0
 11
377.5787468959337
 21
395.4303862971999
 31
0.0
  0
LINE
  5
10E
330
26
100
AcDbEntity
  8
0
 62
     0
100
AcDbLine
 10
380.3542609213804
 20
392.7962936279906
 30
0.0
 11
377.5787468959337
 21
395.5718076534373
 31
0.0
  0
LINE
  5
10F
330
26
100
AcDbEntity
  8
0
 62
     0
100
AcDbLine
 10
380.332696984188
 20
392.9592789214203
 30
0.0
 11
377.5787468959337
 21
395.7132290096747
 31
0.0
  0
LINE
  5
110
330
26
100
AcDbEntity
  8
0
 62
     0
100
AcDbLine
 10
380.3054666139896
 20
393.1279306478561
 30
0.0
 11
377.5787468959337
 21
395.854650365912
 31
0.0
  0
LINE
  5
111
330
26
100
AcDbEntity
  8
0
 62
     0
100
AcDbLine
 10
380.2718390089497
 20
393.3029796091333
 30
0.0
 11
377.5787468959337
 21
395.9960717221493
 31
0.0
  0
LINE
  5
112
330
26
100
AcDbEntity
  8
0
 62
     0
100
AcDbLine
 10
380.2308899677612
 20
393.4853500065591
 30
0.0
 11
377.5787468959337
 21
396.1374930783865
 31
0.0
  0
LINE
  5
113
330
26
100
AcDbEntity
  8
0
 62
     0
100
AcDbLine
 10
380.181421157528
 20
393.6762401730296
 30
0.0
 11
377.5787468959337
 21
396.2789144346239
 31
0.0
  0
LINE
  5
114
330
26
100
AcDbEntity
  8
0
 62
     0
100
AcDbLine
 10
380.1218298248796
 20
393.8772528619153
 30
0.0
 11
377.5787468959337
 21
396.4203357908612
 31
0.0
  0
LINE
  5
115
330
26
100
AcDbEntity
  8
0
 62
     0
100
AcDbLine
 10
380.0498856642006
 20
394.0906183788317
 30
0.0
 11
377.5787468959337
 21
396.5617571470986
 31
0.0
  0
LINE
  5
116
330
26
100
AcDbEntity
  8
0
 62
     0
100
AcDbLine
 10
379.962318128006
 20
394.3196072712636
 30
0.0
 11
377.5787468959337
 21
396.7031785033359
 31
0.0
  0
LINE
  5
117
330
26
100
AcDbEntity
  8
0
 62
     0
100
AcDbLine
 10
379.8539693854642
 20
394.5693773700426
 30
0.0
 11
377.5787468959337
 21
396.8445998595731
 31
0.0
  0
LINE
  5
118
330
26
100
AcDbEntity
  8
0
 62
     0
100
AcDbLine
 10
379.7157736033244
 20
394.8489945084198
 30
0.0
 11
377.5787468959337
 21
396.9860212158104
 31
0.0
  0
LINE
  5
119
330
26
100
AcDbEntity
  8
0
 62
     0
100
AcDbLine
 10
379.5286141535529
 20
395.1775753144286
 30
0.0
 11
377.5907205659751
 21
397.1154689020065
 31
0.0
  0
LINE
  5
11A
330
26
100
AcDbEntity
  8
0
 62
     0
100
AcDbLine
 10
379.2325707139171
 20
395.6150401103017
 30
0.0
 11
378.0281853618482
 21
396.8194254623707
 31
0.0
  0
ENDBLK
  5
11B
330
26
100
AcDbEntity
  8
0
100
AcDbBlockEnd
  0
BLOCK
  5
3BA
330
3B0
100
AcDbEntity
  8
0
100
AcDbBlockBegin
  2
*D4
 70
     1
 10
0.0
 20
0.0
 30
0.0
  3
*D4
  1

  0
LINE
  5
4FA
330
3B0
100
AcDbEntity
  8
BEM
 62
     0
370
    -2
100
AcDbLine
 10
387.4929717963702
 20
541.2021883014854
 30
0.0
 11
466.5441144441075
 21
541.2021883014854
 31
0.0
  0
LINE
  5
4FB
330
3B0
100
AcDbEntity
  8
BEM
 62
     0
370
    -2
100
AcDbLine
 10
404.0787468959337
 20
316.2021883014854
 30
0.0
 11
466.5441144441074
 21
316.2021883014854
 31
0.0
  0
LINE
  5
4FC
330
3B0
100
AcDbEntity
  8
BEM
 62
     0
370
    -2
100
AcDbLine
 10
464.5441144441075
 20
534.2021883014854
 30
0.0
 11
464.5441144441075
 21
323.2021883014854
 31
0.0
  0
SOLID
  5
4FD
330
3B0
100
AcDbEntity
  8
BEM
 62
     0
100
AcDbTrace
 10
463.3774477774408
 20
534.2021883014854
 30
0.0
 11
465.7107811107742
 21
534.2021883014854
 31
0.0
 12
464.5441144441075
 22
541.2021883014854
 32
0.0
 13
464.5441144441075
 23
541.2021883014854
 33
0.0
  0
SOLID
  5
4FE
330
3B0
100
AcDbEntity
  8
BEM
 62
     0
100
AcDbTrace
 10
463.3774477774408
 20
323.2021883014854
 30
0.0
 11
465.7107811107741
 21
323.2021883014854
 31
0.0
 12
464.5441144441075
 22
316.2021883014854
 32
0.0
 13
464.5441144441075
 23
316.2021883014854
 33
0.0
  0
MTEXT
  5
4FF
330
3B0
100
AcDbEntity
  8
BEM
 62
     1
100
AcDbMText
 10
458.0441144441074
 20
428.7021883014855
 30
0.0
 40
7.0
 41
0.0
 71
     5
 72
     1
  1
\A1;225
 11
0.0000000000000001
 21
1.0
 31
0.0
 73
     1
 44
1.0
  0
POINT
  5
500
330
3B0
100
AcDbEntity
  8
DEFPOINTS
 62
     0
100
AcDbPoint
 10
385.4929717963702
 20
541.2021883014854
 30
0.0
  0
POINT
  5
501
330
3B0
100
AcDbEntity
  8
DEFPOINTS
 62
     0
100
AcDbPoint
 10
402.0787468959337
 20
316.2021883014854
 30
0.0
  0
POINT
  5
502
330
3B0
100
AcDbEntity
  8
DEFPOINTS
 62
     0
100
AcDbPoint
 10
464.5441144441075
 20
316.2021883014854
 30
0.0
  0
ENDBLK
  5
3BB
330
3B0
100
AcDbEntity
  8
0
100
AcDbBlockEnd
  0
BLOCK
  5
3F8
330
3EE
100
AcDbEntity
  8
0
100
AcDbBlockBegin
  2
*D6
 70
     1
 10
0.0
 20
0.0
 30
0.0
  3
*D6
  1

  0
LINE
  5
3EF
330
3EE
100
AcDbEntity
  8
BEM
 62
     0
370
    -2
100
AcDbLine
 10
158.5787468959337
 20
414.902043423648
 30
0.0
 11
158.5787468959337
 21
553.0488041827651
 31
0.0
  0
LINE
  5
3F0
330
3EE
100
AcDbEntity
  8
BEM
 62
     0
370
    -2
100
AcDbLine
 10
377.5787468959337
 20
414.902043423649
 30
0.0
 11
377.5787468959337
 21
553.0488041827651
 31
0.0
  0
LINE
  5
3F1
330
3EE
100
AcDbEntity
  8
BEM
 62
     0
370
    -2
100
AcDbLine
 10
165.5787468959337
 20
551.0488041827651
 30
0.0
 11
370.5787468959337
 21
551.0488041827651
 31
0.0
  0
SOLID
  5
3F2
330
3EE
100
AcDbEntity
  8
BEM
 62
     0
100
AcDbTrace
 10
165.5787468959337
 20
552.2154708494317
 30
0.0
 11
165.5787468959337
 21
549.8821375160985
 31
0.0
 12
158.5787468959337
 22
551.0488041827651
 32
0.0
 13
158.5787468959337
 23
551.0488041827651
 33
0.0
  0
SOLID
  5
3F3
330
3EE
100
AcDbEntity
  8
BEM
 62
     0
100
AcDbTrace
 10
370.5787468959337
 20
552.2154708494317
 30
0.0
 11
370.5787468959337
 21
549.8821375160985
 31
0.0
 12
377.5787468959337
 22
551.0488041827651
 32
0.0
 13
377.5787468959337
 23
551.0488041827651
 33
0.0
  0
MTEXT
  5
3F4
330
3EE
100
AcDbEntity
  8
BEM
 62
     1
100
AcDbMText
 10
268.0787468959337
 20
557.5488041827651
 30
0.0
 40
7.0
 41
0.0
 71
     5
 72
     1
  1
\A1;%%c219
 73
     1
 44
1.0
  0
POINT
  5
3F5
330
3EE
100
AcDbEntity
  8
DEFPOINTS
 62
     0
100
AcDbPoint
 10
158.5787468959337
 20
412.902043423648
 30
0.0
  0
POINT
  5
3F6
330
3EE
100
AcDbEntity
  8
DEFPOINTS
 62
     0
100
AcDbPoint
 10
377.5787468959337
 20
412.902043423649
 30
0.0
  0
POINT
  5
3F7
330
3EE
100
AcDbEntity
  8
DEFPOINTS
 62
     0
100
AcDbPoint
 10
377.5787468959337
 20
551.0488041827651
 30
0.0
  0
ENDBLK
  5
3F9
330
3EE
100
AcDbEntity
  8
0
100
AcDbBlockEnd
  0
BLOCK
  5
404
330
3FA
100
AcDbEntity
  8
0
100
AcDbBlockBegin
  2
*D7
 70
     1
 10
0.0
 20
0.0
 30
0.0
  3
*D7
  1

  0
LINE
  5
4F1
330
3FA
100
AcDbEntity
  8
BEM
 62
     0
370
    -2
100
AcDbLine
 10
438.0787468959336
 20
317.2021883014854
 30
0.0
 11
438.0787468959336
 21
275.4222144238386
 31
0.0
  0
LINE
  5
4F2
330
3FA
100
AcDbEntity
  8
BEM
 62
     0
370
    -2
100
AcDbLine
 10
98.0787468959337
 20
317.2021883014854
 30
0.0
 11
98.0787468959337
 21
275.4222144238386
 31
0.0
  0
LINE
  5
4F3
330
3FA
100
AcDbEntity
  8
BEM
 62
     0
370
    -2
100
AcDbLine
 10
431.0787468959336
 20
277.4222144238386
 30
0.0
 11
105.0787468959337
 21
277.4222144238386
 31
0.0
  0
SOLID
  5
4F4
330
3FA
100
AcDbEntity
  8
BEM
 62
     0
100
AcDbTrace
 10
431.0787468959336
 20
278.5888810905053
 30
0.0
 11
431.0787468959336
 21
276.2555477571719
 31
0.0
 12
438.0787468959336
 22
277.4222144238386
 32
0.0
 13
438.0787468959336
 23
277.4222144238386
 33
0.0
  0
SOLID
  5
4F5
330
3FA
100
AcDbEntity
  8
BEM
 62
     0
100
AcDbTrace
 10
105.0787468959337
 20
278.5888810905053
 30
0.0
 11
105.0787468959337
 21
276.2555477571719
 31
0.0
 12
98.0787468959337
 22
277.4222144238386
 32
0.0
 13
98.0787468959337
 23
277.4222144238386
 33
0.0
  0
MTEXT
  5
4F6
330
3FA
100
AcDbEntity
  8
BEM
 62
     1
100
AcDbMText
 10
268.0787468959337
 20
283.9222144238386
 30
0.0
 40
7.0
 41
0.0
 71
     5
 72
     1
  1
\A1;%%C340
 73
     1
 44
1.0
  0
POINT
  5
4F7
330
3FA
100
AcDbEntity
  8
DEFPOINTS
 62
     0
100
AcDbPoint
 10
438.0787468959336
 20
319.2021883014854
 30
0.0
  0
POINT
  5
4F8
330
3FA
100
AcDbEntity
  8
DEFPOINTS
 62
     0
100
AcDbPoint
 10
98.0787468959337
 20
319.2021883014854
 30
0.0
  0
POINT
  5
4F9
330
3FA
100
AcDbEntity
  8
DEFPOINTS
 62
     0
100
AcDbPoint
 10
98.0787468959337
 20
277.4222144238386
 30
0.0
  0
ENDBLK
  5
405
330
3FA
100
AcDbEntity
  8
0
100
AcDbBlockEnd
  0
BLOCK
  5
4B1
330
4A7
100
AcDbEntity
  8
0
100
AcDbBlockBegin
  2
*D8
 70
     1
 10
0.0
 20
0.0
 30
0.0
  3
*D8
  1

  0
LINE
  5
4BE
330
4A7
100
AcDbEntity
  8
BEM
 62
     0
370
    -2
100
AcDbLine
 10
404.5787468959336
 20
342.2021883014854
 30
0.0
 11
404.5787468959336
 21
359.4768945605667
 31
0.0
  0
LINE
  5
4BF
330
4A7
100
AcDbEntity
  8
BEM
 62
     0
370
    -2
100
AcDbLine
 10
426.5787468959336
 20
342.2021883014854
 30
0.0
 11
426.5787468959336
 21
359.4768945605667
 31
0.0
  0
LINE
  5
4C0
330
4A7
100
AcDbEntity
  8
BEM
 62
     0
370
    -2
100
AcDbLine
 10
411.5787468959336
 20
357.4768945605667
 30
0.0
 11
419.5787468959336
 21
357.4768945605667
 31
0.0
  0
SOLID
  5
4C1
330
4A7
100
AcDbEntity
  8
BEM
 62
     0
100
AcDbTrace
 10
411.5787468959336
 20
358.6435612272334
 30
0.0
 11
411.5787468959336
 21
356.3102278939
 31
0.0
 12
404.5787468959336
 22
357.4768945605667
 32
0.0
 13
404.5787468959336
 23
357.4768945605667
 33
0.0
  0
SOLID
  5
4C2
330
4A7
100
AcDbEntity
  8
BEM
 62
     0
100
AcDbTrace
 10
419.5787468959336
 20
358.6435612272334
 30
0.0
 11
419.5787468959336
 21
356.3102278939
 31
0.0
 12
426.5787468959336
 22
357.4768945605667
 32
0.0
 13
426.5787468959336
 23
357.4768945605667
 33
0.0
  0
MTEXT
  5
4C3
330
4A7
100
AcDbEntity
  8
BEM
 62
     1
100
AcDbMText
 10
415.5787468959336
 20
363.9768945605667
 30
0.0
 40
7.0
 41
0.0
 71
     5
 72
     1
  1
\A1;%%c22
 73
     1
 44
1.0
  0
POINT
  5
4C4
330
4A7
100
AcDbEntity
  8
DEFPOINTS
 62
     0
100
AcDbPoint
 10
404.5787468959336
 20
340.2021883014854
 30
0.0
  0
POINT
  5
4C5
330
4A7
100
AcDbEntity
  8
DEFPOINTS
 62
     0
100
AcDbPoint
 10
426.5787468959336
 20
340.2021883014854
 30
0.0
  0
POINT
  5
4C6
330
4A7
100
AcDbEntity
  8
DEFPOINTS
 62
     0
100
AcDbPoint
 10
426.5787468959336
 20
357.4768945605667
 30
0.0
  0
ENDBLK
  5
4B2
330
4A7
100
AcDbEntity
  8
0
100
AcDbBlockEnd
  0
BLOCK
  5
4D2
330
4C8
100
AcDbEntity
  8
0
100
AcDbBlockBegin
  2
*D9
 70
     1
 10
0.0
 20
0.0
 30
0.0
  3
*D9
  1

  0
LINE
  5
4E8
330
4C8
100
AcDbEntity
  8
BEM
 62
     0
370
    -2
100
AcDbLine
 10
120.5787468959336
 20
312.2021883014854
 30
0.0
 11
120.5787468959336
 21
289.8360059565764
 31
0.0
  0
LINE
  5
4E9
330
4C8
100
AcDbEntity
  8
BEM
 62
     0
370
    -2
100
AcDbLine
 10
415.5787468959336
 20
312.2021883014854
 30
0.0
 11
415.5787468959336
 21
289.8360059565764
 31
0.0
  0
LINE
  5
4EA
330
4C8
100
AcDbEntity
  8
BEM
 62
     0
370
    -2
100
AcDbLine
 10
127.5787468959336
 20
291.8360059565764
 30
0.0
 11
408.5787468959336
 21
291.8360059565764
 31
0.0
  0
SOLID
  5
4EB
330
4C8
100
AcDbEntity
  8
BEM
 62
     0
100
AcDbTrace
 10
127.5787468959336
 20
293.0026726232431
 30
0.0
 11
127.5787468959336
 21
290.6693392899097
 31
0.0
 12
120.5787468959336
 22
291.8360059565764
 32
0.0
 13
120.5787468959336
 23
291.8360059565764
 33
0.0
  0
SOLID
  5
4EC
330
4C8
100
AcDbEntity
  8
BEM
 62
     0
100
AcDbTrace
 10
408.5787468959336
 20
293.0026726232431
 30
0.0
 11
408.5787468959336
 21
290.6693392899097
 31
0.0
 12
415.5787468959336
 22
291.8360059565764
 32
0.0
 13
415.5787468959336
 23
291.8360059565764
 33
0.0
  0
MTEXT
  5
4ED
330
4C8
100
AcDbEntity
  8
BEM
 62
     1
100
AcDbMText
 10
268.0787468959337
 20
298.3360059565764
 30
0.0
 40
7.0
 41
0.0
 71
     5
 72
     1
  1
\A1;%%c295
 73
     1
 44
1.0
  0
POINT
  5
4EE
330
4C8
100
AcDbEntity
  8
DEFPOINTS
 62
     0
100
AcDbPoint
 10
120.5787468959336
 20
314.2021883014854
 30
0.0
  0
POINT
  5
4EF
330
4C8
100
AcDbEntity
  8
DEFPOINTS
 62
     0
100
AcDbPoint
 10
415.5787468959336
 20
314.2021883014854
 30
0.0
  0
POINT
  5
4F0
330
4C8
100
AcDbEntity
  8
DEFPOINTS
 62
     0
100
AcDbPoint
 10
415.5787468959336
 20
291.8360059565764
 30
0.0
  0
ENDBLK
  5
4D3
330
4C8
100
AcDbEntity
  8
0
100
AcDbBlockEnd
  0
BLOCK
  5
519
330
50F
100
AcDbEntity
  8
0
100
AcDbBlockBegin
  2
*D10
 70
     1
 10
0.0
 20
0.0
 30
0.0
  3
*D10
  1

  0
LINE
  5
51C
330
50F
100
AcDbEntity
  8
BEM
 62
     0
370
    -2
100
AcDbLine
 10
404.0787468959337
 20
316.2021883014854
 30
0.0
 11
455.3969175989668
 21
316.2021883014854
 31
0.0
  0
LINE
  5
51D
330
50F
100
AcDbEntity
  8
BEM
 62
     0
370
    -2
100
AcDbLine
 10
440.0787468959337
 20
340.2021883014854
 30
0.0
 11
455.3969175989668
 21
340.2021883014854
 31
0.0
  0
LINE
  5
51E
330
50F
100
AcDbEntity
  8
BEM
 62
     0
370
    -2
100
AcDbLine
 10
453.3969175989668
 20
323.2021883014854
 30
0.0
 11
453.3969175989668
 21
333.2021883014854
 31
0.0
  0
SOLID
  5
51F
330
50F
100
AcDbEntity
  8
BEM
 62
     0
100
AcDbTrace
 10
452.2302509323002
 20
323.2021883014854
 30
0.0
 11
454.5635842656335
 21
323.2021883014854
 31
0.0
 12
453.3969175989668
 22
316.2021883014854
 32
0.0
 13
453.3969175989668
 23
316.2021883014854
 33
0.0
  0
SOLID
  5
520
330
50F
100
AcDbEntity
  8
BEM
 62
     0
100
AcDbTrace
 10
452.2302509323002
 20
333.2021883014854
 30
0.0
 11
454.5635842656335
 21
333.2021883014854
 31
0.0
 12
453.3969175989668
 22
340.2021883014854
 32
0.0
 13
453.3969175989668
 23
340.2021883014854
 33
0.0
  0
MTEXT
  5
521
330
50F
100
AcDbEntity
  8
BEM
 62
     1
100
AcDbMText
 10
446.8969175989668
 20
328.2021883014855
 30
0.0
 40
7.0
 41
0.0
 71
     5
 72
     1
  1
\A1;24
 11
0.0000000000000001
 21
1.0
 31
0.0
 73
     1
 44
1.0
  0
POINT
  5
522
330
50F
100
AcDbEntity
  8
DEFPOINTS
 62
     0
100
AcDbPoint
 10
402.0787468959337
 20
316.2021883014854
 30
0.0
  0
POINT
  5
523
330
50F
100
AcDbEntity
  8
DEFPOINTS
 62
     0
100
AcDbPoint
 10
438.0787468959336
 20
340.2021883014854
 30
0.0
  0
POINT
  5
524
330
50F
100
AcDbEntity
  8
DEFPOINTS
 62
     0
100
AcDbPoint
 10
453.3969175989668
 20
340.2021883014854
 30
0.0
  0
ENDBLK
  5
51A
330
50F
100
AcDbEntity
  8
0
100
AcDbBlockEnd
  0
ENDSEC
  0
SECTION
  2
ENTITIES
  0
TEXT
  5
1DD
330
20
100
AcDbEntity
  8
TEXT
 62
     1
100
AcDbText
 10
655.979117340995
 20
87.99412083985322
 30
0.0
 40
7.0
  1
Übergangsstück DN200
 41
0.7
  7
GREEKS
100
AcDbText
  0
LINE
  5
1DE
330
20
100
AcDbEntity
  8
STEMPEL
100
AcDbLine
 10
831.0
 20
111.0
 30
0.0
 11
471.0
 21
111.0
 31
0.0
  0
LINE
  5
1DF
330
20
100
AcDbEntity
  8
STEMPEL
100
AcDbLine
 10
471.0
 20
111.0
 30
0.0
 11
470.9999999999999
 21
11.0
 31
0.0
  0
LINE
  5
1E0
330
20
100
AcDbEntity
  8
STEMPEL
100
AcDbLine
 10
567.0
 20
110.9999999999999
 30
0.0
 11
566.9999999999998
 21
10.99999999999988
 31
0.0
  0
LINE
  5
1E1
330
20
100
AcDbEntity
  8
STEMPEL
100
AcDbLine
 10
650.9999999999998
 20
111.0
 30
0.0
 11
650.9999999999998
 21
11.0
 31
0.0
  0
LINE
  5
1E2
330
20
100
AcDbEntity
  8
STEMPEL
100
AcDbLine
 10
753.0
 20
110.9999999999997
 30
0.0
 11
753.0
 21
41.0
 31
0.0
  0
LINE
  5
1E3
330
20
100
AcDbEntity
  8
STEMPEL
100
AcDbLine
 10
566.9999999999998
 20
31.0
 30
0.0
 11
470.9999999999999
 21
31.0
 31
0.0
  0
LINE
  5
1E4
330
20
100
AcDbEntity
  8
STEMPEL
100
AcDbLine
 10
831.0
 20
41.0
 30
0.0
 11
566.9999999999998
 21
41.0
 31
0.0
  0
LINE
  5
1E5
330
20
100
AcDbEntity
  8
STEMPEL
100
AcDbLine
 10
831.0
 20
81.0
 30
0.0
 11
567.0
 21
81.0
 31
0.0
  0
LINE
  5
1E6
330
20
100
AcDbEntity
  8
VOLL
100
AcDbLine
 10
485.0
 20
111.0
 30
0.0
 11
484.9999999999998
 21
10.99999999999998
 31
0.0
  0
LINE
  5
1E7
330
20
100
AcDbEntity
  8
VOLL
100
AcDbLine
 10
525.0
 20
110.9999999999999
 30
0.0
 11
524.9999999999998
 21
10.99999999999994
 31
0.0
  0
LINE
  5
1E8
330
20
100
AcDbEntity
  8
VOLL
100
AcDbLine
 10
545.0
 20
110.9999999999999
 30
0.0
 11
544.9999999999997
 21
10.99999999999991
 31
0.0
  0
LINE
  5
1E9
330
20
100
AcDbEntity
  8
VOLL
100
AcDbLine
 10
585.0
 20
81.0
 30
0.0
 11
585.0
 21
41.0
 31
0.0
  0
LINE
  5
1EA
330
20
100
AcDbEntity
  8
VOLL
100
AcDbLine
 10
611.0
 20
110.9999999999998
 30
0.0
 11
610.9999999999997
 21
41.0
 31
0.0
  0
LINE
  5
1EB
330
20
100
AcDbEntity
  8
HILF
100
AcDbLine
 10
471.0
 20
101.0
 30
0.0
 11
567.0
 21
101.0
 31
0.0
  0
LINE
  5
1EC
330
20
100
AcDbEntity
  8
HILF
100
AcDbLine
 10
471.0
 20
91.0
 30
0.0
 11
567.0
 21
91.0
 31
0.0
  0
LINE
  5
1ED
330
20
100
AcDbEntity
  8
HILF
100
AcDbLine
 10
471.0
 20
81.0
 30
0.0
 11
567.0
 21
81.0
 31
0.0
  0
LINE
  5
1EE
330
20
100
AcDbEntity
  8
HILF
100
AcDbLine
 10
471.0
 20
71.0
 30
0.0
 11
567.0
 21
71.0
 31
0.0
  0
LINE
  5
1EF
330
20
100
AcDbEntity
  8
HILF
100
AcDbLine
 10
471.0
 20
61.0
 30
0.0
 11
567.0
 21
61.0
 31
0.0
  0
LINE
  5
1F0
330
20
100
AcDbEntity
  8
HILF
100
AcDbLine
 10
471.0
 20
51.0
 30
0.0
 11
567.0
 21
51.0
 31
0.0
  0
LINE
  5
1F1
330
20
100
AcDbEntity
  8
HILF
100
AcDbLine
 10
471.0
 20
41.0
 30
0.0
 11
567.0
 21
41.0
 31
0.0
  0
LINE
  5
1F2
330
20
100
AcDbEntity
  8
HILF
100
AcDbLine
 10
567.0
 20
71.0
 30
0.0
 11
650.9999999999998
 21
71.0
 31
0.0
  0
LINE
  5
1F3
330
20
100
AcDbEntity
  8
HILF
100
AcDbLine
 10
567.0
 20
61.0
 30
0.0
 11
650.9999999999998
 21
61.0
 31
0.0
  0
LINE
  5
1F4
330
20
100
AcDbEntity
  8
HILF
100
AcDbLine
 10
567.0
 20
51.0
 30
0.0
 11
650.9999999999998
 21
51.0
 31
0.0
  0
LINE
  5
1F5
330
20
100
AcDbEntity
  8
HILF
100
AcDbLine
 10
655.7736801096946
 20
85.03758247564135
 30
0.0
 11
747.6297842514809
 21
85.03758247564135
 31
0.0
  0
LINE
  5
1F6
330
20
100
AcDbEntity
  8
HILF
100
AcDbLine
 10
655.7736801096946
 20
71.0
 30
0.0
 11
747.6297842514809
 21
71.0
 31
0.0
  0
LINE
  5
1F7
330
20
100
AcDbEntity
  8
HILF
100
AcDbLine
 10
655.7736801096946
 20
61.0
 30
0.0
 11
747.6297842514809
 21
61.0
 31
0.0
  0
LINE
  5
1F8
330
20
100
AcDbEntity
  8
HILF
100
AcDbLine
 10
655.7736801096946
 20
51.0
 30
0.0
 11
747.6297842514809
 21
51.0
 31
0.0
  0
LINE
  5
1F9
330
20
100
AcDbEntity
  8
VOLL
100
AcDbLine
 10
753.0
 20
61.0
 30
0.0
 11
831.0
 21
61.0
 31
0.0
  0
LINE
  5
1FA
330
20
100
AcDbEntity
  8
HILF
100
AcDbLine
 10
757.7238616296993
 20
84.77983636955823
 30
0.0
 11
825.8588839326728
 21
84.77983636955823
 31
0.0
  0
LINE
  5
1FB
330
20
100
AcDbEntity
  8
HILF
100
AcDbLine
 10
655.7736801096946
 20
15.89398258028305
 30
0.0
 11
825.8588839326728
 21
15.89398258028305
 31
0.0
  0
TEXT
  5
1FC
330
20
100
AcDbEntity
  8
TEXT
100
AcDbText
 10
492.7738451693477
 20
19.67381894984129
 30
0.0
 40
4.0
  1
Änderung
 41
0.8
  7
GREEKS
 72
     1
 11
503.5167023122048
 21
19.67381894984129
 31
0.0
100
AcDbText
  0
TEXT
  5
1FD
330
20
100
AcDbEntity
  8
TEXT
100
AcDbText
 10
574.5163572150374
 20
103.4620895087088
 30
0.0
 40
5.0
  1
Maßstab
 41
0.8
  7
GREEKS
100
AcDbText
  0
TEXT
  5
1FE
330
20
100
AcDbEntity
  8
TEXT
100
AcDbText
 10
619.1016048187211
 20
103.4184168434818
 30
0.0
 40
5.0
  1
Zul.Abw.
 41
0.8
  7
GREEKS
 72
     1
 11
630.7206524377687
 21
103.4184168434818
 31
0.0
100
AcDbText
  0
TEXT
  5
1FF
330
20
100
AcDbEntity
  8
TEXT
100
AcDbText
 10
655.8779403809007
 20
103.5489328011779
 30
0.0
 40
5.0
  1
Benennung
 41
0.8
  7
GREEKS
100
AcDbText
  0
TEXT
  5
200
330
20
100
AcDbEntity
  8
TEXT
100
AcDbText
 10
757.178754957634
 20
103.3132034537135
 30
0.0
 40
5.0
  1
Zeichnungs Nr.
 41
0.8
  7
GREEKS
100
AcDbText
  0
TEXT
  5
201
330
20
100
AcDbEntity
  8
TEXT
100
AcDbText
 10
655.7422383911357
 20
31.84560570193055
 30
0.0
 40
5.0
  1
Bauvorhaben
 41
0.8
  7
GREEKS
100
AcDbText
  0
TEXT
  5
202
330
20
100
AcDbEntity
  8
TEXT
100
AcDbText
 10
757.7238616296993
 20
74.18118237099965
 30
0.0
 40
5.0
  1
Ersatz für:
 41
0.8
  7
GREEKS
100
AcDbText
  0
TEXT
  5
203
330
20
100
AcDbEntity
  8
TEXT
100
AcDbText
 10
479.2664110704574
 20
14.65465846027187
 30
0.0
 40
3.6
  1
Index
 50
90.0
 41
0.8
  7
GREEKS
100
AcDbText
  0
TEXT
  5
204
330
20
100
AcDbEntity
  8
TEXT
100
AcDbText
 10
530.6271693175114
 20
19.67156269339808
 30
0.0
 40
4.0
  1
Tag
 41
0.8
  7
GREEKS
 72
     1
 11
534.3605026508448
 21
19.67156269339808
 31
0.0
100
AcDbText
  0
TEXT
  5
205
330
20
100
AcDbEntity
  8
TEXT
100
AcDbText
 10
549.3765918075367
 20
19.59324216966404
 30
0.0
 40
4.0
  1
Name
 41
0.8
  7
GREEKS
 72
     1
 11
555.7004013313462
 21
19.59324216966404
 31
0.0
100
AcDbText
  0
TEXT
  5
206
330
20
100
AcDbEntity
  8
TEXT
100
AcDbText
 10
593.3311673153648
 20
74.31880501229919
 30
0.0
 40
3.6
  1
Tag
 41
0.8
  7
GREEKS
100
AcDbText
  0
TEXT
  5
207
330
20
100
AcDbEntity
  8
TEXT
100
AcDbText
 10
623.4626584226293
 20
74.30961091915221
 30
0.0
 40
3.6
  1
Name
 41
0.8
  7
GREEKS
100
AcDbText
  0
TEXT
  5
208
330
20
100
AcDbEntity
  8
TEXT
100
AcDbText
 10
568.5836127167613
 20
64.62990369617961
 30
0.0
 40
3.6
  1
Gez.
 41
0.8
  7
GREEKS
100
AcDbText
  0
TEXT
  5
209
330
20
100
AcDbEntity
  8
TEXT
100
AcDbText
 10
568.551508657167
 20
54.68926291428373
 30
0.0
 40
3.6
  1
Gepr.
 41
0.8
  7
GREEKS
100
AcDbText
  0
TEXT
  5
20A
330
20
100
AcDbEntity
  8
TEXT
100
AcDbText
 10
568.6006777387301
 20
44.52946389649803
 30
0.0
 40
3.6
  1
Norm.
 41
0.8
  7
GREEKS
100
AcDbText
  0
TEXT
  5
20B
330
20
100
AcDbEntity
  8
TEXT
100
AcDbText
 10
624.8158592542563
 20
64.50253258750897
 30
0.0
 40
3.6
  1
Koeh
 41
0.8
  7
GREEKS
100
AcDbText
  0
TEXT
  5
20C
330
20
100
AcDbEntity
  8
TEXT
100
AcDbText
 10
758.2400861497005
 20
53.07416177878597
 30
0.0
 40
5.0
  1
ersetzt durch:
 41
0.8
  7
GREEKS
100
AcDbText
  0
LINE
  5
20D
330
20
100
AcDbEntity
  8
HILF
100
AcDbLine
 10
0.9999999999999715
 20
1.0
 30
0.0
 11
841.0
 21
1.0
 31
0.0
  0
LINE
  5
20E
330
20
100
AcDbEntity
  8
HILF
100
AcDbLine
 10
841.0
 20
1.0
 30
0.0
 11
841.0
 21
595.0
 31
0.0
  0
LINE
  5
20F
330
20
100
AcDbEntity
  8
HILF
100
AcDbLine
 10
841.0
 20
595.0
 30
0.0
 11
0.9999999999999715
 21
595.0
 31
0.0
  0
LINE
  5
210
330
20
100
AcDbEntity
  8
HILF
100
AcDbLine
 10
0.9999999999999715
 20
595.0
 30
0.0
 11
0.9999999999999715
 21
1.0
 31
0.0
  0
LINE
  5
211
330
20
100
AcDbEntity
  8
STEMPEL
100
AcDbLine
 10
831.0
 20
585.0
 30
0.0
 11
40.99999999999996
 21
585.0
 31
0.0
  0
LINE
  5
212
330
20
100
AcDbEntity
  8
STEMPEL
100
AcDbLine
 10
40.99999999999996
 20
11.0
 30
0.0
 11
831.0
 21
11.0
 31
0.0
  0
LINE
  5
213
330
20
100
AcDbEntity
  8
STEMPEL
100
AcDbLine
 10
831.0
 20
11.0
 30
0.0
 11
831.0
 21
585.0
 31
0.0
  0
LINE
  5
214
330
20
100
AcDbEntity
  8
STEMPEL
100
AcDbLine
 10
40.99999999999996
 20
585.0
 30
0.0
 11
40.99999999999996
 21
11.0
 31
0.0
  0
TEXT
  5
215
330
20
100
AcDbEntity
  8
TEXT
100
AcDbText
 10
569.5426010951828
 20
74.14583683904147
 30
0.0
 40
3.6
  1
2007
 41
0.8
  7
GREEKS
100
AcDbText
  0
TEXT
  5
216
330
20
100
AcDbEntity
  8
TEXT
100
AcDbText
 10
590.3714131614452
 20
64.40553235359498
 30
0.0
 40
3.6
  1
31.08.
 41
0.8
  7
GREEKS
100
AcDbText
  0
TEXT
  5
217
330
20
100
AcDbEntity
  8
TEXT
 62
     1
100
AcDbText
 10
579.8064310364448
 20
87.22410504373218
 30
0.0
 40
7.0
  1
1:2
  7
GREEKS
100
AcDbText
  0
TEXT
  5
218
330
20
100
AcDbEntity
  8
TEXT
100
AcDbText
 10
655.8629872542569
 20
73.29651127304095
 30
0.0
 40
5.0
  1
mit LORO-X Muffe und Flansch
 41
0.75
  7
GREEKS
100
AcDbText
  0
TEXT
  5
219
330
20
100
AcDbEntity
  8
TEXT
100
AcDbText
 10
656.1623031583289
 20
53.7513114534546
 30
0.0
 40
5.0
  1
EDV-Art.Nr. 82511.200X
 41
0.8
  7
GREEKS
100
AcDbText
  0
TEXT
  5
21A
330
20
100
AcDbEntity
  8
BEM
100
AcDbText
 10
837.413205537806
 20
11.55378061767838
 30
0.0
 40
4.0
  1
Diese Zeichnung ist urheberrechtlich geschützt und bleibt unser Eigentum. Sie darf weder ganz noch teilweise vervielfältigt und nicht an Dritte weitegegeben werden.
 50
90.0
  7
GREEKS
100
AcDbText
  0
TEXT
  5
21B
330
20
100
AcDbEntity
  8
TEXT
 62
     1
100
AcDbText
 10
768.4377728175696
 20
88.01863741763574
 30
0.0
 40
7.0
  1
82511200W
 41
0.8
  7
GREEKS
 72
     1
 11
791.371106150903
 21
88.01863741763574
 31
0.0
100
AcDbText
  0
TEXT
  5
21C
330
20
100
AcDbEntity
  8
TEXT
100
AcDbText
 10
655.9713400534564
 20
43.19504573013541
 30
0.0
 40
4.0
  1
82511200W.DWG
 41
0.8
  7
GREEKS
100
AcDbText
  0
TEXT
  5
21D
330
20
100
AcDbEntity
  8
TEXT
100
AcDbText
 10
471.2031266103855
 20
114.5954219225907
 30
0.0
 40
5.0
  1
Erstellt mit AUTOCAD 2004
 41
0.8
  7
GREEKS
100
AcDbText
  0
INSERT
  5
21E
330
20
100
AcDbEntity
  8
STEMPEL
100
AcDbBlockReference
  2
LOGO
 10
569.9705276546531
 20
45.32391971867146
 30
0.0
 41
2.0
 42
2.0
 43
2.0
  0
LINE
  5
21F
330
20
100
AcDbEntity
  8
BEM
100
AcDbLine
 10
461.0
 20
1.0
 30
0.0
 11
461.0
 21
11.0
 31
0.0
  0
TEXT
  5
220
330
20
100
AcDbEntity
  8
VOLL
100
AcDbText
 10
330.685560794134
 20
215.1330788353677
 30
0.0
 40
1.8
  1

  7
GREEKS
100
AcDbText
  0
TEXT
  5
221
330
20
100
AcDbEntity
  8
VOLL
100
AcDbText
 10
420.3517347198071
 20
220.425195551087
 30
0.0
 40
1.8
  1

  7
GREEKS
100
AcDbText
  0
TEXT
  5
222
330
20
100
AcDbEntity
  8
TEXT
100
AcDbText
 10
752.1840029234
 20
225.9834310843126
 30
0.0
 40
2.5
  1
  
  7
GREEKS
 72
     1
 11
754.4459076853049
 21
225.9834310843126
 31
0.0
100
AcDbText
  0
TEXT
  5
223
330
20
100
AcDbEntity
  8
BEM
100
AcDbText
 10
996.3037202358819
 20
361.5423131147148
 30
0.0
 40
2.5
  1
 
 72
     4
 11
997.4346726168343
 21
361.5423131147148
 31
0.0
100
AcDbText
  0
TEXT
  5
225
330
20
100
AcDbEntity
  8
BEM
100
AcDbText
 10
561.9930643657315
 20
244.0619097422485
 30
0.0
 40
2.5
  1

  7
GREEKS
100
AcDbText
  0
TEXT
  5
226
330
20
100
AcDbEntity
  8
VOLL
100
AcDbText
 10
547.9268713460101
 20
223.8786490852133
 30
0.0
 40
1.8
  1

  7
GREEKS
100
AcDbText
  0
TEXT
  5
227
330
20
100
AcDbEntity
  8
BEM
100
AcDbText
 10
582.4149361852947
 20
228.6043734084339
 30
0.0
 40
2.5
  1

 41
0.8
  7
GREEKS
100
AcDbText
  0
TEXT
  5
228
330
20
100
AcDbEntity
  8
BEM
100
AcDbText
 10
582.4149361852947
 20
223.9106048543818
 30
0.0
 40
2.5
  1

 41
0.8
  7
GREEKS
100
AcDbText
  0
TEXT
  5
229
330
20
100
AcDbEntity
  8
BEM
100
AcDbText
 10
582.4149361852947
 20
218.6727610357183
 30
0.0
 40
2.5
  1

 41
0.8
  7
GREEKS
100
AcDbText
  0
TEXT
  5
22A
330
20
100
AcDbEntity
  8
BEM
100
AcDbText
 10
582.3419917079204
 20
214.1675720856206
 30
0.0
 40
1.8
  1

 41
0.8
  7
GREEKS
100
AcDbText
  0
TEXT
  5
22B
330
20
100
AcDbEntity
  8
BEM
100
AcDbText
 10
569.6584208283091
 20
239.7591611818459
 30
0.0
 40
2.0
  1

 41
0.8
  7
GREEKS
 72
     1
 11
569.6584208283091
 21
239.7591611818459
 31
0.0
100
AcDbText
  0
TEXT
  5
22C
330
20
100
AcDbEntity
  8
TEXT
100
AcDbText
 10
879.7591395496029
 20
229.4368846184389
 30
0.0
 40
2.5
  1
  
  7
GREEKS
 72
     1
 11
882.0210443115078
 21
229.4368846184389
 31
0.0
100
AcDbText
  0
TEXT
  5
22D
330
20
100
AcDbEntity
  8
BEM
100
AcDbText
 10
1123.878856862085
 20
364.9957666488412
 30
0.0
 40
2.5
  1
 
 72
     4
 11
1125.009809243037
 21
364.9957666488412
 31
0.0
100
AcDbText
  0
TEXT
  5
22E
330
20
100
AcDbEntity
  8
VOLL
100
AcDbText
 10
216.5391139976129
 20
292.3841307949667
 30
0.0
 40
1.8
  1

  7
GREEKS
100
AcDbText
  0
TEXT
  5
22F
330
20
100
AcDbEntity
  8
VOLL
100
AcDbText
 10
306.2052879232861
 20
297.676247510686
 30
0.0
 40
1.8
  1

  7
GREEKS
100
AcDbText
  0
TEXT
  5
230
330
20
100
AcDbEntity
  8
TEXT
100
AcDbText
 10
638.037556126879
 20
303.2344830439115
 30
0.0
 40
2.5
  1
  
  7
GREEKS
 72
     1
 11
640.2994608887838
 21
303.2344830439115
 31
0.0
100
AcDbText
  0
TEXT
  5
231
330
20
100
AcDbEntity
  8
BEM
100
AcDbText
 10
882.1572734393608
 20
438.7933650743137
 30
0.0
 40
2.5
  1
 
 72
     4
 11
883.2882258203133
 21
438.7933650743137
 31
0.0
100
AcDbText
  0
TEXT
  5
232
330
20
100
AcDbEntity
  8
BEM
100
AcDbText
 10
447.8466175692105
 20
321.3129617018474
 30
0.0
 40
2.5
  1

  7
GREEKS
100
AcDbText
  0
TEXT
  5
233
330
20
100
AcDbEntity
  8
VOLL
100
AcDbText
 10
433.7804245494891
 20
301.1297010448124
 30
0.0
 40
1.8
  1

  7
GREEKS
100
AcDbText
  0
TEXT
  5
234
330
20
100
AcDbEntity
  8
BEM
100
AcDbText
 10
468.2684893887737
 20
305.8554253680329
 30
0.0
 40
2.5
  1

 41
0.8
  7
GREEKS
100
AcDbText
  0
TEXT
  5
235
330
20
100
AcDbEntity
  8
BEM
100
AcDbText
 10
468.2684893887737
 20
301.1616568139808
 30
0.0
 40
2.5
  1

 41
0.8
  7
GREEKS
100
AcDbText
  0
TEXT
  5
236
330
20
100
AcDbEntity
  8
BEM
100
AcDbText
 10
468.2684893887737
 20
295.9238129953172
 30
0.0
 40
2.5
  1

 41
0.8
  7
GREEKS
100
AcDbText
  0
TEXT
  5
237
330
20
100
AcDbEntity
  8
BEM
100
AcDbText
 10
468.1955449113993
 20
291.4186240452196
 30
0.0
 40
1.8
  1

 41
0.8
  7
GREEKS
100
AcDbText
  0
TEXT
  5
238
330
20
100
AcDbEntity
  8
BEM
100
AcDbText
 10
455.5119740317881
 20
317.0102131414449
 30
0.0
 40
2.0
  1

 41
0.8
  7
GREEKS
 72
     1
 11
455.5119740317881
 21
317.0102131414449
 31
0.0
100
AcDbText
  0
TEXT
  5
239
330
20
100
AcDbEntity
  8
TEXT
100
AcDbText
 10
765.612692753082
 20
306.6879365780378
 30
0.0
 40
2.5
  1
  
  7
GREEKS
 72
     1
 11
767.8745975149868
 21
306.6879365780378
 31
0.0
100
AcDbText
  0
TEXT
  5
23A
330
20
100
AcDbEntity
  8
BEM
100
AcDbText
 10
1009.732410065564
 20
442.24681860844
 30
0.0
 40
2.5
  1
 
 72
     4
 11
1010.863362446516
 21
442.24681860844
 31
0.0
100
AcDbText
  0
TEXT
  5
23B
330
20
100
AcDbEntity
  8
VOLL
100
AcDbText
 10
358.4971889447743
 20
308.5812151068014
 30
0.0
 40
1.8
  1

  7
GREEKS
100
AcDbText
  0
TEXT
  5
23C
330
20
100
AcDbEntity
  8
TEXT
100
AcDbText
 10
690.3294571483672
 20
314.139450640027
 30
0.0
 40
2.5
  1
  
  7
GREEKS
 72
     1
 11
692.5913619102721
 21
314.139450640027
 31
0.0
100
AcDbText
  0
TEXT
  5
23D
330
20
100
AcDbEntity
  8
BEM
100
AcDbText
 10
934.4491744608491
 20
449.6983326704292
 30
0.0
 40
2.5
  1
 
 72
     4
 11
935.5801268418016
 21
449.6983326704292
 31
0.0
100
AcDbText
  0
TEXT
  5
23E
330
20
100
AcDbEntity
  8
BEM
100
AcDbText
 10
513.6367911015702
 20
328.914625996478
 30
0.0
 40
2.5
  1

  7
GREEKS
100
AcDbText
  0
TEXT
  5
23F
330
20
100
AcDbEntity
  8
VOLL
100
AcDbText
 10
499.5705980818487
 20
308.7313653394428
 30
0.0
 40
1.8
  1

  7
GREEKS
100
AcDbText
  0
TEXT
  5
240
330
20
100
AcDbEntity
  8
BEM
100
AcDbText
 10
534.0586629211334
 20
313.4570896626635
 30
0.0
 40
2.5
  1

 41
0.8
  7
GREEKS
100
AcDbText
  0
TEXT
  5
241
330
20
100
AcDbEntity
  8
BEM
100
AcDbText
 10
534.0586629211334
 20
308.7633211086113
 30
0.0
 40
2.5
  1

 41
0.8
  7
GREEKS
100
AcDbText
  0
TEXT
  5
242
330
20
100
AcDbEntity
  8
BEM
100
AcDbText
 10
534.0586629211334
 20
303.5254772899478
 30
0.0
 40
2.5
  1

 41
0.8
  7
GREEKS
100
AcDbText
  0
TEXT
  5
243
330
20
100
AcDbEntity
  8
BEM
100
AcDbText
 10
533.9857184437589
 20
299.0202883398502
 30
0.0
 40
1.8
  1

 41
0.8
  7
GREEKS
100
AcDbText
  0
TEXT
  5
244
330
20
100
AcDbEntity
  8
BEM
100
AcDbText
 10
521.3021475641478
 20
324.6118774360755
 30
0.0
 40
2.0
  1

 41
0.8
  7
GREEKS
 72
     1
 11
521.3021475641478
 21
324.6118774360755
 31
0.0
100
AcDbText
  0
TEXT
  5
245
330
20
100
AcDbEntity
  8
TEXT
100
AcDbText
 10
831.4028662854417
 20
314.2896008726684
 30
0.0
 40
2.5
  1
  
  7
GREEKS
 72
     1
 11
833.6647710473464
 21
314.2896008726684
 31
0.0
100
AcDbText
  0
TEXT
  5
246
330
20
100
AcDbEntity
  8
BEM
100
AcDbText
 10
1075.522583597924
 20
449.8484829030707
 30
0.0
 40
2.5
  1
 
 72
     4
 11
1076.653535978876
 21
449.8484829030707
 31
0.0
100
AcDbText
  0
TEXT
  5
247
330
20
100
AcDbEntity
  8
VOLL
100
AcDbText
 10
294.4749775180179
 20
296.7655055810529
 30
0.0
 40
1.8
  1

  7
GREEKS
100
AcDbText
  0
TEXT
  5
248
330
20
100
AcDbEntity
  8
TEXT
100
AcDbText
 10
626.3072457216107
 20
302.3237411142785
 30
0.0
 40
2.5
  1
  
  7
GREEKS
 72
     1
 11
628.5691504835156
 21
302.3237411142785
 31
0.0
100
AcDbText
  0
TEXT
  5
249
330
20
100
AcDbEntity
  8
BEM
100
AcDbText
 10
870.4269630340929
 20
437.8826231446806
 30
0.0
 40
2.5
  1
 
 72
     4
 11
871.5579154150452
 21
437.8826231446806
 31
0.0
100
AcDbText
  0
TEXT
  5
24A
330
20
100
AcDbEntity
  8
BEM
100
AcDbText
 10
459.8205905976678
 20
336.9187362796386
 30
0.0
 40
2.5
  1

  7
GREEKS
100
AcDbText
  0
TEXT
  5
24B
330
20
100
AcDbEntity
  8
VOLL
100
AcDbText
 10
445.7543975779463
 20
316.7354756226036
 30
0.0
 40
1.8
  1

  7
GREEKS
100
AcDbText
  0
TEXT
  5
24C
330
20
100
AcDbEntity
  8
BEM
100
AcDbText
 10
480.242462417231
 20
321.4611999458241
 30
0.0
 40
2.5
  1

 41
0.8
  7
GREEKS
100
AcDbText
  0
TEXT
  5
24D
330
20
100
AcDbEntity
  8
BEM
100
AcDbText
 10
480.242462417231
 20
316.7674313917719
 30
0.0
 40
2.5
  1

 41
0.8
  7
GREEKS
100
AcDbText
  0
TEXT
  5
24E
330
20
100
AcDbEntity
  8
BEM
100
AcDbText
 10
480.242462417231
 20
311.5295875731084
 30
0.0
 40
2.5
  1

 41
0.8
  7
GREEKS
100
AcDbText
  0
TEXT
  5
24F
330
20
100
AcDbEntity
  8
BEM
100
AcDbText
 10
480.1695179398565
 20
307.0243986230108
 30
0.0
 40
1.8
  1

 41
0.8
  7
GREEKS
100
AcDbText
  0
TEXT
  5
250
330
20
100
AcDbEntity
  8
BEM
100
AcDbText
 10
467.4859470602453
 20
332.6159877192361
 30
0.0
 40
2.0
  1

 41
0.8
  7
GREEKS
 72
     1
 11
467.4859470602453
 21
332.6159877192361
 31
0.0
100
AcDbText
  0
TEXT
  5
251
330
20
100
AcDbEntity
  8
TEXT
100
AcDbText
 10
777.5866657815392
 20
322.293711155829
 30
0.0
 40
2.5
  1
  
  7
GREEKS
 72
     1
 11
779.848570543444
 21
322.293711155829
 31
0.0
100
AcDbText
  0
TEXT
  5
252
330
20
100
AcDbEntity
  8
BEM
100
AcDbText
 10
1021.706383094021
 20
457.8525931862312
 30
0.0
 40
2.5
  1
 
 72
     4
 11
1022.837335474974
 21
457.8525931862312
 31
0.0
100
AcDbText
  0
TEXT
  5
255
330
20
100
AcDbEntity
  8
VOLL
100
AcDbText
 10
282.5331868885058
 20
332.2336518081499
 30
0.0
 40
1.8
  1

  7
GREEKS
100
AcDbText
  0
TEXT
  5
256
330
20
100
AcDbEntity
  8
VOLL
100
AcDbText
 10
372.1993608141789
 20
337.5257685238693
 30
0.0
 40
1.8
  1

  7
GREEKS
100
AcDbText
  0
TEXT
  5
257
330
20
100
AcDbEntity
  8
TEXT
100
AcDbText
 10
704.0316290177718
 20
343.0840040570948
 30
0.0
 40
2.5
  1
  
  7
GREEKS
 72
     1
 11
706.2935337796766
 21
343.0840040570948
 31
0.0
100
AcDbText
  0
TEXT
  5
258
330
20
100
AcDbEntity
  8
BEM
100
AcDbText
 10
948.1513463302539
 20
478.642886087497
 30
0.0
 40
2.5
  1
 
 72
     4
 11
949.2822987112063
 21
478.642886087497
 31
0.0
100
AcDbText
  0
TEXT
  5
259
330
20
100
AcDbEntity
  8
BEM
100
AcDbText
 10
513.8406904601033
 20
361.1624827150307
 30
0.0
 40
2.5
  1

  7
GREEKS
100
AcDbText
  0
TEXT
  5
25A
330
20
100
AcDbEntity
  8
VOLL
100
AcDbText
 10
499.7744974403819
 20
340.9792220579956
 30
0.0
 40
1.8
  1

  7
GREEKS
100
AcDbText
  0
TEXT
  5
25B
330
20
100
AcDbEntity
  8
BEM
100
AcDbText
 10
534.2625622796665
 20
345.7049463812162
 30
0.0
 40
2.5
  1

 41
0.8
  7
GREEKS
100
AcDbText
  0
TEXT
  5
25C
330
20
100
AcDbEntity
  8
BEM
100
AcDbText
 10
534.2625622796665
 20
341.0111778271641
 30
0.0
 40
2.5
  1

 41
0.8
  7
GREEKS
100
AcDbText
  0
TEXT
  5
25D
330
20
100
AcDbEntity
  8
BEM
100
AcDbText
 10
534.2625622796665
 20
335.7733340085006
 30
0.0
 40
2.5
  1

 41
0.8
  7
GREEKS
100
AcDbText
  0
TEXT
  5
25E
330
20
100
AcDbEntity
  8
BEM
100
AcDbText
 10
534.1896178022921
 20
331.2681450584029
 30
0.0
 40
1.8
  1

 41
0.8
  7
GREEKS
100
AcDbText
  0
TEXT
  5
25F
330
20
100
AcDbEntity
  8
BEM
100
AcDbText
 10
521.5060469226809
 20
356.8597341546282
 30
0.0
 40
2.0
  1

 41
0.8
  7
GREEKS
 72
     1
 11
521.5060469226809
 21
356.8597341546282
 31
0.0
100
AcDbText
  0
TEXT
  5
260
330
20
100
AcDbEntity
  8
TEXT
100
AcDbText
 10
831.6067656439747
 20
346.5374575912211
 30
0.0
 40
2.5
  1
  
  7
GREEKS
 72
     1
 11
833.8686704058796
 21
346.5374575912211
 31
0.0
100
AcDbText
  0
TEXT
  5
261
330
20
100
AcDbEntity
  8
BEM
100
AcDbText
 10
1075.726482956457
 20
482.0963396216233
 30
0.0
 40
2.5
  1
 
 72
     4
 11
1076.857435337409
 21
482.0963396216233
 31
0.0
100
AcDbText
  0
TEXT
  5
262
330
20
100
AcDbEntity
  8
VOLL
100
AcDbText
 10
424.4912618356671
 20
348.4307361199848
 30
0.0
 40
1.8
  1

  7
GREEKS
100
AcDbText
  0
TEXT
  5
263
330
20
100
AcDbEntity
  8
TEXT
100
AcDbText
 10
756.32353003926
 20
353.9889716532103
 30
0.0
 40
2.5
  1
  
  7
GREEKS
 72
     1
 11
758.5854348011649
 21
353.9889716532103
 31
0.0
100
AcDbText
  0
TEXT
  5
264
330
20
100
AcDbEntity
  8
BEM
100
AcDbText
 10
1000.443247351742
 20
489.5478536836125
 30
0.0
 40
2.5
  1
 
 72
     4
 11
1001.574199732694
 21
489.5478536836125
 31
0.0
100
AcDbText
  0
TEXT
  5
265
330
20
100
AcDbEntity
  8
BEM
100
AcDbText
 10
579.6308639924631
 20
368.7641470096613
 30
0.0
 40
2.5
  1

  7
GREEKS
100
AcDbText
  0
TEXT
  5
266
330
20
100
AcDbEntity
  8
VOLL
100
AcDbText
 10
565.5646709727416
 20
348.5808863526262
 30
0.0
 40
1.8
  1

  7
GREEKS
100
AcDbText
  0
TEXT
  5
267
330
20
100
AcDbEntity
  8
BEM
100
AcDbText
 10
600.0527358120262
 20
353.3066106758468
 30
0.0
 40
2.5
  1

 41
0.8
  7
GREEKS
100
AcDbText
  0
TEXT
  5
268
330
20
100
AcDbEntity
  8
BEM
100
AcDbText
 10
600.0527358120262
 20
348.6128421217947
 30
0.0
 40
2.5
  1

 41
0.8
  7
GREEKS
100
AcDbText
  0
TEXT
  5
269
330
20
100
AcDbEntity
  8
BEM
100
AcDbText
 10
600.0527358120262
 20
343.3749983031311
 30
0.0
 40
2.5
  1

 41
0.8
  7
GREEKS
100
AcDbText
  0
TEXT
  5
26A
330
20
100
AcDbEntity
  8
BEM
100
AcDbText
 10
599.9797913346518
 20
338.8698093530335
 30
0.0
 40
1.8
  1

 41
0.8
  7
GREEKS
100
AcDbText
  0
TEXT
  5
26B
330
20
100
AcDbEntity
  8
BEM
100
AcDbText
 10
587.2962204550406
 20
364.4613984492588
 30
0.0
 40
2.0
  1

 41
0.8
  7
GREEKS
 72
     1
 11
587.2962204550406
 21
364.4613984492588
 31
0.0
100
AcDbText
  0
TEXT
  5
26C
330
20
100
AcDbEntity
  8
TEXT
100
AcDbText
 10
897.3969391763345
 20
354.1391218858517
 30
0.0
 40
2.5
  1
  
  7
GREEKS
 72
     1
 11
899.6588439382394
 21
354.1391218858517
 31
0.0
100
AcDbText
  0
TEXT
  5
26D
330
20
100
AcDbEntity
  8
BEM
100
AcDbText
 10
1141.516656488817
 20
489.6980039162539
 30
0.0
 40
2.5
  1
 
 72
     4
 11
1142.647608869769
 21
489.6980039162539
 31
0.0
100
AcDbText
  0
TEXT
  5
26E
330
20
100
AcDbEntity
  8
VOLL
100
AcDbText
 10
360.4690504089108
 20
336.6150265942362
 30
0.0
 40
1.8
  1

  7
GREEKS
100
AcDbText
  0
TEXT
  5
26F
330
20
100
AcDbEntity
  8
TEXT
100
AcDbText
 10
692.3013186125035
 20
342.1732621274618
 30
0.0
 40
2.5
  1
  
  7
GREEKS
 72
     1
 11
694.5632233744084
 21
342.1732621274618
 31
0.0
100
AcDbText
  0
TEXT
  5
270
330
20
100
AcDbEntity
  8
BEM
100
AcDbText
 10
936.4210359249856
 20
477.732144157864
 30
0.0
 40
2.5
  1
 
 72
     4
 11
937.551988305938
 21
477.732144157864
 31
0.0
100
AcDbText
  0
TEXT
  5
271
330
20
100
AcDbEntity
  8
BEM
100
AcDbText
 10
525.8146634885606
 20
376.7682572928219
 30
0.0
 40
2.5
  1

  7
GREEKS
100
AcDbText
  0
TEXT
  5
272
330
20
100
AcDbEntity
  8
VOLL
100
AcDbText
 10
511.7484704688392
 20
356.5849966357868
 30
0.0
 40
1.8
  1

  7
GREEKS
100
AcDbText
  0
TEXT
  5
273
330
20
100
AcDbEntity
  8
BEM
100
AcDbText
 10
546.2365353081238
 20
361.3107209590074
 30
0.0
 40
2.5
  1

 41
0.8
  7
GREEKS
100
AcDbText
  0
TEXT
  5
274
330
20
100
AcDbEntity
  8
BEM
100
AcDbText
 10
546.2365353081238
 20
356.6169524049552
 30
0.0
 40
2.5
  1

 41
0.8
  7
GREEKS
100
AcDbText
  0
TEXT
  5
275
330
20
100
AcDbEntity
  8
BEM
100
AcDbText
 10
546.2365353081238
 20
351.3791085862917
 30
0.0
 40
2.5
  1

 41
0.8
  7
GREEKS
100
AcDbText
  0
TEXT
  5
276
330
20
100
AcDbEntity
  8
BEM
100
AcDbText
 10
546.1635908307494
 20
346.8739196361942
 30
0.0
 40
1.8
  1

 41
0.8
  7
GREEKS
100
AcDbText
  0
TEXT
  5
277
330
20
100
AcDbEntity
  8
BEM
100
AcDbText
 10
533.4800199511382
 20
372.4655087324194
 30
0.0
 40
2.0
  1

 41
0.8
  7
GREEKS
 72
     1
 11
533.4800199511382
 21
372.4655087324194
 31
0.0
100
AcDbText
  0
TEXT
  5
278
330
20
100
AcDbEntity
  8
TEXT
100
AcDbText
 10
843.580738672432
 20
362.1432321690123
 30
0.0
 40
2.5
  1
  
  7
GREEKS
 72
     1
 11
845.8426434343369
 21
362.1432321690123
 31
0.0
100
AcDbText
  0
TEXT
  5
279
330
20
100
AcDbEntity
  8
BEM
100
AcDbText
 10
1087.700455984914
 20
497.7021141994145
 30
0.0
 40
2.5
  1
 
 72
     4
 11
1088.831408365866
 21
497.7021141994145
 31
0.0
100
AcDbText
  0
TEXT
  5
27A
330
20
100
AcDbEntity
  8
VOLL
100
AcDbText
 10
638.8701892646572
 20
317.0244368611979
 30
0.0
 40
1.8
  1

  7
GREEKS
100
AcDbText
  0
TEXT
  5
27B
330
20
100
AcDbEntity
  8
TEXT
100
AcDbText
 10
970.7024574682501
 20
322.5826723944235
 30
0.0
 40
2.5
  1
  
  7
GREEKS
 72
     1
 11
972.9643622301548
 21
322.5826723944235
 31
0.0
100
AcDbText
  0
TEXT
  5
27C
330
20
100
AcDbEntity
  8
BEM
100
AcDbText
 10
1214.822174780732
 20
458.1415544248256
 30
0.0
 40
2.5
  1
 
 72
     4
 11
1215.953127161684
 21
458.1415544248256
 31
0.0
100
AcDbText
  0
TEXT
  5
27D
330
20
100
AcDbEntity
  8
VOLL
100
AcDbText
 10
796.4049063418188
 20
322.5799924962692
 30
0.0
 40
1.8
  1

  7
GREEKS
100
AcDbText
  0
TEXT
  5
27E
330
20
100
AcDbEntity
  8
BEM
100
AcDbText
 10
830.8929711811034
 20
327.3057168194898
 30
0.0
 40
2.5
  1

 41
0.8
  7
GREEKS
100
AcDbText
  0
TEXT
  5
27F
330
20
100
AcDbEntity
  8
BEM
100
AcDbText
 10
830.8929711811034
 20
322.6119482654376
 30
0.0
 40
2.5
  1

 41
0.8
  7
GREEKS
100
AcDbText
  0
TEXT
  5
280
330
20
100
AcDbEntity
  8
BEM
100
AcDbText
 10
830.8929711811034
 20
317.3741044467741
 30
0.0
 40
2.5
  1

 41
0.8
  7
GREEKS
100
AcDbText
  0
TEXT
  5
281
330
20
100
AcDbEntity
  8
BEM
100
AcDbText
 10
830.8200267037289
 20
312.8689154966764
 30
0.0
 40
1.8
  1

 41
0.8
  7
GREEKS
100
AcDbText
  0
TEXT
  5
282
330
20
100
AcDbEntity
  8
TEXT
100
AcDbText
 10
1128.237174545412
 20
328.1382280294947
 30
0.0
 40
2.5
  1
  
  7
GREEKS
 72
     1
 11
1130.499079307316
 21
328.1382280294947
 31
0.0
100
AcDbText
  0
TEXT
  5
283
330
20
100
AcDbEntity
  8
BEM
100
AcDbText
 10
1372.356891857894
 20
463.6971100598969
 30
0.0
 40
2.5
  1
 
 72
     4
 11
1373.487844238846
 21
463.6971100598969
 31
0.0
100
AcDbText
  0
TEXT
  5
284
330
20
100
AcDbEntity
  8
VOLL
100
AcDbText
 10
537.3181148905559
 20
717.5062033978348
 30
0.0
 40
1.8
  1

  7
GREEKS
100
AcDbText
  0
TEXT
  5
285
330
20
100
AcDbEntity
  8
TEXT
100
AcDbText
 10
869.1503830941488
 20
723.0644389310603
 30
0.0
 40
2.5
  1
  
  7
GREEKS
 72
     1
 11
871.4122878560537
 21
723.0644389310603
 31
0.0
100
AcDbText
  0
TEXT
  5
286
330
20
100
AcDbEntity
  8
BEM
100
AcDbText
 10
1113.270100406631
 20
858.6233209614626
 30
0.0
 40
2.5
  1
 
 72
     4
 11
1114.401052787583
 21
858.6233209614626
 31
0.0
100
AcDbText
  0
TEXT
  5
287
330
20
100
AcDbEntity
  8
BEM
100
AcDbText
 10
975.4149905171626
 20
730.5274005932125
 30
0.0
 40
2.5
  1

  7
GREEKS
100
AcDbText
  0
TEXT
  5
288
330
20
100
AcDbEntity
  8
BEM
100
AcDbText
 10
995.9767765768747
 20
715.5889527408923
 30
0.0
 40
2.5
  1

 41
0.8
  7
GREEKS
100
AcDbText
  0
TEXT
  5
289
330
20
100
AcDbEntity
  8
BEM
100
AcDbText
 10
995.8374465585878
 20
705.5105026761793
 30
0.0
 40
2.5
  1

 41
0.8
  7
GREEKS
100
AcDbText
  0
TEXT
  5
28A
330
20
100
AcDbEntity
  8
BEM
100
AcDbText
 10
995.8907064423501
 20
710.456285612495
 30
0.0
 40
2.5
  1

 41
0.8
  7
GREEKS
100
AcDbText
  0
TEXT
  5
28B
330
20
100
AcDbEntity
  8
BEM
100
AcDbText
 10
995.9332244802462
 20
700.4157150365393
 30
0.0
 40
1.8
  1

 41
0.8
  7
GREEKS
100
AcDbText
  0
TEXT
  5
28C
330
20
100
AcDbEntity
  8
BEM
100
AcDbText
 10
983.3609092366646
 20
725.8540595237075
 30
0.0
 40
2.0
  1

 41
0.8
  7
GREEKS
 72
     1
 11
983.3609092366646
 21
725.8540595237075
 31
0.0
100
AcDbText
  0
TEXT
  5
28D
330
20
100
AcDbEntity
  8
VOLL
100
AcDbText
 10
716.5560487613682
 20
711.8174381634493
 30
0.0
 40
1.8
  1

  7
GREEKS
100
AcDbText
  0
TEXT
  5
28E
330
20
100
AcDbEntity
  8
TEXT
100
AcDbText
 10
1048.388316964961
 20
717.3756736966748
 30
0.0
 40
2.5
  1
  
  7
GREEKS
 72
     1
 11
1050.650221726866
 21
717.3756736966748
 31
0.0
100
AcDbText
  0
TEXT
  5
28F
330
20
100
AcDbEntity
  8
BEM
100
AcDbText
 10
1292.508034277443
 20
852.9345557270771
 30
0.0
 40
2.5
  1
 
 72
     4
 11
1293.638986658395
 21
852.9345557270771
 31
0.0
100
AcDbText
  0
TEXT
  5
290
330
20
100
AcDbEntity
  8
BEM
100
AcDbText
 10
831.0450671395356
 20
774.7563642642229
 30
0.0
 40
2.5
  1

  7
GREEKS
100
AcDbText
  0
TEXT
  5
291
330
20
100
AcDbEntity
  8
VOLL
100
AcDbText
 10
816.9788741198143
 20
754.5731036071877
 30
0.0
 40
1.8
  1

  7
GREEKS
100
AcDbText
  0
TEXT
  5
292
330
20
100
AcDbEntity
  8
BEM
100
AcDbText
 10
851.4669389590988
 20
759.2988279304083
 30
0.0
 40
2.5
  1

 41
0.8
  7
GREEKS
100
AcDbText
  0
TEXT
  5
293
330
20
100
AcDbEntity
  8
BEM
100
AcDbText
 10
851.4669389590988
 20
754.6050593763562
 30
0.0
 40
2.5
  1

 41
0.8
  7
GREEKS
100
AcDbText
  0
TEXT
  5
294
330
20
100
AcDbEntity
  8
BEM
100
AcDbText
 10
851.4669389590988
 20
749.3672155576928
 30
0.0
 40
2.5
  1

 41
0.8
  7
GREEKS
100
AcDbText
  0
TEXT
  5
295
330
20
100
AcDbEntity
  8
BEM
100
AcDbText
 10
851.3939944817243
 20
744.8620266075951
 30
0.0
 40
1.8
  1

 41
0.8
  7
GREEKS
100
AcDbText
  0
TEXT
  5
296
330
20
100
AcDbEntity
  8
BEM
100
AcDbText
 10
838.7104236021132
 20
770.4536157038204
 30
0.0
 40
2.0
  1

 41
0.8
  7
GREEKS
 72
     1
 11
838.7104236021132
 21
770.4536157038204
 31
0.0
100
AcDbText
  0
TEXT
  5
297
330
20
100
AcDbEntity
  8
TEXT
100
AcDbText
 10
1148.811142323407
 20
760.1313391404134
 30
0.0
 40
2.5
  1
  
  7
GREEKS
 72
     1
 11
1151.073047085312
 21
760.1313391404134
 31
0.0
100
AcDbText
  0
TEXT
  5
298
330
20
100
AcDbEntity
  8
BEM
100
AcDbText
 10
1392.930859635889
 20
895.6902211708156
 30
0.0
 40
2.5
  1
 
 72
     4
 11
1394.061812016841
 21
895.6902211708156
 31
0.0
100
AcDbText
  0
TEXT
  5
299
330
20
100
AcDbEntity
  8
VOLL
100
AcDbText
 10
525.2266669706996
 20
671.2849858684523
 30
0.0
 40
1.8
  1

  7
GREEKS
100
AcDbText
  0
TEXT
  5
29A
330
20
100
AcDbEntity
  8
VOLL
100
AcDbText
 10
614.8928408963727
 20
676.5771025841717
 30
0.0
 40
1.8
  1

  7
GREEKS
100
AcDbText
  0
TEXT
  5
29B
330
20
100
AcDbEntity
  8
TEXT
100
AcDbText
 10
946.7251090999656
 20
682.1353381173972
 30
0.0
 40
2.5
  1
  
  7
GREEKS
 72
     1
 11
948.9870138618703
 21
682.1353381173972
 31
0.0
100
AcDbText
  0
TEXT
  5
29C
330
20
100
AcDbEntity
  8
BEM
100
AcDbText
 10
1190.844826412448
 20
817.6942201477995
 30
0.0
 40
2.5
  1
 
 72
     4
 11
1191.9757787934
 21
817.6942201477995
 31
0.0
100
AcDbText
  0
TEXT
  5
29D
330
20
100
AcDbEntity
  8
BEM
100
AcDbText
 10
756.5341705422971
 20
700.2138167753331
 30
0.0
 40
2.5
  1

  7
GREEKS
100
AcDbText
  0
TEXT
  5
29E
330
20
100
AcDbEntity
  8
VOLL
100
AcDbText
 10
742.4679775225757
 20
680.030556118298
 30
0.0
 40
1.8
  1

  7
GREEKS
100
AcDbText
  0
TEXT
  5
29F
330
20
100
AcDbEntity
  8
BEM
100
AcDbText
 10
776.9560423618603
 20
684.7562804415185
 30
0.0
 40
2.5
  1

 41
0.8
  7
GREEKS
100
AcDbText
  0
TEXT
  5
2A0
330
20
100
AcDbEntity
  8
BEM
100
AcDbText
 10
776.9560423618603
 20
680.0625118874664
 30
0.0
 40
2.5
  1

 41
0.8
  7
GREEKS
100
AcDbText
  0
TEXT
  5
2A1
330
20
100
AcDbEntity
  8
BEM
100
AcDbText
 10
776.9560423618603
 20
674.824668068803
 30
0.0
 40
2.5
  1

 41
0.8
  7
GREEKS
100
AcDbText
  0
TEXT
  5
2A2
330
20
100
AcDbEntity
  8
BEM
100
AcDbText
 10
776.883097884486
 20
670.3194791187054
 30
0.0
 40
1.8
  1

 41
0.8
  7
GREEKS
100
AcDbText
  0
TEXT
  5
2A3
330
20
100
AcDbEntity
  8
BEM
100
AcDbText
 10
764.1995270048747
 20
695.9110682149306
 30
0.0
 40
2.0
  1

 41
0.8
  7
GREEKS
 72
     1
 11
764.1995270048747
 21
695.9110682149306
 31
0.0
100
AcDbText
  0
TEXT
  5
2A4
330
20
100
AcDbEntity
  8
TEXT
100
AcDbText
 10
1074.300245726168
 20
685.5887916515236
 30
0.0
 40
2.5
  1
  
  7
GREEKS
 72
     1
 11
1076.562150488073
 21
685.5887916515236
 31
0.0
100
AcDbText
  0
TEXT
  5
2A5
330
20
100
AcDbEntity
  8
BEM
100
AcDbText
 10
1318.419963038651
 20
821.1476736819259
 30
0.0
 40
2.5
  1
 
 72
     4
 11
1319.550915419603
 21
821.1476736819259
 31
0.0
100
AcDbText
  0
TEXT
  5
2A6
330
20
100
AcDbEntity
  8
VOLL
100
AcDbText
 10
501.7550327733322
 20
713.2396299061725
 30
0.0
 40
1.8
  1

  7
GREEKS
100
AcDbText
  0
TEXT
  5
2A7
330
20
100
AcDbEntity
  8
VOLL
100
AcDbText
 10
591.4212066990053
 20
718.5317466218918
 30
0.0
 40
1.8
  1

  7
GREEKS
100
AcDbText
  0
TEXT
  5
2A8
330
20
100
AcDbEntity
  8
TEXT
100
AcDbText
 10
923.2534749025981
 20
724.0899821551174
 30
0.0
 40
2.5
  1
  
  7
GREEKS
 72
     1
 11
925.515379664503
 21
724.0899821551174
 31
0.0
100
AcDbText
  0
TEXT
  5
2A9
330
20
100
AcDbEntity
  8
BEM
100
AcDbText
 10
1167.37319221508
 20
859.6488641855197
 30
0.0
 40
2.5
  1
 
 72
     4
 11
1168.504144596032
 21
859.6488641855197
 31
0.0
100
AcDbText
  0
TEXT
  5
2AA
330
20
100
AcDbEntity
  8
BEM
100
AcDbText
 10
733.0625363449297
 20
742.1684608130533
 30
0.0
 40
2.5
  1

  7
GREEKS
100
AcDbText
  0
TEXT
  5
2AB
330
20
100
AcDbEntity
  8
VOLL
100
AcDbText
 10
718.9963433252082
 20
721.9852001560182
 30
0.0
 40
1.8
  1

  7
GREEKS
100
AcDbText
  0
TEXT
  5
2AC
330
20
100
AcDbEntity
  8
BEM
100
AcDbText
 10
753.4844081644929
 20
726.7109244792388
 30
0.0
 40
2.5
  1

 41
0.8
  7
GREEKS
100
AcDbText
  0
TEXT
  5
2AD
330
20
100
AcDbEntity
  8
BEM
100
AcDbText
 10
753.4844081644929
 20
722.0171559251866
 30
0.0
 40
2.5
  1

 41
0.8
  7
GREEKS
100
AcDbText
  0
TEXT
  5
2AE
330
20
100
AcDbEntity
  8
BEM
100
AcDbText
 10
753.4844081644929
 20
716.7793121065232
 30
0.0
 40
2.5
  1

 41
0.8
  7
GREEKS
100
AcDbText
  0
TEXT
  5
2AF
330
20
100
AcDbEntity
  8
BEM
100
AcDbText
 10
753.4114636871186
 20
712.2741231564255
 30
0.0
 40
1.8
  1

 41
0.8
  7
GREEKS
100
AcDbText
  0
TEXT
  5
2B0
330
20
100
AcDbEntity
  8
BEM
100
AcDbText
 10
740.7278928075072
 20
737.8657122526508
 30
0.0
 40
2.0
  1

 41
0.8
  7
GREEKS
 72
     1
 11
740.7278928075072
 21
737.8657122526508
 31
0.0
100
AcDbText
  0
TEXT
  5
2B1
330
20
100
AcDbEntity
  8
TEXT
100
AcDbText
 10
1050.828611528801
 20
727.5434356892438
 30
0.0
 40
2.5
  1
  
  7
GREEKS
 72
     1
 11
1053.090516290706
 21
727.5434356892438
 31
0.0
100
AcDbText
  0
TEXT
  5
2B2
330
20
100
AcDbEntity
  8
BEM
100
AcDbText
 10
1294.948328841283
 20
863.1023177196459
 30
0.0
 40
2.5
  1
 
 72
     4
 11
1296.079281222236
 21
863.1023177196459
 31
0.0
100
AcDbText
  0
TEXT
  5
2B3
330
20
100
AcDbEntity
  8
VOLL
100
AcDbText
 10
498.1987245616088
 20
709.1023456652197
 30
0.0
 40
1.8
  1

  7
GREEKS
100
AcDbText
  0
TEXT
  5
2B4
330
20
100
AcDbEntity
  8
TEXT
100
AcDbText
 10
830.0309927652017
 20
714.6605811984452
 30
0.0
 40
2.5
  1
  
  7
GREEKS
 72
     1
 11
832.2928975271064
 21
714.6605811984452
 31
0.0
100
AcDbText
  0
TEXT
  5
2B5
330
20
100
AcDbEntity
  8
BEM
100
AcDbText
 10
1074.150710077684
 20
850.2194632288475
 30
0.0
 40
2.5
  1
 
 72
     4
 11
1075.281662458636
 21
850.2194632288475
 31
0.0
100
AcDbText
  0
TEXT
  5
2B6
330
20
100
AcDbEntity
  8
BEM
100
AcDbText
 10
936.2956001882153
 20
722.1235428605974
 30
0.0
 40
2.5
  1

  7
GREEKS
100
AcDbText
  0
TEXT
  5
2B7
330
20
100
AcDbEntity
  8
BEM
100
AcDbText
 10
956.8573862479276
 20
707.1850950082773
 30
0.0
 40
2.5
  1

 41
0.8
  7
GREEKS
100
AcDbText
  0
TEXT
  5
2B8
330
20
100
AcDbEntity
  8
BEM
100
AcDbText
 10
956.7180562296407
 20
697.1066449435643
 30
0.0
 40
2.5
  1

 41
0.8
  7
GREEKS
100
AcDbText
  0
TEXT
  5
2B9
330
20
100
AcDbEntity
  8
BEM
100
AcDbText
 10
956.771316113403
 20
702.05242787988
 30
0.0
 40
2.5
  1

 41
0.8
  7
GREEKS
100
AcDbText
  0
TEXT
  5
2BA
330
20
100
AcDbEntity
  8
BEM
100
AcDbText
 10
956.8138341512991
 20
692.0118573039242
 30
0.0
 40
1.8
  1

 41
0.8
  7
GREEKS
100
AcDbText
  0
TEXT
  5
2BB
330
20
100
AcDbEntity
  8
BEM
100
AcDbText
 10
944.2415189077175
 20
717.4502017910924
 30
0.0
 40
2.0
  1

 41
0.8
  7
GREEKS
 72
     1
 11
944.2415189077175
 21
717.4502017910924
 31
0.0
100
AcDbText
  0
TEXT
  5
2BC
330
20
100
AcDbEntity
  8
VOLL
100
AcDbText
 10
677.4366584324211
 20
703.4135804308342
 30
0.0
 40
1.8
  1

  7
GREEKS
100
AcDbText
  0
TEXT
  5
2BD
330
20
100
AcDbEntity
  8
TEXT
100
AcDbText
 10
1009.268926636014
 20
708.9718159640598
 30
0.0
 40
2.5
  1
  
  7
GREEKS
 72
     1
 11
1011.530831397918
 21
708.9718159640598
 31
0.0
100
AcDbText
  0
TEXT
  5
2BE
330
20
100
AcDbEntity
  8
BEM
100
AcDbText
 10
1253.388643948496
 20
844.530697994462
 30
0.0
 40
2.5
  1
 
 72
     4
 11
1254.519596329449
 21
844.530697994462
 31
0.0
100
AcDbText
  0
TEXT
  5
2BF
330
20
100
AcDbEntity
  8
BEM
100
AcDbText
 10
791.9256768105884
 20
766.3525065316079
 30
0.0
 40
2.5
  1

  7
GREEKS
100
AcDbText
  0
TEXT
  5
2C0
330
20
100
AcDbEntity
  8
VOLL
100
AcDbText
 10
777.8594837908671
 20
746.1692458745727
 30
0.0
 40
1.8
  1

  7
GREEKS
100
AcDbText
  0
TEXT
  5
2C1
330
20
100
AcDbEntity
  8
BEM
100
AcDbText
 10
812.3475486301517
 20
750.8949701977932
 30
0.0
 40
2.5
  1

 41
0.8
  7
GREEKS
100
AcDbText
  0
TEXT
  5
2C2
330
20
100
AcDbEntity
  8
BEM
100
AcDbText
 10
812.3475486301517
 20
746.2012016437412
 30
0.0
 40
2.5
  1

 41
0.8
  7
GREEKS
100
AcDbText
  0
TEXT
  5
2C3
330
20
100
AcDbEntity
  8
BEM
100
AcDbText
 10
812.3475486301517
 20
740.9633578250777
 30
0.0
 40
2.5
  1

 41
0.8
  7
GREEKS
100
AcDbText
  0
TEXT
  5
2C4
330
20
100
AcDbEntity
  8
BEM
100
AcDbText
 10
812.2746041527772
 20
736.45816887498
 30
0.0
 40
1.8
  1

 41
0.8
  7
GREEKS
100
AcDbText
  0
TEXT
  5
2C5
330
20
100
AcDbEntity
  8
BEM
100
AcDbText
 10
799.5910332731661
 20
762.0497579712053
 30
0.0
 40
2.0
  1

 41
0.8
  7
GREEKS
 72
     1
 11
799.5910332731661
 21
762.0497579712053
 31
0.0
100
AcDbText
  0
TEXT
  5
2C6
330
20
100
AcDbEntity
  8
TEXT
100
AcDbText
 10
1109.69175199446
 20
751.7274814077983
 30
0.0
 40
2.5
  1
  
  7
GREEKS
 72
     1
 11
1111.953656756365
 21
751.7274814077983
 31
0.0
100
AcDbText
  0
TEXT
  5
2C7
330
20
100
AcDbEntity
  8
BEM
100
AcDbText
 10
1353.811469306942
 20
887.2863634382005
 30
0.0
 40
2.5
  1
 
 72
     4
 11
1354.942421687894
 21
887.2863634382005
 31
0.0
100
AcDbText
  0
TEXT
  5
2C8
330
20
100
AcDbEntity
  8
VOLL
100
AcDbText
 10
486.1072766417524
 20
662.8811281358373
 30
0.0
 40
1.8
  1

  7
GREEKS
100
AcDbText
  0
TEXT
  5
2C9
330
20
100
AcDbEntity
  8
VOLL
100
AcDbText
 10
575.7734505674256
 20
668.1732448515567
 30
0.0
 40
1.8
  1

  7
GREEKS
100
AcDbText
  0
TEXT
  5
2CA
330
20
100
AcDbEntity
  8
TEXT
100
AcDbText
 10
907.6057187710185
 20
673.7314803847822
 30
0.0
 40
2.5
  1
  
  7
GREEKS
 72
     1
 11
909.8676235329232
 21
673.7314803847822
 31
0.0
100
AcDbText
  0
TEXT
  5
2CB
330
20
100
AcDbEntity
  8
BEM
100
AcDbText
 10
1151.7254360835
 20
809.2903624151844
 30
0.0
 40
2.5
  1
 
 72
     4
 11
1152.856388464452
 21
809.2903624151844
 31
0.0
100
AcDbText
  0
TEXT
  5
2CC
330
20
100
AcDbEntity
  8
BEM
100
AcDbText
 10
717.41478021335
 20
691.8099590427181
 30
0.0
 40
2.5
  1

  7
GREEKS
100
AcDbText
  0
TEXT
  5
2CD
330
20
100
AcDbEntity
  8
VOLL
100
AcDbText
 10
703.3485871936286
 20
671.6266983856829
 30
0.0
 40
1.8
  1

  7
GREEKS
100
AcDbText
  0
TEXT
  5
2CE
330
20
100
AcDbEntity
  8
BEM
100
AcDbText
 10
737.8366520329132
 20
676.3524227089035
 30
0.0
 40
2.5
  1

 41
0.8
  7
GREEKS
100
AcDbText
  0
TEXT
  5
2CF
330
20
100
AcDbEntity
  8
BEM
100
AcDbText
 10
737.8366520329132
 20
671.6586541548514
 30
0.0
 40
2.5
  1

 41
0.8
  7
GREEKS
100
AcDbText
  0
TEXT
  5
2D0
330
20
100
AcDbEntity
  8
BEM
100
AcDbText
 10
737.8366520329132
 20
666.4208103361879
 30
0.0
 40
2.5
  1

 41
0.8
  7
GREEKS
100
AcDbText
  0
TEXT
  5
2D1
330
20
100
AcDbEntity
  8
BEM
100
AcDbText
 10
737.7637075555388
 20
661.9156213860904
 30
0.0
 40
1.8
  1

 41
0.8
  7
GREEKS
100
AcDbText
  0
TEXT
  5
2D2
330
20
100
AcDbEntity
  8
BEM
100
AcDbText
 10
725.0801366759276
 20
687.5072104823155
 30
0.0
 40
2.0
  1

 41
0.8
  7
GREEKS
 72
     1
 11
725.0801366759276
 21
687.5072104823155
 31
0.0
100
AcDbText
  0
TEXT
  5
2D3
330
20
100
AcDbEntity
  8
TEXT
100
AcDbText
 10
1035.180855397221
 20
677.1849339189085
 30
0.0
 40
2.5
  1
  
  7
GREEKS
 72
     1
 11
1037.442760159126
 21
677.1849339189085
 31
0.0
100
AcDbText
  0
TEXT
  5
2D4
330
20
100
AcDbEntity
  8
BEM
100
AcDbText
 10
1279.300572709703
 20
812.7438159493108
 30
0.0
 40
2.5
  1
 
 72
     4
 11
1280.431525090656
 21
812.7438159493108
 31
0.0
100
AcDbText
  0
TEXT
  5
2D5
330
20
100
AcDbEntity
  8
VOLL
100
AcDbText
 10
462.635642444385
 20
704.8357721735575
 30
0.0
 40
1.8
  1

  7
GREEKS
100
AcDbText
  0
TEXT
  5
2D6
330
20
100
AcDbEntity
  8
VOLL
100
AcDbText
 10
552.301816370058
 20
710.1278888892768
 30
0.0
 40
1.8
  1

  7
GREEKS
100
AcDbText
  0
TEXT
  5
2D7
330
20
100
AcDbEntity
  8
TEXT
100
AcDbText
 10
884.134084573651
 20
715.6861244225024
 30
0.0
 40
2.5
  1
  
  7
GREEKS
 72
     1
 11
886.3959893355559
 21
715.6861244225024
 31
0.0
100
AcDbText
  0
TEXT
  5
2D8
330
20
100
AcDbEntity
  8
BEM
100
AcDbText
 10
1128.253801886133
 20
851.2450064529046
 30
0.0
 40
2.5
  1
 
 72
     4
 11
1129.384754267085
 21
851.2450064529046
 31
0.0
100
AcDbText
  0
TEXT
  5
2D9
330
20
100
AcDbEntity
  8
BEM
100
AcDbText
 10
693.9431460159826
 20
733.7646030804383
 30
0.0
 40
2.5
  1

  7
GREEKS
100
AcDbText
  0
TEXT
  5
2DA
330
20
100
AcDbEntity
  8
VOLL
100
AcDbText
 10
679.8769529962612
 20
713.5813424234031
 30
0.0
 40
1.8
  1

  7
GREEKS
100
AcDbText
  0
TEXT
  5
2DB
330
20
100
AcDbEntity
  8
BEM
100
AcDbText
 10
714.3650178355458
 20
718.3070667466238
 30
0.0
 40
2.5
  1

 41
0.8
  7
GREEKS
100
AcDbText
  0
TEXT
  5
2DC
330
20
100
AcDbEntity
  8
BEM
100
AcDbText
 10
714.3650178355458
 20
713.6132981925716
 30
0.0
 40
2.5
  1

 41
0.8
  7
GREEKS
100
AcDbText
  0
TEXT
  5
2DD
330
20
100
AcDbEntity
  8
BEM
100
AcDbText
 10
714.3650178355458
 20
708.3754543739082
 30
0.0
 40
2.5
  1

 41
0.8
  7
GREEKS
100
AcDbText
  0
TEXT
  5
2DE
330
20
100
AcDbEntity
  8
BEM
100
AcDbText
 10
714.2920733581713
 20
703.8702654238104
 30
0.0
 40
1.8
  1

 41
0.8
  7
GREEKS
100
AcDbText
  0
TEXT
  5
2DF
330
20
100
AcDbEntity
  8
BEM
100
AcDbText
 10
701.6085024785602
 20
729.4618545200357
 30
0.0
 40
2.0
  1

 41
0.8
  7
GREEKS
 72
     1
 11
701.6085024785602
 21
729.4618545200357
 31
0.0
100
AcDbText
  0
TEXT
  5
2E0
330
20
100
AcDbEntity
  8
TEXT
100
AcDbText
 10
1011.709221199854
 20
719.1395779566287
 30
0.0
 40
2.5
  1
  
  7
GREEKS
 72
     1
 11
1013.971125961758
 21
719.1395779566287
 31
0.0
100
AcDbText
  0
TEXT
  5
2E1
330
20
100
AcDbEntity
  8
BEM
100
AcDbText
 10
1255.828938512336
 20
854.698459987031
 30
0.0
 40
2.5
  1
 
 72
     4
 11
1256.959890893288
 21
854.698459987031
 31
0.0
100
AcDbText
  0
TEXT
  5
2E2
330
20
100
AcDbEntity
  8
VOLL
100
AcDbText
 10
484.5683265998994
 20
753.181154164507
 30
0.0
 40
1.8
  1

  7
GREEKS
100
AcDbText
  0
TEXT
  5
2E3
330
20
100
AcDbEntity
  8
TEXT
100
AcDbText
 10
816.4005948034924
 20
758.7393896977324
 30
0.0
 40
2.5
  1
  
  7
GREEKS
 72
     1
 11
818.6624995653973
 21
758.7393896977324
 31
0.0
100
AcDbText
  0
TEXT
  5
2E4
330
20
100
AcDbEntity
  8
BEM
100
AcDbText
 10
1060.520312115974
 20
894.2982717281347
 30
0.0
 40
2.5
  1
 
 72
     4
 11
1061.651264496927
 21
894.2982717281347
 31
0.0
100
AcDbText
  0
TEXT
  5
2E5
330
20
100
AcDbEntity
  8
BEM
100
AcDbText
 10
711.5922153897111
 20
773.5196884491052
 30
0.0
 40
2.5
  1

  7
GREEKS
100
AcDbText
  0
TEXT
  5
2E6
330
20
100
AcDbEntity
  8
VOLL
100
AcDbText
 10
697.5260223699897
 20
753.33642779207
 30
0.0
 40
1.8
  1

  7
GREEKS
100
AcDbText
  0
TEXT
  5
2E7
330
20
100
AcDbEntity
  8
BEM
100
AcDbText
 10
732.0140872092743
 20
758.0621521152907
 30
0.0
 40
2.5
  1

 41
0.8
  7
GREEKS
100
AcDbText
  0
TEXT
  5
2E8
330
20
100
AcDbEntity
  8
BEM
100
AcDbText
 10
732.0140872092743
 20
753.3683835612385
 30
0.0
 40
2.5
  1

 41
0.8
  7
GREEKS
100
AcDbText
  0
TEXT
  5
2E9
330
20
100
AcDbEntity
  8
BEM
100
AcDbText
 10
732.0140872092743
 20
748.1305397425749
 30
0.0
 40
2.5
  1

 41
0.8
  7
GREEKS
100
AcDbText
  0
TEXT
  5
2EA
330
20
100
AcDbEntity
  8
BEM
100
AcDbText
 10
731.9411427318998
 20
743.6253507924773
 30
0.0
 40
1.8
  1

 41
0.8
  7
GREEKS
100
AcDbText
  0
TEXT
  5
2EB
330
20
100
AcDbEntity
  8
BEM
100
AcDbText
 10
719.2575718522887
 20
769.2169398887026
 30
0.0
 40
2.0
  1

 41
0.8
  7
GREEKS
 72
     1
 11
719.2575718522887
 21
769.2169398887026
 31
0.0
100
AcDbText
  0
TEXT
  5
2EC
330
20
100
AcDbEntity
  8
TEXT
100
AcDbText
 10
1029.358290573583
 20
758.8946633252955
 30
0.0
 40
2.5
  1
  
  7
GREEKS
 72
     1
 11
1031.620195335487
 21
758.8946633252955
 31
0.0
100
AcDbText
  0
TEXT
  5
2ED
330
20
100
AcDbEntity
  8
BEM
100
AcDbText
 10
1273.478007886065
 20
894.4535453556978
 30
0.0
 40
2.5
  1
 
 72
     4
 11
1274.608960267017
 21
894.4535453556978
 31
0.0
100
AcDbText
  0
TEXT
  5
2EE
330
20
100
AcDbEntity
  8
VOLL
100
AcDbText
 10
696.6407227757224
 20
513.8742660306256
 30
0.0
 40
1.8
  1

  7
GREEKS
100
AcDbText
  0
TEXT
  5
2EF
330
20
100
AcDbEntity
  8
TEXT
100
AcDbText
 10
1028.472990979315
 20
519.4325015638512
 30
0.0
 40
2.5
  1
  
  7
GREEKS
 72
     1
 11
1030.73489574122
 21
519.4325015638512
 31
0.0
100
AcDbText
  0
TEXT
  5
2F0
330
20
100
AcDbEntity
  8
BEM
100
AcDbText
 10
1272.592708291797
 20
654.9913835942533
 30
0.0
 40
2.5
  1
 
 72
     4
 11
1273.72366067275
 21
654.9913835942533
 31
0.0
100
AcDbText
  0
TEXT
  5
2F1
330
20
100
AcDbEntity
  8
BEM
100
AcDbText
 10
1134.737598402329
 20
526.8954632260034
 30
0.0
 40
2.5
  1

  7
GREEKS
100
AcDbText
  0
TEXT
  5
2F2
330
20
100
AcDbEntity
  8
BEM
100
AcDbText
 10
1155.299384462041
 20
511.9570153736833
 30
0.0
 40
2.5
  1

 41
0.8
  7
GREEKS
100
AcDbText
  0
TEXT
  5
2F3
330
20
100
AcDbEntity
  8
BEM
100
AcDbText
 10
1155.160054443754
 20
501.8785653089702
 30
0.0
 40
2.5
  1

 41
0.8
  7
GREEKS
100
AcDbText
  0
TEXT
  5
2F4
330
20
100
AcDbEntity
  8
BEM
100
AcDbText
 10
1155.213314327516
 20
506.8243482452859
 30
0.0
 40
2.5
  1

 41
0.8
  7
GREEKS
100
AcDbText
  0
TEXT
  5
2F5
330
20
100
AcDbEntity
  8
BEM
100
AcDbText
 10
1155.255832365412
 20
496.7837776693301
 30
0.0
 40
1.8
  1

 41
0.8
  7
GREEKS
100
AcDbText
  0
TEXT
  5
2F6
330
20
100
AcDbEntity
  8
BEM
100
AcDbText
 10
1142.683517121831
 20
522.2221221564985
 30
0.0
 40
2.0
  1

 41
0.8
  7
GREEKS
 72
     1
 11
1142.683517121831
 21
522.2221221564985
 31
0.0
100
AcDbText
  0
TEXT
  5
2F7
330
20
100
AcDbEntity
  8
VOLL
100
AcDbText
 10
875.8786566465348
 20
508.1855007962402
 30
0.0
 40
1.8
  1

  7
GREEKS
100
AcDbText
  0
TEXT
  5
2F8
330
20
100
AcDbEntity
  8
TEXT
100
AcDbText
 10
1207.710924850127
 20
513.7437363294657
 30
0.0
 40
2.5
  1
  
  7
GREEKS
 72
     1
 11
1209.972829612032
 21
513.7437363294657
 31
0.0
100
AcDbText
  0
TEXT
  5
2F9
330
20
100
AcDbEntity
  8
BEM
100
AcDbText
 10
1451.83064216261
 20
649.3026183598678
 30
0.0
 40
2.5
  1
 
 72
     4
 11
1452.961594543562
 21
649.3026183598678
 31
0.0
100
AcDbText
  0
TEXT
  5
2FA
330
20
100
AcDbEntity
  8
BEM
100
AcDbText
 10
990.367675024702
 20
571.1244268970138
 30
0.0
 40
2.5
  1

  7
GREEKS
100
AcDbText
  0
TEXT
  5
2FB
330
20
100
AcDbEntity
  8
VOLL
100
AcDbText
 10
976.3014820049807
 20
550.9411662399786
 30
0.0
 40
1.8
  1

  7
GREEKS
100
AcDbText
  0
TEXT
  5
2FC
330
20
100
AcDbEntity
  8
BEM
100
AcDbText
 10
1010.789546844265
 20
555.6668905631993
 30
0.0
 40
2.5
  1

 41
0.8
  7
GREEKS
100
AcDbText
  0
TEXT
  5
2FD
330
20
100
AcDbEntity
  8
BEM
100
AcDbText
 10
1010.789546844265
 20
550.9731220091471
 30
0.0
 40
2.5
  1

 41
0.8
  7
GREEKS
100
AcDbText
  0
TEXT
  5
2FE
330
20
100
AcDbEntity
  8
BEM
100
AcDbText
 10
1010.789546844265
 20
545.7352781904837
 30
0.0
 40
2.5
  1

 41
0.8
  7
GREEKS
100
AcDbText
  0
TEXT
  5
2FF
330
20
100
AcDbEntity
  8
BEM
100
AcDbText
 10
1010.71660236689
 20
541.2300892403861
 30
0.0
 40
1.8
  1

 41
0.8
  7
GREEKS
100
AcDbText
  0
TEXT
  5
300
330
20
100
AcDbEntity
  8
BEM
100
AcDbText
 10
998.0330314872796
 20
566.8216783366112
 30
0.0
 40
2.0
  1

 41
0.8
  7
GREEKS
 72
     1
 11
998.0330314872796
 21
566.8216783366112
 31
0.0
100
AcDbText
  0
TEXT
  5
301
330
20
100
AcDbEntity
  8
TEXT
100
AcDbText
 10
1308.133750208574
 20
556.4994017732042
 30
0.0
 40
2.5
  1
  
  7
GREEKS
 72
     1
 11
1310.395654970478
 21
556.4994017732042
 31
0.0
100
AcDbText
  0
TEXT
  5
302
330
20
100
AcDbEntity
  8
BEM
100
AcDbText
 10
1552.253467521055
 20
692.0582838036064
 30
0.0
 40
2.5
  1
 
 72
     4
 11
1553.384419902008
 21
692.0582838036064
 31
0.0
100
AcDbText
  0
TEXT
  5
303
330
20
100
AcDbEntity
  8
VOLL
100
AcDbText
 10
684.5492748558661
 20
467.6530485012433
 30
0.0
 40
1.8
  1

  7
GREEKS
100
AcDbText
  0
TEXT
  5
304
330
20
100
AcDbEntity
  8
VOLL
100
AcDbText
 10
774.2154487815391
 20
472.9451652169626
 30
0.0
 40
1.8
  1

  7
GREEKS
100
AcDbText
  0
TEXT
  5
305
330
20
100
AcDbEntity
  8
TEXT
100
AcDbText
 10
1106.047716985132
 20
478.5034007501882
 30
0.0
 40
2.5
  1
  
  7
GREEKS
 72
     1
 11
1108.309621747037
 21
478.5034007501882
 31
0.0
100
AcDbText
  0
TEXT
  5
306
330
20
100
AcDbEntity
  8
BEM
100
AcDbText
 10
1350.167434297614
 20
614.0622827805904
 30
0.0
 40
2.5
  1
 
 72
     4
 11
1351.298386678566
 21
614.0622827805904
 31
0.0
100
AcDbText
  0
TEXT
  5
307
330
20
100
AcDbEntity
  8
BEM
100
AcDbText
 10
915.8567784274636
 20
496.581879408124
 30
0.0
 40
2.5
  1

  7
GREEKS
100
AcDbText
  0
TEXT
  5
308
330
20
100
AcDbEntity
  8
VOLL
100
AcDbText
 10
901.7905854077422
 20
476.3986187510889
 30
0.0
 40
1.8
  1

  7
GREEKS
100
AcDbText
  0
TEXT
  5
309
330
20
100
AcDbEntity
  8
BEM
100
AcDbText
 10
936.2786502470267
 20
481.1243430743095
 30
0.0
 40
2.5
  1

 41
0.8
  7
GREEKS
100
AcDbText
  0
TEXT
  5
30A
330
20
100
AcDbEntity
  8
BEM
100
AcDbText
 10
936.2786502470267
 20
476.4305745202573
 30
0.0
 40
2.5
  1

 41
0.8
  7
GREEKS
100
AcDbText
  0
TEXT
  5
30B
330
20
100
AcDbEntity
  8
BEM
100
AcDbText
 10
936.2786502470267
 20
471.1927307015939
 30
0.0
 40
2.5
  1

 41
0.8
  7
GREEKS
100
AcDbText
  0
TEXT
  5
30C
330
20
100
AcDbEntity
  8
BEM
100
AcDbText
 10
936.2057057696524
 20
466.6875417514963
 30
0.0
 40
1.8
  1

 41
0.8
  7
GREEKS
100
AcDbText
  0
TEXT
  5
30D
330
20
100
AcDbEntity
  8
BEM
100
AcDbText
 10
923.5221348900411
 20
492.2791308477215
 30
0.0
 40
2.0
  1

 41
0.8
  7
GREEKS
 72
     1
 11
923.5221348900411
 21
492.2791308477215
 31
0.0
100
AcDbText
  0
TEXT
  5
30E
330
20
100
AcDbEntity
  8
TEXT
100
AcDbText
 10
1233.622853611335
 20
481.9568542843144
 30
0.0
 40
2.5
  1
  
  7
GREEKS
 72
     1
 11
1235.88475837324
 21
481.9568542843144
 31
0.0
100
AcDbText
  0
TEXT
  5
30F
330
20
100
AcDbEntity
  8
BEM
100
AcDbText
 10
1477.742570923817
 20
617.5157363147167
 30
0.0
 40
2.5
  1
 
 72
     4
 11
1478.873523304769
 21
617.5157363147167
 31
0.0
100
AcDbText
  0
TEXT
  5
310
330
20
100
AcDbEntity
  8
VOLL
100
AcDbText
 10
661.0776406584987
 20
509.6076925389635
 30
0.0
 40
1.8
  1

  7
GREEKS
100
AcDbText
  0
TEXT
  5
311
330
20
100
AcDbEntity
  8
VOLL
100
AcDbText
 10
750.7438145841717
 20
514.8998092546828
 30
0.0
 40
1.8
  1

  7
GREEKS
100
AcDbText
  0
TEXT
  5
312
330
20
100
AcDbEntity
  8
TEXT
100
AcDbText
 10
1082.576082787764
 20
520.4580447879084
 30
0.0
 40
2.5
  1
  
  7
GREEKS
 72
     1
 11
1084.837987549669
 21
520.4580447879084
 31
0.0
100
AcDbText
  0
TEXT
  5
313
330
20
100
AcDbEntity
  8
BEM
100
AcDbText
 10
1326.695800100247
 20
656.0169268183106
 30
0.0
 40
2.5
  1
 
 72
     4
 11
1327.826752481199
 21
656.0169268183106
 31
0.0
100
AcDbText
  0
TEXT
  5
314
330
20
100
AcDbEntity
  8
BEM
100
AcDbText
 10
892.3851442300962
 20
538.5365234458443
 30
0.0
 40
2.5
  1

  7
GREEKS
100
AcDbText
  0
TEXT
  5
315
330
20
100
AcDbEntity
  8
VOLL
100
AcDbText
 10
878.3189512103747
 20
518.3532627888091
 30
0.0
 40
1.8
  1

  7
GREEKS
100
AcDbText
  0
TEXT
  5
316
330
20
100
AcDbEntity
  8
BEM
100
AcDbText
 10
912.8070160496594
 20
523.0789871120297
 30
0.0
 40
2.5
  1

 41
0.8
  7
GREEKS
100
AcDbText
  0
TEXT
  5
317
330
20
100
AcDbEntity
  8
BEM
100
AcDbText
 10
912.8070160496594
 20
518.3852185579776
 30
0.0
 40
2.5
  1

 41
0.8
  7
GREEKS
100
AcDbText
  0
TEXT
  5
318
330
20
100
AcDbEntity
  8
BEM
100
AcDbText
 10
912.8070160496594
 20
513.147374739314
 30
0.0
 40
2.5
  1

 41
0.8
  7
GREEKS
100
AcDbText
  0
TEXT
  5
319
330
20
100
AcDbEntity
  8
BEM
100
AcDbText
 10
912.734071572285
 20
508.6421857892164
 30
0.0
 40
1.8
  1

 41
0.8
  7
GREEKS
100
AcDbText
  0
TEXT
  5
31A
330
20
100
AcDbEntity
  8
BEM
100
AcDbText
 10
900.0505006926736
 20
534.2337748854418
 30
0.0
 40
2.0
  1

 41
0.8
  7
GREEKS
 72
     1
 11
900.0505006926736
 21
534.2337748854418
 31
0.0
100
AcDbText
  0
TEXT
  5
31B
330
20
100
AcDbEntity
  8
TEXT
100
AcDbText
 10
1210.151219413967
 20
523.9114983220347
 30
0.0
 40
2.5
  1
  
  7
GREEKS
 72
     1
 11
1212.413124175872
 21
523.9114983220347
 31
0.0
100
AcDbText
  0
TEXT
  5
31C
330
20
100
AcDbEntity
  8
BEM
100
AcDbText
 10
1454.270936726449
 20
659.4703803524368
 30
0.0
 40
2.5
  1
 
 72
     4
 11
1455.401889107402
 21
659.4703803524368
 31
0.0
100
AcDbText
  0
TEXT
  5
31D
330
20
100
AcDbEntity
  8
VOLL
100
AcDbText
 10
683.010324814013
 20
557.9530745299129
 30
0.0
 40
1.8
  1

  7
GREEKS
100
AcDbText
  0
TEXT
  5
31E
330
20
100
AcDbEntity
  8
TEXT
100
AcDbText
 10
1014.842593017606
 20
563.5113100631383
 30
0.0
 40
2.5
  1
  
  7
GREEKS
 72
     1
 11
1017.104497779511
 21
563.5113100631383
 31
0.0
100
AcDbText
  0
TEXT
  5
31F
330
20
100
AcDbEntity
  8
BEM
100
AcDbText
 10
1258.962310330088
 20
699.0701920935407
 30
0.0
 40
2.5
  1
 
 72
     4
 11
1260.093262711041
 21
699.0701920935407
 31
0.0
100
AcDbText
  0
TEXT
  5
320
330
20
100
AcDbEntity
  8
BEM
100
AcDbText
 10
910.0342136038246
 20
578.2916088145111
 30
0.0
 40
2.5
  1

  7
GREEKS
100
AcDbText
  0
TEXT
  5
321
330
20
100
AcDbEntity
  8
VOLL
100
AcDbText
 10
895.9680205841031
 20
558.108348157476
 30
0.0
 40
1.8
  1

  7
GREEKS
100
AcDbText
  0
TEXT
  5
322
330
20
100
AcDbEntity
  8
BEM
100
AcDbText
 10
930.4560854233878
 20
562.8340724806967
 30
0.0
 40
2.5
  1

 41
0.8
  7
GREEKS
100
AcDbText
  0
TEXT
  5
323
330
20
100
AcDbEntity
  8
BEM
100
AcDbText
 10
930.4560854233878
 20
558.1403039266445
 30
0.0
 40
2.5
  1

 41
0.8
  7
GREEKS
100
AcDbText
  0
TEXT
  5
324
330
20
100
AcDbEntity
  8
BEM
100
AcDbText
 10
930.4560854233878
 20
552.9024601079809
 30
0.0
 40
2.5
  1

 41
0.8
  7
GREEKS
100
AcDbText
  0
TEXT
  5
325
330
20
100
AcDbEntity
  8
BEM
100
AcDbText
 10
930.3831409460135
 20
548.3972711578833
 30
0.0
 40
1.8
  1

 41
0.8
  7
GREEKS
100
AcDbText
  0
TEXT
  5
326
330
20
100
AcDbEntity
  8
BEM
100
AcDbText
 10
917.6995700664022
 20
573.9888602541086
 30
0.0
 40
2.0
  1

 41
0.8
  7
GREEKS
 72
     1
 11
917.6995700664022
 21
573.9888602541086
 31
0.0
100
AcDbText
  0
TEXT
  5
327
330
20
100
AcDbEntity
  8
TEXT
100
AcDbText
 10
1227.800288787696
 20
563.6665836907016
 30
0.0
 40
2.5
  1
  
  7
GREEKS
 72
     1
 11
1230.062193549601
 21
563.6665836907016
 31
0.0
100
AcDbText
  0
TEXT
  5
328
330
20
100
AcDbEntity
  8
BEM
100
AcDbText
 10
1471.920006100178
 20
699.2254657211037
 30
0.0
 40
2.5
  1
 
 72
     4
 11
1473.05095848113
 21
699.2254657211037
 31
0.0
100
AcDbText
  0
TEXT
  5
329
330
20
100
AcDbEntity
  8
VOLL
100
AcDbText
 10
559.1034662772998
 20
551.5455947592188
 30
0.0
 40
1.8
  1

  7
GREEKS
100
AcDbText
  0
TEXT
  5
32A
330
20
100
AcDbEntity
  8
TEXT
100
AcDbText
 10
890.9357344808928
 20
557.1038302924444
 30
0.0
 40
2.5
  1
  
  7
GREEKS
 72
     1
 11
893.1976392427975
 21
557.1038302924444
 31
0.0
100
AcDbText
  0
TEXT
  5
32B
330
20
100
AcDbEntity
  8
BEM
100
AcDbText
 10
1135.055451793375
 20
692.6627123228465
 30
0.0
 40
2.5
  1
 
 72
     4
 11
1136.186404174327
 21
692.6627123228465
 31
0.0
100
AcDbText
  0
TEXT
  5
32C
330
20
100
AcDbEntity
  8
BEM
100
AcDbText
 10
997.2003419039065
 20
564.5667919545965
 30
0.0
 40
2.5
  1

  7
GREEKS
100
AcDbText
  0
TEXT
  5
32D
330
20
100
AcDbEntity
  8
BEM
100
AcDbText
 10
1017.762127963618
 20
549.6283441022765
 30
0.0
 40
2.5
  1

 41
0.8
  7
GREEKS
100
AcDbText
  0
TEXT
  5
32E
330
20
100
AcDbEntity
  8
BEM
100
AcDbText
 10
1017.622797945332
 20
539.5498940375634
 30
0.0
 40
2.5
  1

 41
0.8
  7
GREEKS
100
AcDbText
  0
TEXT
  5
32F
330
20
100
AcDbEntity
  8
BEM
100
AcDbText
 10
1017.676057829094
 20
544.4956769738791
 30
0.0
 40
2.5
  1

 41
0.8
  7
GREEKS
100
AcDbText
  0
TEXT
  5
330
330
20
100
AcDbEntity
  8
BEM
100
AcDbText
 10
1017.71857586699
 20
534.4551063979233
 30
0.0
 40
1.8
  1

 41
0.8
  7
GREEKS
100
AcDbText
  0
TEXT
  5
331
330
20
100
AcDbEntity
  8
BEM
100
AcDbText
 10
1005.146260623408
 20
559.8934508850915
 30
0.0
 40
2.0
  1

 41
0.8
  7
GREEKS
 72
     1
 11
1005.146260623408
 21
559.8934508850915
 31
0.0
100
AcDbText
  0
LINE
  5
332
330
20
100
AcDbEntity
  8
MITTEL
100
AcDbLine
 10
268.0787468959337
 20
546.2021883014854
 30
0.0
 11
268.0787468959337
 21
311.2021883014854
 31
0.0
  0
LINE
  5
333
330
20
100
AcDbEntity
  8
MITTEL
100
AcDbLine
 10
93.0787468959337
 20
228.8522909204573
 30
0.0
 11
443.0787468959336
 21
228.8522909204573
 31
0.0
  0
LINE
  5
334
102
{ACAD_REACTORS
330
525
330
539
102
}
330
20
100
AcDbEntity
  8
STEMPEL
100
AcDbLine
 10
134.0787468959337
 20
316.2021883014854
 30
0.0
 11
402.0787468959337
 21
316.2021883014854
 31
0.0
  0
ARC
  5
335
330
20
100
AcDbEntity
  8
STEMPEL
100
AcDbCircle
 10
268.0787468959337
 20
228.8522909204573
 30
0.0
 40
170.0
100
AcDbArc
 50
180.0
 51
0.0
  0
LINE
  5
336
330
20
100
AcDbEntity
  8
STEMPEL
100
AcDbLine
 10
98.0787468959337
 20
340.2021883014854
 30
0.0
 11
98.0787468959337
 21
319.2021883014854
 31
0.0
  0
LINE
  5
337
102
{ACAD_REACTORS
330
525
330
539
102
}
330
20
100
AcDbEntity
  8
STEMPEL
100
AcDbLine
 10
438.0787468959336
 20
340.2021883014854
 30
0.0
 11
438.0787468959336
 21
319.2021883014854
 31
0.0
  0
LINE
  5
338
330
20
100
AcDbEntity
  8
STEMPEL
100
AcDbLine
 10
98.0787468959337
 20
340.2021883014854
 30
0.0
 11
268.0787468959337
 21
340.2021883014854
 31
0.0
  0
LINE
  5
339
102
{ACAD_REACTORS
330
539
330
552
102
}
330
20
100
AcDbEntity
  8
STEMPEL
100
AcDbLine
 10
158.5287468959337
 20
378.2021883014854
 30
0.0
 11
377.6287468959337
 21
378.2021883014853
 31
0.0
  0
LINE
  5
33A
330
20
100
AcDbEntity
  8
STEMPEL
100
AcDbLine
 10
158.5287468959337
 20
362.2021883014854
 30
0.0
 11
268.0787468959337
 21
362.2021883014854
 31
0.0
  0
LINE
  5
33B
330
20
100
AcDbEntity
  8
STEMPEL
100
AcDbLine
 10
158.5287468959337
 20
378.2021883014854
 30
0.0
 11
158.5287468959337
 21
362.2021883014854
 31
0.0
  0
LINE
  5
33C
102
{ACAD_REACTORS
330
539
102
}
330
20
100
AcDbEntity
  8
STEMPEL
100
AcDbLine
 10
377.6287468959337
 20
378.2021883014853
 30
0.0
 11
377.6287468959337
 21
362.2021883014854
 31
0.0
  0
LINE
  5
33D
102
{ACAD_REACTORS
330
539
102
}
330
20
100
AcDbEntity
  8
STEMPEL
100
AcDbLine
 10
383.1932213025707
 20
346.8036427736847
 30
0.0
 11
377.6287468959337
 21
362.2021883014854
 31
0.0
  0
LINE
  5
33E
330
20
100
AcDbEntity
  8
STEMPEL
100
AcDbLine
 10
152.9642724892966
 20
346.8036427736848
 30
0.0
 11
158.5287468959337
 21
362.2021883014854
 31
0.0
  0
LINE
  5
33F
102
{ACAD_REACTORS
330
4BD
330
525
330
539
102
}
330
20
100
AcDbEntity
  8
STEMPEL
100
AcDbLine
 10
392.5980013795032
 20
340.2021883014854
 30
0.0
 11
438.0787468959336
 21
340.2021883014854
 31
0.0
  0
ARC
  5
340
102
{ACAD_REACTORS
330
539
102
}
330
20
100
AcDbEntity
  8
STEMPEL
100
AcDbCircle
 10
392.5980013795032
 20
350.2021883014854
 30
0.0
 40
10.0
100
AcDbArc
 50
199.8680128902482
 51
270.0
  0
ARC
  5
341
330
20
100
AcDbEntity
  8
STEMPEL
100
AcDbCircle
 10
143.5594924123641
 20
350.2021883014854
 30
0.0
 40
10.0
100
AcDbArc
 50
270.0
 51
340.1319871097518
  0
LINE
  5
342
330
20
100
AcDbEntity
  8
STEMPEL
100
AcDbLine
 10
98.0787468959337
 20
319.2021883014854
 30
0.0
 11
268.0787468959337
 21
319.2021883014854
 31
0.0
  0
LINE
  5
343
102
{ACAD_REACTORS
330
539
102
}
330
20
100
AcDbEntity
  8
STEMPEL
100
AcDbLine
 10
402.0787468959337
 20
316.2021883014854
 30
0.0
 11
405.0787468959336
 21
319.2021883014854
 31
0.0
  0
LINE
  5
344
330
20
100
AcDbEntity
  8
STEMPEL
100
AcDbLine
 10
134.0787468959337
 20
316.2021883014854
 30
0.0
 11
131.0787468959336
 21
319.2021883014854
 31
0.0
  0
LINE
  5
345
102
{ACAD_REACTORS
330
539
102
}
330
20
100
AcDbEntity
  8
STEMPEL
100
AcDbLine
 10
405.0787468959336
 20
319.2021883014854
 30
0.0
 11
438.0787468959336
 21
319.2021883014854
 31
0.0
  0
LINE
  5
346
330
20
100
AcDbEntity
  8
MITTEL
100
AcDbLine
 10
268.0787468959337
 20
233.8522909204573
 30
0.0
 11
268.0787468959337
 21
53.85229092045733
 31
0.0
  0
LINE
  5
347
102
{ACAD_REACTORS
330
539
102
}
330
20
100
AcDbEntity
  8
STEMPEL
100
AcDbLine
 10
371.7287468959337
 20
378.2021883014853
 30
0.0
 11
371.7287468959337
 21
316.2021883014853
 31
0.0
  0
ARC
  5
348
330
20
100
AcDbEntity
  8
MITTEL
100
AcDbCircle
 10
268.0787468959337
 20
228.8522909204573
 30
0.0
 40
147.5
100
AcDbArc
 50
180.0
 51
0.0
  0
LINE
  5
349
330
20
100
AcDbEntity
  8
MITTEL
100
AcDbLine
 10
361.0632886219647
 20
135.8677491944263
 30
0.0
 11
383.6907056199341
 21
113.2403321964567
 31
0.0
  0
LINE
  5
34A
330
20
100
AcDbEntity
  8
MITTEL
100
AcDbLine
 10
175.0942051699026
 20
135.8677491944263
 30
0.0
 11
152.4667881719331
 21
113.2403321964568
 31
0.0
  0
ARC
  5
34B
330
20
100
AcDbEntity
  8
STEMPEL
100
AcDbCircle
 10
120.5787468959336
 20
228.8522909204573
 30
0.0
 40
11.0
100
AcDbArc
 50
180.0
 51
0.0
  0
CIRCLE
  5
34C
330
20
100
AcDbEntity
  8
STEMPEL
100
AcDbCircle
 10
163.7804966709179
 20
124.5540406954416
 30
0.0
 40
11.0
  0
CIRCLE
  5
34D
330
20
100
AcDbEntity
  8
STEMPEL
100
AcDbCircle
 10
268.0787468959337
 20
81.35229092045733
 30
0.0
 40
11.0
  0
CIRCLE
  5
34E
330
20
100
AcDbEntity
  8
STEMPEL
100
AcDbCircle
 10
372.3769971209494
 20
124.5540406954415
 30
0.0
 40
11.0
  0
ARC
  5
34F
330
20
100
AcDbEntity
  8
STEMPEL
100
AcDbCircle
 10
415.5787468959336
 20
228.8522909204573
 30
0.0
 40
11.0
100
AcDbArc
 50
180.0
 51
0.0
  0
LINE
  5
350
102
{ACAD_REACTORS
330
4DE
102
}
330
20
100
AcDbEntity
  8
MITTEL
100
AcDbLine
 10
415.5787468959336
 20
314.2021883014854
 30
0.0
 11
415.5787468959336
 21
345.2021883014854
 31
0.0
  0
LINE
  5
351
102
{ACAD_REACTORS
330
4BD
330
539
102
}
330
20
100
AcDbEntity
  8
STEMPEL
100
AcDbLine
 10
404.5787468959336
 20
318.7021883014852
 30
0.0
 11
404.5787468959336
 21
340.2021883014854
 31
0.0
  0
LINE
  5
352
102
{ACAD_REACTORS
330
4BD
330
539
102
}
330
20
100
AcDbEntity
  8
STEMPEL
100
AcDbLine
 10
426.5787468959336
 20
319.2021883014854
 30
0.0
 11
426.5787468959336
 21
340.2021883014854
 31
0.0
  0
LINE
  5
353
102
{ACAD_REACTORS
330
4DE
102
}
330
20
100
AcDbEntity
  8
MITTEL
100
AcDbLine
 10
120.5787468959336
 20
314.2021883014854
 30
0.0
 11
120.5787468959336
 21
345.2021883014854
 31
0.0
  0
TEXT
  5
354
330
20
100
AcDbEntity
  8
VOLL
100
AcDbText
 10
1287.391741648794
 20
329.2749795399481
 30
0.0
 40
1.8
  1

  7
GREEKS
100
AcDbText
  0
TEXT
  5
355
330
20
100
AcDbEntity
  8
TEXT
100
AcDbText
 10
1619.224009852387
 20
334.8332150731736
 30
0.0
 40
2.5
  1
  
  7
GREEKS
 72
     1
 11
1621.485914614292
 21
334.8332150731736
 31
0.0
100
AcDbText
  0
TEXT
  5
356
330
20
100
AcDbEntity
  8
BEM
100
AcDbText
 10
1863.343727164869
 20
470.3920971035757
 30
0.0
 40
2.5
  1
 
 72
     4
 11
1864.474679545821
 21
470.3920971035757
 31
0.0
100
AcDbText
  0
TEXT
  5
357
330
20
100
AcDbEntity
  8
BEM
100
AcDbText
 10
1725.488617275401
 20
342.2961767353258
 30
0.0
 40
2.5
  1

  7
GREEKS
100
AcDbText
  0
TEXT
  5
358
330
20
100
AcDbEntity
  8
BEM
100
AcDbText
 10
1746.050403335113
 20
327.3577288830056
 30
0.0
 40
2.5
  1

 41
0.8
  7
GREEKS
100
AcDbText
  0
TEXT
  5
359
330
20
100
AcDbEntity
  8
BEM
100
AcDbText
 10
1745.911073316826
 20
317.2792788182926
 30
0.0
 40
2.5
  1

 41
0.8
  7
GREEKS
100
AcDbText
  0
TEXT
  5
35A
330
20
100
AcDbEntity
  8
BEM
100
AcDbText
 10
1745.964333200588
 20
322.2250617546082
 30
0.0
 40
2.5
  1

 41
0.8
  7
GREEKS
100
AcDbText
  0
TEXT
  5
35B
330
20
100
AcDbEntity
  8
BEM
100
AcDbText
 10
1746.006851238484
 20
312.1844911786526
 30
0.0
 40
1.8
  1

 41
0.8
  7
GREEKS
100
AcDbText
  0
TEXT
  5
35C
330
20
100
AcDbEntity
  8
BEM
100
AcDbText
 10
1733.434535994903
 20
337.6228356658208
 30
0.0
 40
2.0
  1

 41
0.8
  7
GREEKS
 72
     1
 11
1733.434535994903
 21
337.6228356658208
 31
0.0
100
AcDbText
  0
ARC
  5
35D
102
{ACAD_REACTORS
330
552
102
}
330
20
100
AcDbEntity
  8
STEMPEL
100
AcDbCircle
 10
348.5787468959337
 20
487.0596812958799
 30
0.0
 40
42.9
100
AcDbArc
 50
329.3645523418534
 51
0.0
  0
ARC
  5
35E
102
{ACAD_REACTORS
330
552
102
}
330
20
100
AcDbEntity
  8
STEMPEL
100
AcDbCircle
 10
348.5787468959337
 20
487.0596812958799
 30
0.0
 40
40.0
100
AcDbArc
 50
329.3645523418535
 51
0.0
  0
ARC
  5
35F
330
20
100
AcDbEntity
  8
STEMPEL
100
AcDbCircle
 10
187.5787468959337
 20
487.0596812958799
 30
0.0
 40
42.9
100
AcDbArc
 50
180.0
 51
210.6354476581464
  0
ARC
  5
360
330
20
100
AcDbEntity
  8
STEMPEL
100
AcDbCircle
 10
174.0787468959337
 20
430.353690910347
 30
0.0
 40
20.9
100
AcDbArc
 50
179.9999999999999
 51
214.3868930268838
  0
ARC
  5
361
330
20
100
AcDbEntity
  8
STEMPEL
100
AcDbCircle
 10
148.5787468959337
 20
412.902043423648
 30
0.0
 40
10.0
100
AcDbArc
 50
0.0
 51
34.38689302688368
  0
LINE
  5
362
330
20
100
AcDbEntity
  8
STEMPEL
100
AcDbLine
 10
153.1787468959338
 20
456.0266343942301
 30
0.0
 11
153.1787468959338
 21
430.353690910347
 31
0.0
  0
ARC
  5
363
330
20
100
AcDbEntity
  8
STEMPEL
100
AcDbCircle
 10
135.1787468959338
 20
456.0266343942301
 30
0.0
 40
18.0
100
AcDbArc
 50
359.9999999999999
 51
30.63544765814634
  0
ARC
  5
364
102
{ACAD_REACTORS
330
552
102
}
330
20
100
AcDbEntity
  8
STEMPEL
100
AcDbCircle
 10
362.0787468959337
 20
430.353690910347
 30
0.0
 40
20.9
100
AcDbArc
 50
325.6131069731178
 51
0.0
  0
ARC
  5
365
102
{ACAD_REACTORS
330
552
102
}
330
20
100
AcDbEntity
  8
STEMPEL
100
AcDbCircle
 10
362.0787468959337
 20
430.353690910347
 30
0.0
 40
18.0
100
AcDbArc
 50
325.6131069731178
 51
0.0
  0
ARC
  5
366
102
{ACAD_REACTORS
330
552
102
}
330
20
100
AcDbEntity
  8
STEMPEL
100
AcDbCircle
 10
387.5787468959337
 20
412.902043423649
 30
0.0
 40
10.0
100
AcDbArc
 50
145.6131069731178
 51
180.0
  0
ARC
  5
367
102
{ACAD_REACTORS
330
552
102
}
330
20
100
AcDbEntity
  8
STEMPEL
100
AcDbCircle
 10
387.5787468959337
 20
412.902043423649
 30
0.0
 40
12.9
100
AcDbArc
 50
145.6131069731177
 51
180.0
  0
LINE
  5
368
102
{ACAD_REACTORS
330
552
102
}
330
20
100
AcDbEntity
  8
STEMPEL
100
AcDbLine
 10
382.9787468959338
 20
456.0266343942299
 30
0.0
 11
382.9787468959338
 21
430.353690910347
 31
0.0
  0
LINE
  5
369
102
{ACAD_REACTORS
330
552
102
}
330
20
100
AcDbEntity
  8
STEMPEL
100
AcDbLine
 10
380.0787468959337
 20
456.0266343942299
 30
0.0
 11
380.0787468959337
 21
430.353690910347
 31
0.0
  0
ARC
  5
36A
102
{ACAD_REACTORS
330
552
102
}
330
20
100
AcDbEntity
  8
STEMPEL
100
AcDbCircle
 10
400.9787468959338
 20
456.0266343942299
 30
0.0
 40
20.9
100
AcDbArc
 50
149.3645523418535
 51
180.0
  0
ARC
  5
36B
102
{ACAD_REACTORS
330
552
102
}
330
20
100
AcDbEntity
  8
STEMPEL
100
AcDbCircle
 10
400.9787468959338
 20
456.0266343942299
 30
0.0
 40
18.0
100
AcDbArc
 50
149.3645523418536
 51
180.0
  0
LINE
  5
36C
102
{ACAD_REACTORS
330
552
102
}
330
20
100
AcDbEntity
  8
STEMPEL
  6
Continuous
100
AcDbLine
 10
150.6645219954974
 20
541.2021883014854
 30
0.0
 11
385.4929717963702
 21
541.2021883014854
 31
0.0
  0
LINE
  5
36D
330
20
100
AcDbEntity
  8
STEMPEL
100
AcDbLine
 10
144.6787468959338
 20
519.344695307091
 30
0.0
 11
144.6787468959338
 21
487.0596812958799
 31
0.0
  0
ARC
  5
36E
330
20
100
AcDbEntity
  8
STEMPEL
100
AcDbCircle
 10
187.5787468959337
 20
519.344695307091
 30
0.0
 40
42.9
100
AcDbArc
 50
149.3695577484716
 51
180.0
  0
LINE
  5
36F
102
{ACAD_REACTORS
330
552
102
}
330
20
100
AcDbEntity
  8
STEMPEL
100
AcDbLine
 10
391.4787468959338
 20
519.344695307091
 30
0.0
 11
391.4787468959338
 21
487.0596812958799
 31
0.0
  0
LINE
  5
370
102
{ACAD_REACTORS
330
552
102
}
330
20
100
AcDbEntity
  8
STEMPEL
100
AcDbLine
 10
388.5787468959337
 20
519.344695307091
 30
0.0
 11
388.5787468959337
 21
487.0596812958799
 31
0.0
  0
ARC
  5
371
102
{ACAD_REACTORS
330
552
102
}
330
20
100
AcDbEntity
  8
STEMPEL
100
AcDbCircle
 10
348.5787468959337
 20
519.344695307091
 30
0.0
 40
40.0
100
AcDbArc
 50
0.0
 51
33.1229402077438
  0
ARC
  5
372
102
{ACAD_REACTORS
330
552
102
}
330
20
100
AcDbEntity
  8
STEMPEL
100
AcDbCircle
 10
348.5787468959337
 20
519.344695307091
 30
0.0
 40
42.9
100
AcDbArc
 50
0.0
 51
30.63044225152844
  0
LINE
  5
373
102
{ACAD_REACTORS
330
552
102
}
330
20
100
AcDbEntity
  8
STEMPEL
100
AcDbLine
 10
377.5787468959337
 20
412.902043423649
 30
0.0
 11
377.5787468959337
 21
378.2021883014854
 31
0.0
  0
LINE
  5
374
102
{ACAD_REACTORS
330
552
102
}
330
20
100
AcDbEntity
  8
STEMPEL
100
AcDbLine
 10
374.6787468959338
 20
412.902043423649
 30
0.0
 11
374.6787468959338
 21
378.2021883014854
 31
0.0
  0
LINE
  5
375
330
20
100
AcDbEntity
  8
STEMPEL
100
AcDbLine
 10
158.5787468959337
 20
412.902043423648
 30
0.0
 11
158.5787468959337
 21
378.2021883014855
 31
0.0
  0
ARC
  5
376
330
20
100
AcDbEntity
  8
STEMPEL
100
AcDbCircle
 10
268.0787468959337
 20
228.8522909204573
 30
0.0
 40
114.0000000000001
100
AcDbArc
 50
180.0
 51
0.0
  0
ARC
  5
377
330
20
100
AcDbEntity
  8
STEMPEL
100
AcDbCircle
 10
268.0787468959337
 20
228.8522909204573
 30
0.0
 40
117.4142249004365
100
AcDbArc
 50
180.0
 51
0.0
  0
ARC
  5
378
330
20
100
AcDbEntity
  8
STEMPEL
100
AcDbCircle
 10
268.0787468959337
 20
228.8522909204573
 30
0.0
 40
123.4000000000001
100
AcDbArc
 50
180.0
 51
0.0
  0
ARC
  5
379
330
20
100
AcDbEntity
  8
STEMPEL
100
AcDbCircle
 10
268.0787468959337
 20
228.8522909204573
 30
0.0
 40
103.65
100
AcDbArc
 50
180.0
 51
0.0
  0
ARC
  5
37A
330
20
100
AcDbEntity
  8
STEMPEL
100
AcDbCircle
 10
268.0787468959337
 20
228.8522909204573
 30
0.0
 40
112.0
100
AcDbArc
 50
180.0
 51
0.0
  0
ARC
  5
37B
330
20
100
AcDbEntity
  8
STEMPEL
100
AcDbCircle
 10
268.0787468959337
 20
228.8522909204573
 30
0.0
 40
106.6000000000002
100
AcDbArc
 50
180.0
 51
0.0
  0
POINT
  5
382
330
20
100
AcDbEntity
  8
STEMPEL
100
AcDbPoint
 10
371.7287468959337
 20
316.2021883014853
 30
0.0
  0
DIMENSION
  5
385
330
20
100
AcDbEntity
  8
BEM
100
AcDbDimension
  2
*D7
 10
98.0787468959337
 20
277.4222144238386
 30
0.0
 11
268.0787468959337
 21
283.9222144238386
 31
0.0
 70
    32
  1
%%C<>
 71
     5
 42
339.9999999999999
  3
Standard
100
AcDbAlignedDimension
 13
438.0787468959336
 23
319.2021883014854
 33
0.0
 14
98.0787468959337
 24
319.2021883014854
 34
0.0
100
AcDbRotatedDimension
1001
ACAD
1000
DSTYLE
1002
{
1070
    40
1040
2.0
1070
    41
1040
3.5
1070
    42
1040
1.0
1070
    43
1040
7.0
1070
    44
1040
1.0
1070
    47
1040
2.0
1070
    73
1070
     0
1070
    74
1070
     0
1070
    77
1070
     1
1070
    78
1070
     8
1070
    79
1070
     2
1070
   140
1040
3.5
1070
   141
1040
1.5
1070
   145
1040
0.2857142857142857
1070
   146
1040
0.5
1070
   147
1040
1.5
1070
   172
1070
     1
1070
   178
1070
     1
1070
   179
1070
     2
1070
   271
1070
     2
1070
   272
1070
     2
1070
   284
1070
     8
1070
   285
1070
     8
1070
   286
1070
     8
1002
}
  0
ARC
  5
388
330
20
100
AcDbEntity
  8
SCHRAFF
100
AcDbCircle
 10
374.5205187804955
 20
378.1867721609082
 30
0.0
 40
5.874279382972787
100
AcDbArc
 50
301.9463540728905
 51
58.62659894766305
  0
ARC
  5
389
330
20
100
AcDbEntity
  8
SCHRAFF
100
AcDbCircle
 10
161.6369750113719
 20
378.1867721609082
 30
0.0
 40
5.874279382972787
100
AcDbArc
 50
121.3734010523369
 51
238.0536459271095
  0
INSERT
  5
38A
330
20
100
AcDbEntity
  8
SCHRAFF
100
AcDbBlockReference
  2
*X1
 10
0.0
 20
-13.92060136804088
 30
0.0
1001
ACAD
1000
HATCH
1002
{
1070
    16
1000
_U,I
1040
0.1
1040
2.356194490192344
1070
     0
1002
}
  0
ARC
  5
38C
330
20
100
AcDbEntity
  8
SCHRAFF
100
AcDbCircle
 10
159.7906754869244
 20
378.2021883014853
 30
0.0
 40
8.590102798941988
100
AcDbArc
 50
324.4040699256505
 51
35.59593007434959
  0
ARC
  5
38D
330
20
100
AcDbEntity
  8
SCHRAFF
100
AcDbCircle
 10
170.124461673001
 20
378.2021883014853
 30
0.0
 40
8.590102798941988
100
AcDbArc
 50
324.4040699256505
 51
35.59593007434959
  0
ARC
  5
390
330
20
100
AcDbEntity
  8
SCHRAFF
100
AcDbCircle
 10
190.7920340451543
 20
378.2021883014853
 30
0.0
 40
8.590102798941988
100
AcDbArc
 50
324.4040699256505
 51
35.59593007434959
  0
ARC
  5
391
330
20
100
AcDbEntity
  8
SCHRAFF
100
AcDbCircle
 10
180.4582478590776
 20
378.2021883014853
 30
0.0
 40
8.590102798941988
100
AcDbArc
 50
324.4040699256505
 51
35.59593007434959
  0
ARC
  5
394
330
20
100
AcDbEntity
  8
SCHRAFF
100
AcDbCircle
 10
221.7933926033841
 20
378.2021883014853
 30
0.0
 40
8.590102798941988
100
AcDbArc
 50
324.4040699256505
 51
35.59593007434959
  0
ARC
  5
395
330
20
100
AcDbEntity
  8
SCHRAFF
100
AcDbCircle
 10
232.1271787894608
 20
378.2021883014853
 30
0.0
 40
8.590102798941988
100
AcDbArc
 50
324.4040699256505
 51
35.59593007434959
  0
ARC
  5
398
330
20
100
AcDbEntity
  8
SCHRAFF
100
AcDbCircle
 10
211.4596064173075
 20
378.2021883014853
 30
0.0
 40
8.590102798941988
100
AcDbArc
 50
324.4040699256505
 51
35.59593007434959
  0
ARC
  5
399
330
20
100
AcDbEntity
  8
SCHRAFF
100
AcDbCircle
 10
201.1258202312309
 20
378.2021883014853
 30
0.0
 40
8.590102798941988
100
AcDbArc
 50
324.4040699256505
 51
35.59593007434959
  0
ARC
  5
39B
330
20
100
AcDbEntity
  8
SCHRAFF
100
AcDbCircle
 10
252.794751161614
 20
378.2021883014853
 30
0.0
 40
8.590102798941988
100
AcDbArc
 50
324.4040699256505
 51
35.59593007434959
  0
ARC
  5
39D
330
20
100
AcDbEntity
  8
SCHRAFF
100
AcDbCircle
 10
242.4609649755374
 20
378.2021883014853
 30
0.0
 40
8.590102798941988
100
AcDbArc
 50
324.4040699256505
 51
35.59593007434959
  0
LINE
  5
3A8
330
20
100
AcDbEntity
  8
HILF
100
AcDbLine
 10
155.5306304097901
 20
460.7817198233706
 30
0.0
 11
377.6586019014966
 21
460.7817198233706
 31
0.0
  0
LINE
  5
3A9
330
20
100
AcDbEntity
  8
HILF
100
AcDbLine
 10
157.1721761046014
 20
424.1756763362568
 30
0.0
 11
375.8570681261246
 21
424.1756763362568
 31
0.0
  0
LINE
  5
3AA
330
20
100
AcDbEntity
  8
HILF
100
AcDbLine
 10
161.1355034804315
 20
415.8580312581409
 30
0.0
 11
372.0577245094304
 21
415.8580312581409
 31
0.0
  0
DIMENSION
  5
3AC
330
20
100
AcDbEntity
  8
BEM
100
AcDbDimension
  2
*D4
 10
464.5441144441075
 20
316.2021883014854
 30
0.0
 11
458.0441144441074
 21
428.7021883014855
 31
0.0
 70
    32
 71
     5
 42
225.0
  3
Standard
100
AcDbAlignedDimension
 13
385.4929717963702
 23
541.2021883014854
 33
0.0
 14
402.0787468959337
 24
316.2021883014854
 34
0.0
 50
90.0
100
AcDbRotatedDimension
1001
ACAD
1000
DSTYLE
1002
{
1070
    40
1040
2.0
1070
    41
1040
3.5
1070
    42
1040
1.0
1070
    43
1040
7.0
1070
    44
1040
1.0
1070
    47
1040
2.0
1070
    73
1070
     0
1070
    74
1070
     0
1070
    77
1070
     1
1070
    78
1070
     8
1070
    79
1070
     2
1070
   140
1040
3.5
1070
   141
1040
1.5
1070
   145
1040
0.2857142857142857
1070
   146
1040
0.5
1070
   147
1040
1.5
1070
   172
1070
     1
1070
   178
1070
     1
1070
   179
1070
     2
1070
   271
1070
     2
1070
   272
1070
     2
1070
   284
1070
     8
1070
   285
1070
     8
1070
   286
1070
     8
1002
}
  0
DIMENSION
  5
3AD
330
20
100
AcDbEntity
  8
BEM
100
AcDbDimension
  2
*D6
 10
377.5787468959337
 20
551.0488041827651
 30
0.0
 11
268.0787468959337
 21
557.5488041827651
 31
0.0
 70
    32
  1
%%c<>
 71
     5
 42
219.0
  3
Standard
100
AcDbAlignedDimension
 13
158.5787468959337
 23
412.902043423648
 33
0.0
 14
377.5787468959337
 24
412.902043423649
 34
0.0
100
AcDbRotatedDimension
1001
ACAD
1000
DSTYLE
1002
{
1070
    40
1040
2.0
1070
    41
1040
3.5
1070
    42
1040
1.0
1070
    43
1040
7.0
1070
    44
1040
1.0
1070
    47
1040
2.0
1070
    73
1070
     0
1070
    74
1070
     0
1070
    77
1070
     1
1070
    78
1070
     8
1070
    79
1070
     2
1070
   140
1040
3.5
1070
   141
1040
1.5
1070
   145
1040
0.2857142857142857
1070
   146
1040
0.5
1070
   147
1040
1.5
1070
   172
1070
     1
1070
   178
1070
     1
1070
   179
1070
     2
1070
   271
1070
     2
1070
   272
1070
     2
1070
   284
1070
     8
1070
   285
1070
     8
1070
   286
1070
     8
1002
}
  0
TEXT
  5
465
330
20
100
AcDbEntity
  8
TEXT
 62
     1
100
AcDbText
 10
260.320709506841
 20
479.752728758242
 30
0.0
 40
7.0
  1
DN200
 50
90.0
 41
0.8
  7
GREEKS
100
AcDbText
  0
TEXT
  5
46E
330
20
100
AcDbEntity
  8
TEXT
 62
     1
100
AcDbText
 10
587.1095912555768
 20
152.8313900437424
 30
0.0
 40
7.0
  1
Rohrwerkstoff: P235 EN10217-1
 41
0.8
  7
GREEKS
100
AcDbText
  0
TEXT
  5
46F
330
20
100
AcDbEntity
  8
TEXT
 62
     1
100
AcDbText
 10
568.687450006711
 20
140.8908317358709
 30
0.0
 40
7.0
  1
Vorschweißflansch: DN200 DIN2632 PN10
 41
0.8
  7
GREEKS
100
AcDbText
  0
TEXT
  5
470
330
20
100
AcDbEntity
  8
TEXT
 62
     1
100
AcDbText
 10
652.9835535941022
 20
130.1687199208675
 30
0.0
 40
7.0
  1
feuerverzinkt und innen beschichtet
 41
0.8
  7
GREEKS
100
AcDbText
  0
DIMENSION
  5
4A6
102
{ACAD_XDICTIONARY
360
4B3
102
}
102
{ACAD_REACTORS
330
4BD
102
}
330
20
100
AcDbEntity
  8
BEM
100
AcDbDimension
  2
*D8
 10
426.5787468959336
 20
357.4768945605667
 30
0.0
 11
415.5787468959336
 21
363.9768945605667
 31
0.0
 70
    32
  1
%%c<>
 71
     5
 42
22.00000000000006
  3
Standard
100
AcDbAlignedDimension
 13
404.5787468959336
 23
340.2021883014854
 33
0.0
 14
426.5787468959336
 24
340.2021883014854
 34
0.0
100
AcDbRotatedDimension
1001
ACAD
1000
DSTYLE
1002
{
1070
    40
1040
2.0
1070
    41
1040
3.5
1070
    42
1040
1.0
1070
    43
1040
7.0
1070
    44
1040
1.0
1070
    47
1040
2.0
1070
    73
1070
     0
1070
    74
1070
     0
1070
    77
1070
     1
1070
    78
1070
     8
1070
    79
1070
     2
1070
   140
1040
3.5
1070
   141
1040
1.5
1070
   145
1040
0.2857142857142857
1070
   146
1040
0.5
1070
   147
1040
1.5
1070
   172
1070
     1
1070
   178
1070
     1
1070
   179
1070
     2
1070
   271
1070
     2
1070
   272
1070
     2
1070
   284
1070
     8
1070
   285
1070
     8
1070
   286
1070
     8
1002
}
  0
DIMENSION
  5
4C7
102
{ACAD_XDICTIONARY
360
4D4
102
}
102
{ACAD_REACTORS
330
4DE
102
}
330
20
100
AcDbEntity
  8
BEM
100
AcDbDimension
  2
*D9
 10
415.5787468959336
 20
291.8360059565764
 30
0.0
 11
268.0787468959337
 21
298.3360059565764
 31
0.0
 70
    32
  1
%%c<>
 71
     5
 42
295.0
  3
Standard
100
AcDbAlignedDimension
 13
120.5787468959336
 23
314.2021883014854
 33
0.0
 14
415.5787468959336
 24
314.2021883014854
 34
0.0
100
AcDbRotatedDimension
1001
ACAD
1000
DSTYLE
1002
{
1070
    40
1040
2.0
1070
    41
1040
3.5
1070
    42
1040
1.0
1070
    43
1040
7.0
1070
    44
1040
1.0
1070
    47
1040
2.0
1070
    73
1070
     0
1070
    74
1070
     0
1070
    77
1070
     1
1070
    78
1070
     8
1070
    79
1070
     2
1070
   140
1040
3.5
1070
   141
1040
1.5
1070
   145
1040
0.2857142857142857
1070
   146
1040
0.5
1070
   147
1040
1.5
1070
   172
1070
     1
1070
   178
1070
     1
1070
   179
1070
     2
1070
   271
1070
     2
1070
   272
1070
     2
1070
   284
1070
     8
1070
   285
1070
     8
1070
   286
1070
     8
1002
}
  0
TEXT
  5
503
330
20
100
AcDbEntity
  8
TEXT
100
AcDbText
 10
615.667843127102
 20
89.18734196083297
 30
0.0
 40
3.6
  1
DIN EN1123-2
 41
0.8
  7
GREEKS
100
AcDbText
  0
DIMENSION
  5
50E
102
{ACAD_XDICTIONARY
360
51B
102
}
102
{ACAD_REACTORS
330
525
102
}
330
20
100
AcDbEntity
  8
BEM
100
AcDbDimension
  2
*D10
 10
453.3969175989668
 20
340.2021883014854
 30
0.0
 11
446.8969175989668
 21
328.2021883014855
 31
0.0
 70
    32
 71
     5
 42
24.0
  3
Standard
100
AcDbAlignedDimension
 13
402.0787468959337
 23
316.2021883014854
 33
0.0
 14
438.0787468959336
 24
340.2021883014854
 34
0.0
 50
90.0
100
AcDbRotatedDimension
1001
ACAD
1000
DSTYLE
1002
{
1070
    40
1040
2.0
1070
    41
1040
3.5
1070
    42
1040
1.0
1070
    43
1040
7.0
1070
    44
1040
1.0
1070
    47
1040
2.0
1070
    73
1070
     0
1070
    74
1070
     0
1070
    77
1070
     1
1070
    78
1070
     8
1070
    79
1070
     2
1070
   140
1040
3.5
1070
   141
1040
1.5
1070
   145
1040
0.2857142857142857
1070
   146
1040
0.5
1070
   147
1040
1.5
1070
   172
1070
     1
1070
   178
1070
     1
1070
   179
1070
     2
1070
   271
1070
     2
1070
   272
1070
     2
1070
   284
1070
     8
1070
   285
1070
     8
1070
   286
1070
     8
1002
}
  0
HATCH
  5
539
330
20
100
AcDbEntity
  8
BEM
100
AcDbHatch
 10
0.0
 20
0.0
 30
0.0
210
0.0
220
0.0
230
1.0
  2
_USER
 70
     0
 71
     1
 91
        2
 92
        7
 72
     1
 73
     1
 93
        9
 10
404.5787468959336
 20
340.2021883014854
 42
0.0
 10
392.5980013795032
 20
340.2021883014854
 42
-0.3159320587218848
 10
383.1932213025707
 20
346.8036427736847
 42
0.0
 10
377.6287468959335
 20
362.2021883014855
 42
0.0
 10
377.6287468959337
 20
378.2021883014855
 42
0.0
 10
371.7287468959337
 20
378.2021883014855
 42
0.0
 10
371.7287468959337
 20
316.2021883014854
 42
0.0
 10
402.0787468959336
 20
316.2021883014854
 42
0.0
 10
404.5787468959335
 20
318.7021883014852
 42
0.0
 97
        9
330
33F
330
340
330
33D
330
33C
330
339
330
347
330
334
330
343
330
351
 92
        7
 72
     0
 73
     1
 93
        4
 10
438.0787468959336
 20
340.2021883014853
 10
426.5787468959336
 20
340.2021883014853
 10
426.5787468959335
 20
319.2021883014854
 10
438.0787468959336
 20
319.2021883014854
 97
        4
330
33F
330
352
330
345
330
337
 75
     0
 76
     0
 52
45.0
 41
5.0
 77
     0
 78
     1
 53
45.0
 43
0.0
 44
0.0
 45
-3.535533905932737
 46
3.535533905932737
 79
     0
 47
0.3423837149800715
 98
        2
 10
377.2922382246993
 20
334.1117726003406
 10
430.0372194719188
 20
332.3998530833573
  0
HATCH
  5
552
330
20
100
AcDbEntity
  8
BEM
100
AcDbHatch
 10
0.0
 20
0.0
 30
0.0
210
0.0
220
0.0
230
1.0
  2
_USER
 70
     0
 71
     1
 91
        1
 92
        7
 72
     1
 73
     1
 93
       18
 10
391.4787468959338
 20
519.344695307091
 42
0.1344520200761005
 10
385.4929717963702
 20
541.2021883014854
 42
0.0
 10
382.0787468959338
 20
541.2021883014854
 42
-0.1455408473212862
 10
388.5787468959337
 20
519.344695307091
 42
0.0
 10
388.5787468959337
 20
487.0596812958799
 42
-0.1344742551608311
 10
382.9958240716316
 20
466.6767276658964
 42
0.1344742551608277
 10
380.0787468959337
 20
456.0266343942303
 42
0.0
 10
380.0787468959337
 20
430.353690910347
 42
-0.1511772834198483
 10
376.9331158279728
 20
420.1876826656684
 42
0.1511772834198604
 10
374.6787468959338
 20
412.9020434236482
 42
0.0
 10
374.6787468959338
 20
378.2021883014853
 42
0.0
 10
377.5787468959337
 20
378.2021883014853
 42
0.0
 10
377.5787468959337
 20
412.902043423649
 42
-0.1511772834198485
 10
379.3263197114676
 20
418.5498257818037
 42
0.1511772834198474
 10
382.9787468959338
 20
430.353690910347
 42
0.0
 10
382.9787468959338
 20
456.0266343942299
 42
-0.1344742551608307
 10
385.4910621668698
 20
465.1989635277224
 42
0.1344742551608316
 10
391.4787468959338
 20
487.0596812958799
 42
0.0
 97
       18
330
372
330
36C
330
371
330
370
330
35E
330
36A
330
369
330
365
330
367
330
374
330
339
330
373
330
366
330
364
330
368
330
36B
330
35D
330
36F
 75
     0
 76
     0
 52
135.0
 41
2.0
 77
     0
 78
     1
 53
135.0
 43
0.0
 44
0.0
 45
-1.414213562373095
 46
-1.414213562373094
 79
     0
 47
0.3423837149800715
 98
        1
 10
390.3072332897618
 20
507.0155488100681
  0
ENDSEC
  0
SECTION
  2
OBJECTS
  0
DICTIONARY
  5
C
330
0
100
AcDbDictionary
281
     1
  3
ACAD_COLOR
350
1B
  3
ACAD_GROUP
350
D
  3
ACAD_LAYOUT
350
19
  3
ACAD_MATERIAL
350
1A
  3
ACAD_MLINESTYLE
350
16
  3
ACAD_PLOTSETTINGS
350
18
  3
ACAD_PLOTSTYLENAME
350
E
  3
AcDbVariableDictionary
350
48C
  0
DICTIONARY
  5
4B3
330
4A6
100
AcDbDictionary
280
     1
281
     1
  3
ACAD_DIMASSOC
360
4BD
  0
DICTIONARY
  5
4D4
330
4C7
100
AcDbDictionary
280
     1
281
     1
  3
ACAD_DIMASSOC
360
4DE
  0
DICTIONARY
  5
51B
330
50E
100
AcDbDictionary
280
     1
281
     1
  3
ACAD_DIMASSOC
360
525
  0
DICTIONARY
  5
1B
102
{ACAD_REACTORS
330
C
102
}
330
C
100
AcDbDictionary
281
     1
  0
DICTIONARY
  5
D
102
{ACAD_REACTORS
330
C
102
}
330
C
100
AcDbDictionary
281
     1
  0
DICTIONARY
  5
19
102
{ACAD_REACTORS
330
C
102
}
330
C
100
AcDbDictionary
281
     1
  3
Layout1
350
1F
  3
Model
350
23
  0
DICTIONARY
  5
1A
102
{ACAD_REACTORS
330
C
102
}
330
C
100
AcDbDictionary
281
     1
  0
DICTIONARY
  5
16
102
{ACAD_REACTORS
330
C
102
}
330
C
100
AcDbDictionary
281
     1
  3
Standard
350
17
  0
DICTIONARY
  5
18
102
{ACAD_REACTORS
330
C
102
}
330
C
100
AcDbDictionary
281
     1
  0
ACDBDICTIONARYWDFLT
  5
E
102
{ACAD_REACTORS
330
C
102
}
330
C
100
AcDbDictionary
281
     1
  3
Normal
350
F
100
AcDbDictionaryWithDefault
340
F
  0
DICTIONARY
  5
48C
102
{ACAD_REACTORS
330
C
102
}
330
C
100
AcDbDictionary
281
     1
  3
DIMASSOC
350
48E
  3
HIDETEXT
350
48D
  3
PROJECTNAME
350
48F
  0
DIMASSOC
  5
4BD
102
{ACAD_REACTORS
330
4B3
102
}
330
4B3
100
AcDbDimAssoc
330
4A6
 90
        3
 70
     0
 71
     0
  1
AcDbOsnapPointRef
 72
     6
331
351
 73
     2
 91
        0
 40
1.0
 10
0.0
 20
0.0
 30
0.0
332
33F
 74
     2
 92
        0
 75
     0
  1
AcDbOsnapPointRef
 72
     6
331
352
 73
     2
 91
        0
 40
1.0
 10
0.0
 20
0.0
 30
0.0
332
33F
 74
     2
 92
        0
 75
     0
  0
DIMASSOC
  5
4DE
102
{ACAD_REACTORS
330
4D4
102
}
330
4D4
100
AcDbDimAssoc
330
4C7
 90
        3
 70
     0
 71
     0
  1
AcDbOsnapPointRef
 72
    13
331
353
 73
     2
 91
        0
 40
0.0
 10
0.0
 20
0.0
 30
2.000000000000000E+50
 75
     0
  1
AcDbOsnapPointRef
 72
    13
331
350
 73
     2
 91
        0
 40
0.0
 10
0.0
 20
0.0
 30
2.000000000000000E+50
 75
     0
  0
DIMASSOC
  5
525
102
{ACAD_REACTORS
330
51B
102
}
330
51B
100
AcDbDimAssoc
330
50E
 90
        3
 70
     0
 71
     0
  1
AcDbOsnapPointRef
 72
     1
331
334
 73
     2
 91
        0
 40
1.0
 10
0.0
 20
0.0
 30
2.000000000000000E+50
 75
     0
  1
AcDbOsnapPointRef
 72
     6
331
33F
 73
     2
 91
        0
 40
1.0
 10
0.0
 20
0.0
 30
0.0
332
337
 74
     2
 92
        0
 75
     0
  0
LAYOUT
  5
1F
102
{ACAD_REACTORS
330
19
102
}
330
19
100
AcDbPlotSettings
  1

  2
RICOH Aficio 2027 PCL 6
  4

  6

 40
0.0
 41
0.0
 42
0.0
 43
0.0
 44
0.0
 45
0.0
 46
0.0
 47
0.0
 48
0.0
 49
0.0
140
0.0
141
0.0
142
1.0
143
1.0
 70
   688
 72
     0
 73
     0
 74
     5
  7
monochrome1.ctb
 75
    16
147
1.0
 76
     0
 77
     2
 78
   300
148
0.0
149
0.0
100
AcDbLayout
  1
Layout1
 70
     0
 71
     1
 10
0.0
 20
0.0
 11
12.0
 21
9.0
 12
0.0
 22
0.0
 32
0.0
 14
1.000000000000000E+20
 24
1.000000000000000E+20
 34
1.000000000000000E+20
 15
-1.000000000000000E+20
 25
-1.000000000000000E+20
 35
-1.000000000000000E+20
146
0.0
 13
0.0
 23
0.0
 33
0.0
 16
1.0
 26
0.0
 36
0.0
 17
0.0
 27
1.0
 37
0.0
 76
     0
330
1C
  0
LAYOUT
  5
23
102
{ACAD_REACTORS
330
19
102
}
330
19
100
AcDbPlotSettings
  1

  2
RICOH Aficio 2027 PCL 6
  4
A4
  6

 40
5.027083396911621
 41
5.027085304260253
 42
5.027084350585937
 43
5.027069091796875
 44
209.9733276367187
 45
296.9259948730469
 46
0.0
 47
0.0
 48
0.0
 49
0.0
140
0.0
141
0.0
142
1.0
143
1.0
 70
 11952
 72
     0
 73
     1
 74
     0
  7
monochrome1.ctb
 75
     0
147
1.0
 76
     0
 77
     2
 78
   300
148
-3059.010278395561
149
64.72949292699244
100
AcDbLayout
  1
Model
 70
     1
 71
     0
 10
0.0
 20
0.0
 11
12.0
 21
9.0
 12
0.0
 22
0.0
 32
0.0
 14
0.0
 24
0.0
 34
0.0
 15
0.0
 25
0.0
 35
0.0
146
0.0
 13
0.0
 23
0.0
 33
0.0
 16
1.0
 26
0.0
 36
0.0
 17
0.0
 27
1.0
 37
0.0
 76
     0
330
20
  0
MLINESTYLE
  5
17
102
{ACAD_REACTORS
330
16
102
}
330
16
100
AcDbMlineStyle
  2
STANDARD
 70
     0
  3

 62
   256
 51
90.0
 52
90.0
 71
     2
 49
0.5
 62
   256
  6
BYLAYER
 49
-0.5
 62
   256
  6
BYLAYER
  0
ACDBPLACEHOLDER
  5
F
102
{ACAD_REACTORS
330
E
102
}
330
E
  0
DICTIONARYVAR
  5
48E
102
{ACAD_REACTORS
330
48C
102
}
330
48C
100
DictionaryVariables
280
     0
  1
2
  0
DICTIONARYVAR
  5
48D
102
{ACAD_REACTORS
330
48C
102
}
330
48C
100
DictionaryVariables
280
     0
  1
1
  0
DICTIONARYVAR
  5
48F
102
{ACAD_REACTORS
330
48C
102
}
330
48C
100
DictionaryVariables
280
     0
  1

  0
ENDSEC
  0
EOF
