  0
SECTION
  2
HEADER
  9
$ACADVER
  1
AC1018
  9
$ACADMAINTVER
 70
     2
  9
$DWGCODEPAGE
  3
ANSI_1252
  9
$INSBASE
 10
0.0
 20
0.0
 30
0.0
  9
$EXTMIN
 10
-0.0192209888436992
 20
-0.0271839699362317
 30
-0.0000000000000058
  9
$EXTMAX
 10
420.0192288123714
 20
594.0271950346398
 30
0.0000000000000104
  9
$LIMMIN
 10
0.0
 20
0.0
  9
$LIMMAX
 10
419.9999999999999
 20
594.0
  9
$ORTHOMODE
 70
     0
  9
$REGENMODE
 70
     1
  9
$FILLMODE
 70
     1
  9
$QTEXTMODE
 70
     0
  9
$MIRRTEXT
 70
     1
  9
$LTSCALE
 40
20.0
  9
$ATTMODE
 70
     1
  9
$TEXTSIZE
 40
3.5
  9
$TRACEWID
 40
0.5
  9
$TEXTSTYLE
  7
STANDARD
  9
$CLAYER
  8
BEM
  9
$CELTYPE
  6
ByLayer
  9
$CECOLOR
 62
   256
  9
$CELTSCALE
 40
1.0
  9
$DISPSILH
 70
     0
  9
$DIMSCALE
 40
2.0
  9
$DIMASZ
 40
3.5
  9
$DIMEXO
 40
1.0
  9
$DIMDLI
 40
7.0
  9
$DIMRND
 40
0.0
  9
$DIMDLE
 40
0.0
  9
$DIMEXE
 40
1.0
  9
$DIMTP
 40
0.0
  9
$DIMTM
 40
0.0
  9
$DIMTXT
 40
3.5
  9
$DIMCEN
 40
1.5
  9
$DIMTSZ
 40
0.0
  9
$DIMTOL
 70
     0
  9
$DIMLIM
 70
     0
  9
$DIMTIH
 70
     0
  9
$DIMTOH
 70
     0
  9
$DIMSE1
 70
     0
  9
$DIMSE2
 70
     0
  9
$DIMTAD
 70
     1
  9
$DIMZIN
 70
     8
  9
$DIMBLK
  1

  9
$DIMASO
 70
     1
  9
$DIMSHO
 70
     0
  9
$DIMPOST
  1

  9
$DIMAPOST
  1

  9
$DIMALT
 70
     0
  9
$DIMALTD
 70
     2
  9
$DIMALTF
 40
25.4
  9
$DIMLFAC
 40
1.0
  9
$DIMTOFL
 70
     1
  9
$DIMTVP
 40
0.0
  9
$DIMTIX
 70
     0
  9
$DIMSOXD
 70
     0
  9
$DIMSAH
 70
     0
  9
$DIMBLK1
  1

  9
$DIMBLK2
  1

  9
$DIMSTYLE
  2
Standard
  9
$DIMCLRD
 70
     0
  9
$DIMCLRE
 70
     0
  9
$DIMCLRT
 70
     1
  9
$DIMTFAC
 40
0.5142857142857144
  9
$DIMGAP
 40
1.5
  9
$DIMJUST
 70
     0
  9
$DIMSD1
 70
     0
  9
$DIMSD2
 70
     0
  9
$DIMTOLJ
 70
     1
  9
$DIMTZIN
 70
     8
  9
$DIMALTZ
 70
     8
  9
$DIMALTTZ
 70
     8
  9
$DIMUPT
 70
     0
  9
$DIMDEC
 70
     2
  9
$DIMTDEC
 70
     2
  9
$DIMALTU
 70
     2
  9
$DIMALTTD
 70
     2
  9
$DIMTXSTY
  7
STANDARD
  9
$DIMAUNIT
 70
     0
  9
$DIMADEC
 70
     2
  9
$DIMALTRND
 40
0.0
  9
$DIMAZIN
 70
     2
  9
$DIMDSEP
 70
    46
  9
$DIMATFIT
 70
     3
  9
$DIMFRAC
 70
     0
  9
$DIMLDRBLK
  1

  9
$DIMLUNIT
 70
     2
  9
$DIMLWD
 70
    -2
  9
$DIMLWE
 70
    -2
  9
$DIMTMOVE
 70
     0
  9
$LUNITS
 70
     2
  9
$LUPREC
 70
     2
  9
$SKETCHINC
 40
1.0
  9
$FILLETRAD
 40
0.0
  9
$AUNITS
 70
     0
  9
$AUPREC
 70
     0
  9
$MENU
  1
ACAD
  9
$ELEVATION
 40
0.0
  9
$PELEVATION
 40
0.0
  9
$THICKNESS
 40
0.0
  9
$LIMCHECK
 70
     0
  9
$CHAMFERA
 40
0.0
  9
$CHAMFERB
 40
0.0
  9
$CHAMFERC
 40
0.0
  9
$CHAMFERD
 40
0.0
  9
$SKPOLY
 70
     0
  9
$TDCREATE
 40
2455397.823042361
  9
$TDUCREATE
 40
2455397.781375695
  9
$TDUPDATE
 40
2455532.583325996
  9
$TDUUPDATE
 40
2455532.541659329
  9
$TDINDWG
 40
0.0865620718
  9
$TDUSRTIMER
 40
0.0865620718
  9
$USRTIMER
 70
     1
  9
$ANGBASE
 50
0.0
  9
$ANGDIR
 70
     0
  9
$PDMODE
 70
     0
  9
$PDSIZE
 40
0.0
  9
$PLINEWID
 40
0.0
  9
$SPLFRAME
 70
     0
  9
$SPLINETYPE
 70
     6
  9
$SPLINESEGS
 70
     8
  9
$HANDSEED
  5
1435
  9
$SURFTAB1
 70
     6
  9
$SURFTAB2
 70
     6
  9
$SURFTYPE
 70
     6
  9
$SURFU
 70
     6
  9
$SURFV
 70
     6
  9
$UCSBASE
  2

  9
$UCSNAME
  2

  9
$UCSORG
 10
0.0
 20
0.0
 30
0.0
  9
$UCSXDIR
 10
1.0
 20
0.0
 30
0.0
  9
$UCSYDIR
 10
0.0
 20
1.0
 30
0.0
  9
$UCSORTHOREF
  2

  9
$UCSORTHOVIEW
 70
     0
  9
$UCSORGTOP
 10
0.0
 20
0.0
 30
0.0
  9
$UCSORGBOTTOM
 10
0.0
 20
0.0
 30
0.0
  9
$UCSORGLEFT
 10
0.0
 20
0.0
 30
0.0
  9
$UCSORGRIGHT
 10
0.0
 20
0.0
 30
0.0
  9
$UCSORGFRONT
 10
0.0
 20
0.0
 30
0.0
  9
$UCSORGBACK
 10
0.0
 20
0.0
 30
0.0
  9
$PUCSBASE
  2

  9
$PUCSNAME
  2

  9
$PUCSORG
 10
0.0
 20
0.0
 30
0.0
  9
$PUCSXDIR
 10
1.0
 20
0.0
 30
0.0
  9
$PUCSYDIR
 10
0.0
 20
1.0
 30
0.0
  9
$PUCSORTHOREF
  2

  9
$PUCSORTHOVIEW
 70
     0
  9
$PUCSORGTOP
 10
0.0
 20
0.0
 30
0.0
  9
$PUCSORGBOTTOM
 10
0.0
 20
0.0
 30
0.0
  9
$PUCSORGLEFT
 10
0.0
 20
0.0
 30
0.0
  9
$PUCSORGRIGHT
 10
0.0
 20
0.0
 30
0.0
  9
$PUCSORGFRONT
 10
0.0
 20
0.0
 30
0.0
  9
$PUCSORGBACK
 10
0.0
 20
0.0
 30
0.0
  9
$USERI1
 70
     0
  9
$USERI2
 70
     0
  9
$USERI3
 70
     0
  9
$USERI4
 70
     0
  9
$USERI5
 70
     0
  9
$USERR1
 40
0.0
  9
$USERR2
 40
0.0
  9
$USERR3
 40
0.0
  9
$USERR4
 40
0.0
  9
$USERR5
 40
0.0
  9
$WORLDVIEW
 70
     1
  9
$SHADEDGE
 70
     3
  9
$SHADEDIF
 70
    70
  9
$TILEMODE
 70
     1
  9
$MAXACTVP
 70
    16
  9
$PINSBASE
 10
0.0
 20
0.0
 30
0.0
  9
$PLIMCHECK
 70
     0
  9
$PEXTMIN
 10
1.000000000000000E+20
 20
1.000000000000000E+20
 30
1.000000000000000E+20
  9
$PEXTMAX
 10
-1.000000000000000E+20
 20
-1.000000000000000E+20
 30
-1.000000000000000E+20
  9
$PLIMMIN
 10
0.0
 20
0.0
  9
$PLIMMAX
 10
12.0
 20
9.0
  9
$UNITMODE
 70
     0
  9
$VISRETAIN
 70
     0
  9
$PLINEGEN
 70
     0
  9
$PSLTSCALE
 70
     0
  9
$TREEDEPTH
 70
  3020
  9
$CMLSTYLE
  2
Standard
  9
$CMLJUST
 70
     0
  9
$CMLSCALE
 40
1.0
  9
$PROXYGRAPHICS
 70
     1
  9
$MEASUREMENT
 70
     0
  9
$CELWEIGHT
370
    -1
  9
$ENDCAPS
280
     0
  9
$JOINSTYLE
280
     0
  9
$LWDISPLAY
290
     0
  9
$INSUNITS
 70
     0
  9
$HYPERLINKBASE
  1

  9
$STYLESHEET
  1
monochrome 1.ctb
  9
$XEDIT
290
     1
  9
$CEPSNTYPE
380
     0
  9
$PSTYLEMODE
290
     1
  9
$FINGERPRINTGUID
  2
{D68B0D02-A558-11D7-B632-000102183313}
  9
$VERSIONGUID
  2
{0725EAED-EFB3-4249-B387-04C46F18EC06}
  9
$EXTNAMES
290
     1
  9
$PSVPSCALE
 40
0.0
  9
$OLESTARTUP
290
     0
  9
$SORTENTS
280
   127
  9
$INDEXCTL
280
     0
  9
$HIDETEXT
280
     0
  9
$XCLIPFRAME
290
     0
  9
$HALOGAP
280
     0
  9
$OBSCOLOR
 70
   257
  9
$OBSLTYPE
280
     0
  9
$INTERSECTIONDISPLAY
280
     0
  9
$INTERSECTIONCOLOR
 70
   257
  9
$DIMASSOC
280
     1
  9
$PROJECTNAME
  1

  0
ENDSEC
  0
SECTION
  2
CLASSES
  0
CLASS
  1
ACDBDICTIONARYWDFLT
  2
AcDbDictionaryWithDefault
  3
ObjectDBX Classes
 90
        0
 91
        1
280
     0
281
     0
  0
CLASS
  1
DICTIONARYVAR
  2
AcDbDictionaryVar
  3
ObjectDBX Classes
 90
        0
 91
        2
280
     0
281
     0
  0
ENDSEC
  0
SECTION
  2
TABLES
  0
TABLE
  2
VPORT
  5
8
330
0
100
AcDbSymbolTable
 70
     3
  0
VPORT
  5
1434
330
8
100
AcDbSymbolTableRecord
100
AcDbViewportTableRecord
  2
*Active
 70
     0
 10
0.0
 20
0.0
 11
1.0
 21
1.0
 12
210.0000039117638
 22
297.0000055323518
 13
0.0
 23
0.0
 14
1.0
 24
1.0
 15
10.0
 25
10.0
 16
0.0
 26
0.0
 36
1.0
 17
0.0
 27
0.0
 37
0.0
 40
598.8515879871163
 41
1.336927223719676
 42
50.0
 43
0.0
 44
0.0
 50
0.0
 51
0.0
 71
     0
 72
  1500
 73
     1
 74
     0
 75
     0
 76
     0
 77
     0
 78
     0
281
     0
 65
     1
110
0.0
120
0.0
130
0.0
111
1.0
121
0.0
131
0.0
112
0.0
122
1.0
132
0.0
 79
     0
146
0.0
  0
ENDTAB
  0
TABLE
  2
LTYPE
  5
5
330
0
100
AcDbSymbolTable
 70
     2
  0
LTYPE
  5
13
330
5
100
AcDbSymbolTableRecord
100
AcDbLinetypeTableRecord
  2
ByBlock
 70
     0
  3

 72
    65
 73
     0
 40
0.0
  0
LTYPE
  5
14
330
5
100
AcDbSymbolTableRecord
100
AcDbLinetypeTableRecord
  2
ByLayer
 70
     0
  3

 72
    65
 73
     0
 40
0.0
  0
LTYPE
  5
15
330
5
100
AcDbSymbolTableRecord
100
AcDbLinetypeTableRecord
  2
Continuous
 70
     0
  3
Solid line
 72
    65
 73
     0
 40
0.0
  0
LTYPE
  5
25
330
5
100
AcDbSymbolTableRecord
100
AcDbLinetypeTableRecord
  2
STRICHPUNKT
 70
     0
  3
__ . __ . __ . __ . __ . __ . __ . __ . __ . __
 72
    65
 73
     4
 40
1.0
 49
0.5
 74
     0
 49
-0.25
 74
     0
 49
0.0
 74
     0
 49
-0.25
 74
     0
  0
ENDTAB
  0
TABLE
  2
LAYER
  5
2
330
0
100
AcDbSymbolTable
 70
     9
  0
LAYER
  5
10
330
2
100
AcDbSymbolTableRecord
100
AcDbLayerTableRecord
  2
0
 70
     0
 62
     7
  6
Continuous
370
    -3
390
F
  0
LAYER
  5
2A
330
2
100
AcDbSymbolTableRecord
100
AcDbLayerTableRecord
  2
VOLL
 70
     0
 62
     1
  6
Continuous
370
    -3
390
F
  0
LAYER
  5
2B
330
2
100
AcDbSymbolTableRecord
100
AcDbLayerTableRecord
  2
HILF
 70
     0
 62
     2
  6
Continuous
370
    -3
390
F
  0
LAYER
  5
2C
330
2
100
AcDbSymbolTableRecord
100
AcDbLayerTableRecord
  2
MITTEL
 70
     0
 62
     2
  6
STRICHPUNKT
370
    -3
390
F
  0
LAYER
  5
2F
330
2
100
AcDbSymbolTableRecord
100
AcDbLayerTableRecord
  2
BEM
 70
     0
 62
     7
  6
Continuous
370
    -3
390
F
  0
LAYER
  5
30
330
2
100
AcDbSymbolTableRecord
100
AcDbLayerTableRecord
  2
STEMPEL
 70
     0
 62
     3
  6
Continuous
370
    -3
390
F
  0
LAYER
  5
31
330
2
100
AcDbSymbolTableRecord
100
AcDbLayerTableRecord
  2
TEXT
 70
     0
 62
     7
  6
Continuous
370
    -3
390
F
  0
LAYER
  5
199
330
2
100
AcDbSymbolTableRecord
100
AcDbLayerTableRecord
  2
DEFPOINTS
 70
     0
 62
     7
  6
Continuous
290
     0
370
    -3
390
F
  0
LAYER
  5
19A
330
2
100
AcDbSymbolTableRecord
100
AcDbLayerTableRecord
  2
SCHRAFF
 70
     0
 62
     7
  6
Continuous
370
    -3
390
F
  0
ENDTAB
  0
TABLE
  2
STYLE
  5
3
330
0
100
AcDbSymbolTable
 70
     2
  0
STYLE
  5
11
330
3
100
AcDbSymbolTableRecord
100
AcDbTextStyleTableRecord
  2
STANDARD
 70
     0
 40
0.0
 41
0.8
 50
0.0
 71
     0
 42
3.5
  3
simplex.shx
  4

  0
STYLE
  5
24
330
3
100
AcDbSymbolTableRecord
100
AcDbTextStyleTableRecord
  2
GREEKS
 70
     0
 40
0.0
 41
0.8
 50
0.0
 71
     0
 42
2.5
  3
SIMPLEX.shx
  4

  0
ENDTAB
  0
TABLE
  2
VIEW
  5
6
330
0
100
AcDbSymbolTable
 70
     0
  0
ENDTAB
  0
TABLE
  2
UCS
  5
7
330
0
100
AcDbSymbolTable
 70
     0
  0
ENDTAB
  0
TABLE
  2
APPID
  5
9
330
0
100
AcDbSymbolTable
 70
     1
  0
APPID
  5
12
330
9
100
AcDbSymbolTableRecord
100
AcDbRegAppTableRecord
  2
ACAD
 70
     0
  0
ENDTAB
  0
TABLE
  2
DIMSTYLE
  5
A
330
0
100
AcDbSymbolTable
 70
     1
100
AcDbDimStyleTable
 71
     1
340
9D
  0
DIMSTYLE
105
9D
102
{ACAD_REACTORS
330
537
330
538
330
561
330
11D1
330
1291
330
140A
102
}
330
A
100
AcDbSymbolTableRecord
100
AcDbDimStyleTableRecord
  2
Standard
 70
     0
340
11
  0
ENDTAB
  0
TABLE
  2
BLOCK_RECORD
  5
1
330
0
100
AcDbSymbolTable
 70
     7
  0
BLOCK_RECORD
  5
1E
102
{ACAD_XDICTIONARY
360
A0
102
}
330
1
100
AcDbSymbolTableRecord
100
AcDbBlockTableRecord
  2
*Model_Space
340
21
  0
BLOCK_RECORD
  5
1A
102
{ACAD_XDICTIONARY
360
A2
102
}
330
1
100
AcDbSymbolTableRecord
100
AcDbBlockTableRecord
  2
*Paper_Space
340
1D
  0
BLOCK_RECORD
  5
22
330
1
100
AcDbSymbolTableRecord
100
AcDbBlockTableRecord
  2
LOGO
340
0
102
{BLKREFS
331
9B
102
}
  0
BLOCK_RECORD
  5
57E
330
1
100
AcDbSymbolTableRecord
100
AcDbBlockTableRecord
  2
*D1
340
0
  0
BLOCK_RECORD
  5
58A
330
1
100
AcDbSymbolTableRecord
100
AcDbBlockTableRecord
  2
*D2
340
0
  0
BLOCK_RECORD
  5
5BC
330
1
100
AcDbSymbolTableRecord
100
AcDbBlockTableRecord
  2
*D3
340
0
  0
BLOCK_RECORD
  5
1229
330
1
100
AcDbSymbolTableRecord
100
AcDbBlockTableRecord
  2
*D4
340
0
  0
BLOCK_RECORD
  5
1292
330
1
100
AcDbSymbolTableRecord
100
AcDbBlockTableRecord
  2
*D5
340
0
  0
BLOCK_RECORD
  5
140B
330
1
100
AcDbSymbolTableRecord
100
AcDbBlockTableRecord
  2
*D6
340
0
  0
ENDTAB
  0
ENDSEC
  0
SECTION
  2
BLOCKS
  0
BLOCK
  5
35
330
1E
100
AcDbEntity
  8
0
100
AcDbBlockBegin
  2
*Model_Space
 70
     0
 10
0.0
 20
0.0
 30
0.0
  3
*Model_Space
  1

  0
ENDBLK
  5
36
330
1E
100
AcDbEntity
  8
0
100
AcDbBlockEnd
  0
BLOCK
  5
33
330
1A
100
AcDbEntity
 67
     1
  8
0
100
AcDbBlockBegin
  2
*Paper_Space
 70
     0
 10
0.0
 20
0.0
 30
0.0
  3
*Paper_Space
  1

  0
ENDBLK
  5
34
330
1A
100
AcDbEntity
 67
     1
  8
0
100
AcDbBlockEnd
  0
BLOCK
  5
37
330
22
100
AcDbEntity
  8
0
100
AcDbBlockBegin
  2
LOGO
 70
     0
 10
0.0
 20
0.0
 30
0.0
  3
LOGO
  1

  0
ARC
  5
38
330
22
100
AcDbEntity
  8
0
100
AcDbCircle
 10
11.59973089678112
 20
-9.271599258481501
 30
0.0
 40
4.5
100
AcDbArc
 50
270.0
 51
231.0575587310159
  0
LINE
  5
39
330
22
100
AcDbEntity
  8
0
100
AcDbLine
 10
3.599730896781125
 20
-4.771599258481529
 30
0.0
 11
3.599730896781153
 21
-11.77159925848133
 31
0.0
  0
LINE
  5
3A
330
22
100
AcDbEntity
  8
0
100
AcDbLine
 10
2.599730896781125
 20
-4.771599258481529
 30
0.0
 11
2.599730896781153
 21
-11.77159925848133
 31
0.0
  0
CIRCLE
  5
3B
330
22
100
AcDbEntity
  8
0
100
AcDbCircle
 10
11.59973089678112
 20
-9.271599258481501
 30
0.0
 40
3.5
  0
ARC
  5
3C
330
22
100
AcDbEntity
  8
0
100
AcDbCircle
 10
31.59973089678115
 20
-9.271599258481472
 30
0.0
 40
4.5
100
AcDbArc
 50
270.0
 51
231.0575587310182
  0
LINE
  5
3D
330
22
100
AcDbEntity
  8
0
100
AcDbLine
 10
17.59973089678112
 20
-4.771599258481472
 30
0.0
 11
17.59973089678115
 21
-13.77159925848147
 31
0.0
  0
ARC
  5
3E
330
22
100
AcDbEntity
  8
0
100
AcDbCircle
 10
22.59973089678116
 20
-7.271599258481472
 30
0.0
 40
2.5
100
AcDbArc
 50
293.1161887722295
 51
90.0
  0
CIRCLE
  5
3F
330
22
100
AcDbEntity
  8
0
100
AcDbCircle
 10
31.59973089678115
 20
-9.271599258481472
 30
0.0
 40
3.5
  0
ARC
  5
40
330
22
100
AcDbEntity
  8
0
100
AcDbCircle
 10
4.599730896781153
 20
-11.77159925848133
 30
0.0
 40
1.0
100
AcDbArc
 50
180.0
 51
270.0
  0
ARC
  5
41
330
22
100
AcDbEntity
  8
0
100
AcDbCircle
 10
4.599730896781153
 20
-11.77159925848133
 30
0.0
 40
2.0
100
AcDbArc
 50
179.9999999999992
 51
270.0
  0
LINE
  5
42
330
22
100
AcDbEntity
  8
0
100
AcDbLine
 10
11.59973089678115
 20
-13.77159925848144
 30
0.0
 11
4.599730896781153
 21
-13.77159925848147
 31
0.0
  0
LINE
  5
43
330
22
100
AcDbEntity
  8
0
100
AcDbLine
 10
8.771303772034769
 20
-12.77159925848136
 30
0.0
 11
4.599730896781153
 21
-12.77159925848133
 31
0.0
  0
LINE
  5
44
330
22
100
AcDbEntity
  8
0
100
AcDbLine
 10
31.59973089678115
 20
-13.77159925848147
 30
0.0
 11
23.6715276665056
 21
-13.77159925848144
 31
0.0
  0
LINE
  5
45
330
22
100
AcDbEntity
  8
0
100
AcDbLine
 10
23.56565672307022
 20
-9.51278021337896
 30
0.0
 11
24.4388546544846
 21
-12.77159925848144
 31
0.0
  0
LINE
  5
46
330
22
100
AcDbEntity
  8
0
100
AcDbLine
 10
22.59973089678116
 20
-9.771599258481472
 30
0.0
 11
18.59973089678112
 21
-9.771599258481472
 31
0.0
  0
LINE
  5
47
330
22
100
AcDbEntity
  8
0
100
AcDbLine
 10
18.59973089678115
 20
-13.77159925848144
 30
0.0
 11
17.59973089678115
 21
-13.77159925848144
 31
0.0
  0
LINE
  5
48
330
22
100
AcDbEntity
  8
0
100
AcDbLine
 10
18.59973089678115
 20
-9.771599258481472
 30
0.0
 11
18.59973089678115
 21
-13.77159925848144
 31
0.0
  0
LINE
  5
49
330
22
100
AcDbEntity
  8
0
100
AcDbLine
 10
22.59973089678116
 20
-9.771599258481472
 30
0.0
 11
23.67152766650562
 21
-13.77159925848147
 31
0.0
  0
ARC
  5
4A
330
22
100
AcDbEntity
  8
0
100
AcDbCircle
 10
22.59973089678116
 20
-7.271599258481472
 30
0.0
 40
2.5
100
AcDbArc
 50
270.0
 51
270.0000000000007
  0
LINE
  5
4B
330
22
100
AcDbEntity
  8
0
100
AcDbLine
 10
28.77130377203494
 20
-12.77159925848147
 30
0.0
 11
24.43885465448463
 21
-12.77159925848144
 31
0.0
  0
LINE
  5
4C
330
22
100
AcDbEntity
  8
0
100
AcDbLine
 10
3.599730896781125
 20
-4.771599258481472
 30
0.0
 11
2.599730896781125
 21
-4.771599258481472
 31
0.0
  0
LINE
  5
4D
330
22
100
AcDbEntity
  8
0
100
AcDbLine
 10
22.59973089678116
 20
-8.771599258481472
 30
0.0
 11
18.59973089678115
 21
-8.771599258481472
 31
0.0
  0
LINE
  5
4E
330
22
100
AcDbEntity
  8
0
100
AcDbLine
 10
22.59973089678116
 20
-5.771599258481472
 30
0.0
 11
18.59973089678115
 21
-5.771599258481472
 31
0.0
  0
LINE
  5
4F
330
22
100
AcDbEntity
  8
0
100
AcDbLine
 10
22.59973089678116
 20
-4.771599258481472
 30
0.0
 11
17.59973089678115
 21
-4.771599258481472
 31
0.0
  0
LINE
  5
50
330
22
100
AcDbEntity
  8
0
100
AcDbLine
 10
18.59973089678115
 20
-5.771599258481472
 30
0.0
 11
18.59973089678115
 21
-8.771599258481472
 31
0.0
  0
ARC
  5
51
330
22
100
AcDbEntity
  8
0
100
AcDbCircle
 10
22.59973089678116
 20
-7.271599258481472
 30
0.0
 40
1.5
100
AcDbArc
 50
270.0
 51
90.0
  0
ENDBLK
  5
52
330
22
100
AcDbEntity
  8
0
100
AcDbBlockEnd
  0
BLOCK
  5
588
330
57E
100
AcDbEntity
  8
0
100
AcDbBlockBegin
  2
*D1
 70
     1
 10
0.0
 20
0.0
 30
0.0
  3
*D1
  1

  0
LINE
  5
709
330
57E
100
AcDbEntity
  8
BEM
 62
     0
370
    -2
100
AcDbLine
 10
187.3180272069657
 20
217.0507850436165
 30
0.0
 11
187.3180272069657
 21
191.8670498808358
 31
0.0
  0
LINE
  5
70A
330
57E
100
AcDbEntity
  8
BEM
 62
     0
370
    -2
100
AcDbLine
 10
260.3180272069658
 20
217.0507850436172
 30
0.0
 11
260.3180272069658
 21
191.8670498808358
 31
0.0
  0
LINE
  5
70B
330
57E
100
AcDbEntity
  8
BEM
 62
     0
370
    -2
100
AcDbLine
 10
194.3180272069657
 20
193.8670498808358
 30
0.0
 11
253.3180272069659
 21
193.8670498808358
 31
0.0
  0
SOLID
  5
70C
330
57E
100
AcDbEntity
  8
BEM
 62
     0
100
AcDbTrace
 10
194.3180272069657
 20
195.0337165475024
 30
0.0
 11
194.3180272069657
 21
192.7003832141691
 31
0.0
 12
187.3180272069657
 22
193.8670498808358
 32
0.0
 13
187.3180272069657
 23
193.8670498808358
 33
0.0
  0
SOLID
  5
70D
330
57E
100
AcDbEntity
  8
BEM
 62
     0
100
AcDbTrace
 10
253.3180272069659
 20
195.0337165475024
 30
0.0
 11
253.3180272069659
 21
192.7003832141691
 31
0.0
 12
260.3180272069658
 22
193.8670498808358
 32
0.0
 13
260.3180272069658
 23
193.8670498808358
 33
0.0
  0
MTEXT
  5
70E
330
57E
100
AcDbEntity
  8
BEM
 62
     1
100
AcDbMText
 10
223.8180272069658
 20
200.3670498808358
 30
0.0
 40
7.0
 41
0.0
 71
     5
 72
     1
  1
\A1;%%c73
  7
GREEKS
 73
     1
 44
1.0
  0
POINT
  5
70F
330
57E
100
AcDbEntity
  8
DEFPOINTS
 62
     0
100
AcDbPoint
 10
187.3180272069657
 20
219.0507850436165
 30
0.0
  0
POINT
  5
710
330
57E
100
AcDbEntity
  8
DEFPOINTS
 62
     0
100
AcDbPoint
 10
260.3180272069658
 20
219.0507850436172
 30
0.0
  0
POINT
  5
711
330
57E
100
AcDbEntity
  8
DEFPOINTS
 62
     0
100
AcDbPoint
 10
260.3180272069658
 20
193.8670498808358
 30
0.0
  0
ENDBLK
  5
589
330
57E
100
AcDbEntity
  8
0
100
AcDbBlockEnd
  0
BLOCK
  5
594
330
58A
100
AcDbEntity
  8
0
100
AcDbBlockBegin
  2
*D2
 70
     1
 10
0.0
 20
0.0
 30
0.0
  3
*D2
  1

  0
LINE
  5
1401
330
58A
100
AcDbEntity
  8
BEM
 62
     0
370
    -2
100
AcDbLine
 10
172.8180272069657
 20
521.1206425522791
 30
0.0
 11
172.8180272069657
 21
531.9031289200674
 31
0.0
  0
LINE
  5
1402
330
58A
100
AcDbEntity
  8
BEM
 62
     0
370
    -2
100
AcDbLine
 10
274.8180272069657
 20
521.120642552279
 30
0.0
 11
274.8180272069657
 21
531.9031289200674
 31
0.0
  0
LINE
  5
1403
330
58A
100
AcDbEntity
  8
BEM
 62
     0
370
    -2
100
AcDbLine
 10
179.8180272069657
 20
529.9031289200675
 30
0.0
 11
267.8180272069657
 21
529.9031289200675
 31
0.0
  0
SOLID
  5
1404
330
58A
100
AcDbEntity
  8
BEM
 62
     0
100
AcDbTrace
 10
179.8180272069657
 20
531.0697955867341
 30
0.0
 11
179.8180272069657
 21
528.7364622534008
 31
0.0
 12
172.8180272069657
 22
529.9031289200675
 32
0.0
 13
172.8180272069657
 23
529.9031289200675
 33
0.0
  0
SOLID
  5
1405
330
58A
100
AcDbEntity
  8
BEM
 62
     0
100
AcDbTrace
 10
267.8180272069657
 20
531.0697955867341
 30
0.0
 11
267.8180272069657
 21
528.7364622534008
 31
0.0
 12
274.8180272069657
 22
529.9031289200675
 32
0.0
 13
274.8180272069657
 23
529.9031289200675
 33
0.0
  0
MTEXT
  5
1406
330
58A
100
AcDbEntity
  8
BEM
 62
     1
100
AcDbMText
 10
223.8180272069657
 20
536.4031289200674
 30
0.0
 40
7.0
 41
0.0
 71
     5
 72
     1
  1
\A1;%%c102
  7
GREEKS
 73
     1
 44
1.0
  0
POINT
  5
1407
330
58A
100
AcDbEntity
  8
DEFPOINTS
 62
     0
100
AcDbPoint
 10
172.8180272069657
 20
519.1206425522791
 30
0.0
  0
POINT
  5
1408
330
58A
100
AcDbEntity
  8
DEFPOINTS
 62
     0
100
AcDbPoint
 10
274.8180272069657
 20
519.120642552279
 30
0.0
  0
POINT
  5
1409
330
58A
100
AcDbEntity
  8
DEFPOINTS
 62
     0
100
AcDbPoint
 10
274.8180272069657
 20
529.9031289200675
 30
0.0
  0
ENDBLK
  5
595
330
58A
100
AcDbEntity
  8
0
100
AcDbBlockEnd
  0
BLOCK
  5
5C6
330
5BC
100
AcDbEntity
  8
0
100
AcDbBlockBegin
  2
*D3
 70
     1
 10
0.0
 20
0.0
 30
0.0
  3
*D3
  1

  0
LINE
  5
1420
330
5BC
100
AcDbEntity
  8
BEM
 62
     0
370
    -2
100
AcDbLine
 10
170.8180272069657
 20
519.1206425522789
 30
0.0
 11
146.2012278265474
 21
519.1206425522789
 31
0.0
  0
LINE
  5
1421
330
5BC
100
AcDbEntity
  8
BEM
 62
     0
370
    -2
100
AcDbLine
 10
185.7493587845252
 20
214.120642552279
 30
0.0
 11
146.2012278265473
 21
214.120642552279
 31
0.0
  0
LINE
  5
1422
330
5BC
100
AcDbEntity
  8
BEM
 62
     0
370
    -2
100
AcDbLine
 10
148.2012278265474
 20
512.1206425522789
 30
0.0
 11
148.2012278265473
 21
221.120642552279
 31
0.0
  0
SOLID
  5
1423
330
5BC
100
AcDbEntity
  8
BEM
 62
     0
100
AcDbTrace
 10
147.0345611598807
 20
512.1206425522789
 30
0.0
 11
149.367894493214
 21
512.1206425522789
 31
0.0
 12
148.2012278265474
 22
519.1206425522789
 32
0.0
 13
148.2012278265474
 23
519.1206425522789
 33
0.0
  0
SOLID
  5
1424
330
5BC
100
AcDbEntity
  8
BEM
 62
     0
100
AcDbTrace
 10
147.0345611598806
 20
221.120642552279
 30
0.0
 11
149.367894493214
 21
221.120642552279
 31
0.0
 12
148.2012278265473
 22
214.120642552279
 32
0.0
 13
148.2012278265473
 23
214.120642552279
 33
0.0
  0
MTEXT
  5
1425
330
5BC
100
AcDbEntity
  8
BEM
 62
     1
100
AcDbMText
 10
141.7012278265473
 20
366.620642552279
 30
0.0
 40
7.0
 41
0.0
 71
     5
 72
     1
  1
\A1;3055
  7
GREEKS
 11
0.0000000000000001
 21
1.0
 31
0.0
 73
     1
 44
1.0
  0
POINT
  5
1426
330
5BC
100
AcDbEntity
  8
DEFPOINTS
 62
     0
100
AcDbPoint
 10
172.8180272069657
 20
519.1206425522789
 30
0.0
  0
POINT
  5
1427
330
5BC
100
AcDbEntity
  8
DEFPOINTS
 62
     0
100
AcDbPoint
 10
187.7493587845252
 20
214.120642552279
 30
0.0
  0
POINT
  5
1428
330
5BC
100
AcDbEntity
  8
DEFPOINTS
 62
     0
100
AcDbPoint
 10
148.2012278265473
 20
214.120642552279
 30
0.0
  0
ENDBLK
  5
5C7
330
5BC
100
AcDbEntity
  8
0
100
AcDbBlockEnd
  0
BLOCK
  5
1233
330
1229
100
AcDbEntity
  8
0
100
AcDbBlockBegin
  2
*D4
 70
     1
 10
0.0
 20
0.0
 30
0.0
  3
*D4
  1

  0
LINE
  5
1242
330
1229
100
AcDbEntity
  8
BEM
 62
     0
370
    -2
100
AcDbLine
 10
276.8180272069657
 20
259.120642552279
 30
0.0
 11
324.9742147413904
 21
259.120642552279
 31
0.0
  0
LINE
  5
1243
330
1229
100
AcDbEntity
  8
BEM
 62
     0
370
    -2
100
AcDbLine
 10
304.3180272069657
 20
319.120642552279
 30
0.0
 11
324.9742147413904
 21
319.120642552279
 31
0.0
  0
LINE
  5
1244
330
1229
100
AcDbEntity
  8
BEM
 62
     0
370
    -2
100
AcDbLine
 10
322.9742147413904
 20
266.120642552279
 30
0.0
 11
322.9742147413904
 21
312.120642552279
 31
0.0
  0
SOLID
  5
1245
330
1229
100
AcDbEntity
  8
BEM
 62
     0
100
AcDbTrace
 10
321.8075480747237
 20
266.120642552279
 30
0.0
 11
324.1408814080571
 21
266.120642552279
 31
0.0
 12
322.9742147413904
 22
259.120642552279
 32
0.0
 13
322.9742147413904
 23
259.120642552279
 33
0.0
  0
SOLID
  5
1246
330
1229
100
AcDbEntity
  8
BEM
 62
     0
100
AcDbTrace
 10
321.8075480747237
 20
312.120642552279
 30
0.0
 11
324.1408814080571
 21
312.120642552279
 31
0.0
 12
322.9742147413904
 22
319.120642552279
 32
0.0
 13
322.9742147413904
 23
319.120642552279
 33
0.0
  0
MTEXT
  5
1247
330
1229
100
AcDbEntity
  8
BEM
 62
     1
100
AcDbMText
 10
316.4742147413903
 20
289.1206425522791
 30
0.0
 40
7.0
 41
0.0
 71
     5
 72
     1
  1
\A1;60
 11
0.0000000000000001
 21
1.0
 31
0.0
 73
     1
 44
1.0
  0
POINT
  5
1248
330
1229
100
AcDbEntity
  8
DEFPOINTS
 62
     0
100
AcDbPoint
 10
274.8180272069657
 20
259.120642552279
 30
0.0
  0
POINT
  5
1249
330
1229
100
AcDbEntity
  8
DEFPOINTS
 62
     0
100
AcDbPoint
 10
302.3180272069657
 20
319.120642552279
 30
0.0
  0
POINT
  5
124A
330
1229
100
AcDbEntity
  8
DEFPOINTS
 62
     0
100
AcDbPoint
 10
322.9742147413904
 20
319.120642552279
 30
0.0
  0
ENDBLK
  5
1234
330
1229
100
AcDbEntity
  8
0
100
AcDbBlockEnd
  0
BLOCK
  5
129E
330
1292
100
AcDbEntity
  8
0
100
AcDbBlockBegin
  2
*D5
 70
     1
 10
0.0
 20
0.0
 30
0.0
  3
*D5
  1

  0
LINE
  5
12A0
330
1292
100
AcDbEntity
  8
BEM
 62
     0
370
    -2
100
AcDbLine
 10
274.8180272069657
 20
304.620642552279
 30
0.0
 11
274.8180272069657
 21
287.2543318013659
 31
0.0
  0
LINE
  5
12A1
330
1292
100
AcDbEntity
  8
BEM
 62
     0
370
    -2
100
AcDbLine
 10
289.8180272069657
 20
303.620642552279
 30
0.0
 11
289.8180272069657
 21
287.2543318013659
 31
0.0
  0
LINE
  5
12A2
330
1292
100
AcDbEntity
  8
BEM
 62
     0
370
    -2
100
AcDbLine
 10
267.8180272069657
 20
289.2543318013659
 30
0.0
 11
260.8180272069656
 21
289.2543318013659
 31
0.0
  0
LINE
  5
12A3
330
1292
100
AcDbEntity
  8
BEM
 62
     0
370
    -2
100
AcDbLine
 10
296.8180272069657
 20
289.2543318013659
 30
0.0
 11
303.8180272069657
 21
289.2543318013659
 31
0.0
  0
LINE
  5
12A4
330
1292
100
AcDbEntity
  8
BEM
 62
     0
370
    -2
100
AcDbLine
 10
274.8180272069657
 20
289.2543318013659
 30
0.0
 11
289.8180272069657
 21
289.2543318013659
 31
0.0
  0
SOLID
  5
12A5
330
1292
100
AcDbEntity
  8
BEM
 62
     0
100
AcDbTrace
 10
267.8180272069657
 20
290.4209984680326
 30
0.0
 11
267.8180272069657
 21
288.0876651346992
 31
0.0
 12
274.8180272069657
 22
289.2543318013659
 32
0.0
 13
274.8180272069657
 23
289.2543318013659
 33
0.0
  0
SOLID
  5
12A6
330
1292
100
AcDbEntity
  8
BEM
 62
     0
100
AcDbTrace
 10
296.8180272069657
 20
290.4209984680326
 30
0.0
 11
296.8180272069657
 21
288.0876651346992
 31
0.0
 12
289.8180272069657
 22
289.2543318013659
 32
0.0
 13
289.8180272069657
 23
289.2543318013659
 33
0.0
  0
MTEXT
  5
12A7
330
1292
100
AcDbEntity
  8
BEM
 62
     1
100
AcDbMText
 10
282.3180272069657
 20
295.7543318013659
 30
0.0
 40
7.0
 41
0.0
 71
     5
 72
     1
  1
\A1;15
 73
     1
 44
1.0
  0
POINT
  5
12A8
330
1292
100
AcDbEntity
  8
DEFPOINTS
 62
     0
100
AcDbPoint
 10
274.8180272069657
 20
306.620642552279
 30
0.0
  0
POINT
  5
12A9
330
1292
100
AcDbEntity
  8
DEFPOINTS
 62
     0
100
AcDbPoint
 10
289.8180272069657
 20
305.620642552279
 30
0.0
  0
POINT
  5
12AA
330
1292
100
AcDbEntity
  8
DEFPOINTS
 62
     0
100
AcDbPoint
 10
289.8180272069657
 20
289.2543318013659
 30
0.0
  0
ENDBLK
  5
129F
330
1292
100
AcDbEntity
  8
0
100
AcDbBlockEnd
  0
BLOCK
  5
1415
330
140B
100
AcDbEntity
  8
0
100
AcDbBlockBegin
  2
*D6
 70
     1
 10
0.0
 20
0.0
 30
0.0
  3
*D6
  1

  0
LINE
  5
1417
330
140B
100
AcDbEntity
  8
BEM
 62
     0
370
    -2
100
AcDbLine
 10
185.7493587845252
 20
214.120642552279
 30
0.0
 11
161.8976198876775
 21
214.120642552279
 31
0.0
  0
LINE
  5
1418
330
140B
100
AcDbEntity
  8
BEM
 62
     0
370
    -2
100
AcDbLine
 10
170.8180272069657
 20
259.1206425522791
 30
0.0
 11
161.8976198876775
 21
259.1206425522791
 31
0.0
  0
LINE
  5
1419
330
140B
100
AcDbEntity
  8
BEM
 62
     0
370
    -2
100
AcDbLine
 10
163.8976198876775
 20
221.120642552279
 30
0.0
 11
163.8976198876775
 21
252.1206425522792
 31
0.0
  0
SOLID
  5
141A
330
140B
100
AcDbEntity
  8
BEM
 62
     0
100
AcDbTrace
 10
162.7309532210108
 20
221.120642552279
 30
0.0
 11
165.0642865543441
 21
221.120642552279
 31
0.0
 12
163.8976198876775
 22
214.120642552279
 32
0.0
 13
163.8976198876775
 23
214.120642552279
 33
0.0
  0
SOLID
  5
141B
330
140B
100
AcDbEntity
  8
BEM
 62
     0
100
AcDbTrace
 10
162.7309532210108
 20
252.1206425522792
 30
0.0
 11
165.0642865543441
 21
252.1206425522792
 31
0.0
 12
163.8976198876775
 22
259.1206425522791
 32
0.0
 13
163.8976198876775
 23
259.1206425522791
 33
0.0
  0
MTEXT
  5
141C
330
140B
100
AcDbEntity
  8
BEM
 62
     1
100
AcDbMText
 10
157.3976198876774
 20
236.6206425522791
 30
0.0
 40
7.0
 41
0.0
 71
     5
 72
     1
  1
\A1;45
 11
0.0000000000000001
 21
1.0
 31
0.0
 73
     1
 44
1.0
  0
POINT
  5
141D
330
140B
100
AcDbEntity
  8
DEFPOINTS
 62
     0
100
AcDbPoint
 10
187.7493587845252
 20
214.120642552279
 30
0.0
  0
POINT
  5
141E
330
140B
100
AcDbEntity
  8
DEFPOINTS
 62
     0
100
AcDbPoint
 10
172.8180272069657
 20
259.1206425522791
 30
0.0
  0
POINT
  5
141F
330
140B
100
AcDbEntity
  8
DEFPOINTS
 62
     0
100
AcDbPoint
 10
163.8976198876775
 20
259.1206425522791
 30
0.0
  0
ENDBLK
  5
1416
330
140B
100
AcDbEntity
  8
0
100
AcDbBlockEnd
  0
ENDSEC
  0
SECTION
  2
ENTITIES
  0
LINE
  5
57
330
1E
100
AcDbEntity
  8
STEMPEL
100
AcDbLine
 10
410.0
 20
110.0
 30
0.0
 11
39.99999999999997
 21
110.0
 31
0.0
  0
LINE
  5
58
330
1E
100
AcDbEntity
  8
STEMPEL
100
AcDbLine
 10
136.0000000000001
 20
109.9999999999999
 30
0.0
 11
136.0
 21
9.999999999999971
 31
0.0
  0
LINE
  5
59
330
1E
100
AcDbEntity
  8
STEMPEL
100
AcDbLine
 10
220.0
 20
110.0
 30
0.0
 11
220.0
 21
9.999999999999971
 31
0.0
  0
LINE
  5
5A
330
1E
100
AcDbEntity
  8
STEMPEL
100
AcDbLine
 10
332.0
 20
109.9999999999997
 30
0.0
 11
332.0
 21
40.0
 31
0.0
  0
LINE
  5
5B
330
1E
100
AcDbEntity
  8
STEMPEL
100
AcDbLine
 10
135.9999999999999
 20
29.99999999999997
 30
0.0
 11
39.99999999999997
 21
29.99999999999997
 31
0.0
  0
LINE
  5
5C
330
1E
100
AcDbEntity
  8
STEMPEL
100
AcDbLine
 10
410.0
 20
40.0
 30
0.0
 11
136.0000000000001
 21
39.99999999999997
 31
0.0
  0
LINE
  5
5D
330
1E
100
AcDbEntity
  8
STEMPEL
100
AcDbLine
 10
410.0
 20
80.0
 30
0.0
 11
136.0000000000001
 21
79.99999999999994
 31
0.0
  0
LINE
  5
5E
330
1E
100
AcDbEntity
  8
VOLL
100
AcDbLine
 10
54.00000000000009
 20
110.0
 30
0.0
 11
53.99999999999997
 21
9.999999999999971
 31
0.0
  0
LINE
  5
5F
330
1E
100
AcDbEntity
  8
VOLL
100
AcDbLine
 10
94.00000000000011
 20
109.9999999999999
 30
0.0
 11
94.0
 21
9.999999999999971
 31
0.0
  0
LINE
  5
60
330
1E
100
AcDbEntity
  8
VOLL
100
AcDbLine
 10
114.0000000000001
 20
109.9999999999999
 30
0.0
 11
114.0
 21
9.999999999999971
 31
0.0
  0
LINE
  5
61
330
1E
100
AcDbEntity
  8
VOLL
100
AcDbLine
 10
154.0000000000001
 20
79.99999999999994
 30
0.0
 11
154.0000000000001
 21
39.99999999999997
 31
0.0
  0
LINE
  5
62
330
1E
100
AcDbEntity
  8
VOLL
100
AcDbLine
 10
180.0000000000001
 20
109.9999999999998
 30
0.0
 11
180.0
 21
39.99999999999997
 31
0.0
  0
LINE
  5
63
330
1E
100
AcDbEntity
  8
HILF
100
AcDbLine
 10
40.00000000000008
 20
100.0
 30
0.0
 11
136.0000000000001
 21
100.0
 31
0.0
  0
LINE
  5
64
330
1E
100
AcDbEntity
  8
HILF
100
AcDbLine
 10
40.00000000000008
 20
90.00000000000005
 30
0.0
 11
136.0000000000001
 21
90.00000000000005
 31
0.0
  0
LINE
  5
65
330
1E
100
AcDbEntity
  8
HILF
100
AcDbLine
 10
40.00000000000008
 20
79.99999999999994
 30
0.0
 11
136.0000000000001
 21
79.99999999999994
 31
0.0
  0
LINE
  5
66
330
1E
100
AcDbEntity
  8
HILF
100
AcDbLine
 10
40.00000000000008
 20
69.99999999999994
 30
0.0
 11
136.0000000000001
 21
69.99999999999994
 31
0.0
  0
LINE
  5
67
330
1E
100
AcDbEntity
  8
HILF
100
AcDbLine
 10
40.00000000000008
 20
59.99999999999997
 30
0.0
 11
136.0000000000001
 21
59.99999999999997
 31
0.0
  0
LINE
  5
68
330
1E
100
AcDbEntity
  8
HILF
100
AcDbLine
 10
40.00000000000008
 20
49.99999999999997
 30
0.0
 11
136.0000000000001
 21
49.99999999999997
 31
0.0
  0
LINE
  5
69
330
1E
100
AcDbEntity
  8
HILF
100
AcDbLine
 10
40.00000000000008
 20
39.99999999999997
 30
0.0
 11
136.0000000000001
 21
39.99999999999997
 31
0.0
  0
LINE
  5
6A
330
1E
100
AcDbEntity
  8
HILF
100
AcDbLine
 10
136.0000000000001
 20
69.99999999999994
 30
0.0
 11
220.0
 21
69.99999999999994
 31
0.0
  0
LINE
  5
6B
330
1E
100
AcDbEntity
  8
HILF
100
AcDbLine
 10
136.0000000000001
 20
59.99999999999997
 30
0.0
 11
220.0
 21
59.99999999999997
 31
0.0
  0
LINE
  5
6C
330
1E
100
AcDbEntity
  8
HILF
100
AcDbLine
 10
136.0000000000001
 20
49.99999999999997
 30
0.0
 11
220.0
 21
49.99999999999997
 31
0.0
  0
LINE
  5
6D
330
1E
100
AcDbEntity
  8
HILF
100
AcDbLine
 10
224.7736801096948
 20
84.03758247564139
 30
0.0
 11
324.8353916556311
 21
84.03758247564139
 31
0.0
  0
LINE
  5
6E
330
1E
100
AcDbEntity
  8
HILF
100
AcDbLine
 10
224.7736801096948
 20
69.99999999999994
 30
0.0
 11
324.835391655631
 21
69.99999999999994
 31
0.0
  0
LINE
  5
6F
330
1E
100
AcDbEntity
  8
HILF
100
AcDbLine
 10
224.7736801096948
 20
59.99999999999997
 30
0.0
 11
324.835391655631
 21
59.99999999999997
 31
0.0
  0
LINE
  5
70
330
1E
100
AcDbEntity
  8
HILF
100
AcDbLine
 10
224.7736801096948
 20
49.99999999999997
 30
0.0
 11
324.835391655631
 21
49.99999999999997
 31
0.0
  0
LINE
  5
71
330
1E
100
AcDbEntity
  8
VOLL
100
AcDbLine
 10
332.0
 20
60.0
 30
0.0
 11
410.0
 21
60.0
 31
0.0
  0
LINE
  5
72
330
1E
100
AcDbEntity
  8
HILF
100
AcDbLine
 10
336.7238616296993
 20
83.77983636955827
 30
0.0
 11
404.8588839326728
 21
83.77983636955827
 31
0.0
  0
LINE
  5
73
330
1E
100
AcDbEntity
  8
HILF
100
AcDbLine
 10
223.4909699289885
 20
14.89398258028314
 30
0.0
 11
404.8588839326728
 21
14.89398258028314
 31
0.0
  0
TEXT
  5
74
330
1E
100
AcDbEntity
  8
TEXT
100
AcDbText
 10
63.86165979631819
 20
18.67381894984132
 30
0.0
 40
4.0
  1
Änderung
 41
0.8
  7
GREEKS
 72
     1
 11
74.60451693917534
 21
18.67381894984132
 31
0.0
100
AcDbText
  0
TEXT
  5
75
330
1E
100
AcDbEntity
  8
TEXT
100
AcDbText
 10
143.5163572150377
 20
102.4620895087088
 30
0.0
 40
5.0
  1
Maßstab
 41
0.8
  7
GREEKS
100
AcDbText
  0
TEXT
  5
76
330
1E
100
AcDbEntity
  8
TEXT
100
AcDbText
 10
184.2858954734051
 20
102.4184168434819
 30
0.0
 40
5.0
  1
Zul. Abw.
 41
0.8
  7
GREEKS
100
AcDbText
  0
TEXT
  5
77
330
1E
100
AcDbEntity
  8
TEXT
100
AcDbText
 10
224.877940380901
 20
102.5489328011779
 30
0.0
 40
5.0
  1
Benennung
 41
0.8
  7
GREEKS
100
AcDbText
  0
TEXT
  5
78
330
1E
100
AcDbEntity
  8
TEXT
100
AcDbText
 10
336.178754957634
 20
102.3132034537136
 30
0.0
 40
5.0
  1
Zeichnungs Nr.
 41
0.8
  7
GREEKS
100
AcDbText
  0
TEXT
  5
79
330
1E
100
AcDbEntity
  8
TEXT
100
AcDbText
 10
224.742238391136
 20
30.84560570193057
 30
0.0
 40
5.0
  1
Bauvorhaben
 41
0.8
  7
GREEKS
100
AcDbText
  0
TEXT
  5
7A
330
1E
100
AcDbEntity
  8
TEXT
100
AcDbText
 10
336.7238616296993
 20
73.1811823709997
 30
0.0
 40
5.0
  1
Ersatz für:
 41
0.8
  7
GREEKS
100
AcDbText
  0
TEXT
  5
7B
330
1E
100
AcDbEntity
  8
TEXT
100
AcDbText
 10
48.26641107045756
 20
13.65465846027192
 30
0.0
 40
4.0
  1
Index
 50
90.0
 41
0.8
  7
GREEKS
100
AcDbText
  0
TEXT
  5
7C
330
1E
100
AcDbEntity
  8
TEXT
100
AcDbText
 10
100.0934676075481
 20
18.6715626933981
 30
0.0
 40
4.0
  1
Tag
 41
0.8
  7
GREEKS
 72
     1
 11
103.8268009408814
 21
18.6715626933981
 31
0.0
100
AcDbText
  0
TEXT
  5
7D
330
1E
100
AcDbEntity
  8
TEXT
100
AcDbText
 10
119.0122744386592
 20
18.59324216966408
 30
0.0
 40
4.0
  1
Name
 41
0.8
  7
GREEKS
 72
     1
 11
125.3360839624688
 21
18.59324216966408
 31
0.0
100
AcDbText
  0
TEXT
  5
7E
330
1E
100
AcDbEntity
  8
TEXT
100
AcDbText
 10
162.3311673153651
 20
73.31880501229926
 30
0.0
 40
4.0
  1
Tag
 41
0.8
  7
GREEKS
100
AcDbText
  0
TEXT
  5
7F
330
1E
100
AcDbEntity
  8
TEXT
100
AcDbText
 10
192.4626584226295
 20
73.30961091915225
 30
0.0
 40
4.0
  1
Name
 41
0.8
  7
GREEKS
100
AcDbText
  0
TEXT
  5
80
330
1E
100
AcDbEntity
  8
TEXT
100
AcDbText
 10
137.5836127167615
 20
63.62990369617964
 30
0.0
 40
4.0
  1
Gez.
 41
0.8
  7
GREEKS
100
AcDbText
  0
TEXT
  5
81
330
1E
100
AcDbEntity
  8
TEXT
100
AcDbText
 10
137.5515086571672
 20
53.68926291428377
 30
0.0
 40
4.0
  1
Gepr.
 41
0.8
  7
GREEKS
100
AcDbText
  0
TEXT
  5
82
330
1E
100
AcDbEntity
  8
TEXT
100
AcDbText
 10
137.6006777387304
 20
43.52946389649807
 30
0.0
 40
4.0
  1
Norm.
 41
0.8
  7
GREEKS
100
AcDbText
  0
LINE
  5
83
330
1E
100
AcDbEntity
  8
STEMPEL
100
AcDbLine
 10
49.99999999999989
 20
10.0
 30
0.0
 11
410.0
 21
10.0
 31
0.0
  0
TEXT
  5
84
330
1E
100
AcDbEntity
  8
TEXT
100
AcDbText
 10
337.2400861497006
 20
52.07416177878602
 30
0.0
 40
5.0
  1
ersetzt durch:
 41
0.8
  7
GREEKS
100
AcDbText
  0
LINE
  5
85
330
1E
100
AcDbEntity
  8
STEMPEL
100
AcDbLine
 10
410.0
 20
10.0
 30
0.0
 11
39.99999999999989
 21
10.0
 31
0.0
  0
LINE
  5
86
330
1E
100
AcDbEntity
  8
STEMPEL
100
AcDbLine
 10
410.0
 20
10.0
 30
0.0
 11
410.0
 21
584.0
 31
0.0
  0
LINE
  5
87
330
1E
100
AcDbEntity
  8
STEMPEL
100
AcDbLine
 10
40.0
 20
10.0
 30
0.0
 11
39.99999999999989
 21
584.0
 31
0.0
  0
LINE
  5
88
330
1E
100
AcDbEntity
  8
STEMPEL
100
AcDbLine
 10
410.0
 20
584.0
 30
0.0
 11
39.99999999999989
 21
584.0
 31
0.0
  0
LINE
  5
89
330
1E
100
AcDbEntity
  8
HILF
100
AcDbLine
 10
0.0
 20
0.0
 30
0.0
 11
-0.0000000000001137
 21
594.0
 31
0.0
  0
LINE
  5
8A
330
1E
100
AcDbEntity
  8
HILF
100
AcDbLine
 10
419.9999999999999
 20
594.0000000000002
 30
0.0
 11
0.0
 21
594.0
 31
0.0
  0
LINE
  5
8B
330
1E
100
AcDbEntity
  8
HILF
100
AcDbLine
 10
420.0
 20
0.0
 30
0.0
 11
0.0
 21
0.0
 31
0.0
  0
LINE
  5
8C
330
1E
100
AcDbEntity
  8
HILF
100
AcDbLine
 10
31.08767135713856
 20
297.0
 30
0.0
 11
0.0000000000001137
 21
297.0
 31
0.0
  0
TEXT
  5
8D
330
1E
100
AcDbEntity
  8
TEXT
100
AcDbText
 10
138.622109822104
 20
73.14025471151666
 30
0.0
 40
4.0
  1
2007
 41
0.8
  7
GREEKS
100
AcDbText
  0
LINE
  5
8E
330
1E
100
AcDbEntity
  8
HILF
100
AcDbLine
 10
420.0
 20
-0.0000000000001137
 30
0.0
 11
419.9999999999999
 21
594.0
 31
0.0
  0
TEXT
  5
8F
330
1E
100
AcDbEntity
  8
VOLL
100
AcDbText
 10
78.07675471698113
 20
31.02594776470585
 30
0.0
 40
1.8
  1

  7
GREEKS
100
AcDbText
  0
TEXT
  5
90
330
1E
100
AcDbEntity
  8
TEXT
100
AcDbText
 10
41.85509950977674
 20
111.6719999999999
 30
0.0
 40
5.0
  1
Erstellt mit AUTOCAD 2004
 41
0.8
  7
GREEKS
100
AcDbText
  0
TEXT
  5
91
330
1E
100
AcDbEntity
  8
TEXT
100
AcDbText
 10
194.4216048581257
 20
63.0896391972351
 30
0.0
 40
4.0
  1
Koeh
 41
0.8
  7
GREEKS
 72
     1
 11
199.6787477152685
 21
63.0896391972351
 31
0.0
100
AcDbText
  0
TEXT
  5
92
330
1E
100
AcDbEntity
  8
TEXT
 62
     1
100
AcDbText
 10
347.2064127456858
 20
88.14901428913959
 30
0.0
 40
7.0
  1
58110070W
 41
0.8
  7
GREEKS
 72
     1
 11
370.1397460790191
 21
88.14901428913959
 31
0.0
100
AcDbText
  0
TEXT
  5
93
330
1E
100
AcDbEntity
  8
TEXT
 62
     1
100
AcDbText
 10
150.5006306481887
 20
88.14901428913959
 30
0.0
 40
7.0
  1
1:2
 41
0.8
  7
GREEKS
100
AcDbText
  0
TEXT
  5
94
330
1E
100
AcDbEntity
  8
TEXT
100
AcDbText
 10
161.0085209177598
 20
63.10765040825732
 30
0.0
 40
4.0
  1
01.10.
 41
0.8
  7
GREEKS
 72
     1
 11
167.4085209177598
 21
63.10765040825732
 31
0.0
100
AcDbText
  0
TEXT
  5
95
330
1E
100
AcDbEntity
  8
TEXT
 62
     1
100
AcDbText
 10
226.8935731057402
 20
87.41748789253779
 30
0.0
 40
7.0
  1
Verbundrohr DN70
 41
0.8
  7
GREEKS
100
AcDbText
  0
TEXT
  5
96
330
1E
100
AcDbEntity
  8
TEXT
100
AcDbText
 10
225.1296391125315
 20
71.50334417585288
 30
0.0
 40
5.0
  1
mit selbstregulierender
 41
0.8
  7
GREEKS
100
AcDbText
  0
TEXT
  5
98
330
1E
100
AcDbEntity
  8
TEXT
100
AcDbText
 10
225.1296391125315
 20
51.64011943042158
 30
0.0
 40
5.0
  1
EDV-Art.Nr. 58110.070X
 41
0.8
  7
GREEKS
100
AcDbText
  0
TEXT
  5
99
330
1E
100
AcDbEntity
  8
TEXT
100
AcDbText
 10
224.9837501577827
 20
42.62974153022632
 30
0.0
 40
4.0
  1
58110070W.DWG
 41
0.8
  7
GREEKS
100
AcDbText
  0
TEXT
  5
9A
330
1E
100
AcDbEntity
  8
TEXT
100
AcDbText
 10
182.626132208084
 20
90.76363841023022
 30
0.0
 40
4.0
  1
DIN EN1123-2
 41
0.8
  7
GREEKS
 72
     1
 11
199.6166083985602
 21
90.76363841023022
 31
0.0
100
AcDbText
  0
INSERT
  5
9B
330
1E
100
AcDbEntity
  8
STEMPEL
100
AcDbBlockReference
  2
LOGO
 10
140.9955485457794
 20
45.02105276448322
 30
0.0
 41
2.0
 42
2.0
 43
2.0
  0
TEXT
  5
118
330
1E
100
AcDbEntity
  8
TEXT
100
AcDbText
 10
417.3022923857165
 20
10.16790107998849
 30
0.0
 40
4.0
  1
Diese Zeichnung ist urheberrechtlich geschützt und bleibt unser Eigentum. Sie darf weder ganz noch teilweise verfielfältigt und nicht an Dritte weitergegeben werden.
 50
90.0
 41
0.8
  7
GREEKS
100
AcDbText
  0
TEXT
  5
3D8
330
1E
100
AcDbEntity
  8
TEXT
 62
     1
100
AcDbText
 10
193.6033828683802
 20
152.364339848487
 30
0.0
 40
7.0
  1
Außenrohr: E195 EN10305 feuerverzinkt
 41
0.8
  7
GREEKS
100
AcDbText
  0
TEXT
  5
3D9
330
1E
100
AcDbEntity
  8
TEXT
 62
     1
100
AcDbText
 10
197.3756002392442
 20
141.011271812132
 30
0.0
 40
7.0
  1
Innenrohr: E195 EN10305 feuerverzinkt
 41
0.8
  7
GREEKS
100
AcDbText
  0
TEXT
  5
3DA
330
1E
100
AcDbEntity
  8
TEXT
 62
     1
100
AcDbText
 10
189.8811895945471
 20
117.1473825875242
 30
0.0
 40
7.0
  1
Dämmung: 2 K-PU-Schaum
 41
0.8
  7
GREEKS
100
AcDbText
  0
TEXT
  5
3DB
330
1E
100
AcDbEntity
  8
TEXT
 62
     1
100
AcDbText
 10
245.030129115258
 20
129.7422179729062
 30
0.0
 40
7.0
  1
und innenbeschichtet
 41
0.8
  7
GREEKS
100
AcDbText
  0
TEXT
  5
478
330
1E
100
AcDbEntity
  8
TEXT
 62
     1
100
AcDbText
 10
214.7090742666137
 20
428.6566249987965
 30
0.0
 40
7.0
  1
DN70
 50
90.0
 41
0.8
  7
GREEKS
100
AcDbText
  0
DIMENSION
  5
537
330
1E
100
AcDbEntity
  8
BEM
100
AcDbDimension
  2
*D1
 10
260.3180272069658
 20
193.8670498808358
 30
0.0
 11
223.8180272069658
 21
200.3670498808358
 31
0.0
 70
    32
  1
%%c<>
 71
     5
 42
73.00000000000011
  3
Standard
100
AcDbAlignedDimension
 13
187.3180272069657
 23
219.0507850436165
 33
0.0
 14
260.3180272069658
 24
219.0507850436172
 34
0.0
100
AcDbRotatedDimension
1001
ACAD
1000
DSTYLE
1002
{
1070
    40
1040
2.0
1070
    41
1040
3.5
1070
    42
1040
1.0
1070
    43
1040
7.0
1070
    44
1040
1.0
1070
    73
1070
     0
1070
    74
1070
     0
1070
    77
1070
     1
1070
    78
1070
     8
1070
    79
1070
     2
1070
   140
1040
3.5
1070
   141
1040
1.5
1070
   146
1040
0.5142857142857144
1070
   147
1040
1.5
1070
   172
1070
     1
1070
   178
1070
     1
1070
   179
1070
     2
1070
   271
1070
     2
1070
   272
1070
     2
1070
   284
1070
     8
1070
   285
1070
     8
1070
   286
1070
     8
1070
   289
1070
     0
1070
   340
1005
24
1002
}
  0
DIMENSION
  5
538
330
1E
100
AcDbEntity
  8
BEM
100
AcDbDimension
  2
*D2
 10
274.8180272069657
 20
529.9031289200675
 30
0.0
 11
223.8180272069657
 21
536.4031289200674
 31
0.0
 70
    32
  1
%%c<>
 71
     5
 42
102.0
  3
Standard
100
AcDbAlignedDimension
 13
172.8180272069657
 23
519.1206425522791
 33
0.0
 14
274.8180272069657
 24
519.120642552279
 34
0.0
100
AcDbRotatedDimension
1001
ACAD
1000
DSTYLE
1002
{
1070
    40
1040
2.0
1070
    41
1040
3.5
1070
    42
1040
1.0
1070
    43
1040
7.0
1070
    44
1040
1.0
1070
    73
1070
     0
1070
    74
1070
     0
1070
    77
1070
     1
1070
    78
1070
     8
1070
    79
1070
     2
1070
   140
1040
3.5
1070
   141
1040
1.5
1070
   146
1040
0.5142857142857144
1070
   147
1040
1.5
1070
   172
1070
     1
1070
   178
1070
     1
1070
   179
1070
     2
1070
   271
1070
     2
1070
   272
1070
     2
1070
   284
1070
     8
1070
   285
1070
     8
1070
   286
1070
     8
1070
   289
1070
     0
1070
   340
1005
24
1002
}
  0
HATCH
  5
53B
330
1E
100
AcDbEntity
  8
SCHRAFF
100
AcDbHatch
 10
0.0
 20
0.0
 30
0.0
210
0.0
220
0.0
230
1.0
  2
NET
 70
     0
 71
     1
 91
        2
 92
        7
 72
     1
 73
     1
 93
        5
 10
174.8180272069657
 20
505.1206425522792
 42
0.0
 10
181.7180272069657
 20
505.1206425522791
 42
0.0
 10
181.7180272069657
 20
508.5717201451603
 42
-0.109333224602077
 10
184.0526298786904
 20
519.1206425522791
 42
0.0
 10
174.8180272069657
 20
519.1206425522791
 42
0.0
 97
        5
330
541
330
54A
330
551
330
558
330
55F
 92
        7
 72
     1
 73
     1
 93
        5
 10
265.9180272069657
 20
508.5717201451602
 42
0.0
 10
265.9180272069657
 20
505.120642552279
 42
0.0
 10
272.8180272069657
 20
505.120642552279
 42
0.0
 10
272.8180272069657
 20
519.120642552279
 42
0.0
 10
263.583424535241
 20
519.120642552279
 42
-0.1093332246020765
 97
        5
330
541
330
579
330
572
330
574
330
568
 75
     0
 76
     1
 52
45.0
 41
20.0
 77
     0
 78
     2
 53
45.0
 43
-1.181972793034219
 44
47.24564849309331
 45
-1.767766952966368
 46
1.767766952966368
 79
     0
 53
135.0
 43
-1.181972793034219
 44
47.24564849309331
 45
-1.767766952966368
 46
-1.767766952966368
 79
     0
 47
0.4818928018177376
 98
        2
 10
177.141137801686
 20
511.8439526082282
 10
268.2788978921649
 20
511.8439526082282
  0
LINE
  5
53F
330
1E
100
AcDbEntity
  8
HILF
100
AcDbLine
 10
257.1119154668972
 20
219.120642552279
 30
0.0
 11
190.5241389470343
 21
219.120642552279
 31
0.0
  0
LINE
  5
540
102
{ACAD_REACTORS
330
78E
102
}
330
1E
100
AcDbEntity
  8
STEMPEL
100
AcDbLine
 10
259.8866956294062
 20
214.120642552279
 30
0.0
 11
187.7493587845252
 21
214.120642552279
 31
0.0
  0
LINE
  5
541
102
{ACAD_REACTORS
330
53B
330
78E
330
12BF
102
}
330
1E
100
AcDbEntity
  8
STEMPEL
100
AcDbLine
 10
274.8180272069657
 20
519.120642552279
 30
0.0
 11
172.8180272069657
 21
519.1206425522791
 31
0.0
  0
LINE
  5
542
330
1E
100
AcDbEntity
  8
HILF
100
AcDbLine
 10
190.5031780776513
 20
461.4865697818689
 30
0.0
 11
257.1328763362801
 21
461.4865697818689
 31
0.0
  0
LINE
  5
543
330
1E
100
AcDbEntity
  8
HILF
100
AcDbLine
 10
188.2263064911248
 20
466.6141315010244
 30
0.0
 11
259.4097479228065
 21
466.6141315010244
 31
0.0
  0
LINE
  5
544
330
1E
100
AcDbEntity
  8
HILF
100
AcDbLine
 10
187.5151228150087
 20
488.6204157336679
 30
0.0
 11
260.1209315989227
 21
488.6204157336679
 31
0.0
  0
LINE
  5
545
102
{ACAD_REACTORS
330
78E
330
133F
330
136A
102
}
330
1E
100
AcDbEntity
  8
STEMPEL
100
AcDbLine
 10
187.3180272069657
 20
458.8140428877105
 30
0.0
 11
187.3180272069657
 21
395.0395462659396
 31
0.0
  0
LINE
  5
546
102
{ACAD_REACTORS
330
78E
102
}
330
1E
100
AcDbEntity
  8
STEMPEL
100
AcDbLine
 10
188.9180272069657
 20
458.8140428877105
 30
0.0
 11
188.9180272069655
 21
395.2254212428896
 31
0.0
  0
LINE
  5
547
102
{ACAD_REACTORS
330
78E
102
}
330
1E
100
AcDbEntity
  8
STEMPEL
100
AcDbLine
 10
187.3180272069657
 20
219.0507850436165
 30
0.0
 11
187.7493587845252
 21
214.120642552279
 31
0.0
  0
LINE
  5
548
102
{ACAD_REACTORS
330
78E
102
}
330
1E
100
AcDbEntity
  8
STEMPEL
100
AcDbLine
 10
188.9180272069649
 20
219.120642552279
 30
0.0
 11
189.3554705245946
 21
214.120642552279
 31
0.0
  0
LINE
  5
54A
102
{ACAD_REACTORS
330
53B
330
12BF
330
133F
102
}
330
1E
100
AcDbEntity
  8
STEMPEL
100
AcDbLine
 10
174.8180272069657
 20
519.1206425522791
 30
0.0
 11
174.8180272069657
 21
393.2035106159967
 31
0.0
  0
LINE
  5
54B
102
{ACAD_REACTORS
330
12BF
102
}
330
1E
100
AcDbEntity
  8
STEMPEL
100
AcDbLine
 10
172.8180272069657
 20
519.1206425522791
 30
0.0
 11
172.8180272069657
 21
392.8613238798064
 31
0.0
  0
LINE
  5
54D
102
{ACAD_REACTORS
330
133F
102
}
330
1E
100
AcDbEntity
  8
STEMPEL
100
AcDbLine
 10
174.8180272069657
 20
275.1206425522788
 30
0.0
 11
187.3180272069657
 21
275.1206425522788
 31
0.0
  0
LINE
  5
54E
102
{ACAD_REACTORS
330
12BF
102
}
330
1E
100
AcDbEntity
  8
STEMPEL
100
AcDbLine
 10
174.8180272069657
 20
259.1206425522791
 30
0.0
 11
172.8180272069655
 21
259.1206425522791
 31
0.0
  0
LINE
  5
550
330
1E
100
AcDbEntity
  8
STEMPEL
100
AcDbLine
 10
184.4180272069656
 20
265.1206425522789
 30
0.0
 11
187.3180272069659
 21
265.1206425522789
 31
0.0
  0
LINE
  5
551
102
{ACAD_REACTORS
330
53B
330
133F
102
}
330
1E
100
AcDbEntity
  8
STEMPEL
100
AcDbLine
 10
181.7180272069657
 20
505.1206425522791
 30
0.0
 11
174.8180272069657
 21
505.1206425522791
 31
0.0
  0
LINE
  5
552
102
{ACAD_REACTORS
330
78E
102
}
330
1E
100
AcDbEntity
  8
STEMPEL
100
AcDbLine
 10
185.8180272069657
 20
486.120642552279
 30
0.0
 11
185.8180272069657
 21
469.5093689696959
 31
0.0
  0
LINE
  5
553
102
{ACAD_REACTORS
330
78E
330
133F
102
}
330
1E
100
AcDbEntity
  8
STEMPEL
100
AcDbLine
 10
184.2180272069657
 20
486.120642552279
 30
0.0
 11
184.2180272069657
 21
469.5093689696959
 31
0.0
  0
ARC
  5
554
102
{ACAD_REACTORS
330
78E
102
}
330
1E
100
AcDbEntity
  8
STEMPEL
100
AcDbCircle
 10
179.3180272069657
 20
458.8140428877105
 30
0.0
 40
9.599999999999999
100
AcDbArc
 50
0.0
 51
32.32806412216532
  0
ARC
  5
555
102
{ACAD_REACTORS
330
78E
330
133F
102
}
330
1E
100
AcDbEntity
  8
STEMPEL
100
AcDbCircle
 10
179.3180272069657
 20
458.8140428877104
 30
0.0
 40
8.0
100
AcDbArc
 50
0.0
 51
32.32806412216532
  0
ARC
  5
556
102
{ACAD_REACTORS
330
78E
330
133F
102
}
330
1E
100
AcDbEntity
  8
STEMPEL
100
AcDbCircle
 10
196.2180272069657
 20
469.5093689696959
 30
0.0
 40
12.0
100
AcDbArc
 50
180.0
 51
212.3280641221653
  0
ARC
  5
557
102
{ACAD_REACTORS
330
78E
102
}
330
1E
100
AcDbEntity
  8
STEMPEL
100
AcDbCircle
 10
196.2180272069657
 20
469.5093689696959
 30
0.0
 40
10.4
100
AcDbArc
 50
180.0
 51
212.3280641221653
  0
LINE
  5
558
102
{ACAD_REACTORS
330
53B
330
78E
330
133F
102
}
330
1E
100
AcDbEntity
  8
STEMPEL
100
AcDbLine
 10
181.7180272069657
 20
508.5717201451603
 30
0.0
 11
181.7180272069657
 21
499.5589226004698
 31
0.0
  0
LINE
  5
559
102
{ACAD_REACTORS
330
78E
102
}
330
1E
100
AcDbEntity
  8
STEMPEL
100
AcDbLine
 10
183.3180272069657
 20
508.5717201451603
 30
0.0
 11
183.3180272069657
 21
499.5567015181944
 31
0.0
  0
ARC
  5
55A
102
{ACAD_REACTORS
330
78E
102
}
330
1E
100
AcDbEntity
  8
STEMPEL
100
AcDbCircle
 10
206.7180272069657
 20
499.490642552279
 30
0.0
 40
23.40009324312573
100
AcDbArc
 50
179.8382525687427
 51
201.183154393037
  0
ARC
  5
55B
102
{ACAD_REACTORS
330
78E
330
133F
102
}
330
1E
100
AcDbEntity
  8
STEMPEL
100
AcDbCircle
 10
172.2180272069657
 20
486.120642552279
 30
0.0
 40
12.0
100
AcDbArc
 50
0.0
 51
21.183154393037
  0
ARC
  5
55C
102
{ACAD_REACTORS
330
78E
330
133F
102
}
330
1E
100
AcDbEntity
  8
STEMPEL
100
AcDbCircle
 10
206.7180272069657
 20
499.490642552279
 30
0.0
 40
25.00009324312574
100
AcDbArc
 50
179.8435140456461
 51
201.183154393037
  0
ARC
  5
55D
102
{ACAD_REACTORS
330
78E
102
}
330
1E
100
AcDbEntity
  8
STEMPEL
100
AcDbCircle
 10
172.2180272069657
 20
486.120642552279
 30
0.0
 40
13.6
100
AcDbArc
 50
0.0
 51
21.183154393037
  0
ARC
  5
55E
102
{ACAD_REACTORS
330
78E
102
}
330
1E
100
AcDbEntity
  8
STEMPEL
100
AcDbCircle
 10
206.7180272069657
 20
508.5717201451603
 30
0.0
 40
23.4
100
AcDbArc
 50
155.0000000000006
 51
180.0
  0
ARC
  5
55F
102
{ACAD_REACTORS
330
53B
330
78E
102
}
330
1E
100
AcDbEntity
  8
STEMPEL
100
AcDbCircle
 10
206.7180272069657
 20
508.5717201451603
 30
0.0
 40
25.0
100
AcDbArc
 50
155.0418036876905
 51
180.0
  0
LINE
  5
560
102
{ACAD_REACTORS
330
78E
102
}
330
1E
100
AcDbEntity
  8
STEMPEL
100
AcDbLine
 10
185.8180272069657
 20
519.1206425522791
 30
0.0
 11
185.5104249903081
 21
518.4609874698928
 31
0.0
  0
DIMENSION
  5
561
330
1E
100
AcDbEntity
  8
BEM
100
AcDbDimension
  2
*D3
 10
148.2012278265473
 20
214.120642552279
 30
0.0
 11
141.7012278265473
 21
366.620642552279
 31
0.0
 70
    32
  1
3055
 71
     5
 42
304.9999999999999
  3
Standard
100
AcDbAlignedDimension
 13
172.8180272069657
 23
519.1206425522789
 33
0.0
 14
187.7493587845252
 24
214.120642552279
 34
0.0
 50
90.0
100
AcDbRotatedDimension
1001
ACAD
1000
DSTYLE
1002
{
1070
    40
1040
2.0
1070
    41
1040
3.5
1070
    42
1040
1.0
1070
    43
1040
7.0
1070
    44
1040
1.0
1070
    73
1070
     0
1070
    74
1070
     0
1070
    77
1070
     1
1070
    78
1070
     8
1070
    79
1070
     2
1070
   140
1040
3.5
1070
   141
1040
1.5
1070
   146
1040
0.5142857142857144
1070
   147
1040
1.5
1070
   172
1070
     1
1070
   178
1070
     1
1070
   179
1070
     2
1070
   271
1070
     2
1070
   272
1070
     2
1070
   284
1070
     8
1070
   285
1070
     8
1070
   286
1070
     8
1070
   289
1070
     0
1070
   340
1005
24
1002
}
  0
LINE
  5
562
102
{ACAD_REACTORS
330
78E
330
133F
102
}
330
1E
100
AcDbEntity
  8
STEMPEL
100
AcDbLine
 10
260.3180272069657
 20
458.8140428877105
 30
0.0
 11
260.3180272069658
 21
390.6831014936733
 31
0.0
  0
LINE
  5
563
102
{ACAD_REACTORS
330
78E
102
}
330
1E
100
AcDbEntity
  8
STEMPEL
100
AcDbLine
 10
258.7180272069657
 20
458.8140428877105
 30
0.0
 11
258.7180272069657
 21
390.4972265167233
 31
0.0
  0
LINE
  5
564
330
1E
100
AcDbEntity
  8
MITTEL
100
AcDbLine
 10
223.8180272069657
 20
524.120642552279
 30
0.0
 11
223.8180272069657
 21
209.120642552279
 31
0.0
  0
LINE
  5
565
102
{ACAD_REACTORS
330
78E
102
}
330
1E
100
AcDbEntity
  8
STEMPEL
100
AcDbLine
 10
258.7180272069657
 20
219.1206425522698
 30
0.0
 11
258.2805838893368
 21
214.120642552279
 31
0.0
  0
LINE
  5
566
102
{ACAD_REACTORS
330
78E
102
}
330
1E
100
AcDbEntity
  8
STEMPEL
100
AcDbLine
 10
260.3180272069658
 20
219.0507850436172
 30
0.0
 11
259.8866956294062
 21
214.120642552279
 31
0.0
  0
LINE
  5
567
102
{ACAD_REACTORS
330
12BF
102
}
330
1E
100
AcDbEntity
  8
STEMPEL
100
AcDbLine
 10
274.8180272069656
 20
259.120642552279
 30
0.0
 11
272.8180272069657
 21
259.120642552279
 31
0.0
  0
LINE
  5
568
102
{ACAD_REACTORS
330
53B
330
12BF
330
133F
102
}
330
1E
100
AcDbEntity
  8
STEMPEL
100
AcDbLine
 10
272.8180272069657
 20
519.1206425522789
 30
0.0
 11
272.8180272069657
 21
392.519137143616
 31
0.0
  0
LINE
  5
569
102
{ACAD_REACTORS
330
133F
102
}
330
1E
100
AcDbEntity
  8
STEMPEL
100
AcDbLine
 10
260.3180272069655
 20
275.1206425522789
 30
0.0
 11
272.8180272069657
 21
275.1206425522789
 31
0.0
  0
LINE
  5
56B
330
1E
100
AcDbEntity
  8
STEMPEL
100
AcDbLine
 10
260.3180272069654
 20
265.120642552279
 30
0.0
 11
263.2180272069658
 21
265.120642552279
 31
0.0
  0
LINE
  5
56C
102
{ACAD_REACTORS
330
78E
330
133F
102
}
330
1E
100
AcDbEntity
  8
STEMPEL
100
AcDbLine
 10
263.4180272069657
 20
486.120642552279
 30
0.0
 11
263.4180272069657
 21
469.5093689696959
 31
0.0
  0
LINE
  5
56D
102
{ACAD_REACTORS
330
78E
102
}
330
1E
100
AcDbEntity
  8
STEMPEL
100
AcDbLine
 10
261.8180272069657
 20
486.120642552279
 30
0.0
 11
261.8180272069657
 21
469.5093689696959
 31
0.0
  0
ARC
  5
56E
102
{ACAD_REACTORS
330
78E
102
}
330
1E
100
AcDbEntity
  8
STEMPEL
100
AcDbCircle
 10
268.3180272069657
 20
458.8140428877105
 30
0.0
 40
9.599999999999999
100
AcDbArc
 50
147.6719358778346
 51
180.0
  0
ARC
  5
56F
102
{ACAD_REACTORS
330
78E
330
133F
102
}
330
1E
100
AcDbEntity
  8
STEMPEL
100
AcDbCircle
 10
268.3180272069657
 20
458.8140428877104
 30
0.0
 40
8.0
100
AcDbArc
 50
147.6719358778346
 51
180.0
  0
ARC
  5
570
102
{ACAD_REACTORS
330
78E
330
133F
102
}
330
1E
100
AcDbEntity
  8
STEMPEL
100
AcDbCircle
 10
251.4180272069657
 20
469.5093689696959
 30
0.0
 40
12.0
100
AcDbArc
 50
327.6719358778347
 51
0.0
  0
ARC
  5
571
102
{ACAD_REACTORS
330
78E
102
}
330
1E
100
AcDbEntity
  8
STEMPEL
100
AcDbCircle
 10
251.4180272069657
 20
469.5093689696959
 30
0.0
 40
10.4
100
AcDbArc
 50
327.6719358778347
 51
0.0
  0
LINE
  5
572
102
{ACAD_REACTORS
330
53B
330
78E
330
133F
102
}
330
1E
100
AcDbEntity
  8
STEMPEL
100
AcDbLine
 10
265.9180272069657
 20
508.5717201451603
 30
0.0
 11
265.9180272069657
 21
499.5589226004698
 31
0.0
  0
LINE
  5
573
102
{ACAD_REACTORS
330
78E
102
}
330
1E
100
AcDbEntity
  8
STEMPEL
100
AcDbLine
 10
264.3180272069657
 20
508.5717201451603
 30
0.0
 11
264.3180272069657
 21
499.5567015181944
 31
0.0
  0
LINE
  5
574
102
{ACAD_REACTORS
330
53B
330
133F
102
}
330
1E
100
AcDbEntity
  8
STEMPEL
100
AcDbLine
 10
272.8180272069657
 20
505.120642552279
 30
0.0
 11
265.9180272069657
 21
505.120642552279
 31
0.0
  0
ARC
  5
575
102
{ACAD_REACTORS
330
78E
330
133F
102
}
330
1E
100
AcDbEntity
  8
STEMPEL
100
AcDbCircle
 10
240.9180272069657
 20
499.490642552279
 30
0.0
 40
25.00009324312574
100
AcDbArc
 50
338.816845606963
 51
0.1564859543538863
  0
ARC
  5
576
102
{ACAD_REACTORS
330
78E
102
}
330
1E
100
AcDbEntity
  8
STEMPEL
100
AcDbCircle
 10
240.9180272069657
 20
499.490642552279
 30
0.0
 40
23.40009324312573
100
AcDbArc
 50
338.816845606963
 51
0.1617474312572272
  0
ARC
  5
577
102
{ACAD_REACTORS
330
78E
102
}
330
1E
100
AcDbEntity
  8
STEMPEL
100
AcDbCircle
 10
275.4180272069657
 20
486.120642552279
 30
0.0
 40
13.6
100
AcDbArc
 50
158.816845606963
 51
180.0
  0
ARC
  5
578
102
{ACAD_REACTORS
330
78E
330
133F
102
}
330
1E
100
AcDbEntity
  8
STEMPEL
100
AcDbCircle
 10
275.4180272069657
 20
486.120642552279
 30
0.0
 40
12.0
100
AcDbArc
 50
158.816845606963
 51
180.0
  0
ARC
  5
579
102
{ACAD_REACTORS
330
53B
330
78E
102
}
330
1E
100
AcDbEntity
  8
STEMPEL
100
AcDbCircle
 10
240.9180272069657
 20
508.5717201451603
 30
0.0
 40
25.0
100
AcDbArc
 50
0.0
 51
24.95819631230223
  0
ARC
  5
57A
102
{ACAD_REACTORS
330
78E
102
}
330
1E
100
AcDbEntity
  8
STEMPEL
100
AcDbCircle
 10
240.9180272069657
 20
508.5717201451603
 30
0.0
 40
23.4
100
AcDbArc
 50
0.0
 51
24.99999999999207
  0
LINE
  5
57B
102
{ACAD_REACTORS
330
78E
102
}
330
1E
100
AcDbEntity
  8
STEMPEL
100
AcDbLine
 10
261.8180272069657
 20
519.1206425522791
 30
0.0
 11
262.1256294236233
 21
518.4609874698928
 31
0.0
  0
LINE
  5
57D
102
{ACAD_REACTORS
330
12BF
102
}
330
1E
100
AcDbEntity
  8
STEMPEL
100
AcDbLine
 10
274.8180272069657
 20
519.1206425522789
 30
0.0
 11
274.8180272069657
 21
392.8613238798063
 31
0.0
  0
POLYLINE
  5
71D
102
{ACAD_REACTORS
330
78E
330
12BF
330
133F
102
}
330
1E
100
AcDbEntity
  8
HILF
100
AcDb2dPolyline
 66
     1
 10
0.0
 20
0.0
 30
0.0
 70
     4
 75
     6
  0
VERTEX
  5
71E
330
71D
100
AcDbEntity
  8
HILF
100
AcDbVertex
100
AcDb2dVertex
 10
172.8180272069657
 20
392.8613238798064
 30
0.0
 70
    16
  0
VERTEX
  5
724
330
71D
100
AcDbEntity
  8
HILF
100
AcDbVertex
100
AcDb2dVertex
 10
172.8180272069657
 20
392.8613238798064
 30
0.0
 70
     8
  0
VERTEX
  5
725
330
71D
100
AcDbEntity
  8
HILF
100
AcDbVertex
100
AcDb2dVertex
 10
181.8077733007157
 20
394.3994098173064
 30
0.0
 70
     8
  0
VERTEX
  5
726
330
71D
100
AcDbEntity
  8
HILF
100
AcDbVertex
100
AcDb2dVertex
 10
189.7516209569657
 20
395.3222613798064
 30
0.0
 70
     8
  0
VERTEX
  5
727
330
71D
100
AcDbEntity
  8
HILF
100
AcDbVertex
100
AcDb2dVertex
 10
196.7989842382157
 20
395.7177691923064
 30
0.0
 70
     8
  0
VERTEX
  5
728
330
71D
100
AcDbEntity
  8
HILF
100
AcDbVertex
100
AcDb2dVertex
 10
203.0992772069657
 20
395.6738238798064
 30
0.0
 70
     8
  0
VERTEX
  5
729
330
71D
100
AcDbEntity
  8
HILF
100
AcDbVertex
100
AcDb2dVertex
 10
208.8019139257156
 20
395.2783160673064
 30
0.0
 70
     8
  0
VERTEX
  5
72A
330
71D
100
AcDbEntity
  8
HILF
100
AcDbVertex
100
AcDb2dVertex
 10
214.0563084569657
 20
394.6191363798064
 30
0.0
 70
     8
  0
VERTEX
  5
72B
330
71D
100
AcDbEntity
  8
HILF
100
AcDbVertex
100
AcDb2dVertex
 10
219.0118748632156
 20
393.7841754423064
 30
0.0
 70
     8
  0
VERTEX
  5
72C
330
71D
100
AcDbEntity
  8
HILF
100
AcDbVertex
100
AcDb2dVertex
 10
223.8180272069657
 20
392.8613238798064
 30
0.0
 70
     8
  0
VERTEX
  5
72D
330
71D
100
AcDbEntity
  8
HILF
100
AcDbVertex
100
AcDb2dVertex
 10
228.6241795507157
 20
391.9384723173064
 30
0.0
 70
     8
  0
VERTEX
  5
72E
330
71D
100
AcDbEntity
  8
HILF
100
AcDbVertex
100
AcDb2dVertex
 10
233.5797459569657
 20
391.1035113798064
 30
0.0
 70
     8
  0
VERTEX
  5
72F
330
71D
100
AcDbEntity
  8
HILF
100
AcDbVertex
100
AcDb2dVertex
 10
238.8341404882157
 20
390.4443316923064
 30
0.0
 70
     8
  0
VERTEX
  5
730
330
71D
100
AcDbEntity
  8
HILF
100
AcDbVertex
100
AcDb2dVertex
 10
244.5367772069657
 20
390.0488238798064
 30
0.0
 70
     8
  0
VERTEX
  5
731
330
71D
100
AcDbEntity
  8
HILF
100
AcDbVertex
100
AcDb2dVertex
 10
250.8370701757157
 20
390.0048785673064
 30
0.0
 70
     8
  0
VERTEX
  5
732
330
71D
100
AcDbEntity
  8
HILF
100
AcDbVertex
100
AcDb2dVertex
 10
257.8844334569657
 20
390.4003863798064
 30
0.0
 70
     8
  0
VERTEX
  5
733
330
71D
100
AcDbEntity
  8
HILF
100
AcDbVertex
100
AcDb2dVertex
 10
265.8282811132157
 20
391.3232379423063
 30
0.0
 70
     8
  0
VERTEX
  5
734
330
71D
100
AcDbEntity
  8
HILF
100
AcDbVertex
100
AcDb2dVertex
 10
274.8180272069657
 20
392.8613238798063
 30
0.0
 70
     8
  0
VERTEX
  5
71F
330
71D
100
AcDbEntity
  8
HILF
100
AcDbVertex
100
AcDb2dVertex
 10
198.3180272069657
 20
397.8613238798064
 30
0.0
 70
    16
  0
VERTEX
  5
720
330
71D
100
AcDbEntity
  8
HILF
100
AcDbVertex
100
AcDb2dVertex
 10
223.8180272069657
 20
392.8613238798064
 30
0.0
 70
    16
  0
VERTEX
  5
721
330
71D
100
AcDbEntity
  8
HILF
100
AcDbVertex
100
AcDb2dVertex
 10
249.3180272069657
 20
387.8613238798064
 30
0.0
 70
    16
  0
VERTEX
  5
722
330
71D
100
AcDbEntity
  8
HILF
100
AcDbVertex
100
AcDb2dVertex
 10
274.8180272069657
 20
392.8613238798064
 30
0.0
 70
    16
  0
SEQEND
  5
723
330
71D
100
AcDbEntity
  8
HILF
  0
POLYLINE
  5
735
102
{ACAD_REACTORS
330
78E
330
12BF
330
133F
102
}
330
1E
100
AcDbEntity
  8
HILF
100
AcDb2dPolyline
 66
     1
 10
0.0
 20
0.0
 30
0.0
 70
     4
 75
     6
  0
VERTEX
  5
736
330
735
100
AcDbEntity
  8
HILF
100
AcDbVertex
100
AcDb2dVertex
 10
172.8180272069657
 20
387.8613238798064
 30
0.0
 70
    16
  0
VERTEX
  5
737
330
735
100
AcDbEntity
  8
HILF
100
AcDbVertex
100
AcDb2dVertex
 10
172.8180272069657
 20
387.8613238798064
 30
0.0
 70
     8
  0
VERTEX
  5
738
330
735
100
AcDbEntity
  8
HILF
100
AcDbVertex
100
AcDb2dVertex
 10
181.8077733007157
 20
389.3994098173064
 30
0.0
 70
     8
  0
VERTEX
  5
739
330
735
100
AcDbEntity
  8
HILF
100
AcDbVertex
100
AcDb2dVertex
 10
189.7516209569657
 20
390.3222613798064
 30
0.0
 70
     8
  0
VERTEX
  5
73A
330
735
100
AcDbEntity
  8
HILF
100
AcDbVertex
100
AcDb2dVertex
 10
196.7989842382157
 20
390.7177691923064
 30
0.0
 70
     8
  0
VERTEX
  5
73B
330
735
100
AcDbEntity
  8
HILF
100
AcDbVertex
100
AcDb2dVertex
 10
203.0992772069657
 20
390.6738238798064
 30
0.0
 70
     8
  0
VERTEX
  5
73C
330
735
100
AcDbEntity
  8
HILF
100
AcDbVertex
100
AcDb2dVertex
 10
208.8019139257156
 20
390.2783160673064
 30
0.0
 70
     8
  0
VERTEX
  5
73D
330
735
100
AcDbEntity
  8
HILF
100
AcDbVertex
100
AcDb2dVertex
 10
214.0563084569657
 20
389.6191363798064
 30
0.0
 70
     8
  0
VERTEX
  5
73E
330
735
100
AcDbEntity
  8
HILF
100
AcDbVertex
100
AcDb2dVertex
 10
219.0118748632156
 20
388.7841754423064
 30
0.0
 70
     8
  0
VERTEX
  5
73F
330
735
100
AcDbEntity
  8
HILF
100
AcDbVertex
100
AcDb2dVertex
 10
223.8180272069657
 20
387.8613238798064
 30
0.0
 70
     8
  0
VERTEX
  5
740
330
735
100
AcDbEntity
  8
HILF
100
AcDbVertex
100
AcDb2dVertex
 10
228.6241795507157
 20
386.9384723173064
 30
0.0
 70
     8
  0
VERTEX
  5
741
330
735
100
AcDbEntity
  8
HILF
100
AcDbVertex
100
AcDb2dVertex
 10
233.5797459569657
 20
386.1035113798064
 30
0.0
 70
     8
  0
VERTEX
  5
742
330
735
100
AcDbEntity
  8
HILF
100
AcDbVertex
100
AcDb2dVertex
 10
238.8341404882157
 20
385.4443316923064
 30
0.0
 70
     8
  0
VERTEX
  5
743
330
735
100
AcDbEntity
  8
HILF
100
AcDbVertex
100
AcDb2dVertex
 10
244.5367772069657
 20
385.0488238798064
 30
0.0
 70
     8
  0
VERTEX
  5
744
330
735
100
AcDbEntity
  8
HILF
100
AcDbVertex
100
AcDb2dVertex
 10
250.8370701757157
 20
385.0048785673064
 30
0.0
 70
     8
  0
VERTEX
  5
745
330
735
100
AcDbEntity
  8
HILF
100
AcDbVertex
100
AcDb2dVertex
 10
257.8844334569657
 20
385.4003863798064
 30
0.0
 70
     8
  0
VERTEX
  5
746
330
735
100
AcDbEntity
  8
HILF
100
AcDbVertex
100
AcDb2dVertex
 10
265.8282811132157
 20
386.3232379423063
 30
0.0
 70
     8
  0
VERTEX
  5
747
330
735
100
AcDbEntity
  8
HILF
100
AcDbVertex
100
AcDb2dVertex
 10
274.8180272069657
 20
387.8613238798063
 30
0.0
 70
     8
  0
VERTEX
  5
748
330
735
100
AcDbEntity
  8
HILF
100
AcDbVertex
100
AcDb2dVertex
 10
198.3180272069657
 20
392.8613238798064
 30
0.0
 70
    16
  0
VERTEX
  5
749
330
735
100
AcDbEntity
  8
HILF
100
AcDbVertex
100
AcDb2dVertex
 10
223.8180272069657
 20
387.8613238798064
 30
0.0
 70
    16
  0
VERTEX
  5
74A
330
735
100
AcDbEntity
  8
HILF
100
AcDbVertex
100
AcDb2dVertex
 10
249.3180272069657
 20
382.8613238798064
 30
0.0
 70
    16
  0
VERTEX
  5
74B
330
735
100
AcDbEntity
  8
HILF
100
AcDbVertex
100
AcDb2dVertex
 10
274.8180272069657
 20
387.8613238798064
 30
0.0
 70
    16
  0
SEQEND
  5
74C
330
735
100
AcDbEntity
  8
HILF
  0
LINE
  5
74D
102
{ACAD_REACTORS
330
12BF
330
12D2
102
}
330
1E
100
AcDbEntity
  8
STEMPEL
100
AcDbLine
 10
274.8180272069657
 20
387.8613238798063
 30
0.0
 11
274.8180272069657
 21
257.1206425522788
 31
0.0
  0
LINE
  5
74E
102
{ACAD_REACTORS
330
12BF
330
133F
102
}
330
1E
100
AcDbEntity
  8
STEMPEL
100
AcDbLine
 10
272.8180272069657
 20
387.519137143616
 30
0.0
 11
272.8180272069657
 21
259.120642552279
 31
0.0
  0
LINE
  5
74F
102
{ACAD_REACTORS
330
78E
330
133F
330
136A
102
}
330
1E
100
AcDbEntity
  8
STEMPEL
100
AcDbLine
 10
260.3180272069658
 20
385.6831014936732
 30
0.0
 11
260.3180272069658
 21
219.0507850436172
 31
0.0
  0
LINE
  5
750
102
{ACAD_REACTORS
330
78E
102
}
330
1E
100
AcDbEntity
  8
STEMPEL
100
AcDbLine
 10
258.7180272069657
 20
385.4972265167233
 30
0.0
 11
258.7180272069657
 21
219.1206425522698
 31
0.0
  0
LINE
  5
751
102
{ACAD_REACTORS
330
78E
102
}
330
1E
100
AcDbEntity
  8
STEMPEL
100
AcDbLine
 10
188.9180272069655
 20
390.2254212428896
 30
0.0
 11
188.9180272069649
 21
219.120642552279
 31
0.0
  0
LINE
  5
752
102
{ACAD_REACTORS
330
78E
330
133F
102
}
330
1E
100
AcDbEntity
  8
STEMPEL
100
AcDbLine
 10
187.3180272069657
 20
390.0395462659396
 30
0.0
 11
187.3180272069657
 21
219.0507850436165
 31
0.0
  0
LINE
  5
753
102
{ACAD_REACTORS
330
12BF
330
133F
102
}
330
1E
100
AcDbEntity
  8
STEMPEL
100
AcDbLine
 10
174.8180272069657
 20
388.2035106159967
 30
0.0
 11
174.8180272069657
 21
259.1206425522791
 31
0.0
  0
LINE
  5
754
102
{ACAD_REACTORS
330
12BF
102
}
330
1E
100
AcDbEntity
  8
STEMPEL
100
AcDbLine
 10
172.8180272069657
 20
387.8613238798064
 30
0.0
 11
172.8180272069657
 21
257.1206425522792
 31
0.0
  0
HATCH
  5
78E
330
1E
100
AcDbEntity
  8
SCHRAFF
100
AcDbHatch
 10
0.0
 20
0.0
 30
0.0
210
0.0
220
0.0
230
1.0
  2
_USER
 70
     0
 71
     1
 91
        4
 92
        7
 72
     1
 73
     1
 93
       19
 10
258.7180272069657
 20
390.4972265167232
 42
0.0
 10
260.3180272069657
 20
390.6831014936732
 42
0.0
 10
260.3180272069657
 20
458.8140428877105
 42
-0.1420008527982408
 10
261.5580272069659
 20
463.092173320505
 42
0.1420008527982214
 10
263.4180272069657
 20
469.5093689696959
 42
0.0
 10
263.4180272069657
 20
486.120642552279
 42
-0.0926930603363638
 10
264.2288662154076
 20
490.4568478408918
 42
0.0933817694259081
 10
265.9180272069657
 20
499.5589226004698
 42
0.0
 10
265.9180272069657
 20
508.5717201451603
 42
0.1093332246020754
 10
263.583424535241
 20
519.120642552279
 42
0.0
 10
261.8180272069658
 20
519.120642552279
 42
0.0
 10
262.1256294236233
 20
518.4609874698928
 42
-0.1095178116832417
 10
264.3180272069657
 20
508.5717201451605
 42
0.0
 10
264.3180272069657
 20
499.5567015181944
 42
-0.0934049271926068
 10
262.7369780831994
 20
491.0350085460394
 42
0.0926930603363468
 10
261.8180272069657
 20
486.120642552279
 42
0.0
 10
261.8180272069657
 20
469.5093689696959
 42
-0.142000852798243
 10
260.2060272069654
 20
463.947799407063
 42
0.1420008527982161
 10
258.7180272069657
 20
458.8140428877104
 42
0.0
 97
       19
330
56F
330
570
330
56C
330
578
330
575
330
572
330
579
330
541
330
57B
330
57A
330
573
330
576
330
577
330
56D
330
571
330
56E
330
563
330
71D
330
562
 92
        7
 72
     1
 73
     1
 93
       19
 10
187.3180272069657
 20
395.0395462659396
 42
0.0
 10
188.9180272069655
 20
395.2254212428895
 42
0.0
 10
188.9180272069657
 20
458.8140428877105
 42
0.1420008527982293
 10
187.4300272069657
 20
463.9477994070635
 42
-0.1420008527982298
 10
185.8180272069657
 20
469.5093689696959
 42
0.0
 10
185.8180272069657
 20
486.120642552279
 42
0.092693060336358
 10
184.8990763307317
 20
491.0350085460399
 42
-0.0934049271926005
 10
183.3180272069657
 20
499.5567015181944
 42
0.0
 10
183.3180272069657
 20
508.5717201451603
 42
-0.1095178116832426
 10
185.5104249903081
 20
518.4609874698928
 42
0.0
 10
185.8180272069657
 20
519.1206425522792
 42
0.0
 10
184.0526298786905
 20
519.1206425522792
 42
0.1093332246020783
 10
181.7180272069657
 20
508.5717201451603
 42
0.0
 10
181.7180272069657
 20
499.5589226004698
 42
0.0933817694259112
 10
183.4071881985239
 20
490.4568478408916
 42
-0.0926930603363599
 10
184.2180272069657
 20
486.1206425522789
 42
0.0
 10
184.2180272069657
 20
469.5093689696959
 42
0.14200085279823
 10
186.0780272069657
 20
463.0921733205046
 42
-0.142000852798228
 10
187.3180272069657
 20
458.8140428877105
 42
0.0
 97
       19
330
554
330
557
330
552
330
55D
330
55A
330
559
330
55E
330
560
330
541
330
55F
330
558
330
55C
330
55B
330
553
330
556
330
555
330
545
330
71D
330
546
 92
        7
 72
     0
 73
     1
 93
        6
 10
260.3180272069658
 20
385.6831014936732
 10
258.7180272069657
 20
385.4972265167233
 10
258.7180272069657
 20
219.1206425522699
 10
258.2805838893368
 20
214.120642552279
 10
259.8866956294062
 20
214.1206425522789
 10
260.3180272069658
 20
219.050785043617
 97
        6
330
735
330
750
330
565
330
540
330
566
330
74F
 92
        7
 72
     0
 73
     1
 93
        6
 10
187.3180272069657
 20
219.0507850436161
 10
187.7493587845252
 20
214.1206425522789
 10
189.3554705245946
 20
214.1206425522789
 10
188.9180272069649
 20
219.120642552279
 10
188.9180272069655
 20
390.2254212428895
 10
187.3180272069657
 20
390.0395462659396
 97
        6
330
735
330
752
330
547
330
540
330
548
330
751
 75
     0
 76
     0
 52
45.0
 41
2.0
 77
     0
 78
     1
 53
45.0
 43
0.0
 44
0.0
 45
-1.414213562373094
 46
1.414213562373095
 79
     0
 47
0.6310092635968568
 98
        4
 10
259.2254905288196
 20
429.3820396073588
 10
187.8712876944246
 20
424.9649748611575
 10
259.8569429374452
 20
368.1741416103303
 10
187.8712876944246
 20
369.4361599093272
  0
DIMENSION
  5
11D1
330
1E
100
AcDbEntity
  8
BEM
100
AcDbDimension
  2
*D4
 10
322.9742147413904
 20
319.120642552279
 30
0.0
 11
316.4742147413903
 21
289.1206425522791
 31
0.0
 70
    32
 71
     5
 42
60.0
  3
Standard
100
AcDbAlignedDimension
 13
274.8180272069657
 23
259.120642552279
 33
0.0
 14
302.3180272069657
 24
319.120642552279
 34
0.0
 50
90.0
100
AcDbRotatedDimension
1001
ACAD
1000
DSTYLE
1002
{
1070
    40
1040
2.0
1070
    41
1040
3.5
1070
    42
1040
1.0
1070
    43
1040
7.0
1070
    44
1040
1.0
1070
    73
1070
     0
1070
    74
1070
     0
1070
    77
1070
     1
1070
    78
1070
     8
1070
    79
1070
     2
1070
   140
1040
3.5
1070
   141
1040
1.5
1070
   146
1040
0.5142857142857144
1070
   147
1040
1.5
1070
   172
1070
     1
1070
   178
1070
     1
1070
   179
1070
     2
1070
   271
1070
     2
1070
   272
1070
     2
1070
   284
1070
     8
1070
   285
1070
     8
1070
   286
1070
     8
1002
}
  0
LINE
  5
11D2
102
{ACAD_REACTORS
330
133F
102
}
330
1E
100
AcDbEntity
  8
MITTEL
100
AcDbLine
 10
267.8180272069657
 20
319.120642552279
 30
0.0
 11
302.3180272069657
 21
319.120642552279
 31
0.0
  0
LINE
  5
11D3
102
{ACAD_REACTORS
330
12D2
330
12EB
102
}
330
1E
100
AcDbEntity
  8
STEMPEL
100
AcDbLine
 10
289.8180272069657
 20
332.620642552279
 30
0.0
 11
289.8180272069657
 21
330.1706425522791
 31
0.0
  0
LINE
  5
11D4
102
{ACAD_REACTORS
330
12D2
102
}
330
1E
100
AcDbEntity
  8
STEMPEL
100
AcDbLine
 10
274.8180272069657
 20
306.620642552279
 30
0.0
 11
289.8180272069657
 21
306.620642552279
 31
0.0
  0
LINE
  5
11D5
102
{ACAD_REACTORS
330
12D2
102
}
330
1E
100
AcDbEntity
  8
STEMPEL
100
AcDbLine
 10
274.8180272069657
 20
331.620642552279
 30
0.0
 11
289.8180272069657
 21
331.620642552279
 31
0.0
  0
LINE
  5
11D6
102
{ACAD_REACTORS
330
12BF
330
12D2
102
}
330
1E
100
AcDbEntity
  8
STEMPEL
100
AcDbLine
 10
272.8180272069657
 20
308.495642552279
 30
0.0
 11
277.8180272069657
 21
308.495642552279
 31
0.0
  0
LINE
  5
11D7
102
{ACAD_REACTORS
330
12BF
330
12D2
102
}
330
1E
100
AcDbEntity
  8
STEMPEL
100
AcDbLine
 10
272.8180272069657
 20
329.745642552279
 30
0.0
 11
277.8180272069657
 21
329.745642552279
 31
0.0
  0
LINE
  5
11D8
102
{ACAD_REACTORS
330
12D2
102
}
330
1E
100
AcDbEntity
  8
HILF
100
AcDbLine
 10
274.8180272069657
 20
308.0706425522791
 30
0.0
 11
277.8180272069657
 21
308.0706425522791
 31
0.0
  0
LINE
  5
11D9
102
{ACAD_REACTORS
330
12D2
102
}
330
1E
100
AcDbEntity
  8
HILF
100
AcDbLine
 10
274.8180272069657
 20
330.1706425522791
 30
0.0
 11
277.8180272069657
 21
330.1706425522791
 31
0.0
  0
LINE
  5
11DA
102
{ACAD_REACTORS
330
12EB
102
}
330
1E
100
AcDbEntity
  8
STEMPEL
100
AcDbLine
 10
293.8180272069656
 20
332.620642552279
 30
0.0
 11
293.8180272069656
 21
329.620642552279
 31
0.0
  0
LINE
  5
11DB
102
{ACAD_REACTORS
330
12EB
102
}
330
1E
100
AcDbEntity
  8
STEMPEL
100
AcDbLine
 10
289.8180272069657
 20
305.620642552279
 30
0.0
 11
293.8180272069656
 21
305.620642552279
 31
0.0
  0
LINE
  5
11DC
102
{ACAD_REACTORS
330
12EB
102
}
330
1E
100
AcDbEntity
  8
STEMPEL
100
AcDbLine
 10
289.8180272069657
 20
332.620642552279
 30
0.0
 11
293.8180272069656
 21
332.620642552279
 31
0.0
  0
LINE
  5
11DD
102
{ACAD_REACTORS
330
12EB
102
}
330
1E
100
AcDbEntity
  8
STEMPEL
100
AcDbLine
 10
293.8180272069656
 20
308.6206425522791
 30
0.0
 11
294.3180272069657
 21
308.6206425522791
 31
0.0
  0
LINE
  5
11DE
102
{ACAD_REACTORS
330
12EB
102
}
330
1E
100
AcDbEntity
  8
STEMPEL
100
AcDbLine
 10
293.8180272069656
 20
329.620642552279
 30
0.0
 11
294.3180272069657
 21
329.620642552279
 31
0.0
  0
LINE
  5
11DF
102
{ACAD_REACTORS
330
12EB
102
}
330
1E
100
AcDbEntity
  8
STEMPEL
100
AcDbLine
 10
297.3180272069657
 20
326.620642552279
 30
0.0
 11
297.3180272069657
 21
322.6206425522792
 31
0.0
  0
LINE
  5
11E0
102
{ACAD_REACTORS
330
12D2
330
12EB
102
}
330
1E
100
AcDbEntity
  8
STEMPEL
100
AcDbLine
 10
277.8180272069657
 20
330.1706425522791
 30
0.0
 11
277.8180272069657
 21
322.7622406979298
 31
0.0
  0
LINE
  5
11E1
102
{ACAD_REACTORS
330
12D2
330
12EB
102
}
330
1E
100
AcDbEntity
  8
STEMPEL
100
AcDbLine
 10
277.8180272069657
 20
330.1706425522791
 30
0.0
 11
289.8180272069657
 21
330.1706425522791
 31
0.0
  0
LINE
  5
11E2
102
{ACAD_REACTORS
330
12D2
330
12EB
102
}
330
1E
100
AcDbEntity
  8
STEMPEL
100
AcDbLine
 10
277.8180272069657
 20
308.0706425522791
 30
0.0
 11
289.8180272069657
 21
308.0706425522791
 31
0.0
  0
LINE
  5
11E3
102
{ACAD_REACTORS
330
12EB
102
}
330
1E
100
AcDbEntity
  8
STEMPEL
100
AcDbLine
 10
277.8180272069657
 20
310.120642552279
 30
0.0
 11
294.3180272069657
 21
310.1206425522792
 31
0.0
  0
LINE
  5
11E4
102
{ACAD_REACTORS
330
12EB
102
}
330
1E
100
AcDbEntity
  8
STEMPEL
100
AcDbLine
 10
277.8180272069657
 20
328.120642552279
 30
0.0
 11
294.3180272069657
 21
328.120642552279
 31
0.0
  0
LINE
  5
11E5
102
{ACAD_REACTORS
330
12EB
102
}
330
1E
100
AcDbEntity
  8
STEMPEL
100
AcDbLine
 10
295.8180272069657
 20
326.620642552279
 30
0.0
 11
295.8180272069657
 21
322.6206425522792
 31
0.0
  0
LINE
  5
11E6
102
{ACAD_REACTORS
330
12D2
330
12EB
102
}
330
1E
100
AcDbEntity
  8
STEMPEL
100
AcDbLine
 10
289.8180272069657
 20
308.0706425522791
 30
0.0
 11
289.8180272069657
 21
305.620642552279
 31
0.0
  0
LINE
  5
11E7
102
{ACAD_REACTORS
330
12EB
102
}
330
1E
100
AcDbEntity
  8
STEMPEL
100
AcDbLine
 10
293.8180272069656
 20
308.6206425522791
 30
0.0
 11
293.8180272069656
 21
305.620642552279
 31
0.0
  0
LINE
  5
11E8
102
{ACAD_REACTORS
330
12EB
102
}
330
1E
100
AcDbEntity
  8
STEMPEL
100
AcDbLine
 10
295.8180272069657
 20
315.6206425522792
 30
0.0
 11
297.3180272069657
 21
315.620642552279
 31
0.0
  0
LINE
  5
11E9
102
{ACAD_REACTORS
330
12EB
102
}
330
1E
100
AcDbEntity
  8
STEMPEL
100
AcDbLine
 10
295.8180272069657
 20
322.620642552279
 30
0.0
 11
297.3180272069657
 21
322.620642552279
 31
0.0
  0
ARC
  5
11EA
102
{ACAD_REACTORS
330
12EB
102
}
330
1E
100
AcDbEntity
  8
STEMPEL
100
AcDbCircle
 10
294.3180272069657
 20
326.620642552279
 30
0.0
 40
3.0
100
AcDbArc
 50
0.0
 51
90.0
  0
ARC
  5
11EB
102
{ACAD_REACTORS
330
12EB
102
}
330
1E
100
AcDbEntity
  8
STEMPEL
100
AcDbCircle
 10
294.3180272069657
 20
311.620642552279
 30
0.0
 40
3.0
100
AcDbArc
 50
270.0
 51
0.0
  0
ARC
  5
11EC
102
{ACAD_REACTORS
330
12EB
102
}
330
1E
100
AcDbEntity
  8
STEMPEL
100
AcDbCircle
 10
294.3180272069657
 20
326.620642552279
 30
0.0
 40
1.5
100
AcDbArc
 50
0.0
 51
90.0
  0
ARC
  5
11ED
102
{ACAD_REACTORS
330
12EB
102
}
330
1E
100
AcDbEntity
  8
STEMPEL
100
AcDbCircle
 10
294.3180272069657
 20
311.620642552279
 30
0.0
 40
1.5
100
AcDbArc
 50
270.0
 51
0.0
  0
POLYLINE
  5
11EE
102
{ACAD_REACTORS
330
133F
102
}
330
1E
100
AcDbEntity
  8
STEMPEL
100
AcDb2dPolyline
 66
     1
 10
0.0
 20
0.0
 30
0.0
 70
     2
  0
VERTEX
  5
11EF
330
11EE
100
AcDbEntity
  8
STEMPEL
100
AcDbVertex
100
AcDb2dVertex
 10
263.3180272069657
 20
327.094791570708
 30
0.0
 42
0.059994378500679
  0
VERTEX
  5
11F0
330
11EE
100
AcDbEntity
  8
STEMPEL
100
AcDbVertex
100
AcDb2dVertex
 10
263.7980961967585
 20
325.4048565108643
 30
0.0
 42
0.1409772553630006
 70
     1
  0
VERTEX
  5
11F1
330
11EE
100
AcDbEntity
  8
STEMPEL
100
AcDbVertex
100
AcDb2dVertex
 10
264.2738913165536
 20
324.8125407899696
 30
0.0
 42
0.083517407397893
  0
VERTEX
  5
11F2
330
11EE
100
AcDbEntity
  8
STEMPEL
100
AcDbVertex
100
AcDb2dVertex
 10
266.6111586113144
 20
323.6912786666102
 30
0.0
 42
0.0566533142339482
 70
     1
  0
VERTEX
  5
11F3
330
11EE
100
AcDbEntity
  8
STEMPEL
100
AcDbVertex
100
AcDb2dVertex
 10
270.3651393305444
 20
323.0566612457807
 30
0.0
 42
0.0040799076565746
  0
VERTEX
  5
11F4
330
11EE
100
AcDbEntity
  8
STEMPEL
100
AcDbVertex
100
AcDb2dVertex
 10
272.7332396300838
 20
322.9473596111532
 30
0.0
 42
0.0012226980284563
 70
     1
  0
VERTEX
  5
11F5
330
11EE
100
AcDbEntity
  8
STEMPEL
100
AcDbVertex
100
AcDb2dVertex
 10
280.638437600426
 20
322.6664652094592
 30
0.0
 42
0.0075136021432273
  0
VERTEX
  5
11F6
330
11EE
100
AcDbEntity
  8
STEMPEL
100
AcDbVertex
100
AcDb2dVertex
 10
286.8527924827555
 20
322.5543111836238
 30
0.0
 42
0.0052086919867053
 70
     1
  0
VERTEX
  5
11F7
330
11EE
100
AcDbEntity
  8
STEMPEL
100
AcDbVertex
100
AcDb2dVertex
 10
295.8180272069656
 20
322.620642552279
 30
0.0
  0
SEQEND
  5
11F8
330
11EE
100
AcDbEntity
  8
STEMPEL
  0
POLYLINE
  5
11F9
102
{ACAD_REACTORS
330
133F
102
}
330
1E
100
AcDbEntity
  8
STEMPEL
100
AcDb2dPolyline
 66
     1
 10
0.0
 20
0.0
 30
0.0
 70
     2
  0
VERTEX
  5
11FA
330
11F9
100
AcDbEntity
  8
STEMPEL
100
AcDbVertex
100
AcDb2dVertex
 10
263.8395475469955
 20
321.577764133606
 30
0.0
 42
0.0265409313018176
  0
VERTEX
  5
11FB
330
11F9
100
AcDbEntity
  8
STEMPEL
100
AcDbVertex
100
AcDb2dVertex
 10
267.84332084574
 20
319.5784133422632
 30
0.0
 42
0.0637754652681313
 70
     1
  0
VERTEX
  5
11FC
330
11F9
100
AcDbEntity
  8
STEMPEL
100
AcDbVertex
100
AcDb2dVertex
 10
269.6378249689403
 20
319.0571597312585
 30
0.0
 42
0.002273557971897
  0
VERTEX
  5
11FD
330
11F9
100
AcDbEntity
  8
STEMPEL
100
AcDbVertex
100
AcDb2dVertex
 10
271.968061043092
 20
318.7031496361931
 30
0.0
 42
0.0007637459716278
 70
     1
  0
VERTEX
  5
11FE
330
11F9
100
AcDbEntity
  8
STEMPEL
100
AcDbVertex
100
AcDb2dVertex
 10
278.9110684327271
 20
317.691476223391
 30
0.0
 42
0.0053221251239333
  0
VERTEX
  5
11FF
330
11F9
100
AcDbEntity
  8
STEMPEL
100
AcDbVertex
100
AcDb2dVertex
 10
286.0786170599102
 20
316.7360244135418
 30
0.0
 42
0.003925660425603
 70
     1
  0
VERTEX
  5
1200
330
11F9
100
AcDbEntity
  8
STEMPEL
100
AcDbVertex
100
AcDb2dVertex
 10
295.8180272069657
 20
315.6206425522792
 30
0.0
  0
SEQEND
  5
1201
330
11F9
100
AcDbEntity
  8
STEMPEL
  0
LINE
  5
1202
102
{ACAD_REACTORS
330
12D2
330
12EB
102
}
330
1E
100
AcDbEntity
  8
STEMPEL
100
AcDbLine
 10
277.8180272069657
 20
317.8493080760924
 30
0.0
 11
277.8180272069657
 21
308.0706425522791
 31
0.0
  0
ARC
  5
1203
330
1E
100
AcDbEntity
  8
STEMPEL
100
AcDbCircle
 10
298.9282053280156
 20
304.280533907853
 30
0.0
 40
18.41065611733762
100
AcDbArc
 50
4.704496049019581
 51
95.01744367526148
  0
ARC
  5
1204
330
1E
100
AcDbEntity
  8
STEMPEL
100
AcDbCircle
 10
298.8870337793152
 20
304.2168116736567
 30
0.0
 40
11.48629412468194
100
AcDbArc
 50
2.374127641915881
 51
96.71628659216594
  0
LINE
  5
1205
102
{ACAD_REACTORS
330
12EB
102
}
330
1E
100
AcDbEntity
  8
STEMPEL
100
AcDbLine
 10
297.3180272069657
 20
315.620642552279
 30
0.0
 11
297.3180272069657
 21
311.620642552279
 31
0.0
  0
LINE
  5
1206
102
{ACAD_REACTORS
330
12EB
102
}
330
1E
100
AcDbEntity
  8
STEMPEL
100
AcDbLine
 10
295.8180272069657
 20
315.6206425522792
 30
0.0
 11
295.8180272069657
 21
311.620642552279
 31
0.0
  0
POLYLINE
  5
1207
330
1E
100
AcDbEntity
  8
STEMPEL
100
AcDb2dPolyline
 66
     1
 10
0.0
 20
0.0
 30
0.0
 70
     2
  0
VERTEX
  5
1208
330
1207
100
AcDbEntity
  8
STEMPEL
100
AcDbVertex
100
AcDb2dVertex
 10
310.3634685000276
 20
304.6926255237373
 30
0.0
 42
0.032307599661737
  0
VERTEX
  5
1209
330
1207
100
AcDbEntity
  8
STEMPEL
100
AcDbVertex
100
AcDb2dVertex
 10
311.0124553192405
 20
304.2418316644347
 30
0.0
 42
0.0449611651259555
 70
     1
  0
VERTEX
  5
120A
330
1207
100
AcDbEntity
  8
STEMPEL
100
AcDbVertex
100
AcDb2dVertex
 10
311.5235759824956
 20
303.993262113879
 30
0.0
 42
0.0321897677361479
  0
VERTEX
  5
120B
330
1207
100
AcDbEntity
  8
STEMPEL
100
AcDbVertex
100
AcDb2dVertex
 10
312.6742360661182
 20
303.6393036495578
 30
0.0
 42
0.0573004897107349
 70
     1
  0
VERTEX
  5
120C
330
1207
100
AcDbEntity
  8
STEMPEL
100
AcDbVertex
100
AcDb2dVertex
 10
313.3472128017134
 20
303.558433928839
 30
0.0
 42
0.0793001205893211
  0
VERTEX
  5
120D
330
1207
100
AcDbEntity
  8
STEMPEL
100
AcDbVertex
100
AcDb2dVertex
 10
314.1081317508222
 20
303.6758892589184
 30
0.0
 42
0.1922009188953919
 70
     1
  0
VERTEX
  5
120E
330
1207
100
AcDbEntity
  8
STEMPEL
100
AcDbVertex
100
AcDb2dVertex
 10
314.3603446391803
 20
303.8845550676191
 30
0.0
 42
0.0271873342296265
  0
VERTEX
  5
120F
330
1207
100
AcDbEntity
  8
STEMPEL
100
AcDbVertex
100
AcDb2dVertex
 10
314.5313379910317
 20
304.2426678457097
 30
0.0
 42
-0.0191690333829134
 70
     1
  0
VERTEX
  5
1210
330
1207
100
AcDbEntity
  8
STEMPEL
100
AcDbVertex
100
AcDb2dVertex
 10
314.7655983506114
 20
304.7542088184417
 30
0.0
 42
-0.0053946926665962
  0
VERTEX
  5
1211
330
1207
100
AcDbEntity
  8
STEMPEL
100
AcDbVertex
100
AcDb2dVertex
 10
315.033616344013
 20
305.2708276322594
 30
0.0
 42
-0.0112050520610817
 70
     1
  0
VERTEX
  5
1212
330
1207
100
AcDbEntity
  8
STEMPEL
100
AcDbVertex
100
AcDb2dVertex
 10
315.1708520620424
 20
305.515158142262
 30
0.0
 42
-0.1368984172757846
  0
VERTEX
  5
1213
330
1207
100
AcDbEntity
  8
STEMPEL
100
AcDbVertex
100
AcDb2dVertex
 10
315.3394909563443
 20
305.6768966902711
 30
0.0
 42
-0.045106105007629
 70
     1
  0
VERTEX
  5
1214
330
1207
100
AcDbEntity
  8
STEMPEL
100
AcDbVertex
100
AcDb2dVertex
 10
315.9813570437937
 20
305.9499837080445
 30
0.0
 42
-0.1090763395678266
  0
VERTEX
  5
1215
330
1207
100
AcDbEntity
  8
STEMPEL
100
AcDbVertex
100
AcDb2dVertex
 10
316.5900435026282
 20
306.0078690936032
 30
0.0
 42
-0.0922724848799965
 70
     1
  0
VERTEX
  5
1216
330
1207
100
AcDbEntity
  8
STEMPEL
100
AcDbVertex
100
AcDb2dVertex
 10
317.2768350973487
 20
305.7905154503897
 30
0.0
 42
-0.2021570603046537
  0
VERTEX
  5
1217
330
1207
100
AcDbEntity
  8
STEMPEL
100
AcDbVertex
100
AcDb2dVertex
 10
317.7913209237893
 20
305.156025526407
 30
0.0
 42
-0.195829986622529
 70
     1
  0
VERTEX
  5
1218
330
1207
100
AcDbEntity
  8
STEMPEL
100
AcDbVertex
100
AcDb2dVertex
 10
317.7036804351538
 20
304.3193832526591
 30
0.0
 42
-0.1478756044462343
  0
VERTEX
  5
1219
330
1207
100
AcDbEntity
  8
STEMPEL
100
AcDbVertex
100
AcDb2dVertex
 10
317.2694924430369
 20
303.8846414102904
 30
0.0
 42
-0.0863946446354409
 70
     1
  0
VERTEX
  5
121A
330
1207
100
AcDbEntity
  8
STEMPEL
100
AcDbVertex
100
AcDb2dVertex
 10
316.285297327367
 20
303.558433928839
 30
0.0
 42
-0.1058620479362252
  0
VERTEX
  5
121B
330
1207
100
AcDbEntity
  8
STEMPEL
100
AcDbVertex
100
AcDb2dVertex
 10
315.3171795819129
 20
303.6197480108299
 30
0.0
 42
-0.1047404320449772
 70
     1
  0
VERTEX
  5
121C
330
1207
100
AcDbEntity
  8
STEMPEL
100
AcDbVertex
100
AcDb2dVertex
 10
314.4490522767863
 20
304.0749171237694
 30
0.0
  0
SEQEND
  5
121D
330
1207
100
AcDbEntity
  8
STEMPEL
  0
TEXT
  5
121E
330
1E
100
AcDbEntity
  8
TEXT
 62
     1
100
AcDbText
 10
318.9201986252457
 20
339.0331129739578
 30
0.0
 40
7.5
  1
Heizband und Einbauteile
 50
90.0
 41
0.8
  7
GREEKS
100
AcDbText
  0
LINE
  5
121F
330
1E
100
AcDbEntity
  8
HILF
100
AcDbLine
 10
315.4722489551297
 20
336.2616716509302
 30
0.0
 11
308.6689847747473
 21
313.2560726282315
 31
0.0
  0
LINE
  5
1220
102
{ACAD_REACTORS
330
136A
102
}
330
1E
100
AcDbEntity
  8
STEMPEL
  6
Continuous
100
AcDbLine
 10
261.3180272069657
 20
336.094791570708
 30
0.0
 11
261.3180272069657
 21
328.094791570708
 31
0.0
  0
LINE
  5
1221
102
{ACAD_REACTORS
330
136A
102
}
330
1E
100
AcDbEntity
  8
STEMPEL
  6
Continuous
100
AcDbLine
 10
262.3180272069657
 20
336.094791570708
 30
0.0
 11
262.3180272069657
 21
328.094791570708
 31
0.0
  0
LINE
  5
1222
102
{ACAD_REACTORS
330
133F
330
136A
102
}
330
1E
100
AcDbEntity
  8
STEMPEL
  6
Continuous
100
AcDbLine
 10
263.3180272069657
 20
337.094791570708
 30
0.0
 11
263.3180272069657
 21
327.094791570708
 31
0.0
  0
LINE
  5
1223
102
{ACAD_REACTORS
330
136A
102
}
330
1E
100
AcDbEntity
  8
STEMPEL
100
AcDbLine
 10
261.3180272069657
 20
328.094791570708
 30
0.0
 11
262.3180272069657
 21
328.094791570708
 31
0.0
  0
LINE
  5
1224
102
{ACAD_REACTORS
330
136A
102
}
330
1E
100
AcDbEntity
  8
STEMPEL
100
AcDbLine
 10
260.3180272069657
 20
327.094791570708
 30
0.0
 11
263.3180272069657
 21
327.094791570708
 31
0.0
  0
LINE
  5
1225
102
{ACAD_REACTORS
330
136A
102
}
330
1E
100
AcDbEntity
  8
STEMPEL
100
AcDbLine
 10
261.3180272069657
 20
336.094791570708
 30
0.0
 11
262.3180272069657
 21
336.094791570708
 31
0.0
  0
LINE
  5
1226
102
{ACAD_REACTORS
330
133F
330
136A
102
}
330
1E
100
AcDbEntity
  8
STEMPEL
100
AcDbLine
 10
260.3180272069657
 20
337.094791570708
 30
0.0
 11
263.3180272069657
 21
337.094791570708
 31
0.0
  0
LWPOLYLINE
  5
1227
102
{ACAD_REACTORS
330
133F
102
}
330
1E
100
AcDbEntity
  8
STEMPEL
100
AcDbPolyline
 90
        4
 70
     0
 43
0.0
 10
260.3548960774884
 20
326.6259057535592
 42
0.0599943785006757
 10
261.0309906436397
 20
324.2459230106589
 42
0.1409772553630202
 10
262.5455888597772
 20
322.360404860234
 42
0.0350032816553559
 10
263.8395475469954
 20
321.5777641336061
 42
0.056653314233945
  0
LINE
  5
1267
102
{ACAD_REACTORS
330
136A
102
}
330
1E
100
AcDbEntity
  8
STEMPEL
100
AcDbLine
 10
261.3180272069658
 20
383.5369207827617
 30
0.0
 11
262.3180272069658
 21
383.5369207827617
 31
0.0
  0
LINE
  5
1268
102
{ACAD_REACTORS
330
133F
330
136A
102
}
330
1E
100
AcDbEntity
  8
STEMPEL
100
AcDbLine
 10
260.3180272069658
 20
384.5369207827618
 30
0.0
 11
263.3180272069658
 21
384.5369207827618
 31
0.0
  0
LINE
  5
1269
102
{ACAD_REACTORS
330
136A
102
}
330
1E
100
AcDbEntity
  8
STEMPEL
100
AcDbLine
 10
261.3180272069658
 20
375.5369207827617
 30
0.0
 11
262.3180272069658
 21
375.5369207827617
 31
0.0
  0
LINE
  5
126A
102
{ACAD_REACTORS
330
133F
330
136A
102
}
330
1E
100
AcDbEntity
  8
STEMPEL
100
AcDbLine
 10
260.3180272069658
 20
374.5369207827617
 30
0.0
 11
263.3180272069658
 21
374.5369207827617
 31
0.0
  0
LINE
  5
126B
102
{ACAD_REACTORS
330
136A
102
}
330
1E
100
AcDbEntity
  8
STEMPEL
  6
Continuous
100
AcDbLine
 10
261.3180272069658
 20
383.5369207827619
 30
0.0
 11
261.3180272069658
 21
375.5369207827617
 31
0.0
  0
LINE
  5
126C
102
{ACAD_REACTORS
330
136A
102
}
330
1E
100
AcDbEntity
  8
STEMPEL
  6
Continuous
100
AcDbLine
 10
262.3180272069658
 20
383.5369207827617
 30
0.0
 11
262.3180272069658
 21
375.5369207827617
 31
0.0
  0
LINE
  5
126D
102
{ACAD_REACTORS
330
133F
330
136A
102
}
330
1E
100
AcDbEntity
  8
STEMPEL
  6
Continuous
100
AcDbLine
 10
263.3180272069658
 20
384.5369207827618
 30
0.0
 11
263.3180272069658
 21
374.5369207827617
 31
0.0
  0
LINE
  5
126E
102
{ACAD_REACTORS
330
133F
330
136A
102
}
330
1E
100
AcDbEntity
  8
STEMPEL
  6
Continuous
100
AcDbLine
 10
184.3180272069657
 20
448.366983514767
 30
0.0
 11
184.3180272069657
 21
438.3669835147669
 31
0.0
  0
LINE
  5
126F
102
{ACAD_REACTORS
330
133F
330
136A
102
}
330
1E
100
AcDbEntity
  8
STEMPEL
100
AcDbLine
 10
187.3180272069657
 20
438.3669835147669
 30
0.0
 11
184.3180272069657
 21
438.3669835147669
 31
0.0
  0
LINE
  5
1270
102
{ACAD_REACTORS
330
133F
330
136A
102
}
330
1E
100
AcDbEntity
  8
STEMPEL
100
AcDbLine
 10
187.3180272069657
 20
448.366983514767
 30
0.0
 11
184.3180272069657
 21
448.366983514767
 31
0.0
  0
LINE
  5
1271
102
{ACAD_REACTORS
330
136A
102
}
330
1E
100
AcDbEntity
  8
STEMPEL
100
AcDbLine
 10
186.3180272069658
 20
447.3669835147669
 30
0.0
 11
185.3180272069657
 21
447.3669835147669
 31
0.0
  0
LINE
  5
1272
102
{ACAD_REACTORS
330
136A
102
}
330
1E
100
AcDbEntity
  8
STEMPEL
100
AcDbLine
 10
186.3180272069658
 20
439.3669835147669
 30
0.0
 11
185.3180272069657
 21
439.3669835147669
 31
0.0
  0
LINE
  5
1273
102
{ACAD_REACTORS
330
136A
102
}
330
1E
100
AcDbEntity
  8
STEMPEL
  6
Continuous
100
AcDbLine
 10
185.3180272069657
 20
447.3669835147669
 30
0.0
 11
185.3180272069657
 21
439.3669835147669
 31
0.0
  0
LINE
  5
1274
102
{ACAD_REACTORS
330
136A
102
}
330
1E
100
AcDbEntity
  8
STEMPEL
  6
Continuous
100
AcDbLine
 10
186.3180272069658
 20
447.3669835147671
 30
0.0
 11
186.3180272069658
 21
439.3669835147669
 31
0.0
  0
DIMENSION
  5
1291
330
1E
100
AcDbEntity
  8
BEM
100
AcDbDimension
  2
*D5
 10
289.8180272069657
 20
289.2543318013659
 30
0.0
 11
282.3180272069657
 21
295.7543318013659
 31
0.0
 70
    32
 71
     5
 42
15.0
  3
Standard
100
AcDbAlignedDimension
 13
274.8180272069657
 23
306.620642552279
 33
0.0
 14
289.8180272069657
 24
305.620642552279
 34
0.0
100
AcDbRotatedDimension
1001
ACAD
1000
DSTYLE
1002
{
1070
    40
1040
2.0
1070
    41
1040
3.5
1070
    42
1040
1.0
1070
    43
1040
7.0
1070
    44
1040
1.0
1070
    73
1070
     0
1070
    74
1070
     0
1070
    77
1070
     1
1070
    78
1070
     8
1070
    79
1070
     2
1070
   140
1040
3.5
1070
   141
1040
1.5
1070
   146
1040
0.5142857142857144
1070
   147
1040
1.5
1070
   172
1070
     1
1070
   178
1070
     1
1070
   179
1070
     2
1070
   271
1070
     2
1070
   272
1070
     2
1070
   284
1070
     8
1070
   285
1070
     8
1070
   286
1070
     8
1002
}
  0
HATCH
  5
12BF
330
1E
100
AcDbEntity
  8
SCHRAFF
100
AcDbHatch
 10
0.0
 20
0.0
 30
0.0
210
0.0
220
0.0
230
1.0
  2
_USER
 70
     0
 71
     1
 91
        5
 92
        7
 72
     0
 73
     1
 93
        4
 10
274.8180272069657
 20
519.120642552279
 10
272.8180272069658
 20
519.120642552279
 10
272.8180272069657
 20
392.519137143616
 10
274.8180272069657
 20
392.8613238798064
 97
        4
330
541
330
568
330
71D
330
57D
 92
        7
 72
     0
 73
     1
 93
        4
 10
174.8180272069657
 20
519.1206425522791
 10
172.8180272069657
 20
519.1206425522791
 10
172.8180272069657
 20
392.8613238798064
 10
174.8180272069657
 20
393.2035106159968
 97
        4
330
541
330
54B
330
71D
330
54A
 92
        7
 72
     0
 73
     1
 93
        4
 10
274.8180272069657
 20
387.8613238798063
 10
272.8180272069657
 20
387.519137143616
 10
272.8180272069657
 20
329.7456425522791
 10
274.8180272069657
 20
329.7456425522791
 97
        4
330
735
330
74E
330
11D7
330
74D
 92
        7
 72
     0
 73
     1
 93
        4
 10
174.8180272069657
 20
388.2035106159967
 10
172.8180272069657
 20
387.8613238798064
 10
172.8180272069657
 20
259.1206425522792
 10
174.8180272069657
 20
259.1206425522792
 97
        4
330
735
330
754
330
54E
330
753
 92
        7
 72
     0
 73
     1
 93
        4
 10
274.8180272069657
 20
308.4956425522791
 10
272.8180272069657
 20
308.4956425522791
 10
272.8180272069657
 20
259.1206425522791
 10
274.8180272069657
 20
259.120642552279
 97
        4
330
11D6
330
74E
330
567
330
74D
 75
     0
 76
     0
 52
135.0
 41
2.0
 77
     0
 78
     1
 53
135.0
 43
0.0
 44
0.0
 45
-1.414213562373095
 46
-1.414213562373094
 79
     0
 47
0.5710825609488257
 98
        5
 10
273.8859574130647
 20
426.7057398872434
 10
173.304728605894
 20
434.1298131355893
 10
273.8859574130647
 20
366.170988462409
 10
173.8762124023969
 20
358.7469152140634
 10
274.4574412095676
 20
293.6435020369529
  0
HATCH
  5
12D2
330
1E
100
AcDbEntity
  8
SCHRAFF
100
AcDbHatch
 10
0.0
 20
0.0
 30
0.0
210
0.0
220
0.0
230
1.0
  2
_USER
 70
     0
 71
     1
 91
        4
 92
        7
 72
     0
 73
     1
 93
        5
 10
289.8180272069656
 20
331.620642552279
 10
274.8180272069657
 20
331.620642552279
 10
274.8180272069657
 20
330.1706425522791
 10
277.8180272069657
 20
330.1706425522791
 10
289.8180272069657
 20
330.1706425522791
 97
        5
330
11D5
330
74D
330
11D9
330
11E1
330
11D3
 92
        7
 72
     0
 73
     1
 93
        4
 10
277.8180272069657
 20
330.1706425522791
 10
274.8180272069657
 20
330.1706425522791
 10
274.8180272069658
 20
329.7456425522791
 10
277.8180272069657
 20
329.745642552279
 97
        4
330
11D9
330
74D
330
11D7
330
11E0
 92
        7
 72
     0
 73
     1
 93
        4
 10
277.8180272069657
 20
308.495642552279
 10
274.8180272069657
 20
308.495642552279
 10
274.8180272069657
 20
308.0706425522791
 10
277.8180272069657
 20
308.0706425522791
 97
        4
330
11D6
330
74D
330
11D8
330
1202
 92
        7
 72
     0
 73
     1
 93
        5
 10
289.8180272069657
 20
308.0706425522791
 10
277.8180272069657
 20
308.0706425522791
 10
274.8180272069657
 20
308.0706425522791
 10
274.8180272069657
 20
306.6206425522791
 10
289.8180272069657
 20
306.620642552279
 97
        5
330
11E2
330
11D8
330
74D
330
11D4
330
11E6
 75
     0
 76
     0
 52
45.0
 41
2.0
 77
     0
 78
     1
 53
45.0
 43
0.0
 44
0.0
 45
-1.414213562373094
 46
1.414213562373095
 79
     0
 47
0.1200507560777405
 98
        4
 10
281.7194472967053
 20
331.0393126019073
 10
276.7939050025766
 20
329.958855200606
 10
276.4334978213305
 20
308.3497197691979
 10
277.0341735514203
 20
307.2692623678965
  0
HATCH
  5
12EB
330
1E
100
AcDbEntity
  8
SCHRAFF
100
AcDbHatch
 10
0.0
 20
0.0
 30
0.0
210
0.0
220
0.0
230
1.0
  2
NET
 70
     0
 71
     1
 91
        2
 92
        7
 72
     1
 73
     1
 93
       12
 10
277.8180272069657
 20
330.1706425522791
 42
0.0
 10
277.8180272069656
 20
328.120642552279
 42
0.0
 10
294.3180272069657
 20
328.120642552279
 42
-0.4142135623730951
 10
295.8180272069657
 20
326.620642552279
 42
0.0
 10
295.8180272069657
 20
322.620642552279
 42
0.0
 10
297.3180272069657
 20
322.620642552279
 42
0.0
 10
297.3180272069657
 20
326.620642552279
 42
0.4142135623730951
 10
294.3180272069657
 20
329.620642552279
 42
0.0
 10
293.8180272069656
 20
329.620642552279
 42
0.0
 10
293.8180272069656
 20
332.620642552279
 42
0.0
 10
289.8180272069657
 20
332.6206425522791
 42
0.0
 10
289.8180272069657
 20
330.1706425522791
 42
0.0
 97
       12
330
11DE
330
11DA
330
11DC
330
11D3
330
11E1
330
11E0
330
11E4
330
11EC
330
11E5
330
11E9
330
11DF
330
11EA
 92
        7
 72
     1
 73
     1
 93
       12
 10
277.8180272069657
 20
310.120642552279
 42
0.0
 10
277.8180272069657
 20
308.0706425522791
 42
0.0
 10
289.8180272069657
 20
308.0706425522791
 42
0.0
 10
289.8180272069656
 20
305.620642552279
 42
0.0
 10
293.8180272069656
 20
305.620642552279
 42
0.0
 10
293.8180272069656
 20
308.6206425522791
 42
0.0
 10
294.3180272069657
 20
308.6206425522791
 42
0.4142135623730951
 10
297.3180272069657
 20
311.620642552279
 42
0.0
 10
297.3180272069657
 20
315.620642552279
 42
0.0
 10
295.8180272069657
 20
315.6206425522792
 42
0.0
 10
295.8180272069657
 20
311.620642552279
 42
-0.4142135623730729
 10
294.3180272069657
 20
310.1206425522792
 42
0.0
 97
       12
330
1205
330
11E8
330
1206
330
11ED
330
11E3
330
1202
330
11E2
330
11E6
330
11DB
330
11E7
330
11DD
330
11EB
 75
     0
 76
     1
 52
45.0
 41
15.0
 77
     0
 78
     2
 53
45.0
 43
0.0
 44
0.0
 45
-1.325825214724776
 46
1.325825214724776
 79
     0
 53
135.0
 43
0.0
 44
0.0
 45
-1.325825214724776
 46
-1.325825214724776
 79
     0
 47
0.1200507560777405
 98
        2
 10
284.0020159426417
 20
329.4786531550517
 10
288.0866139578375
 20
309.4301757710973
  0
HATCH
  5
133F
330
1E
100
AcDbEntity
  8
SCHRAFF
100
AcDbHatch
 10
0.0
 20
0.0
 30
0.0
210
0.0
220
0.0
230
1.0
  2
HONEY
 70
     0
 71
     1
 91
        5
 92
        7
 72
     1
 73
     1
 93
       11
 10
272.8180272069657
 20
505.1206425522789
 42
0.0
 10
265.9180272069657
 20
505.1206425522789
 42
0.0
 10
265.9180272069657
 20
499.5589226004698
 42
-0.0933817694259173
 10
264.2288662154073
 20
490.456847840891
 42
0.092693060336346
 10
263.4180272069657
 20
486.1206425522789
 42
0.0
 10
263.4180272069657
 20
469.5093689696959
 42
-0.1420008527982431
 10
261.5580272069653
 20
463.0921733205041
 42
0.1420008527982102
 10
260.3180272069657
 20
458.8140428877104
 42
0.0
 10
260.3180272069657
 20
390.6831014936732
 42
0.0
 10
265.8282811132145
 20
391.3232379423062
 42
0.0
 10
272.8180272069657
 20
392.519137143616
 42
0.0
 97
       10
330
574
330
572
330
575
330
578
330
56C
330
570
330
56F
330
562
330
71D
330
568
 92
        7
 72
     1
 73
     1
 93
       15
 10
187.3180272069657
 20
438.3669835147669
 42
0.0
 10
184.3180272069657
 20
438.3669835147669
 42
0.0
 10
184.3180272069657
 20
448.366983514767
 42
0.0
 10
187.3180272069657
 20
448.366983514767
 42
0.0
 10
187.3180272069657
 20
458.8140428877105
 42
0.1420008527982283
 10
186.0780272069657
 20
463.0921733205046
 42
-0.1420008527982298
 10
184.2180272069657
 20
469.5093689696959
 42
0.0
 10
184.2180272069657
 20
486.120642552279
 42
0.0926930603363575
 10
183.4071881985239
 20
490.4568478408916
 42
-0.0933817694259112
 10
181.7180272069657
 20
499.5589226004698
 42
0.0
 10
181.7180272069657
 20
505.120642552279
 42
0.0
 10
174.8180272069657
 20
505.1206425522791
 42
0.0
 10
174.8180272069657
 20
393.2035106159967
 42
0.0
 10
181.8077733007156
 20
394.3994098173065
 42
0.0
 10
187.3180272069657
 20
395.0395462659394
 42
0.0
 97
       13
330
126F
330
126E
330
1270
330
545
330
555
330
556
330
553
330
55B
330
55C
330
558
330
551
330
54A
330
71D
 92
        7
 72
     1
 73
     1
 93
       15
 10
272.8180272069658
 20
387.519137143616
 42
0.0
 10
265.8282811132141
 20
386.3232379423063
 42
0.0
 10
260.3180272069658
 20
385.6831014936734
 42
0.0
 10
260.3180272069658
 20
384.5369207827618
 42
0.0
 10
263.3180272069658
 20
384.5369207827618
 42
0.0
 10
263.3180272069658
 20
374.5369207827618
 42
0.0
 10
260.3180272069658
 20
374.5369207827617
 42
0.0
 10
260.3180272069658
 20
337.094791570708
 42
0.0
 10
263.3180272069657
 20
337.094791570708
 42
0.0
 10
263.3180272069657
 20
327.094791570708
 42
0.059994378500679
 10
263.7980961967585
 20
325.4048565108643
 42
0.1409772553630007
 10
264.2738913165536
 20
324.8125407899696
 42
0.083517407397893
 10
266.6111586113144
 20
323.6912786666102
 42
0.0566533142339482
 10
270.3651393305444
 20
323.0566612457807
 42
0.0042259332079699
 10
272.8180272069657
 20
322.9441640428705
 42
0.0
 97
        9
330
735
330
74F
330
1268
330
126D
330
126A
330
1226
330
1222
330
11EE
330
74E
 92
        7
 72
     1
 73
     1
 93
       11
 10
272.8180272069657
 20
318.5781363479587
 42
-0.0000935164296504
 10
271.9680610432371
 20
318.703149636172
 42
-0.0026674380291852
 10
269.2344591308134
 20
319.120642552279
 42
0.0
 10
269.2879473456377
 20
319.120642552279
 42
-0.0516472133654693
 10
267.8433208457394
 20
319.5784133422634
 42
-0.0265409313018221
 10
263.8395475469943
 20
321.5777641336067
 42
-0.035003281655314
 10
262.5455888597777
 20
322.3604048602337
 42
-0.1409772553630101
 10
261.0309906436399
 20
324.2459230106582
 42
-0.0662023795498469
 10
260.3180272069658
 20
326.8791473958257
 42
0.0
 10
260.3180272069658
 20
275.1206425522789
 42
0.0
 10
272.8180272069657
 20
275.1206425522789
 42
0.0
 97
        6
330
11F9
330
11D2
330
1227
330
74F
330
569
330
74E
 92
        7
 72
     0
 73
     1
 93
        5
 10
187.3180272069657
 20
390.0395462659395
 10
181.8077733007148
 20
389.3994098173065
 10
174.8180272069657
 20
388.2035106159968
 10
174.8180272069657
 20
275.1206425522787
 10
187.3180272069657
 20
275.1206425522789
 97
        4
330
735
330
753
330
54D
330
752
 75
     0
 76
     1
 52
0.0
 41
25.0
 77
     0
 78
     3
 53
0.0
 43
0.0
 44
0.0
 45
4.6875
 46
2.706329374999999
 79
     2
 49
3.125
 49
-6.25
 53
120.0
 43
0.0
 44
0.0
 45
-4.687499989758061
 46
2.706329392739557
 79
     2
 49
3.125
 49
-6.25
 53
60.0
 43
0.0
 44
0.0
 45
0.0000000102419385
 46
5.412658767739556
 79
     2
 49
-6.25
 49
3.125
 47
1.180894551031238
 98
        5
 10
267.3136780332366
 20
412.7276758693353
 10
179.8660149794564
 20
424.5366203898936
 10
266.1319527390506
 20
352.5020537766404
 10
267.3136780332366
 20
289.9146424999533
 10
179.8660149794564
 20
319.4370052007512
  0
TEXT
  5
1340
330
1E
100
AcDbEntity
  8
TEXT
100
AcDbText
 10
225.1296391125315
 20
61.50334417585291
 30
0.0
 40
5.0
  1
Begleitheizung(Einzelrohrbeheizung)
 41
0.75
  7
GREEKS
100
AcDbText
  0
HATCH
  5
136A
330
1E
100
AcDbEntity
  8
SCHRAFF
100
AcDbHatch
 10
0.0
 20
0.0
 30
0.0
210
0.0
220
0.0
230
1.0
  2
NET
 70
     0
 71
     1
 91
        6
 92
        7
 72
     0
 73
     1
 93
        4
 10
263.3180272069658
 20
384.5369207827618
 10
260.3180272069658
 20
384.5369207827618
 10
260.3180272069658
 20
374.5369207827617
 10
263.3180272069658
 20
374.5369207827617
 97
        4
330
1268
330
74F
330
126A
330
126D
 92
       22
 72
     0
 73
     1
 93
        4
 10
262.3180272069658
 20
375.5369207827617
 10
261.3180272069658
 20
375.5369207827617
 10
261.3180272069658
 20
383.5369207827617
 10
262.3180272069658
 20
383.5369207827617
 97
        4
330
1269
330
126B
330
1267
330
126C
 92
        7
 72
     0
 73
     1
 93
        4
 10
263.3180272069657
 20
337.094791570708
 10
260.3180272069658
 20
337.0947915707081
 10
260.3180272069658
 20
327.094791570708
 10
263.3180272069657
 20
327.0947915707079
 97
        4
330
1226
330
74F
330
1224
330
1222
 92
       22
 72
     0
 73
     1
 93
        4
 10
262.3180272069657
 20
328.0947915707081
 10
261.3180272069657
 20
328.094791570708
 10
261.3180272069657
 20
336.094791570708
 10
262.3180272069657
 20
336.094791570708
 97
        4
330
1223
330
1220
330
1225
330
1221
 92
        7
 72
     0
 73
     1
 93
        4
 10
187.3180272069657
 20
448.3669835147668
 10
184.3180272069657
 20
448.366983514767
 10
184.3180272069657
 20
438.3669835147669
 10
187.3180272069657
 20
438.366983514767
 97
        4
330
1270
330
126E
330
126F
330
545
 92
       22
 72
     0
 73
     1
 93
        4
 10
185.3180272069657
 20
447.3669835147669
 10
186.3180272069658
 20
447.3669835147669
 10
186.3180272069658
 20
439.3669835147669
 10
185.3180272069657
 20
439.3669835147669
 97
        4
330
1271
330
1274
330
1272
330
1273
 75
     0
 76
     1
 52
45.0
 41
10.0
 77
     0
 78
     2
 53
45.0
 43
0.0
 44
0.0
 45
-0.8838834764831842
 46
0.8838834764831844
 79
     0
 53
135.0
 43
0.0
 44
0.0
 45
-0.8838834764831844
 46
-0.8838834764831842
 79
     0
 47
0.2760834018656615
 98
        6
 10
262.7516152967332
 20
381.5105308223731
 10
262.7516152967332
 20
381.5105308223731
 10
262.7516152967332
 20
333.4720192881509
 10
262.7516152967332
 20
333.4720192881509
 10
184.8413319499245
 20
442.2488798651613
 10
184.8413319499245
 20
442.2488798651613
  0
HATCH
  5
13BD
330
1E
100
AcDbEntity
  8
SCHRAFF
100
AcDbHatch
 10
0.0
 20
0.0
 30
0.0
210
0.0
220
0.0
230
1.0
  2
_USER
 70
     0
 71
     0
 91
        2
 92
        7
 72
     1
 73
     1
 93
        3
 10
274.8180272069657
 20
334.6206425522791
 42
0.0
 10
274.8180272069657
 20
331.620642552279
 42
0.0
 10
277.8180272069657
 20
331.620642552279
 42
0.4142135623730951
 97
        0
 92
        7
 72
     1
 73
     1
 93
        3
 10
277.8180272069657
 20
306.620642552279
 42
0.0
 10
274.8180272069657
 20
306.620642552279
 42
0.0
 10
274.8180272069657
 20
303.620642552279
 42
0.4142135623730896
 97
        0
 75
     0
 76
     0
 52
0.0
 41
0.1
 77
     0
 78
     1
 53
0.0
 43
0.0
 44
0.0
 45
0.0
 46
0.1
 79
     0
 47
0.1484818295624811
 98
        2
 10
275.3837709363324
 20
332.9766925344727
 10
276.7210466281449
 20
304.7651450935684
  0
ARC
  5
13BE
330
1E
100
AcDbEntity
  8
SCHRAFF
100
AcDbCircle
 10
274.8180272069657
 20
331.6206425522791
 30
0.0
 40
3.0
100
AcDbArc
 50
0.0
 51
90.0
  0
ARC
  5
13BF
330
1E
100
AcDbEntity
  8
SCHRAFF
100
AcDbCircle
 10
274.8180272069657
 20
306.620642552279
 30
0.0
 40
3.0
100
AcDbArc
 50
270.0
 51
0.0
  0
HATCH
  5
13DE
330
1E
100
AcDbEntity
  8
SCHRAFF
100
AcDbHatch
 10
0.0
 20
0.0
 30
0.0
210
0.0
220
0.0
230
1.0
  2
NET
 70
     0
 71
     0
 91
        2
 92
        7
 72
     0
 73
     1
 93
        8
 10
272.8180272069657
 20
275.120642552279
 10
260.3180272069658
 20
275.120642552279
 10
260.3180272069658
 20
265.120642552279
 10
263.2180272069657
 20
265.120642552279
 10
267.8368293604827
 20
257.1206425522789
 10
274.8180272069657
 20
257.1206425522788
 10
274.8180272069657
 20
259.120642552279
 10
272.8180272069657
 20
259.120642552279
 97
        0
 92
        7
 72
     0
 73
     1
 93
        8
 10
187.3180272069656
 20
275.1206425522788
 10
174.8180272069657
 20
275.1206425522789
 10
174.8180272069657
 20
259.1206425522791
 10
172.8180272069657
 20
259.1206425522791
 10
172.8180272069657
 20
257.1206425522792
 10
179.7992250534488
 20
257.1206425522792
 10
184.4180272069657
 20
265.1206425522789
 10
187.3180272069657
 20
265.1206425522789
 97
        0
 75
     0
 76
     1
 52
45.0
 41
20.0
 77
     0
 78
     2
 53
45.0
 43
-1.181972793034248
 44
-62.75435150690668
 45
-1.767766952966368
 46
1.767766952966368
 79
     0
 53
135.0
 43
-1.181972793034248
 44
-62.75435150690668
 45
-1.767766952966368
 46
-1.767766952966368
 79
     0
 47
0.1839921830501558
 98
        2
 10
265.1177718172889
 20
268.8290188754497
 10
181.534928614184
 20
270.4849481809713
  0
LINE
  5
13DF
330
1E
100
AcDbEntity
  8
STEMPEL
100
AcDbLine
 10
274.8180272069657
 20
257.1206425522788
 30
0.0
 11
260.3180272069658
 21
257.1206425522789
 31
0.0
  0
LINE
  5
13E0
330
1E
100
AcDbEntity
  8
STEMPEL
100
AcDbLine
 10
263.2180272069657
 20
265.120642552279
 30
0.0
 11
267.8368293604827
 21
257.1206425522788
 31
0.0
  0
LINE
  5
13E1
330
1E
100
AcDbEntity
  8
STEMPEL
100
AcDbLine
 10
187.3180272069657
 20
257.1206425522792
 30
0.0
 11
172.8180272069657
 21
257.1206425522792
 31
0.0
  0
LINE
  5
13E2
330
1E
100
AcDbEntity
  8
STEMPEL
100
AcDbLine
 10
184.4180272069657
 20
265.120642552279
 30
0.0
 11
179.7992250534488
 21
257.1206425522792
 31
0.0
  0
TEXT
  5
13ED
330
1E
100
AcDbEntity
  8
TEXT
 62
     1
100
AcDbText
 10
330.3705761931734
 20
339.0331129739578
 30
0.0
 40
7.5
  1
entsprechend Materialdisposition
 50
90.0
 41
0.8
  7
GREEKS
100
AcDbText
  0
DIMENSION
  5
140A
330
1E
100
AcDbEntity
  8
BEM
100
AcDbDimension
  2
*D6
 10
163.8976198876775
 20
259.1206425522791
 30
0.0
 11
157.3976198876774
 21
236.6206425522791
 31
0.0
 70
    32
 71
     5
 42
45.0000000000002
  3
Standard
100
AcDbAlignedDimension
 13
187.7493587845252
 23
214.120642552279
 33
0.0
 14
172.8180272069657
 24
259.1206425522791
 34
0.0
 50
90.0
100
AcDbRotatedDimension
1001
ACAD
1000
DSTYLE
1002
{
1070
    40
1040
2.0
1070
    41
1040
3.5
1070
    42
1040
1.0
1070
    43
1040
7.0
1070
    44
1040
1.0
1070
    73
1070
     0
1070
    74
1070
     0
1070
    77
1070
     1
1070
    78
1070
     8
1070
    79
1070
     2
1070
   140
1040
3.5
1070
   141
1040
1.5
1070
   146
1040
0.5142857142857144
1070
   147
1040
1.5
1070
   172
1070
     1
1070
   178
1070
     1
1070
   179
1070
     2
1070
   271
1070
     2
1070
   272
1070
     2
1070
   284
1070
     8
1070
   285
1070
     8
1070
   286
1070
     8
1002
}
  0
ENDSEC
  0
SECTION
  2
OBJECTS
  0
DICTIONARY
  5
C
330
0
100
AcDbDictionary
281
     1
  3
ACAD_COLOR
350
DF
  3
ACAD_GROUP
350
D
  3
ACAD_LAYOUT
350
19
  3
ACAD_MATERIAL
350
DE
  3
ACAD_MLINESTYLE
350
16
  3
ACAD_PLOTSETTINGS
350
18
  3
ACAD_PLOTSTYLENAME
350
E
  3
AcDbVariableDictionary
350
EA
  0
DICTIONARY
  5
A0
330
1E
100
AcDbDictionary
280
     1
281
     1
  3
ACAD_LAYOUTSELFREF
360
D4
  0
DICTIONARY
  5
A2
330
1A
100
AcDbDictionary
280
     1
281
     1
  3
ACAD_LAYOUTSELFREF
360
D3
  0
DICTIONARY
  5
DF
102
{ACAD_REACTORS
330
C
102
}
330
C
100
AcDbDictionary
281
     1
  0
DICTIONARY
  5
D
102
{ACAD_REACTORS
330
C
102
}
330
C
100
AcDbDictionary
281
     1
  0
DICTIONARY
  5
19
102
{ACAD_REACTORS
330
C
102
}
330
C
100
AcDbDictionary
281
     1
  3
Layout1
350
1D
  3
Model
350
21
  0
DICTIONARY
  5
DE
102
{ACAD_REACTORS
330
C
102
}
330
C
100
AcDbDictionary
281
     1
  0
DICTIONARY
  5
16
102
{ACAD_REACTORS
330
C
102
}
330
C
100
AcDbDictionary
281
     1
  3
Standard
350
17
  0
DICTIONARY
  5
18
102
{ACAD_REACTORS
330
C
102
}
330
C
100
AcDbDictionary
281
     1
  0
ACDBDICTIONARYWDFLT
  5
E
102
{ACAD_REACTORS
330
C
102
}
330
C
100
AcDbDictionary
281
     1
  3
Normal
350
F
100
AcDbDictionaryWithDefault
340
F
  0
DICTIONARY
  5
EA
102
{ACAD_REACTORS
330
C
102
}
330
C
100
AcDbDictionary
281
     1
  3
DIMASSOC
350
EB
  3
PROJECTNAME
350
EC
  0
XRECORD
  5
D4
102
{ACAD_REACTORS
330
A0
102
}
330
A0
100
AcDbXrecord
280
     1
340
1E
  0
XRECORD
  5
D3
102
{ACAD_REACTORS
330
A2
102
}
330
A2
100
AcDbXrecord
280
     1
340
1A
  0
LAYOUT
  5
1D
102
{ACAD_REACTORS
330
19
102
}
330
19
100
AcDbPlotSettings
  1

  2
\\NT_WORK01\HP LaserJet 5000 PCL 6
  4

  6

 40
0.0
 41
0.0
 42
0.0
 43
0.0
 44
0.0
 45
0.0
 46
0.0
 47
0.0
 48
0.0
 49
0.0
140
0.0
141
0.0
142
1.0
143
1.0
 70
   688
 72
     0
 73
     0
 74
     5
  7

 75
    16
147
1.0
 76
     0
 77
     2
 78
   300
148
0.0
149
0.0
100
AcDbLayout
  1
Layout1
 70
     0
 71
     1
 10
0.0
 20
0.0
 11
12.0
 21
9.0
 12
0.0
 22
0.0
 32
0.0
 14
1.000000000000000E+20
 24
1.000000000000000E+20
 34
1.000000000000000E+20
 15
-1.000000000000000E+20
 25
-1.000000000000000E+20
 35
-1.000000000000000E+20
146
0.0
 13
0.0
 23
0.0
 33
0.0
 16
1.0
 26
0.0
 36
0.0
 17
0.0
 27
1.0
 37
0.0
 76
     0
330
1A
  0
LAYOUT
  5
21
102
{ACAD_REACTORS
330
19
102
}
330
19
100
AcDbPlotSettings
  1

  2
none_device
  4
Letter_(8.50_x_11.00_Inches)
  6

 40
6.349999904632568
 41
6.349999904632568
 42
6.350006103515625
 43
6.350006103515625
 44
215.8999938964844
 45
279.3999938964844
 46
0.0
 47
0.0
 48
0.0
 49
0.0
140
0.0
141
0.0
142
1.0
143
1.0
 70
 11952
 72
     0
 73
     1
 74
     0
  7

 75
     0
147
1.0
 76
     0
 77
     2
 78
   300
148
2271.415068077575
149
61.6150269146417
100
AcDbLayout
  1
Model
 70
     1
 71
     0
 10
0.0
 20
0.0
 11
12.0
 21
9.0
 12
0.0
 22
0.0
 32
0.0
 14
0.0
 24
0.0
 34
0.0
 15
0.0
 25
0.0
 35
0.0
146
0.0
 13
0.0
 23
0.0
 33
0.0
 16
1.0
 26
0.0
 36
0.0
 17
0.0
 27
1.0
 37
0.0
 76
     0
330
1E
  0
MLINESTYLE
  5
17
102
{ACAD_REACTORS
330
16
102
}
330
16
100
AcDbMlineStyle
  2
STANDARD
 70
     0
  3

 62
   256
 51
90.0
 52
90.0
 71
     2
 49
0.5
 62
   256
  6
BYLAYER
 49
-0.5
 62
   256
  6
BYLAYER
  0
ACDBPLACEHOLDER
  5
F
102
{ACAD_REACTORS
330
E
102
}
330
E
  0
DICTIONARYVAR
  5
EB
102
{ACAD_REACTORS
330
EA
102
}
330
EA
100
DictionaryVariables
280
     0
  1
1
  0
DICTIONARYVAR
  5
EC
102
{ACAD_REACTORS
330
EA
102
}
330
EA
100
DictionaryVariables
280
     0
  1

  0
ENDSEC
  0
EOF
