  0
SECTION
  2
HEADER
  9
$ACADVER
  1
AC1018
  9
$ACADMAINTVER
 70
     2
  9
$DWGCODEPAGE
  3
ANSI_1252
  9
$INSBASE
 10
0.0
 20
0.0
 30
0.0
  9
$EXTMIN
 10
-0.0064082024693448
 20
-0.0090630292066862
 30
-0.0015258207003583
  9
$EXTMAX
 10
210.0064091803581
 20
297.0090644122207
 30
0.0000000349246037
  9
$LIMMIN
 10
0.0
 20
0.0
  9
$LIMMAX
 10
210.0
 20
297.0
  9
$ORTHOMODE
 70
     1
  9
$REGENMODE
 70
     1
  9
$FILLMODE
 70
     1
  9
$QTEXTMODE
 70
     0
  9
$MIRRTEXT
 70
     1
  9
$LTSCALE
 40
10.0
  9
$ATTMODE
 70
     1
  9
$TEXTSIZE
 40
3.5
  9
$TRACEWID
 40
1.0
  9
$TEXTSTYLE
  7
STANDARD
  9
$CLAYER
  8
BEM
  9
$CELTYPE
  6
ByLayer
  9
$CECOLOR
 62
   256
  9
$CELTSCALE
 40
1.0
  9
$DISPSILH
 70
     0
  9
$DIMSCALE
 40
1.0
  9
$DIMASZ
 40
3.5
  9
$DIMEXO
 40
1.0
  9
$DIMDLI
 40
7.0
  9
$DIMRND
 40
0.0
  9
$DIMDLE
 40
0.0
  9
$DIMEXE
 40
1.0
  9
$DIMTP
 40
0.0
  9
$DIMTM
 40
0.0
  9
$DIMTXT
 40
3.5
  9
$DIMCEN
 40
1.5
  9
$DIMTSZ
 40
0.0
  9
$DIMTOL
 70
     0
  9
$DIMLIM
 70
     0
  9
$DIMTIH
 70
     0
  9
$DIMTOH
 70
     0
  9
$DIMSE1
 70
     0
  9
$DIMSE2
 70
     0
  9
$DIMTAD
 70
     1
  9
$DIMZIN
 70
     8
  9
$DIMBLK
  1

  9
$DIMASO
 70
     1
  9
$DIMSHO
 70
     0
  9
$DIMPOST
  1

  9
$DIMAPOST
  1

  9
$DIMALT
 70
     0
  9
$DIMALTD
 70
     2
  9
$DIMALTF
 40
25.4
  9
$DIMLFAC
 40
1.0
  9
$DIMTOFL
 70
     1
  9
$DIMTVP
 40
0.0
  9
$DIMTIX
 70
     0
  9
$DIMSOXD
 70
     0
  9
$DIMSAH
 70
     0
  9
$DIMBLK1
  1

  9
$DIMBLK2
  1

  9
$DIMSTYLE
  2
Standard
  9
$DIMCLRD
 70
     0
  9
$DIMCLRE
 70
     0
  9
$DIMCLRT
 70
     1
  9
$DIMTFAC
 40
0.5142857142857144
  9
$DIMGAP
 40
1.5
  9
$DIMJUST
 70
     0
  9
$DIMSD1
 70
     0
  9
$DIMSD2
 70
     0
  9
$DIMTOLJ
 70
     1
  9
$DIMTZIN
 70
     8
  9
$DIMALTZ
 70
     8
  9
$DIMALTTZ
 70
     8
  9
$DIMUPT
 70
     0
  9
$DIMDEC
 70
     2
  9
$DIMTDEC
 70
     2
  9
$DIMALTU
 70
     2
  9
$DIMALTTD
 70
     2
  9
$DIMTXSTY
  7
STANDARD
  9
$DIMAUNIT
 70
     0
  9
$DIMADEC
 70
     2
  9
$DIMALTRND
 40
0.0
  9
$DIMAZIN
 70
     2
  9
$DIMDSEP
 70
    46
  9
$DIMATFIT
 70
     3
  9
$DIMFRAC
 70
     0
  9
$DIMLDRBLK
  1

  9
$DIMLUNIT
 70
     2
  9
$DIMLWD
 70
    -2
  9
$DIMLWE
 70
    -2
  9
$DIMTMOVE
 70
     0
  9
$LUNITS
 70
     2
  9
$LUPREC
 70
     2
  9
$SKETCHINC
 40
1.0
  9
$FILLETRAD
 40
0.0
  9
$AUNITS
 70
     0
  9
$AUPREC
 70
     0
  9
$MENU
  1
ACAD
  9
$ELEVATION
 40
0.0
  9
$PELEVATION
 40
0.0
  9
$THICKNESS
 40
0.0
  9
$LIMCHECK
 70
     0
  9
$CHAMFERA
 40
0.0
  9
$CHAMFERB
 40
0.0
  9
$CHAMFERC
 40
0.0
  9
$CHAMFERD
 40
0.0
  9
$SKPOLY
 70
     0
  9
$TDCREATE
 40
2455397.867059838
  9
$TDUCREATE
 40
2455397.783726505
  9
$TDUPDATE
 40
2455833.448836852
  9
$TDUUPDATE
 40
2455833.365503519
  9
$TDINDWG
 40
0.0723295486
  9
$TDUSRTIMER
 40
0.0723295486
  9
$USRTIMER
 70
     1
  9
$ANGBASE
 50
0.0
  9
$ANGDIR
 70
     0
  9
$PDMODE
 70
     0
  9
$PDSIZE
 40
0.0
  9
$PLINEWID
 40
0.0
  9
$SPLFRAME
 70
     0
  9
$SPLINETYPE
 70
     6
  9
$SPLINESEGS
 70
     8
  9
$HANDSEED
  5
154A
  9
$SURFTAB1
 70
     6
  9
$SURFTAB2
 70
     6
  9
$SURFTYPE
 70
     6
  9
$SURFU
 70
     6
  9
$SURFV
 70
     6
  9
$UCSBASE
  2

  9
$UCSNAME
  2

  9
$UCSORG
 10
0.0
 20
0.0
 30
0.0
  9
$UCSXDIR
 10
1.0
 20
0.0
 30
0.0
  9
$UCSYDIR
 10
0.0
 20
1.0
 30
0.0
  9
$UCSORTHOREF
  2

  9
$UCSORTHOVIEW
 70
     0
  9
$UCSORGTOP
 10
0.0
 20
0.0
 30
0.0
  9
$UCSORGBOTTOM
 10
0.0
 20
0.0
 30
0.0
  9
$UCSORGLEFT
 10
0.0
 20
0.0
 30
0.0
  9
$UCSORGRIGHT
 10
0.0
 20
0.0
 30
0.0
  9
$UCSORGFRONT
 10
0.0
 20
0.0
 30
0.0
  9
$UCSORGBACK
 10
0.0
 20
0.0
 30
0.0
  9
$PUCSBASE
  2

  9
$PUCSNAME
  2

  9
$PUCSORG
 10
0.0
 20
0.0
 30
0.0
  9
$PUCSXDIR
 10
1.0
 20
0.0
 30
0.0
  9
$PUCSYDIR
 10
0.0
 20
1.0
 30
0.0
  9
$PUCSORTHOREF
  2

  9
$PUCSORTHOVIEW
 70
     0
  9
$PUCSORGTOP
 10
0.0
 20
0.0
 30
0.0
  9
$PUCSORGBOTTOM
 10
0.0
 20
0.0
 30
0.0
  9
$PUCSORGLEFT
 10
0.0
 20
0.0
 30
0.0
  9
$PUCSORGRIGHT
 10
0.0
 20
0.0
 30
0.0
  9
$PUCSORGFRONT
 10
0.0
 20
0.0
 30
0.0
  9
$PUCSORGBACK
 10
0.0
 20
0.0
 30
0.0
  9
$USERI1
 70
     0
  9
$USERI2
 70
     0
  9
$USERI3
 70
     0
  9
$USERI4
 70
     0
  9
$USERI5
 70
     0
  9
$USERR1
 40
0.0
  9
$USERR2
 40
0.0
  9
$USERR3
 40
0.0
  9
$USERR4
 40
0.0
  9
$USERR5
 40
0.0
  9
$WORLDVIEW
 70
     1
  9
$SHADEDGE
 70
     3
  9
$SHADEDIF
 70
    70
  9
$TILEMODE
 70
     1
  9
$MAXACTVP
 70
    16
  9
$PINSBASE
 10
0.0
 20
0.0
 30
0.0
  9
$PLIMCHECK
 70
     0
  9
$PEXTMIN
 10
1.000000000000000E+20
 20
1.000000000000000E+20
 30
1.000000000000000E+20
  9
$PEXTMAX
 10
-1.000000000000000E+20
 20
-1.000000000000000E+20
 30
-1.000000000000000E+20
  9
$PLIMMIN
 10
0.0
 20
0.0
  9
$PLIMMAX
 10
12.0
 20
9.0
  9
$UNITMODE
 70
     0
  9
$VISRETAIN
 70
     0
  9
$PLINEGEN
 70
     0
  9
$PSLTSCALE
 70
     0
  9
$TREEDEPTH
 70
  3020
  9
$CMLSTYLE
  2
Standard
  9
$CMLJUST
 70
     0
  9
$CMLSCALE
 40
1.0
  9
$PROXYGRAPHICS
 70
     1
  9
$MEASUREMENT
 70
     0
  9
$CELWEIGHT
370
    -1
  9
$ENDCAPS
280
     0
  9
$JOINSTYLE
280
     0
  9
$LWDISPLAY
290
     0
  9
$INSUNITS
 70
     0
  9
$HYPERLINKBASE
  1

  9
$STYLESHEET
  1
monochrome 1.ctb
  9
$XEDIT
290
     1
  9
$CEPSNTYPE
380
     0
  9
$PSTYLEMODE
290
     1
  9
$FINGERPRINTGUID
  2
{D68B0D0D-A558-11D7-B632-000102183313}
  9
$VERSIONGUID
  2
{CEE0DFF8-2BEF-45FB-906C-7DB580BA146B}
  9
$EXTNAMES
290
     1
  9
$PSVPSCALE
 40
0.0
  9
$OLESTARTUP
290
     0
  9
$SORTENTS
280
   127
  9
$INDEXCTL
280
     0
  9
$HIDETEXT
280
     0
  9
$XCLIPFRAME
290
     0
  9
$HALOGAP
280
     0
  9
$OBSCOLOR
 70
   257
  9
$OBSLTYPE
280
     0
  9
$INTERSECTIONDISPLAY
280
     0
  9
$INTERSECTIONCOLOR
 70
   257
  9
$DIMASSOC
280
     1
  9
$PROJECTNAME
  1

  0
ENDSEC
  0
SECTION
  2
CLASSES
  0
CLASS
  1
ACDBDICTIONARYWDFLT
  2
AcDbDictionaryWithDefault
  3
ObjectDBX Classes
 90
        0
 91
        1
280
     0
281
     0
  0
CLASS
  1
DICTIONARYVAR
  2
AcDbDictionaryVar
  3
ObjectDBX Classes
 90
        0
 91
        2
280
     0
281
     0
  0
ENDSEC
  0
SECTION
  2
TABLES
  0
TABLE
  2
VPORT
  5
8
330
0
100
AcDbSymbolTable
 70
     2
  0
VPORT
  5
1549
330
8
100
AcDbSymbolTableRecord
100
AcDbViewportTableRecord
  2
*Active
 70
     0
 10
0.0
 20
0.0
 11
1.0
 21
1.0
 12
105.0
 22
148.5
 13
0.0
 23
0.0
 14
1.0
 24
1.0
 15
10.0
 25
10.0
 16
0.0
 26
0.0
 36
1.0
 17
0.0
 27
0.0
 37
0.0
 40
297.0
 41
1.36388140161725
 42
50.0
 43
0.0
 44
0.0
 50
0.0
 51
0.0
 71
     0
 72
  1500
 73
     1
 74
     0
 75
     0
 76
     0
 77
     0
 78
     0
281
     0
 65
     1
110
0.0
120
0.0
130
0.0
111
1.0
121
0.0
131
0.0
112
0.0
122
1.0
132
0.0
 79
     0
146
0.0
  0
ENDTAB
  0
TABLE
  2
LTYPE
  5
5
330
0
100
AcDbSymbolTable
 70
     2
  0
LTYPE
  5
13
330
5
100
AcDbSymbolTableRecord
100
AcDbLinetypeTableRecord
  2
ByBlock
 70
     0
  3

 72
    65
 73
     0
 40
0.0
  0
LTYPE
  5
14
330
5
100
AcDbSymbolTableRecord
100
AcDbLinetypeTableRecord
  2
ByLayer
 70
     0
  3

 72
    65
 73
     0
 40
0.0
  0
LTYPE
  5
15
330
5
100
AcDbSymbolTableRecord
100
AcDbLinetypeTableRecord
  2
Continuous
 70
     0
  3
Solid line
 72
    65
 73
     0
 40
0.0
  0
LTYPE
  5
25
330
5
100
AcDbSymbolTableRecord
100
AcDbLinetypeTableRecord
  2
STRICHPUNKT
 70
     0
  3
__ . __ . __ . __ . __ . __ . __ . __ . __ . __
 72
    65
 73
     4
 40
1.0
 49
0.5
 74
     0
 49
-0.25
 74
     0
 49
0.0
 74
     0
 49
-0.25
 74
     0
  0
ENDTAB
  0
TABLE
  2
LAYER
  5
2
330
0
100
AcDbSymbolTable
 70
     8
  0
LAYER
  5
10
330
2
100
AcDbSymbolTableRecord
100
AcDbLayerTableRecord
  2
0
 70
     0
 62
     7
  6
Continuous
370
    -3
390
F
  0
LAYER
  5
2B
330
2
100
AcDbSymbolTableRecord
100
AcDbLayerTableRecord
  2
VOLL
 70
     0
 62
     1
  6
Continuous
370
    -3
390
F
  0
LAYER
  5
2C
330
2
100
AcDbSymbolTableRecord
100
AcDbLayerTableRecord
  2
HILF
 70
     0
 62
     2
  6
Continuous
370
    -3
390
F
  0
LAYER
  5
2D
330
2
100
AcDbSymbolTableRecord
100
AcDbLayerTableRecord
  2
MITTEL
 70
     0
 62
     2
  6
STRICHPUNKT
370
    -3
390
F
  0
LAYER
  5
2F
330
2
100
AcDbSymbolTableRecord
100
AcDbLayerTableRecord
  2
BEM
 70
     0
 62
     7
  6
Continuous
370
    -3
390
F
  0
LAYER
  5
30
330
2
100
AcDbSymbolTableRecord
100
AcDbLayerTableRecord
  2
STEMPEL
 70
     0
 62
     3
  6
Continuous
370
    -3
390
F
  0
LAYER
  5
33
330
2
100
AcDbSymbolTableRecord
100
AcDbLayerTableRecord
  2
TEXT
 70
     0
 62
     7
  6
Continuous
370
    -3
390
F
  0
LAYER
  5
41C
330
2
100
AcDbSymbolTableRecord
100
AcDbLayerTableRecord
  2
DEFPOINTS
 70
     0
 62
     7
  6
Continuous
290
     0
370
    -3
390
F
  0
ENDTAB
  0
TABLE
  2
STYLE
  5
3
330
0
100
AcDbSymbolTable
 70
     2
  0
STYLE
  5
11
330
3
100
AcDbSymbolTableRecord
100
AcDbTextStyleTableRecord
  2
STANDARD
 70
     0
 40
0.0
 41
0.8
 50
0.0
 71
     0
 42
3.5
  3
simplex.shx
  4

  0
STYLE
  5
24
330
3
100
AcDbSymbolTableRecord
100
AcDbTextStyleTableRecord
  2
GREEKS
 70
     0
 40
0.0
 41
0.8
 50
0.0
 71
     0
 42
2.5
  3
SIMPLEX.shx
  4

  0
ENDTAB
  0
TABLE
  2
VIEW
  5
6
330
0
100
AcDbSymbolTable
 70
     0
  0
ENDTAB
  0
TABLE
  2
UCS
  5
7
330
0
100
AcDbSymbolTable
 70
     0
  0
ENDTAB
  0
TABLE
  2
APPID
  5
9
330
0
100
AcDbSymbolTable
 70
     1
  0
APPID
  5
12
330
9
100
AcDbSymbolTableRecord
100
AcDbRegAppTableRecord
  2
ACAD
 70
     0
  0
ENDTAB
  0
TABLE
  2
DIMSTYLE
  5
A
330
0
100
AcDbSymbolTable
 70
     1
100
AcDbDimStyleTable
 71
     1
340
A2
  0
DIMSTYLE
105
A2
102
{ACAD_REACTORS
330
1533
102
}
330
A
100
AcDbSymbolTableRecord
100
AcDbDimStyleTableRecord
  2
Standard
 70
     0
340
11
  0
ENDTAB
  0
TABLE
  2
BLOCK_RECORD
  5
1
330
0
100
AcDbSymbolTable
 70
     3
  0
BLOCK_RECORD
  5
1E
102
{ACAD_XDICTIONARY
360
DB
102
}
330
1
100
AcDbSymbolTableRecord
100
AcDbBlockTableRecord
  2
*Model_Space
340
21
  0
BLOCK_RECORD
  5
1A
102
{ACAD_XDICTIONARY
360
DD
102
}
330
1
100
AcDbSymbolTableRecord
100
AcDbBlockTableRecord
  2
*Paper_Space
340
1D
  0
BLOCK_RECORD
  5
22
330
1
100
AcDbSymbolTableRecord
100
AcDbBlockTableRecord
  2
LOGO
340
0
102
{BLKREFS
331
56
102
}
  0
BLOCK_RECORD
  5
23
330
1
100
AcDbSymbolTableRecord
100
AcDbBlockTableRecord
  2
LORO
340
0
102
{BLKREFS
331
9B
102
}
  0
BLOCK_RECORD
  5
1534
330
1
100
AcDbSymbolTableRecord
100
AcDbBlockTableRecord
  2
*D2
340
0
  0
ENDTAB
  0
ENDSEC
  0
SECTION
  2
BLOCKS
  0
BLOCK
  5
37
330
1E
100
AcDbEntity
  8
0
100
AcDbBlockBegin
  2
*Model_Space
 70
     0
 10
0.0
 20
0.0
 30
0.0
  3
*Model_Space
  1

  0
ENDBLK
  5
38
330
1E
100
AcDbEntity
  8
0
100
AcDbBlockEnd
  0
BLOCK
  5
35
330
1A
100
AcDbEntity
 67
     1
  8
0
100
AcDbBlockBegin
  2
*Paper_Space
 70
     0
 10
0.0
 20
0.0
 30
0.0
  3
*Paper_Space
  1

  0
ENDBLK
  5
36
330
1A
100
AcDbEntity
 67
     1
  8
0
100
AcDbBlockEnd
  0
BLOCK
  5
39
330
22
100
AcDbEntity
  8
0
100
AcDbBlockBegin
  2
LOGO
 70
     0
 10
0.0
 20
0.0
 30
0.0
  3
LOGO
  1

  0
ARC
  5
3A
330
22
100
AcDbEntity
  8
0
100
AcDbCircle
 10
11.59973089678112
 20
-9.271599258481501
 30
0.0
 40
4.5
100
AcDbArc
 50
270.0
 51
231.0575587310159
  0
LINE
  5
3B
330
22
100
AcDbEntity
  8
0
100
AcDbLine
 10
3.599730896781125
 20
-4.771599258481529
 30
0.0
 11
3.599730896781153
 21
-11.77159925848133
 31
0.0
  0
LINE
  5
3C
330
22
100
AcDbEntity
  8
0
100
AcDbLine
 10
2.599730896781125
 20
-4.771599258481529
 30
0.0
 11
2.599730896781153
 21
-11.77159925848133
 31
0.0
  0
CIRCLE
  5
3D
330
22
100
AcDbEntity
  8
0
100
AcDbCircle
 10
11.59973089678112
 20
-9.271599258481501
 30
0.0
 40
3.5
  0
ARC
  5
3E
330
22
100
AcDbEntity
  8
0
100
AcDbCircle
 10
31.59973089678115
 20
-9.271599258481472
 30
0.0
 40
4.5
100
AcDbArc
 50
270.0
 51
231.0575587310182
  0
LINE
  5
3F
330
22
100
AcDbEntity
  8
0
100
AcDbLine
 10
17.59973089678112
 20
-4.771599258481472
 30
0.0
 11
17.59973089678115
 21
-13.77159925848147
 31
0.0
  0
ARC
  5
40
330
22
100
AcDbEntity
  8
0
100
AcDbCircle
 10
22.59973089678116
 20
-7.271599258481472
 30
0.0
 40
2.5
100
AcDbArc
 50
293.1161887722295
 51
90.0
  0
CIRCLE
  5
41
330
22
100
AcDbEntity
  8
0
100
AcDbCircle
 10
31.59973089678115
 20
-9.271599258481472
 30
0.0
 40
3.5
  0
ARC
  5
42
330
22
100
AcDbEntity
  8
0
100
AcDbCircle
 10
4.599730896781153
 20
-11.77159925848133
 30
0.0
 40
1.0
100
AcDbArc
 50
180.0
 51
270.0
  0
ARC
  5
43
330
22
100
AcDbEntity
  8
0
100
AcDbCircle
 10
4.599730896781153
 20
-11.77159925848133
 30
0.0
 40
2.0
100
AcDbArc
 50
179.9999999999992
 51
270.0
  0
LINE
  5
44
330
22
100
AcDbEntity
  8
0
100
AcDbLine
 10
11.59973089678115
 20
-13.77159925848144
 30
0.0
 11
4.599730896781153
 21
-13.77159925848147
 31
0.0
  0
LINE
  5
45
330
22
100
AcDbEntity
  8
0
100
AcDbLine
 10
8.771303772034769
 20
-12.77159925848136
 30
0.0
 11
4.599730896781153
 21
-12.77159925848133
 31
0.0
  0
LINE
  5
46
330
22
100
AcDbEntity
  8
0
100
AcDbLine
 10
31.59973089678115
 20
-13.77159925848147
 30
0.0
 11
23.6715276665056
 21
-13.77159925848144
 31
0.0
  0
LINE
  5
47
330
22
100
AcDbEntity
  8
0
100
AcDbLine
 10
23.56565672307022
 20
-9.51278021337896
 30
0.0
 11
24.4388546544846
 21
-12.77159925848144
 31
0.0
  0
LINE
  5
48
330
22
100
AcDbEntity
  8
0
100
AcDbLine
 10
22.59973089678116
 20
-9.771599258481472
 30
0.0
 11
18.59973089678112
 21
-9.771599258481472
 31
0.0
  0
LINE
  5
49
330
22
100
AcDbEntity
  8
0
100
AcDbLine
 10
18.59973089678115
 20
-13.77159925848144
 30
0.0
 11
17.59973089678115
 21
-13.77159925848144
 31
0.0
  0
LINE
  5
4A
330
22
100
AcDbEntity
  8
0
100
AcDbLine
 10
18.59973089678115
 20
-9.771599258481472
 30
0.0
 11
18.59973089678115
 21
-13.77159925848144
 31
0.0
  0
LINE
  5
4B
330
22
100
AcDbEntity
  8
0
100
AcDbLine
 10
22.59973089678116
 20
-9.771599258481472
 30
0.0
 11
23.67152766650562
 21
-13.77159925848147
 31
0.0
  0
ARC
  5
4C
330
22
100
AcDbEntity
  8
0
100
AcDbCircle
 10
22.59973089678116
 20
-7.271599258481472
 30
0.0
 40
2.5
100
AcDbArc
 50
270.0
 51
270.0000000000007
  0
LINE
  5
4D
330
22
100
AcDbEntity
  8
0
100
AcDbLine
 10
28.77130377203494
 20
-12.77159925848147
 30
0.0
 11
24.43885465448463
 21
-12.77159925848144
 31
0.0
  0
LINE
  5
4E
330
22
100
AcDbEntity
  8
0
100
AcDbLine
 10
3.599730896781125
 20
-4.771599258481472
 30
0.0
 11
2.599730896781125
 21
-4.771599258481472
 31
0.0
  0
LINE
  5
4F
330
22
100
AcDbEntity
  8
0
100
AcDbLine
 10
22.59973089678116
 20
-8.771599258481472
 30
0.0
 11
18.59973089678115
 21
-8.771599258481472
 31
0.0
  0
LINE
  5
50
330
22
100
AcDbEntity
  8
0
100
AcDbLine
 10
22.59973089678116
 20
-5.771599258481472
 30
0.0
 11
18.59973089678115
 21
-5.771599258481472
 31
0.0
  0
LINE
  5
51
330
22
100
AcDbEntity
  8
0
100
AcDbLine
 10
22.59973089678116
 20
-4.771599258481472
 30
0.0
 11
17.59973089678115
 21
-4.771599258481472
 31
0.0
  0
LINE
  5
52
330
22
100
AcDbEntity
  8
0
100
AcDbLine
 10
18.59973089678115
 20
-5.771599258481472
 30
0.0
 11
18.59973089678115
 21
-8.771599258481472
 31
0.0
  0
ARC
  5
53
330
22
100
AcDbEntity
  8
0
100
AcDbCircle
 10
22.59973089678116
 20
-7.271599258481472
 30
0.0
 40
1.5
100
AcDbArc
 50
270.0
 51
90.0
  0
ENDBLK
  5
54
330
22
100
AcDbEntity
  8
0
100
AcDbBlockEnd
  0
BLOCK
  5
55
330
23
100
AcDbEntity
  8
0
100
AcDbBlockBegin
  2
LORO
 70
     0
 10
0.0
 20
0.0
 30
0.0
  3
LORO
  1

  0
INSERT
  5
56
330
23
100
AcDbEntity
  8
STEMPEL
100
AcDbBlockReference
  2
LOGO
 10
-1.748032802467321
 20
3.771489518552062
 30
0.0
  0
ENDBLK
  5
57
330
23
100
AcDbEntity
  8
0
100
AcDbBlockEnd
  0
BLOCK
  5
153E
330
1534
100
AcDbEntity
  8
0
100
AcDbBlockBegin
  2
*D2
 70
     1
 10
0.0
 20
0.0
 30
0.0
  3
*D2
  1

  0
LINE
  5
1535
330
1534
100
AcDbEntity
  8
BEM
 62
     0
370
    -2
100
AcDbLine
 10
46.0000000000002
 20
145.8068568564541
 30
0.0
 11
46.00000000000019
 21
67.15410478185674
 31
0.0
  0
LINE
  5
1536
330
1534
100
AcDbEntity
  8
BEM
 62
     0
370
    -2
100
AcDbLine
 10
179.0000000000002
 20
145.8068568564541
 30
0.0
 11
179.0000000000002
 21
67.15410478185674
 31
0.0
  0
LINE
  5
1537
330
1534
100
AcDbEntity
  8
BEM
 62
     0
370
    -2
100
AcDbLine
 10
49.50000000000019
 20
68.15410478185675
 30
0.0
 11
175.5000000000002
 21
68.15410478185675
 31
0.0
  0
SOLID
  5
1538
330
1534
100
AcDbEntity
  8
BEM
 62
     0
100
AcDbTrace
 10
49.50000000000019
 20
68.73743811519007
 30
0.0
 11
49.50000000000019
 21
67.57077144852342
 31
0.0
 12
46.00000000000019
 22
68.15410478185675
 32
0.0
 13
46.00000000000019
 23
68.15410478185675
 33
0.0
  0
SOLID
  5
1539
330
1534
100
AcDbEntity
  8
BEM
 62
     0
100
AcDbTrace
 10
175.5000000000002
 20
68.73743811519007
 30
0.0
 11
175.5000000000002
 21
67.57077144852342
 31
0.0
 12
179.0000000000002
 22
68.15410478185675
 32
0.0
 13
179.0000000000002
 23
68.15410478185675
 33
0.0
  0
MTEXT
  5
153A
330
1534
100
AcDbEntity
  8
BEM
 62
     1
100
AcDbMText
 10
112.5000000000002
 20
71.40410478185675
 30
0.0
 40
3.5
 41
0.0
 71
     5
 72
     1
  1
\A1;133
 73
     1
 44
1.0
  0
POINT
  5
153B
330
1534
100
AcDbEntity
  8
DEFPOINTS
 62
     0
100
AcDbPoint
 10
46.0000000000002
 20
146.8068568564541
 30
0.0
  0
POINT
  5
153C
330
1534
100
AcDbEntity
  8
DEFPOINTS
 62
     0
100
AcDbPoint
 10
179.0000000000002
 20
146.8068568564541
 30
0.0
  0
POINT
  5
153D
330
1534
100
AcDbEntity
  8
DEFPOINTS
 62
     0
100
AcDbPoint
 10
179.0000000000002
 20
68.15410478185675
 30
0.0
  0
ENDBLK
  5
153F
330
1534
100
AcDbEntity
  8
0
100
AcDbBlockEnd
  0
ENDSEC
  0
SECTION
  2
ENTITIES
  0
LINE
  5
58
330
1E
100
AcDbEntity
  8
STEMPEL
100
AcDbLine
 10
205.0000000000001
 20
55.0
 30
0.0
 11
20.00000000000011
 21
55.0
 31
0.0
  0
LINE
  5
59
330
1E
100
AcDbEntity
  8
STEMPEL
100
AcDbLine
 10
20.0000000000004
 20
292.0
 30
0.0
 11
20.00000000000006
 21
5.0
 31
0.0
  0
LINE
  5
5A
330
1E
100
AcDbEntity
  8
STEMPEL
100
AcDbLine
 10
73.00000000000011
 20
54.99999999999994
 30
0.0
 11
73.00000000000006
 21
4.999999999999943
 31
0.0
  0
LINE
  5
5B
330
1E
100
AcDbEntity
  8
STEMPEL
100
AcDbLine
 10
115.0
 20
55.0
 30
0.0
 11
115.0
 21
5.0
 31
0.0
  0
LINE
  5
5C
330
1E
100
AcDbEntity
  8
STEMPEL
100
AcDbLine
 10
166.0000000000001
 20
54.99999999999984
 30
0.0
 11
166.0000000000001
 21
20.0
 31
0.0
  0
LINE
  5
5D
330
1E
100
AcDbEntity
  8
STEMPEL
100
AcDbLine
 10
73.0
 20
15.0
 30
0.0
 11
20.00000000000006
 21
15.0
 31
0.0
  0
LINE
  5
5E
330
1E
100
AcDbEntity
  8
STEMPEL
100
AcDbLine
 10
205.0000000000001
 20
20.0
 30
0.0
 11
73.00000000000006
 21
20.0
 31
0.0
  0
LINE
  5
5F
330
1E
100
AcDbEntity
  8
STEMPEL
100
AcDbLine
 10
205.0000000000001
 20
40.0
 30
0.0
 11
73.00000000000011
 21
40.0
 31
0.0
  0
LINE
  5
60
330
1E
100
AcDbEntity
  8
VOLL
100
AcDbLine
 10
27.00000000000012
 20
55.0
 30
0.0
 11
27.00000000000006
 21
4.999999999999992
 31
0.0
  0
LINE
  5
61
330
1E
100
AcDbEntity
  8
VOLL
100
AcDbLine
 10
52.00000000000011
 20
54.99999999999997
 30
0.0
 11
52.00000000000006
 21
4.999999999999971
 31
0.0
  0
LINE
  5
62
330
1E
100
AcDbEntity
  8
VOLL
100
AcDbLine
 10
62.00000000000011
 20
54.99999999999996
 30
0.0
 11
62.00000000000006
 21
4.999999999999957
 31
0.0
  0
LINE
  5
63
330
1E
100
AcDbEntity
  8
VOLL
100
AcDbLine
 10
82.00000000000011
 20
40.0
 30
0.0
 11
82.00000000000011
 21
20.0
 31
0.0
  0
LINE
  5
64
330
1E
100
AcDbEntity
  8
VOLL
100
AcDbLine
 10
95.00000000000012
 20
54.99999999999992
 30
0.0
 11
95.00000000000005
 21
20.0
 31
0.0
  0
LINE
  5
65
330
1E
100
AcDbEntity
  8
HILF
100
AcDbLine
 10
20.00000000000011
 20
50.0
 30
0.0
 11
73.00000000000011
 21
50.0
 31
0.0
  0
LINE
  5
66
330
1E
100
AcDbEntity
  8
HILF
100
AcDbLine
 10
20.00000000000011
 20
45.0
 30
0.0
 11
73.00000000000011
 21
45.0
 31
0.0
  0
LINE
  5
67
330
1E
100
AcDbEntity
  8
HILF
100
AcDbLine
 10
20.00000000000011
 20
40.0
 30
0.0
 11
73.00000000000011
 21
40.0
 31
0.0
  0
LINE
  5
68
330
1E
100
AcDbEntity
  8
HILF
100
AcDbLine
 10
20.00000000000011
 20
35.0
 30
0.0
 11
73.00000000000011
 21
35.0
 31
0.0
  0
LINE
  5
69
330
1E
100
AcDbEntity
  8
HILF
100
AcDbLine
 10
20.00000000000011
 20
30.0
 30
0.0
 11
73.00000000000011
 21
30.0
 31
0.0
  0
LINE
  5
6A
330
1E
100
AcDbEntity
  8
HILF
100
AcDbLine
 10
20.00000000000011
 20
25.0
 30
0.0
 11
73.00000000000011
 21
25.0
 31
0.0
  0
LINE
  5
6B
330
1E
100
AcDbEntity
  8
HILF
100
AcDbLine
 10
20.00000000000011
 20
20.0
 30
0.0
 11
73.00000000000011
 21
20.0
 31
0.0
  0
LINE
  5
6C
330
1E
100
AcDbEntity
  8
HILF
100
AcDbLine
 10
73.00000000000011
 20
35.0
 30
0.0
 11
115.0
 21
35.0
 31
0.0
  0
LINE
  5
6D
330
1E
100
AcDbEntity
  8
HILF
100
AcDbLine
 10
73.00000000000011
 20
30.0
 30
0.0
 11
115.0
 21
30.0
 31
0.0
  0
LINE
  5
6E
330
1E
100
AcDbEntity
  8
HILF
100
AcDbLine
 10
73.00000000000011
 20
25.0
 30
0.0
 11
115.0
 21
25.0
 31
0.0
  0
LINE
  5
6F
330
1E
100
AcDbEntity
  8
HILF
100
AcDbLine
 10
117.3868400548474
 20
42.01879123782068
 30
0.0
 11
163.3148921257406
 21
42.01879123782068
 31
0.0
  0
LINE
  5
70
330
1E
100
AcDbEntity
  8
HILF
100
AcDbLine
 10
117.3868400548474
 20
35.0
 30
0.0
 11
163.3148921257406
 21
35.0
 31
0.0
  0
LINE
  5
71
330
1E
100
AcDbEntity
  8
HILF
100
AcDbLine
 10
117.3868400548474
 20
30.0
 30
0.0
 11
163.3148921257406
 21
30.0
 31
0.0
  0
LINE
  5
72
330
1E
100
AcDbEntity
  8
HILF
100
AcDbLine
 10
117.3868400548474
 20
25.0
 30
0.0
 11
163.3148921257406
 21
25.0
 31
0.0
  0
LINE
  5
73
330
1E
100
AcDbEntity
  8
VOLL
100
AcDbLine
 10
166.0000000000001
 20
30.0
 30
0.0
 11
205.0000000000001
 21
30.0
 31
0.0
  0
LINE
  5
74
330
1E
100
AcDbEntity
  8
HILF
100
AcDbLine
 10
168.3619308148497
 20
41.88991818477911
 30
0.0
 11
202.4294419663365
 21
41.88991818477911
 31
0.0
  0
LINE
  5
75
330
1E
100
AcDbEntity
  8
HILF
100
AcDbLine
 10
117.3868400548474
 20
7.446991290141525
 30
0.0
 11
202.4294419663365
 21
7.446991290141525
 31
0.0
  0
TEXT
  5
76
330
1E
100
AcDbEntity
  8
TEXT
100
AcDbText
 10
33.69991196316487
 20
9.336909474920645
 30
0.0
 40
2.0
  1
Änderung
 41
0.8
  7
GREEKS
 72
     1
 11
39.07134053459344
 21
9.336909474920645
 31
0.0
100
AcDbText
  0
TEXT
  5
78
330
1E
100
AcDbEntity
  8
TEXT
100
AcDbText
 10
76.75817860751891
 20
51.2310447543544
 30
0.0
 40
2.5
  1
Maßstab
 41
0.8
  7
GREEKS
100
AcDbText
  0
TEXT
  5
79
330
1E
100
AcDbEntity
  8
TEXT
100
AcDbText
 10
117.4389701904505
 20
51.27446640058896
 30
0.0
 40
2.5
  1
Benennung
 41
0.8
  7
GREEKS
100
AcDbText
  0
TEXT
  5
7A
330
1E
100
AcDbEntity
  8
TEXT
100
AcDbText
 10
168.0893774788171
 20
51.15660172685679
 30
0.0
 40
2.5
  1
Zeichnungs Nr.
 41
0.8
  7
GREEKS
100
AcDbText
  0
TEXT
  5
7B
330
1E
100
AcDbEntity
  8
TEXT
100
AcDbText
 10
117.371119195568
 20
15.42280285096527
 30
0.0
 40
2.5
  1
Bauvorhaben
 41
0.8
  7
GREEKS
100
AcDbText
  0
TEXT
  5
7C
330
1E
100
AcDbEntity
  8
TEXT
100
AcDbText
 10
168.3619308148497
 20
36.59059118549983
 30
0.0
 40
2.5
  1
Ersatz für:
 41
0.8
  7
GREEKS
100
AcDbText
  0
TEXT
  5
7D
330
1E
100
AcDbEntity
  8
TEXT
100
AcDbText
 10
24.13320553522885
 20
6.827329230135937
 30
0.0
 40
2.0
  1
Index
 50
90.0
 41
0.8
  7
GREEKS
100
AcDbText
  0
TEXT
  5
7E
330
1E
100
AcDbEntity
  8
TEXT
100
AcDbText
 10
54.94950565934898
 20
9.33578134669904
 30
0.0
 40
2.0
  1
Tag
 41
0.8
  7
GREEKS
 72
     1
 11
56.81617232601564
 21
9.33578134669904
 31
0.0
100
AcDbText
  0
TEXT
  5
7F
330
1E
100
AcDbEntity
  8
TEXT
100
AcDbText
 10
64.48978390691465
 20
9.296621084832022
 30
0.0
 40
2.0
  1
Name
 41
0.8
  7
GREEKS
 72
     1
 11
67.65168866881942
 21
9.296621084832022
 31
0.0
100
AcDbText
  0
TEXT
  5
80
330
1E
100
AcDbEntity
  8
TEXT
100
AcDbText
 10
86.16558365768259
 20
36.6594025061496
 30
0.0
 40
2.0
  1
Tag
 41
0.8
  7
GREEKS
100
AcDbText
  0
TEXT
  5
81
330
1E
100
AcDbEntity
  8
TEXT
100
AcDbText
 10
101.2313292113148
 20
36.6548054595761
 30
0.0
 40
2.0
  1
Name
 41
0.8
  7
GREEKS
100
AcDbText
  0
TEXT
  5
82
330
1E
100
AcDbEntity
  8
TEXT
100
AcDbText
 10
73.79180635838082
 20
31.8149518480898
 30
0.0
 40
2.0
  1
Gez.
 41
0.8
  7
GREEKS
100
AcDbText
  0
TEXT
  5
83
330
1E
100
AcDbEntity
  8
TEXT
100
AcDbText
 10
73.77575432858368
 20
26.84463145714186
 30
0.0
 40
2.0
  1
Gepr.
 41
0.8
  7
GREEKS
100
AcDbText
  0
TEXT
  5
84
330
1E
100
AcDbEntity
  8
TEXT
100
AcDbText
 10
73.80033886936525
 20
21.76473194824902
 30
0.0
 40
2.0
  1
Norm.
 41
0.8
  7
GREEKS
100
AcDbText
  0
TEXT
  5
85
330
1E
100
AcDbEntity
  8
TEXT
100
AcDbText
 10
168.6200430748504
 20
26.03708088939298
 30
0.0
 40
2.5
  1
ersetzt durch:
 41
0.8
  7
GREEKS
100
AcDbText
  0
TEXT
  5
86
330
1E
100
AcDbEntity
  8
TEXT
100
AcDbText
 10
74.43465139036618
 20
36.48341298261862
 30
0.0
 40
2.0
  1
2011
 41
0.8
  7
GREEKS
100
AcDbText
  0
LINE
  5
87
330
1E
100
AcDbEntity
  8
HILF
100
AcDbLine
 10
0.0
 20
0.0
 30
0.0
 11
210.0
 21
0.0
 31
0.0
  0
LINE
  5
88
330
1E
100
AcDbEntity
  8
HILF
100
AcDbLine
 10
210.0
 20
0.0
 30
0.0
 11
210.0
 21
297.0
 31
0.0
  0
LINE
  5
89
330
1E
100
AcDbEntity
  8
HILF
100
AcDbLine
 10
210.0
 20
297.0
 30
0.0
 11
0.0
 21
297.0
 31
0.0
  0
LINE
  5
8B
330
1E
100
AcDbEntity
  8
STEMPEL
100
AcDbLine
 10
205.0
 20
292.0
 30
0.0
 11
20.0000000000004
 21
292.0
 31
0.0
  0
LINE
  5
8D
330
1E
100
AcDbEntity
  8
STEMPEL
100
AcDbLine
 10
20.00000000000006
 20
5.0
 30
0.0
 11
205.0
 21
5.0
 31
0.0
  0
LINE
  5
8E
330
1E
100
AcDbEntity
  8
STEMPEL
100
AcDbLine
 10
205.0
 20
5.0
 30
0.0
 11
205.0
 21
292.0
 31
0.0
  0
TEXT
  5
8F
330
1E
100
AcDbEntity
  8
TEXT
 62
     1
100
AcDbText
 10
117.5195286236595
 20
43.68671537826272
 30
0.0
 40
3.5
  1
Verbundrohr
 41
0.8
  7
GREEKS
100
AcDbText
  0
TEXT
  5
90
330
1E
100
AcDbEntity
  8
TEXT
 62
     1
100
AcDbText
 10
173.3314044425401
 20
43.68671537826272
 30
0.0
 40
3.5
  1
58085100W
 41
0.8
  7
GREEKS
 72
     1
 11
185.0647377758735
 21
43.68671537826272
 31
0.0
100
AcDbText
  0
TEXT
  5
91
330
1E
100
AcDbEntity
  8
TEXT
100
AcDbText
 10
99.25451132079155
 20
51.41994805689501
 30
0.0
 40
2.5
  1
Zul.Abw.
 41
0.8
  7
GREEKS
100
AcDbText
  0
TEXT
  5
93
330
1E
100
AcDbEntity
  8
TEXT
100
AcDbText
 10
85.07826187559343
 20
31.5754293806011
 30
0.0
 40
2.0
  1
28.09.
 41
0.8
  7
GREEKS
 72
     1
 11
88.58302378035535
 21
31.5754293806011
 31
0.0
100
AcDbText
  0
TEXT
  5
94
330
1E
100
AcDbEntity
  8
TEXT
100
AcDbText
 10
102.0115876613305
 20
31.47148827582734
 30
0.0
 40
2.0
  1
Koeh
 41
0.8
  7
GREEKS
 72
     1
 11
104.6401590899019
 21
31.47148827582734
 31
0.0
100
AcDbText
  0
TEXT
  5
95
330
1E
100
AcDbEntity
  8
TEXT
100
AcDbText
 10
117.1705470442496
 20
36.05010691553763
 30
0.0
 40
2.5
  1
Verschlußstopfen DN100
 41
0.8
  7
GREEKS
100
AcDbText
  0
TEXT
  5
96
330
1E
100
AcDbEntity
  8
TEXT
100
AcDbText
 10
117.1705470442496
 20
31.17279542604518
 30
0.0
 40
2.5
  1
mit Schraubverschluß
 41
0.8
  7
GREEKS
100
AcDbText
  0
TEXT
  5
97
330
1E
100
AcDbEntity
  8
TEXT
100
AcDbText
 10
117.1705470442496
 20
26.29548668923029
 30
0.0
 40
2.5
  1
EDV-Art.Nr. 58085.100X
 41
0.8
  7
GREEKS
100
AcDbText
  0
TEXT
  5
98
330
1E
100
AcDbEntity
  8
TEXT
100
AcDbText
 10
117.0838025054674
 20
21.65563812395754
 30
0.0
 40
2.0
  1
58085100W.DWG
 41
0.8
  7
GREEKS
100
AcDbText
  0
TEXT
  5
99
330
1E
100
AcDbEntity
  8
TEXT
 62
     1
100
AcDbText
 10
81.35174560171112
 20
43.73538544207488
 30
0.0
 40
3.5
  1
1:1
 41
0.8
  7
GREEKS
100
AcDbText
  0
TEXT
  5
9A
330
1E
100
AcDbEntity
  8
TEXT
100
AcDbText
 10
21.77369706725051
 20
57.05717925255214
 30
0.0
 40
2.5
  1
Erstellt mit AUTOCAD 2004
 41
0.8
  7
GREEKS
100
AcDbText
  0
INSERT
  5
9B
330
1E
100
AcDbEntity
  8
HILF
100
AcDbBlockReference
  2
LORO
 10
76.5312492981177
 20
18.4902965014948
 30
0.0
  0
LINE
  5
14A
330
1E
100
AcDbEntity
  8
HILF
100
AcDbLine
 10
0.0
 20
148.5
 30
0.0
 11
20.0
 21
148.5
 31
0.0
  0
TEXT
  5
15B
330
1E
100
AcDbEntity
  8
BEM
100
AcDbText
 10
208.6511461928583
 20
5.083950539994304
 30
0.0
 40
2.0
  1
Diese Zeichnung ist urheberrechtlich geschützt und bleibt unser Eigentum. Sie darf weder ganz noch teilweise verfielfältigt und nicht an Dritte weitergegeben werden.
 50
90.0
 41
0.8
  7
GREEKS
100
AcDbText
  0
TEXT
  5
893
330
1E
100
AcDbEntity
  8
TEXT
100
AcDbText
 10
96.14492099466385
 20
44.11831842744411
 30
0.0
 40
2.0
  1
DIN EN1123-2
 41
0.8
  7
GREEKS
 72
     1
 11
104.6401590899019
 21
44.11831842744411
 31
0.0
100
AcDbText
  0
TEXT
  5
894
330
1E
100
AcDbEntity
  8
TEXT
 62
     1
100
AcDbText
 10
395.0647377758735
 20
31.31481628544437
 30
0.0
 40
3.5
  1

 41
0.8
  7
GREEKS
 72
     1
 11
395.0647377758735
 21
31.31481628544437
 31
0.0
100
AcDbText
  0
LINE
  5
1300
330
1E
100
AcDbEntity
  8
HILF
100
AcDbLine
 10
0.0
 20
0.0
 30
0.0
 11
0.0
 21
297.0
 31
0.0
  0
CIRCLE
  5
14BE
330
1E
100
AcDbEntity
  8
STEMPEL
100
AcDbCircle
 10
112.5000000000002
 20
146.8068568564541
 30
0.0
 40
5.0
  0
LWPOLYLINE
  5
14BF
330
1E
100
AcDbEntity
  8
STEMPEL
100
AcDbPolyline
 90
        6
 70
     1
 43
0.0
 10
108.169872981078
 20
154.3068568564541
 10
103.8397459621558
 20
146.8068568564541
 10
108.169872981078
 20
139.3068568564541
 10
116.8301270189224
 20
139.3068568564541
 10
121.1602540378445
 20
146.8068568564541
 10
116.8301270189224
 20
154.3068568564541
  0
CIRCLE
  5
14C0
330
1E
100
AcDbEntity
  8
STEMPEL
100
AcDbCircle
 10
112.5000000000002
 20
146.8068568564541
 30
0.0
 40
10.9
  0
CIRCLE
  5
14C1
330
1E
100
AcDbEntity
  8
HILF
100
AcDbCircle
 10
112.5000000000002
 20
146.8068568564541
 30
0.0
 40
10.40651510749425
  0
ARC
  5
14C2
330
1E
100
AcDbEntity
  8
HILF
100
AcDbCircle
 10
112.5000000000002
 20
146.8068568564541
 30
0.0
 40
4.0
100
AcDbArc
 50
195.0000000000003
 51
105.0000000000011
  0
CIRCLE
  5
14C3
330
1E
100
AcDbEntity
  8
STEMPEL
100
AcDbCircle
 10
112.5000000000002
 20
146.8068568564541
 30
0.0
 40
7.499999999999968
  0
POINT
  5
14C4
330
1E
100
AcDbEntity
  8
0
100
AcDbPoint
 10
112.5000000000002
 20
146.8068568564541
 30
0.0
  0
LINE
  5
14C5
330
1E
100
AcDbEntity
  8
STEMPEL
100
AcDbLine
 10
117.5000000000002
 20
271.2140879710115
 30
0.0
 11
117.5000000000002
 21
271.5326673464111
 31
0.0
  0
LINE
  5
14C6
330
1E
100
AcDbEntity
  8
HILF
100
AcDbLine
 10
116.5000000000002
 20
271.2140879710115
 30
0.0
 11
116.5000000000002
 21
272.5326673464111
 31
0.0
  0
LINE
  5
14C7
330
1E
100
AcDbEntity
  8
STEMPEL
100
AcDbLine
 10
107.5000000000001
 20
271.2140879710115
 30
0.0
 11
107.5000000000002
 21
271.5326673464111
 31
0.0
  0
LINE
  5
14C8
330
1E
100
AcDbEntity
  8
HILF
100
AcDbLine
 10
108.5000000000002
 20
271.2140879710115
 30
0.0
 11
108.5000000000002
 21
272.5326673464111
 31
0.0
  0
LINE
  5
14C9
330
1E
100
AcDbEntity
  8
STEMPEL
100
AcDbLine
 10
116.5000000000002
 20
272.5326673464111
 30
0.0
 11
117.5000000000002
 21
271.5326673464111
 31
0.0
  0
LINE
  5
14CA
330
1E
100
AcDbEntity
  8
STEMPEL
100
AcDbLine
 10
108.5000000000002
 20
272.5326673464111
 30
0.0
 11
107.5000000000002
 21
271.5326673464111
 31
0.0
  0
LINE
  5
14CD
330
1E
100
AcDbEntity
  8
STEMPEL
100
AcDbLine
 10
107.5000000000002
 20
271.5326673464111
 30
0.0
 11
117.5000000000002
 21
271.5326673464111
 31
0.0
  0
LINE
  5
14CE
330
1E
100
AcDbEntity
  8
STEMPEL
100
AcDbLine
 10
108.5000000000002
 20
272.5326673464111
 30
0.0
 11
116.5000000000002
 21
272.5326673464111
 31
0.0
  0
ARC
  5
14D1
330
1E
100
AcDbEntity
  8
STEMPEL
100
AcDbCircle
 10
122.6500000000003
 20
261.9640879710115
 30
0.0
 40
0.750000000000001
100
AcDbArc
 50
269.9999991462263
 51
69.99999999999992
  0
ARC
  5
14D2
330
1E
100
AcDbEntity
  8
STEMPEL
100
AcDbCircle
 10
102.3500000000002
 20
261.9640879710115
 30
0.0
 40
0.7500000000000013
100
AcDbArc
 50
110.0000000000001
 51
269.9999991462263
  0
LINE
  5
14D3
330
1E
100
AcDbEntity
  8
STEMPEL
100
AcDbLine
 10
103.8397459621559
 20
263.3044444872114
 30
0.0
 11
102.093484892506
 21
262.6688574366009
 31
0.0
  0
LINE
  5
14D4
330
1E
100
AcDbEntity
  8
STEMPEL
100
AcDbLine
 10
122.9065151074945
 20
262.6688574366009
 30
0.0
 11
121.1602540378446
 21
263.3044444872114
 31
0.0
  0
LINE
  5
14D5
330
1E
100
AcDbEntity
  8
STEMPEL
100
AcDbLine
 10
121.1602540378446
 20
270.9031988385561
 30
0.0
 11
120.0000000000002
 21
271.2140879710115
 31
0.0
  0
LINE
  5
14D6
330
1E
100
AcDbEntity
  8
STEMPEL
100
AcDbLine
 10
105.0000000000003
 20
271.2140879710115
 30
0.0
 11
103.8397459621559
 21
270.9031988385561
 31
0.0
  0
LINE
  5
14D7
330
1E
100
AcDbEntity
  8
STEMPEL
100
AcDbLine
 10
103.8397459621559
 20
263.3044444872114
 30
0.0
 11
103.8397459621559
 21
270.9031988385561
 31
0.0
  0
LINE
  5
14D8
330
1E
100
AcDbEntity
  8
STEMPEL
100
AcDbLine
 10
122.6500000000003
 20
261.2140879710115
 30
0.0
 11
102.3500000000002
 21
261.2140879710115
 31
0.0
  0
LINE
  5
14D9
330
1E
100
AcDbEntity
  8
STEMPEL
100
AcDbLine
 10
122.9065151074945
 20
262.6688574366009
 30
0.0
 11
102.093484892506
 21
262.6688574366009
 31
0.0
  0
LINE
  5
14DA
330
1E
100
AcDbEntity
  8
STEMPEL
100
AcDbLine
 10
108.1698729810781
 20
263.3044444872114
 30
0.0
 11
108.1698729810781
 21
270.9031988385561
 31
0.0
  0
LINE
  5
14DB
330
1E
100
AcDbEntity
  8
STEMPEL
100
AcDbLine
 10
116.8301270189225
 20
263.3044444872114
 30
0.0
 11
116.8301270189225
 21
270.9031988385561
 31
0.0
  0
LINE
  5
14DC
330
1E
100
AcDbEntity
  8
STEMPEL
100
AcDbLine
 10
121.1602540378446
 20
263.3044444872114
 30
0.0
 11
121.1602540378446
 21
270.9031988385561
 31
0.0
  0
LINE
  5
14DD
330
1E
100
AcDbEntity
  8
STEMPEL
100
AcDbLine
 10
105.0000000000003
 20
271.2140879710115
 30
0.0
 11
120.0000000000002
 21
271.2140879710115
 31
0.0
  0
POINT
  5
14DE
330
1E
100
AcDbEntity
  8
0
100
AcDbPoint
 10
112.5000000000002
 20
261.2140879710115
 30
0.0
210
0.0000000000000001
220
1.0
230
0.0
  0
ARC
  5
14DF
330
1E
100
AcDbEntity
  8
HILF
100
AcDbCircle
 10
106.004809471617
 20
257.9656018214819
 30
0.0
 40
5.761140599691502
100
AcDbArc
 50
67.92594526326325
 51
112.0740547367367
  0
ARC
  5
14E0
330
1E
100
AcDbEntity
  8
HILF
100
AcDbCircle
 10
118.9951905283835
 20
257.9656018214819
 30
0.0
 40
5.761140599691502
100
AcDbArc
 50
67.92594526326325
 51
112.0740547367367
  0
ARC
  5
14E1
330
1E
100
AcDbEntity
  8
HILF
100
AcDbCircle
 10
112.5000000000002
 20
241.3156269233503
 30
0.0
 40
22.41111549782308
100
AcDbArc
 50
78.85962783890424
 51
101.1403721610957
  0
ARC
  5
14E2
330
1E
100
AcDbEntity
  8
STEMPEL
100
AcDbCircle
 10
118.9951905283835
 20
263.519782263227
 30
0.0
 40
7.694305707784447
100
AcDbArc
 50
73.65710669401703
 51
106.3428933059829
  0
ARC
  5
14E3
330
1E
100
AcDbEntity
  8
STEMPEL
100
AcDbCircle
 10
106.004809471617
 20
263.519782263227
 30
0.0
 40
7.694305707784447
100
AcDbArc
 50
73.65710669401703
 51
106.3428933059829
  0
ARC
  5
14E4
330
1E
100
AcDbEntity
  8
STEMPEL
100
AcDbCircle
 10
112.5000000000002
 20
240.9031988385566
 30
0.0
 40
30.31088913245485
100
AcDbArc
 50
81.78678929826036
 51
98.21321070173965
  0
LINE
  5
14E5
330
1E
100
AcDbEntity
  8
STEMPEL
100
AcDbLine
 10
121.5000000000003
 20
260.7140879710115
 30
0.0
 11
121.5000000000002
 21
261.2140879710115
 31
0.0
  0
LINE
  5
14E6
330
1E
100
AcDbEntity
  8
STEMPEL
100
AcDbLine
 10
103.5000000000002
 20
260.7140879710115
 30
0.0
 11
103.5000000000002
 21
261.2140879710115
 31
0.0
  0
LINE
  5
14E7
330
1E
100
AcDbEntity
  8
STEMPEL
100
AcDbLine
 10
121.5000000000002
 20
260.7140879710115
 30
0.0
 11
103.5000000000002
 21
260.7140879710115
 31
0.0
  0
LINE
  5
14E8
330
1E
100
AcDbEntity
  8
STEMPEL
100
AcDbLine
 10
121.5000000000002
 20
261.2140879710115
 30
0.0
 11
103.5000000000002
 21
261.2140879710115
 31
0.0
  0
LINE
  5
14EC
330
1E
100
AcDbEntity
  8
MITTEL
100
AcDbLine
 10
112.5000000000002
 20
229.532667346411
 30
0.0
 11
112.5000000000002
 21
277.5326673464111
 31
0.0
  0
LINE
  5
14F0
330
1E
100
AcDbEntity
  8
STEMPEL
100
AcDbLine
 10
61.2320508075691
 20
234.532667346411
 30
0.0
 11
163.7679491924313
 21
234.532667346411
 31
0.0
  0
LINE
  5
14F3
330
1E
100
AcDbEntity
  8
STEMPEL
100
AcDbLine
 10
59.5000000000002
 20
235.532667346411
 30
0.0
 11
62.81976404784055
 21
241.282667346411
 31
0.0
  0
POINT
  5
14F4
330
1E
100
AcDbEntity
  8
STEMPEL
100
AcDbPoint
 10
61.2320508075691
 20
234.532667346411
 30
0.0
  0
LINE
  5
14F5
330
1E
100
AcDbEntity
  8
STEMPEL
100
AcDbLine
 10
61.2320508075691
 20
234.532667346411
 30
0.0
 11
59.5000000000002
 21
235.532667346411
 31
0.0
  0
ARC
  5
14F6
330
1E
100
AcDbEntity
  8
STEMPEL
100
AcDbCircle
 10
66.71687836487055
 20
239.032667346411
 30
0.0
 40
4.5
100
AcDbArc
 50
143.4252335200609
 51
149.999999999999
  0
LINE
  5
150B
330
1E
100
AcDbEntity
  8
STEMPEL
100
AcDbLine
 10
165.5000000000002
 20
235.532667346411
 30
0.0
 11
162.1802359521599
 21
241.282667346411
 31
0.0
  0
LINE
  5
150C
330
1E
100
AcDbEntity
  8
STEMPEL
100
AcDbLine
 10
165.5000000000002
 20
235.532667346411
 30
0.0
 11
163.7679491924313
 21
234.532667346411
 31
0.0
  0
ARC
  5
150D
330
1E
100
AcDbEntity
  8
STEMPEL
100
AcDbCircle
 10
158.2831216351299
 20
239.032667346411
 30
0.0
 40
4.5
100
AcDbArc
 50
30.00000000000105
 51
36.57476647993901
  0
LINE
  5
1511
330
1E
100
AcDbEntity
  8
STEMPEL
100
AcDbLine
 10
165.7500000000003
 20
244.2140879710116
 30
0.0
 11
165.7500000000002
 21
255.2140879710115
 31
0.0
  0
LINE
  5
1513
330
1E
100
AcDbEntity
  8
STEMPEL
100
AcDbLine
 10
59.25000000000025
 20
244.2140879710117
 30
0.0
 11
59.25000000000025
 21
255.2140879710115
 31
0.0
  0
LINE
  5
1517
330
1E
100
AcDbEntity
  8
STEMPEL
100
AcDbLine
 10
59.25000000000025
 20
244.2140879710117
 30
0.0
 11
59.75915581856177
 21
242.4384506151946
 31
0.0
  0
ARC
  5
1518
330
1E
100
AcDbEntity
  8
STEMPEL
100
AcDbCircle
 10
60.7204175145001
 20
242.7140879710115
 30
0.0
 40
1.0
100
AcDbArc
 50
195.9999999999982
 51
270.0
  0
POINT
  5
1519
330
1E
100
AcDbEntity
  8
STEMPEL
100
AcDbPoint
 10
59.94522172467881
 20
242.0823669190881
 30
0.0
  0
POINT
  5
151A
330
1E
100
AcDbEntity
  8
STEMPEL
100
AcDbPoint
 10
63.10301845696503
 20
241.7140879710116
 30
0.0
  0
POINT
  5
151B
330
1E
100
AcDbEntity
  8
STEMPEL
100
AcDbPoint
 10
59.25000000000025
 20
245.6158598525092
 30
0.0
  0
LINE
  5
151C
330
1E
100
AcDbEntity
  8
STEMPEL
100
AcDbLine
 10
165.7500000000003
 20
244.2140879710116
 30
0.0
 11
165.2408441814387
 21
242.4384506151945
 31
0.0
  0
ARC
  5
151E
330
1E
100
AcDbEntity
  8
STEMPEL
100
AcDbCircle
 10
164.2795824855004
 20
242.7140879710115
 30
0.0
 40
1.0
100
AcDbArc
 50
270.0
 51
343.9999999999985
  0
POINT
  5
1520
330
1E
100
AcDbEntity
  8
STEMPEL
100
AcDbPoint
 10
165.7500000000003
 20
244.2140879710116
 30
0.0
  0
LINE
  5
1521
330
1E
100
AcDbEntity
  8
STEMPEL
100
AcDbLine
 10
46.00000000000025
 20
256.7140879710115
 30
0.0
 11
179.0000000000003
 21
256.7140879710115
 31
0.0
  0
LINE
  5
1523
330
1E
100
AcDbEntity
  8
STEMPEL
100
AcDbLine
 10
54.50000000000025
 20
255.2140879710095
 30
0.0
 11
170.5000000000002
 21
255.2140879710115
 31
0.0
  0
LINE
  5
1524
330
1E
100
AcDbEntity
  8
STEMPEL
100
AcDbLine
 10
60.7204175145001
 20
241.7140879710115
 30
0.0
 11
164.2795824855004
 21
241.7140879710115
 31
0.0
  0
LINE
  5
1527
330
1E
100
AcDbEntity
  8
STEMPEL
100
AcDbLine
 10
46.00000000000025
 20
260.7140879710115
 30
0.0
 11
179.0000000000002
 21
260.7140879710115
 31
0.0
  0
LINE
  5
152A
330
1E
100
AcDbEntity
  8
STEMPEL
100
AcDbLine
 10
54.50000000000025
 20
255.2140879710115
 30
0.0
 11
54.50000000000025
 21
256.7140879710115
 31
0.0
  0
LINE
  5
152B
330
1E
100
AcDbEntity
  8
STEMPEL
100
AcDbLine
 10
170.5000000000002
 20
255.2140879710115
 30
0.0
 11
170.5000000000002
 21
256.7140879710116
 31
0.0
  0
LINE
  5
152C
330
1E
100
AcDbEntity
  8
STEMPEL
100
AcDbLine
 10
46.00000000000025
 20
256.7140879710115
 30
0.0
 11
46.00000000000025
 21
260.7140879710115
 31
0.0
  0
LINE
  5
152D
330
1E
100
AcDbEntity
  8
STEMPEL
100
AcDbLine
 10
179.0000000000003
 20
256.7140879710115
 30
0.0
 11
179.0000000000002
 21
260.7140879710115
 31
0.0
  0
LINE
  5
152F
330
1E
100
AcDbEntity
  8
MITTEL
100
AcDbLine
 10
112.5000000000002
 20
218.3068568564541
 30
0.0
 11
112.5000000000002
 21
75.3068568564542
 31
0.0
  0
LINE
  5
1530
330
1E
100
AcDbEntity
  8
MITTEL
100
AcDbLine
 10
41.00000000000025
 20
146.8068568564541
 30
0.0
 11
184.0000000000001
 21
146.8068568564541
 31
0.0
  0
CIRCLE
  5
1531
330
1E
100
AcDbEntity
  8
STEMPEL
100
AcDbCircle
 10
112.5000000000002
 20
146.8068568564541
 30
0.0
 40
66.5
  0
DIMENSION
  5
1533
330
1E
100
AcDbEntity
  8
BEM
100
AcDbDimension
  2
*D2
 10
179.0000000000002
 20
68.15410478185675
 30
0.0
 11
112.5000000000002
 21
71.40410478185675
 31
0.0
 70
    32
 71
     5
 42
133.0
  3
Standard
100
AcDbAlignedDimension
 13
46.0000000000002
 23
146.8068568564541
 33
0.0
 14
179.0000000000002
 24
146.8068568564541
 34
0.0
100
AcDbRotatedDimension
1001
ACAD
1000
DSTYLE
1002
{
1070
    41
1040
3.5
1070
    42
1040
1.0
1070
    43
1040
7.0
1070
    44
1040
1.0
1070
    73
1070
     0
1070
    74
1070
     0
1070
    77
1070
     1
1070
    78
1070
     8
1070
    79
1070
     2
1070
   140
1040
3.5
1070
   141
1040
1.5
1070
   146
1040
0.5142857142857144
1070
   147
1040
1.5
1070
   172
1070
     1
1070
   178
1070
     1
1070
   179
1070
     2
1070
   271
1070
     2
1070
   272
1070
     2
1070
   284
1070
     8
1070
   285
1070
     8
1070
   286
1070
     8
1002
}
  0
LINE
  5
1540
330
1E
100
AcDbEntity
  8
STEMPEL
100
AcDbLine
 10
59.5000000000002
 20
235.532667346411
 30
0.0
 11
165.5000000000002
 21
235.532667346411
 31
0.0
  0
ENDSEC
  0
SECTION
  2
OBJECTS
  0
DICTIONARY
  5
C
330
0
100
AcDbDictionary
281
     1
  3
ACAD_COLOR
350
11A
  3
ACAD_GROUP
350
D
  3
ACAD_LAYOUT
350
19
  3
ACAD_MATERIAL
350
119
  3
ACAD_MLINESTYLE
350
16
  3
ACAD_PLOTSETTINGS
350
18
  3
ACAD_PLOTSTYLENAME
350
E
  3
AcDbVariableDictionary
350
125
  0
DICTIONARY
  5
DB
330
1E
100
AcDbDictionary
280
     1
281
     1
  3
ACAD_LAYOUTSELFREF
360
10F
  0
DICTIONARY
  5
DD
330
1A
100
AcDbDictionary
280
     1
281
     1
  3
ACAD_LAYOUTSELFREF
360
10E
  0
DICTIONARY
  5
11A
102
{ACAD_REACTORS
330
C
102
}
330
C
100
AcDbDictionary
281
     1
  0
DICTIONARY
  5
D
102
{ACAD_REACTORS
330
C
102
}
330
C
100
AcDbDictionary
281
     1
  0
DICTIONARY
  5
19
102
{ACAD_REACTORS
330
C
102
}
330
C
100
AcDbDictionary
281
     1
  3
Layout1
350
1D
  3
Model
350
21
  0
DICTIONARY
  5
119
102
{ACAD_REACTORS
330
C
102
}
330
C
100
AcDbDictionary
281
     1
  0
DICTIONARY
  5
16
102
{ACAD_REACTORS
330
C
102
}
330
C
100
AcDbDictionary
281
     1
  3
Standard
350
17
  0
DICTIONARY
  5
18
102
{ACAD_REACTORS
330
C
102
}
330
C
100
AcDbDictionary
281
     1
  0
ACDBDICTIONARYWDFLT
  5
E
102
{ACAD_REACTORS
330
C
102
}
330
C
100
AcDbDictionary
281
     1
  3
Normal
350
F
100
AcDbDictionaryWithDefault
340
F
  0
DICTIONARY
  5
125
102
{ACAD_REACTORS
330
C
102
}
330
C
100
AcDbDictionary
281
     1
  3
DIMASSOC
350
126
  3
PROJECTNAME
350
127
  0
XRECORD
  5
10F
102
{ACAD_REACTORS
330
DB
102
}
330
DB
100
AcDbXrecord
280
     1
340
1E
  0
XRECORD
  5
10E
102
{ACAD_REACTORS
330
DD
102
}
330
DD
100
AcDbXrecord
280
     1
340
1A
  0
LAYOUT
  5
1D
102
{ACAD_REACTORS
330
19
102
}
330
19
100
AcDbPlotSettings
  1

  2
\\NT_WORK01\HP LaserJet 5000 PCL 6
  4

  6

 40
0.0
 41
0.0
 42
0.0
 43
0.0
 44
0.0
 45
0.0
 46
0.0
 47
0.0
 48
0.0
 49
0.0
140
0.0
141
0.0
142
1.0
143
1.0
 70
   688
 72
     0
 73
     0
 74
     5
  7

 75
    16
147
1.0
 76
     0
 77
     2
 78
   300
148
0.0
149
0.0
100
AcDbLayout
  1
Layout1
 70
     0
 71
     1
 10
0.0
 20
0.0
 11
12.0
 21
9.0
 12
0.0
 22
0.0
 32
0.0
 14
1.000000000000000E+20
 24
1.000000000000000E+20
 34
1.000000000000000E+20
 15
-1.000000000000000E+20
 25
-1.000000000000000E+20
 35
-1.000000000000000E+20
146
0.0
 13
0.0
 23
0.0
 33
0.0
 16
1.0
 26
0.0
 36
0.0
 17
0.0
 27
1.0
 37
0.0
 76
     0
330
1A
  0
LAYOUT
  5
21
102
{ACAD_REACTORS
330
19
102
}
330
19
100
AcDbPlotSettings
  1

  2
none_device
  4
Letter_(8.50_x_11.00_Inches)
  6

 40
6.349999904632568
 41
6.349999904632568
 42
6.350006103515625
 43
6.350006103515625
 44
215.8999938964844
 45
279.3999938964844
 46
0.0
 47
0.0
 48
0.0
 49
0.0
140
0.0
141
0.0
142
1.0
143
1.0
 70
 11952
 72
     0
 73
     1
 74
     0
  7

 75
     0
147
1.0
 76
     0
 77
     2
 78
   300
148
1104.899999999999
149
0.0
100
AcDbLayout
  1
Model
 70
     1
 71
     0
 10
0.0
 20
0.0
 11
12.0
 21
9.0
 12
0.0
 22
0.0
 32
0.0
 14
0.0
 24
0.0
 34
0.0
 15
0.0
 25
0.0
 35
0.0
146
0.0
 13
0.0
 23
0.0
 33
0.0
 16
1.0
 26
0.0
 36
0.0
 17
0.0
 27
1.0
 37
0.0
 76
     0
330
1E
  0
MLINESTYLE
  5
17
102
{ACAD_REACTORS
330
16
102
}
330
16
100
AcDbMlineStyle
  2
STANDARD
 70
     0
  3

 62
   256
 51
90.0
 52
90.0
 71
     2
 49
0.5
 62
   256
  6
BYLAYER
 49
-0.5
 62
   256
  6
BYLAYER
  0
ACDBPLACEHOLDER
  5
F
102
{ACAD_REACTORS
330
E
102
}
330
E
  0
DICTIONARYVAR
  5
126
102
{ACAD_REACTORS
330
125
102
}
330
125
100
DictionaryVariables
280
     0
  1
1
  0
DICTIONARYVAR
  5
127
102
{ACAD_REACTORS
330
125
102
}
330
125
100
DictionaryVariables
280
     0
  1

  0
ENDSEC
  0
EOF
