  0
SECTION
  2
HEADER
  9
$ACADVER
  1
AC1018
  9
$ACADMAINTVER
 70
     2
  9
$DWGCODEPAGE
  3
ANSI_1252
  9
$INSBASE
 10
0.0
 20
0.0
 30
0.0
  9
$EXTMIN
 10
-0.0512417568238561
 20
-0.0724704846525128
 30
-0.0000000000000053
  9
$EXTMAX
 10
840.0512867427478
 20
1188.072534107599
 30
0.0000000000000099
  9
$LIMMIN
 10
0.0
 20
0.0
  9
$LIMMAX
 10
840.0000000000003
 20
1187.999999999999
  9
$ORTHOMODE
 70
     1
  9
$REGENMODE
 70
     1
  9
$FILLMODE
 70
     1
  9
$QTEXTMODE
 70
     0
  9
$MIRRTEXT
 70
     1
  9
$LTSCALE
 40
30.0
  9
$ATTMODE
 70
     1
  9
$TEXTSIZE
 40
3.5
  9
$TRACEWID
 40
0.6248711305964321
  9
$TEXTSTYLE
  7
STANDARD
  9
$CLAYER
  8
SCHRAFF
  9
$CELTYPE
  6
ByLayer
  9
$CECOLOR
 62
   256
  9
$CELTSCALE
 40
1.0
  9
$DISPSILH
 70
     0
  9
$DIMSCALE
 40
2.0
  9
$DIMASZ
 40
3.5
  9
$DIMEXO
 40
1.0
  9
$DIMDLI
 40
8.0
  9
$DIMRND
 40
0.0
  9
$DIMDLE
 40
0.0
  9
$DIMEXE
 40
1.0
  9
$DIMTP
 40
0.0
  9
$DIMTM
 40
0.0
  9
$DIMTXT
 40
3.5
  9
$DIMCEN
 40
1.5
  9
$DIMTSZ
 40
0.0
  9
$DIMTOL
 70
     0
  9
$DIMLIM
 70
     0
  9
$DIMTIH
 70
     0
  9
$DIMTOH
 70
     0
  9
$DIMSE1
 70
     0
  9
$DIMSE2
 70
     0
  9
$DIMTAD
 70
     1
  9
$DIMZIN
 70
     8
  9
$DIMBLK
  1

  9
$DIMASO
 70
     1
  9
$DIMSHO
 70
     0
  9
$DIMPOST
  1

  9
$DIMAPOST
  1

  9
$DIMALT
 70
     0
  9
$DIMALTD
 70
     2
  9
$DIMALTF
 40
25.4
  9
$DIMLFAC
 40
1.0
  9
$DIMTOFL
 70
     1
  9
$DIMTVP
 40
0.0
  9
$DIMTIX
 70
     0
  9
$DIMSOXD
 70
     0
  9
$DIMSAH
 70
     0
  9
$DIMBLK1
  1

  9
$DIMBLK2
  1

  9
$DIMSTYLE
  2
STANDARD
  9
$DIMCLRD
 70
     0
  9
$DIMCLRE
 70
     0
  9
$DIMCLRT
 70
     1
  9
$DIMTFAC
 40
1.0
  9
$DIMGAP
 40
1.5
  9
$DIMJUST
 70
     0
  9
$DIMSD1
 70
     0
  9
$DIMSD2
 70
     0
  9
$DIMTOLJ
 70
     1
  9
$DIMTZIN
 70
     8
  9
$DIMALTZ
 70
     8
  9
$DIMALTTZ
 70
     8
  9
$DIMUPT
 70
     0
  9
$DIMDEC
 70
     0
  9
$DIMTDEC
 70
     0
  9
$DIMALTU
 70
     2
  9
$DIMALTTD
 70
     2
  9
$DIMTXSTY
  7
STANDARD
  9
$DIMAUNIT
 70
     0
  9
$DIMADEC
 70
     2
  9
$DIMALTRND
 40
0.0
  9
$DIMAZIN
 70
     2
  9
$DIMDSEP
 70
    46
  9
$DIMATFIT
 70
     3
  9
$DIMFRAC
 70
     0
  9
$DIMLDRBLK
  1

  9
$DIMLUNIT
 70
     2
  9
$DIMLWD
 70
    -2
  9
$DIMLWE
 70
    -2
  9
$DIMTMOVE
 70
     0
  9
$LUNITS
 70
     2
  9
$LUPREC
 70
     2
  9
$SKETCHINC
 40
1.0
  9
$FILLETRAD
 40
0.0
  9
$AUNITS
 70
     0
  9
$AUPREC
 70
     0
  9
$MENU
  1
ACAD
  9
$ELEVATION
 40
0.0
  9
$PELEVATION
 40
0.0
  9
$THICKNESS
 40
0.0
  9
$LIMCHECK
 70
     0
  9
$CHAMFERA
 40
0.0
  9
$CHAMFERB
 40
0.0
  9
$CHAMFERC
 40
0.0
  9
$CHAMFERD
 40
0.0
  9
$SKPOLY
 70
     0
  9
$TDCREATE
 40
2451883.437877870
  9
$TDUCREATE
 40
2451883.396211204
  9
$TDUPDATE
 40
2455607.367052373
  9
$TDUUPDATE
 40
2455607.325385706
  9
$TDINDWG
 40
0.1843638657
  9
$TDUSRTIMER
 40
0.1843638657
  9
$USRTIMER
 70
     1
  9
$ANGBASE
 50
0.0
  9
$ANGDIR
 70
     0
  9
$PDMODE
 70
     0
  9
$PDSIZE
 40
0.0
  9
$PLINEWID
 40
0.0
  9
$SPLFRAME
 70
     0
  9
$SPLINETYPE
 70
     6
  9
$SPLINESEGS
 70
     8
  9
$HANDSEED
  5
4943
  9
$SURFTAB1
 70
     6
  9
$SURFTAB2
 70
     6
  9
$SURFTYPE
 70
     6
  9
$SURFU
 70
     6
  9
$SURFV
 70
     6
  9
$UCSBASE
  2

  9
$UCSNAME
  2

  9
$UCSORG
 10
0.0
 20
0.0
 30
0.0
  9
$UCSXDIR
 10
1.0
 20
0.0
 30
0.0
  9
$UCSYDIR
 10
0.0
 20
1.0
 30
0.0
  9
$UCSORTHOREF
  2

  9
$UCSORTHOVIEW
 70
     0
  9
$UCSORGTOP
 10
0.0
 20
0.0
 30
0.0
  9
$UCSORGBOTTOM
 10
0.0
 20
0.0
 30
0.0
  9
$UCSORGLEFT
 10
0.0
 20
0.0
 30
0.0
  9
$UCSORGRIGHT
 10
0.0
 20
0.0
 30
0.0
  9
$UCSORGFRONT
 10
0.0
 20
0.0
 30
0.0
  9
$UCSORGBACK
 10
0.0
 20
0.0
 30
0.0
  9
$PUCSBASE
  2

  9
$PUCSNAME
  2

  9
$PUCSORG
 10
0.0
 20
0.0
 30
0.0
  9
$PUCSXDIR
 10
1.0
 20
0.0
 30
0.0
  9
$PUCSYDIR
 10
0.0
 20
1.0
 30
0.0
  9
$PUCSORTHOREF
  2

  9
$PUCSORTHOVIEW
 70
     0
  9
$PUCSORGTOP
 10
0.0
 20
0.0
 30
0.0
  9
$PUCSORGBOTTOM
 10
0.0
 20
0.0
 30
0.0
  9
$PUCSORGLEFT
 10
0.0
 20
0.0
 30
0.0
  9
$PUCSORGRIGHT
 10
0.0
 20
0.0
 30
0.0
  9
$PUCSORGFRONT
 10
0.0
 20
0.0
 30
0.0
  9
$PUCSORGBACK
 10
0.0
 20
0.0
 30
0.0
  9
$USERI1
 70
     0
  9
$USERI2
 70
     0
  9
$USERI3
 70
     0
  9
$USERI4
 70
     0
  9
$USERI5
 70
     0
  9
$USERR1
 40
0.0
  9
$USERR2
 40
0.0
  9
$USERR3
 40
0.0
  9
$USERR4
 40
0.0
  9
$USERR5
 40
0.0
  9
$WORLDVIEW
 70
     1
  9
$SHADEDGE
 70
     3
  9
$SHADEDIF
 70
    70
  9
$TILEMODE
 70
     1
  9
$MAXACTVP
 70
    16
  9
$PINSBASE
 10
0.0
 20
0.0
 30
0.0
  9
$PLIMCHECK
 70
     0
  9
$PEXTMIN
 10
1.000000000000000E+20
 20
1.000000000000000E+20
 30
1.000000000000000E+20
  9
$PEXTMAX
 10
-1.000000000000000E+20
 20
-1.000000000000000E+20
 30
-1.000000000000000E+20
  9
$PLIMMIN
 10
0.0
 20
0.0
  9
$PLIMMAX
 10
12.0
 20
9.0
  9
$UNITMODE
 70
     0
  9
$VISRETAIN
 70
     0
  9
$PLINEGEN
 70
     0
  9
$PSLTSCALE
 70
     0
  9
$TREEDEPTH
 70
  3020
  9
$CMLSTYLE
  2
Standard
  9
$CMLJUST
 70
     0
  9
$CMLSCALE
 40
1.0
  9
$PROXYGRAPHICS
 70
     1
  9
$MEASUREMENT
 70
     0
  9
$CELWEIGHT
370
    -1
  9
$ENDCAPS
280
     0
  9
$JOINSTYLE
280
     0
  9
$LWDISPLAY
290
     0
  9
$INSUNITS
 70
     0
  9
$HYPERLINKBASE
  1

  9
$STYLESHEET
  1
monochrome1.ctb
  9
$XEDIT
290
     1
  9
$CEPSNTYPE
380
     0
  9
$PSTYLEMODE
290
     1
  9
$FINGERPRINTGUID
  2
{0625CA4B-803A-4F4E-A8AC-A16916C9E107}
  9
$VERSIONGUID
  2
{0B2510BD-2D15-4F28-B47A-71CBB57C7CD9}
  9
$EXTNAMES
290
     1
  9
$PSVPSCALE
 40
0.0
  9
$OLESTARTUP
290
     0
  9
$SORTENTS
280
   127
  9
$INDEXCTL
280
     0
  9
$HIDETEXT
280
     1
  9
$XCLIPFRAME
290
     0
  9
$HALOGAP
280
     0
  9
$OBSCOLOR
 70
   257
  9
$OBSLTYPE
280
     0
  9
$INTERSECTIONDISPLAY
280
     0
  9
$INTERSECTIONCOLOR
 70
   257
  9
$DIMASSOC
280
     2
  9
$PROJECTNAME
  1

  0
ENDSEC
  0
SECTION
  2
CLASSES
  0
CLASS
  1
ACDBDICTIONARYWDFLT
  2
AcDbDictionaryWithDefault
  3
ObjectDBX Classes
 90
        0
 91
        1
280
     0
281
     0
  0
CLASS
  1
DICTIONARYVAR
  2
AcDbDictionaryVar
  3
ObjectDBX Classes
 90
        0
 91
        3
280
     0
281
     0
  0
CLASS
  1
DIMASSOC
  2
AcDbDimAssoc
  3
"AcDbDimAssoc|Product Desc:     AcDim ARX App For Dimension|Company:          Autodesk, Inc.|WEB Address:      www.autodesk.com"
 90
        0
 91
        0
280
     0
281
     0
  0
ENDSEC
  0
SECTION
  2
TABLES
  0
TABLE
  2
VPORT
  5
40F6
330
0
100
AcDbSymbolTable
 70
     2
  0
VPORT
  5
4942
330
40F6
100
AcDbSymbolTableRecord
100
AcDbViewportTableRecord
  2
*Active
 70
     0
 10
0.0
 20
0.0
 11
1.0
 21
1.0
 12
420.000022492962
 22
594.0000318114734
 13
0.0
 23
0.0
 14
1.0
 24
1.0
 15
10.0
 25
10.0
 16
0.0
 26
0.0
 36
1.0
 17
0.0
 27
0.0
 37
0.0
 40
1197.739715261907
 41
1.336927223719676
 42
50.0
 43
0.0
 44
0.0
 50
0.0
 51
0.0
 71
     0
 72
  5000
 73
     1
 74
     0
 75
     0
 76
     0
 77
     0
 78
     0
281
     0
 65
     1
110
0.0
120
0.0
130
0.0
111
1.0
121
0.0
131
0.0
112
0.0
122
1.0
132
0.0
 79
     0
146
0.0
  0
ENDTAB
  0
TABLE
  2
LTYPE
  5
40F3
330
0
100
AcDbSymbolTable
 70
     4
  0
LTYPE
  5
4101
330
40F3
100
AcDbSymbolTableRecord
100
AcDbLinetypeTableRecord
  2
ByBlock
 70
     0
  3

 72
    65
 73
     0
 40
0.0
  0
LTYPE
  5
4102
330
40F3
100
AcDbSymbolTableRecord
100
AcDbLinetypeTableRecord
  2
ByLayer
 70
     0
  3

 72
    65
 73
     0
 40
0.0
  0
LTYPE
  5
4103
330
40F3
100
AcDbSymbolTableRecord
100
AcDbLinetypeTableRecord
  2
AUSGEZOGEN
 70
     0
  3
Ausgezogene Linie
 72
    65
 73
     0
 40
0.0
  0
LTYPE
  5
413B
330
40F3
100
AcDbSymbolTableRecord
100
AcDbLinetypeTableRecord
  2
STRICHPUNKT
 70
     0
  3
__ . __ . __ . __ . __ . __ . __ . __ . __ . __
 72
    65
 73
     4
 40
1.0
 49
0.5
 74
     0
 49
-0.25
 74
     0
 49
0.0
 74
     0
 49
-0.25
 74
     0
  0
LTYPE
  5
413C
330
40F3
100
AcDbSymbolTableRecord
100
AcDbLinetypeTableRecord
  2
VERDECKT
 70
     0
  3
__ __ __ __ __ __ __ __ __ __ __ __ __ __ __ __
 72
    65
 73
     2
 40
0.375
 49
0.25
 74
     0
 49
-0.125
 74
     0
  0
LTYPE
  5
413D
330
40F3
100
AcDbSymbolTableRecord
100
AcDbLinetypeTableRecord
  2
CONTINUOUS
 70
     0
  3
Solid line
 72
    65
 73
     0
 40
0.0
  0
ENDTAB
  0
TABLE
  2
LAYER
  5
40F0
330
0
100
AcDbSymbolTable
 70
    10
  0
LAYER
  5
40FE
330
40F0
100
AcDbSymbolTableRecord
100
AcDbLayerTableRecord
  2
0
 70
     0
 62
     7
  6
AUSGEZOGEN
370
    -3
390
40FD
  0
LAYER
  5
4140
330
40F0
100
AcDbSymbolTableRecord
100
AcDbLayerTableRecord
  2
HILF
 70
     0
 62
     2
  6
AUSGEZOGEN
370
    -3
390
40FD
  0
LAYER
  5
4141
330
40F0
100
AcDbSymbolTableRecord
100
AcDbLayerTableRecord
  2
BEM
 70
     0
 62
     7
  6
AUSGEZOGEN
370
    -3
390
40FD
  0
LAYER
  5
4142
330
40F0
100
AcDbSymbolTableRecord
100
AcDbLayerTableRecord
  2
STEMPEL
 70
     0
 62
     3
  6
AUSGEZOGEN
370
    -3
390
40FD
  0
LAYER
  5
4143
330
40F0
100
AcDbSymbolTableRecord
100
AcDbLayerTableRecord
  2
VOLL
 70
     0
 62
     1
  6
AUSGEZOGEN
370
    -3
390
40FD
  0
LAYER
  5
4144
330
40F0
100
AcDbSymbolTableRecord
100
AcDbLayerTableRecord
  2
MITTEL
 70
     0
 62
     2
  6
STRICHPUNKT
370
    -3
390
40FD
  0
LAYER
  5
4145
330
40F0
100
AcDbSymbolTableRecord
100
AcDbLayerTableRecord
  2
VERDECKT
 70
     0
 62
     6
  6
VERDECKT
370
    -3
390
40FD
  0
LAYER
  5
4146
330
40F0
100
AcDbSymbolTableRecord
100
AcDbLayerTableRecord
  2
TEXT
 70
     0
 62
     7
  6
AUSGEZOGEN
370
    -3
390
40FD
  0
LAYER
  5
4147
330
40F0
100
AcDbSymbolTableRecord
100
AcDbLayerTableRecord
  2
DEFPOINTS
 70
     0
 62
     7
  6
AUSGEZOGEN
290
     0
370
    -3
390
40FD
  0
LAYER
  5
4148
330
40F0
100
AcDbSymbolTableRecord
100
AcDbLayerTableRecord
  2
SCHRAFF
 70
     0
 62
     7
  6
AUSGEZOGEN
370
    -3
390
40FD
  0
ENDTAB
  0
TABLE
  2
STYLE
  5
40F1
330
0
100
AcDbSymbolTable
 70
     2
  0
STYLE
  5
40FF
330
40F1
100
AcDbSymbolTableRecord
100
AcDbTextStyleTableRecord
  2
STANDARD
 70
     0
 40
0.0
 41
0.8
 50
0.0
 71
     0
 42
3.5
  3
SIMPLEX.shx
  4

  0
STYLE
  5
4139
330
40F1
100
AcDbSymbolTableRecord
100
AcDbTextStyleTableRecord
  2
GREEKS
 70
     0
 40
0.0
 41
0.8
 50
0.0
 71
     0
 42
3.5
  3
simplex
  4

  0
ENDTAB
  0
TABLE
  2
VIEW
  5
40F4
330
0
100
AcDbSymbolTable
 70
     0
  0
ENDTAB
  0
TABLE
  2
UCS
  5
40F5
330
0
100
AcDbSymbolTable
 70
     0
  0
ENDTAB
  0
TABLE
  2
APPID
  5
40F7
330
0
100
AcDbSymbolTable
 70
     1
  0
APPID
  5
4100
330
40F7
100
AcDbSymbolTableRecord
100
AcDbRegAppTableRecord
  2
ACAD
 70
     0
  0
ENDTAB
  0
TABLE
  2
DIMSTYLE
  5
40F8
330
0
100
AcDbSymbolTable
 70
     1
100
AcDbDimStyleTable
 71
     1
340
413F
  0
DIMSTYLE
105
413F
102
{ACAD_REACTORS
330
D3B
330
3C49
330
D38
330
D94
330
44F7
102
}
330
40F8
100
AcDbSymbolTableRecord
100
AcDbDimStyleTableRecord
  2
STANDARD
 70
     0
271
     2
272
     2
279
     2
284
     8
285
     8
286
     8
340
40FF
  0
ENDTAB
  0
TABLE
  2
BLOCK_RECORD
  5
40EF
330
0
100
AcDbSymbolTable
 70
     8
  0
BLOCK_RECORD
  5
410E
330
40EF
100
AcDbSymbolTableRecord
100
AcDbBlockTableRecord
  2
*Model_Space
340
4111
  0
BLOCK_RECORD
  5
410A
330
40EF
100
AcDbSymbolTableRecord
100
AcDbBlockTableRecord
  2
*Paper_Space
340
410D
  0
BLOCK_RECORD
  5
4112
330
40EF
100
AcDbSymbolTableRecord
100
AcDbBlockTableRecord
  2
*X0
340
0
102
{BLKREFS
331
CDD
331
CDE
102
}
  0
BLOCK_RECORD
  5
4123
330
40EF
100
AcDbSymbolTableRecord
100
AcDbBlockTableRecord
  2
*X1
340
0
102
{BLKREFS
331
D97
331
D98
102
}
  0
BLOCK_RECORD
  5
4129
330
40EF
100
AcDbSymbolTableRecord
100
AcDbBlockTableRecord
  2
LOGO
340
0
102
{BLKREFS
331
3803
102
}
  0
BLOCK_RECORD
  5
41A9
330
40EF
100
AcDbSymbolTableRecord
100
AcDbBlockTableRecord
  2
*D3
340
0
  0
BLOCK_RECORD
  5
41C1
330
40EF
100
AcDbSymbolTableRecord
100
AcDbBlockTableRecord
  2
*D4
340
0
  0
BLOCK_RECORD
  5
41CD
330
40EF
100
AcDbSymbolTableRecord
100
AcDbBlockTableRecord
  2
*D5
340
0
  0
BLOCK_RECORD
  5
41D9
330
40EF
100
AcDbSymbolTableRecord
100
AcDbBlockTableRecord
  2
*D6
340
0
  0
BLOCK_RECORD
  5
44F8
330
40EF
100
AcDbSymbolTableRecord
100
AcDbBlockTableRecord
  2
*D7
340
0
  0
ENDTAB
  0
ENDSEC
  0
SECTION
  2
BLOCKS
  0
BLOCK
  5
414B
330
410E
100
AcDbEntity
  8
0
100
AcDbBlockBegin
  2
*Model_Space
 70
     0
 10
0.0
 20
0.0
 30
0.0
  3
*Model_Space
  1

  0
ENDBLK
  5
414C
330
410E
100
AcDbEntity
  8
0
100
AcDbBlockEnd
  0
BLOCK
  5
4149
330
410A
100
AcDbEntity
 67
     1
  8
0
100
AcDbBlockBegin
  2
*Paper_Space
 70
     0
 10
0.0
 20
0.0
 30
0.0
  3
*Paper_Space
  1

  0
ENDBLK
  5
414A
330
410A
100
AcDbEntity
 67
     1
  8
0
100
AcDbBlockEnd
  0
BLOCK
  5
10A
330
4112
100
AcDbEntity
  8
0
100
AcDbBlockBegin
  2
*X0
 70
     1
 10
0.0
 20
0.0
 30
0.0
  3
*X0
  1

  0
LINE
  5
10B
330
4112
100
AcDbEntity
  8
0
 62
     0
100
AcDbLine
 10
183.8270075238051
 20
202.388560529952
 30
0.0
 11
184.8182112182305
 21
203.3797642243774
 31
0.0
  0
LINE
  5
10C
330
4112
100
AcDbEntity
  8
0
 62
     0
100
AcDbLine
 10
183.73096653035
 20
202.4692962317936
 30
0.0
 11
184.7216101686831
 21
203.4599398701267
 31
0.0
  0
LINE
  5
10D
330
4112
100
AcDbEntity
  8
0
 62
     0
100
AcDbLine
 10
183.6394219484979
 20
202.554528345238
 30
0.0
 11
184.6251498673943
 21
203.5402562641345
 31
0.0
  0
LINE
  5
10E
330
4112
100
AcDbEntity
  8
0
 62
     0
100
AcDbLine
 10
183.5523494070241
 20
202.6442324990609
 30
0.0
 11
184.5288302534943
 21
203.6207133455311
 31
0.0
  0
LINE
  5
10F
330
4112
100
AcDbEntity
  8
0
 62
     0
100
AcDbLine
 10
183.4697590445567
 20
202.7384188318902
 30
0.0
 11
184.4326512672084
 21
203.7013110545419
 31
0.0
  0
LINE
  5
110
330
4112
100
AcDbEntity
  8
0
 62
     0
100
AcDbLine
 10
183.3916959040154
 20
202.8371323866454
 30
0.0
 11
184.3366128498548
 21
203.7820493324848
 31
0.0
  0
LINE
  5
111
330
4112
100
AcDbEntity
  8
0
 62
     0
100
AcDbLine
 10
183.3182417093937
 20
202.9404548873205
 30
0.0
 11
184.2407149438422
 21
203.8629281217689
 31
0.0
  0
LINE
  5
112
330
4112
100
AcDbEntity
  8
0
 62
     0
100
AcDbLine
 10
183.2495181918924
 20
203.0485080651158
 30
0.0
 11
184.1449574926676
 21
203.943947365891
 31
0.0
  0
LINE
  5
113
330
4112
100
AcDbEntity
  8
0
 62
     0
100
AcDbLine
 10
183.1856922920889
 20
203.1614588606089
 30
0.0
 11
184.0493404409146
 21
204.0251070094346
 31
0.0
  0
LINE
  5
114
330
4112
100
AcDbEntity
  8
0
 62
     0
100
AcDbLine
 10
183.1269837846039
 20
203.2795270484206
 30
0.0
 11
183.9538637342506
 21
204.1064069980672
 31
0.0
  0
LINE
  5
115
330
4112
100
AcDbEntity
  8
0
 62
     0
100
AcDbLine
 10
183.0736762008493
 20
203.4029961599626
 30
0.0
 11
183.8585273194251
 21
204.1878472785384
 31
0.0
  0
LINE
  5
116
330
4112
100
AcDbEntity
  8
0
 62
     0
100
AcDbLine
 10
183.0261324497398
 20
203.5322291041497
 30
0.0
 11
183.7633311442678
 21
204.2694277986777
 31
0.0
  0
LINE
  5
117
330
4112
100
AcDbEntity
  8
0
 62
     0
100
AcDbLine
 10
182.9848174154434
 20
203.66769076515
 30
0.0
 11
183.6682751576866
 21
204.3511485073931
 31
0.0
  0
LINE
  5
118
330
4112
100
AcDbEntity
  8
0
 62
     0
100
AcDbLine
 10
182.9503313600023
 20
203.8099814050054
 30
0.0
 11
183.5733593096652
 21
204.4330093546683
 31
0.0
  0
LINE
  5
119
330
4112
100
AcDbEntity
  8
0
 62
     0
100
AcDbLine
 10
182.9234608352533
 20
203.9598875755531
 30
0.0
 11
183.4785835512619
 21
204.5150102915616
 31
0.0
  0
LINE
  5
11A
330
4112
100
AcDbEntity
  8
0
 62
     0
100
AcDbLine
 10
182.9052594871268
 20
204.1184629227232
 30
0.0
 11
183.3839478346072
 21
204.5971512702036
 31
0.0
  0
LINE
  5
11B
330
4112
100
AcDbEntity
  8
0
 62
     0
100
AcDbLine
 10
182.8971831990632
 20
204.2871633299562
 30
0.0
 11
183.2894521129024
 21
204.6794322437955
 31
0.0
  0
LINE
  5
11C
330
4112
100
AcDbEntity
  8
0
 62
     0
100
AcDbLine
 10
182.9013321084016
 20
204.4680889345913
 30
0.0
 11
183.1950963404176
 21
204.7618531666073
 31
0.0
  0
LINE
  5
11D
330
4112
100
AcDbEntity
  8
0
 62
     0
100
AcDbLine
 10
182.920925690206
 20
204.6644592116924
 30
0.0
 11
183.1008804724899
 21
204.8444139939762
 31
0.0
  0
LINE
  5
11E
330
4112
100
AcDbEntity
  8
0
 62
     0
100
AcDbLine
 10
182.9613645079955
 20
204.8816747247785
 30
0.0
 11
183.006804465522
 21
204.927114682305
 31
0.0
  0
LINE
  5
11F
330
4112
100
AcDbEntity
  8
0
 62
     0
100
AcDbLine
 10
183.927604761493
 20
202.3123810723433
 30
0.0
 11
184.9149530780036
 21
203.2997293888539
 31
0.0
  0
LINE
  5
120
330
4112
100
AcDbEntity
  8
0
 62
     0
100
AcDbLine
 10
184.0328559231398
 20
202.2408555386934
 30
0.0
 11
185.0118358110695
 21
203.2198354266231
 31
0.0
  0
LINE
  5
121
330
4112
100
AcDbEntity
  8
0
 62
     0
100
AcDbLine
 10
184.1429005830677
 20
202.1741235033246
 30
0.0
 11
185.1088594815971
 21
203.1400824018541
 31
0.0
  0
LINE
  5
122
330
4112
100
AcDbEntity
  8
0
 62
     0
100
AcDbLine
 10
184.2579263270678
 20
202.1123725520282
 30
0.0
 11
185.2060241548604
 21
203.0604703798207
 31
0.0
  0
LINE
  5
123
330
4112
100
AcDbEntity
  8
0
 62
     0
100
AcDbLine
 10
184.3781776034611
 20
202.0558471331248
 30
0.0
 11
185.3033298972402
 21
202.9809994269039
 31
0.0
  0
LINE
  5
124
330
4112
100
AcDbEntity
  8
0
 62
     0
100
AcDbLine
 10
184.5039683691256
 20
202.0048612034927
 30
0.0
 11
185.4007767762271
 21
202.9016696105942
 31
0.0
  0
LINE
  5
125
330
4112
100
AcDbEntity
  8
0
 62
     0
100
AcDbLine
 10
184.666565021175
 20
201.9906811602454
 30
0.0
 11
185.4983648604239
 21
202.8224809994944
 31
0.0
  0
LINE
  5
126
330
4112
100
AcDbEntity
  8
0
 62
     0
100
AcDbLine
 10
184.8433417164716
 20
201.9906811602454
 30
0.0
 11
185.5960942195486
 21
202.7434336633224
 31
0.0
  0
LINE
  5
127
330
4112
100
AcDbEntity
  8
0
 62
     0
100
AcDbLine
 10
185.0201184117683
 20
201.9906811602454
 30
0.0
 11
185.6939649244363
 21
202.6645276729134
 31
0.0
  0
LINE
  5
128
330
4112
100
AcDbEntity
  8
0
 62
     0
100
AcDbLine
 10
185.1968951070649
 20
201.9906811602454
 30
0.0
 11
185.7919770470427
 21
202.5857631002232
 31
0.0
  0
LINE
  5
129
330
4112
100
AcDbEntity
  8
0
 62
     0
100
AcDbLine
 10
185.3736718023615
 20
201.9906811602454
 30
0.0
 11
185.8901306604466
 21
202.5071400183305
 31
0.0
  0
LINE
  5
12A
330
4112
100
AcDbEntity
  8
0
 62
     0
100
AcDbLine
 10
185.5504484976582
 20
201.9906811602454
 30
0.0
 11
185.9884258388526
 21
202.4286585014399
 31
0.0
  0
LINE
  5
12B
330
4112
100
AcDbEntity
  8
0
 62
     0
100
AcDbLine
 10
185.7272251929548
 20
201.9906811602454
 30
0.0
 11
186.086862657594
 21
202.3503186248847
 31
0.0
  0
LINE
  5
12C
330
4112
100
AcDbEntity
  8
0
 62
     0
100
AcDbLine
 10
185.9040018882515
 20
201.9906811602454
 30
0.0
 11
186.185441193136
 21
202.27212046513
 31
0.0
  0
LINE
  5
12D
330
4112
100
AcDbEntity
  8
0
 62
     0
100
AcDbLine
 10
186.0807785835481
 20
201.9906811602454
 30
0.0
 11
186.2841615230782
 21
202.1940640997756
 31
0.0
  0
LINE
  5
12E
330
4112
100
AcDbEntity
  8
0
 62
     0
100
AcDbLine
 10
186.2575552788447
 20
201.9906811602454
 30
0.0
 11
186.3830237261579
 21
202.1161496075587
 31
0.0
  0
LINE
  5
12F
330
4112
100
AcDbEntity
  8
0
 62
     0
100
AcDbLine
 10
186.4343319741413
 20
201.9906811602454
 30
0.0
 11
186.4820278822532
 21
202.0383770683573
 31
0.0
  0
ENDBLK
  5
130
330
4112
100
AcDbEntity
  8
0
100
AcDbBlockEnd
  0
BLOCK
  5
BE9
330
4123
100
AcDbEntity
  8
0
100
AcDbBlockBegin
  2
*X1
 70
     1
 10
0.0
 20
0.0
 30
0.0
  3
*X1
  1

  0
LINE
  5
BEA
330
4123
100
AcDbEntity
  8
0
 62
     0
100
AcDbLine
 10
193.6984090015439
 20
158.2639913340601
 30
0.0
 11
191.1116186759949
 21
160.8507816596091
 31
0.0
  0
LINE
  5
BEB
330
4123
100
AcDbEntity
  8
0
 62
     0
100
AcDbLine
 10
193.5078902804676
 20
158.2777333598397
 30
0.0
 11
191.0258731835815
 21
160.7597504567258
 31
0.0
  0
LINE
  5
BEC
330
4123
100
AcDbEntity
  8
0
 62
     0
100
AcDbLine
 10
193.3170005679391
 20
158.2918463770716
 30
0.0
 11
190.9431127524756
 21
160.6657341925351
 31
0.0
  0
LINE
  5
BED
330
4123
100
AcDbEntity
  8
0
 62
     0
100
AcDbLine
 10
193.1257375391297
 20
158.3063327105843
 30
0.0
 11
190.8633566969126
 21
160.5687135528015
 31
0.0
  0
LINE
  5
BEE
330
4123
100
AcDbEntity
  8
0
 62
     0
100
AcDbLine
 10
192.9340988411717
 20
158.3211947132457
 30
0.0
 11
190.7866349672589
 21
160.4686585871585
 31
0.0
  0
LINE
  5
BEF
330
4123
100
AcDbEntity
  8
0
 62
     0
100
AcDbLine
 10
192.7420820926819
 20
158.3364347664388
 30
0.0
 11
190.7129886784547
 21
160.365528180666
 31
0.0
  0
LINE
  5
BF0
330
4123
100
AcDbEntity
  8
0
 62
     0
100
AcDbLine
 10
192.5496848832766
 20
158.3520552805475
 30
0.0
 11
190.6424708544469
 21
160.2592693093771
 31
0.0
  0
LINE
  5
BF1
330
4123
100
AcDbEntity
  8
0
 62
     0
100
AcDbLine
 10
192.356904773074
 20
158.3680586954534
 30
0.0
 11
190.5751474209889
 21
160.1498160475385
 31
0.0
  0
LINE
  5
BF2
330
4123
100
AcDbEntity
  8
0
 62
     0
100
AcDbLine
 10
192.1637392921871
 20
158.3844474810437
 30
0.0
 11
190.511098491991
 21
160.0370882812399
 31
0.0
  0
LINE
  5
BF3
330
4123
100
AcDbEntity
  8
0
 62
     0
100
AcDbLine
 10
191.9701859402041
 20
158.40122413773
 30
0.0
 11
190.4504200112746
 21
159.9209900666596
 31
0.0
  0
LINE
  5
BF4
330
4123
100
AcDbEntity
  8
0
 62
     0
100
AcDbLine
 10
191.7762421856579
 20
158.4183911969796
 30
0.0
 11
190.3932258338881
 21
159.8014075487495
 31
0.0
  0
LINE
  5
BF5
330
4123
100
AcDbEntity
  8
0
 62
     0
100
AcDbLine
 10
191.5819054654832
 20
158.4359512218577
 30
0.0
 11
190.3396503617146
 21
159.6782063256263
 31
0.0
  0
LINE
  5
BF6
330
4123
100
AcDbEntity
  8
0
 62
     0
100
AcDbLine
 10
191.3871731844614
 20
158.4539068075829
 30
0.0
 11
190.2898518909291
 21
159.5512281011152
 31
0.0
  0
LINE
  5
BF7
330
4123
100
AcDbEntity
  8
0
 62
     0
100
AcDbLine
 10
191.1920427146527
 20
158.4722605820949
 30
0.0
 11
190.2440168901055
 21
159.4202864066422
 31
0.0
  0
LINE
  5
BF8
330
4123
100
AcDbEntity
  8
0
 62
     0
100
AcDbLine
 10
190.9965113948156
 20
158.4910152066354
 30
0.0
 11
190.2023655172462
 21
159.2851610842048
 31
0.0
  0
LINE
  5
BF9
330
4123
100
AcDbEntity
  8
0
 62
     0
100
AcDbLine
 10
190.8005765298123
 20
158.5101733763421
 30
0.0
 11
190.1651588176638
 21
159.1455910884906
 31
0.0
  0
LINE
  5
BFA
330
4123
100
AcDbEntity
  8
0
 62
     0
100
AcDbLine
 10
190.6042353900011
 20
158.5297378208567
 30
0.0
 11
190.1327082492296
 21
159.0012649616282
 31
0.0
  0
LINE
  5
BFB
330
4123
100
AcDbEntity
  8
0
 62
     0
100
AcDbLine
 10
190.407485210614
 20
158.5497113049471
 30
0.0
 11
190.1053885032314
 21
158.8518080123297
 31
0.0
  0
LINE
  5
BFC
330
4123
100
AcDbEntity
  8
0
 62
     0
100
AcDbLine
 10
190.2103231911204
 20
158.570096629144
 30
0.0
 11
190.0836551106047
 21
158.6967647096597
 31
0.0
  0
LINE
  5
BFD
330
4123
100
AcDbEntity
  8
0
 62
     0
100
AcDbLine
 10
193.7722304734269
 20
158.3669465574737
 30
0.0
 11
191.2003402169819
 21
160.9388368139187
 31
0.0
  0
LINE
  5
BFE
330
4123
100
AcDbEntity
  8
0
 62
     0
100
AcDbLine
 10
193.7722304734269
 20
158.5437232527703
 30
0.0
 11
191.2920389408042
 21
161.023914785393
 31
0.0
  0
LINE
  5
BFF
330
4123
100
AcDbEntity
  8
0
 62
     0
100
AcDbLine
 10
193.7722304734269
 20
158.720499948067
 30
0.0
 11
191.386726148106
 21
161.1060042733878
 31
0.0
  0
LINE
  5
C00
330
4123
100
AcDbEntity
  8
0
 62
     0
100
AcDbLine
 10
193.7722304734269
 20
158.8972766433636
 30
0.0
 11
191.484423499974
 21
161.1850836168165
 31
0.0
  0
LINE
  5
C01
330
4123
100
AcDbEntity
  8
0
 62
     0
100
AcDbLine
 10
193.7722304734269
 20
159.0740533386602
 30
0.0
 11
191.5851633945105
 21
161.2611204175766
 31
0.0
  0
LINE
  5
C02
330
4123
100
AcDbEntity
  8
0
 62
     0
100
AcDbLine
 10
193.7722304734269
 20
159.2508300339569
 30
0.0
 11
191.6889895414029
 21
161.3340709659808
 31
0.0
  0
LINE
  5
C03
330
4123
100
AcDbEntity
  8
0
 62
     0
100
AcDbLine
 10
193.7722304734269
 20
159.4276067292535
 30
0.0
 11
191.7959577587721
 21
161.4038794439083
 31
0.0
  0
LINE
  5
C04
330
4123
100
AcDbEntity
  8
0
 62
     0
100
AcDbLine
 10
193.7722304734269
 20
159.6043834245501
 30
0.0
 11
191.9061370272813
 21
161.4704768706957
 31
0.0
  0
LINE
  5
C05
330
4123
100
AcDbEntity
  8
0
 62
     0
100
AcDbLine
 10
193.7722304734269
 20
159.7811601198468
 30
0.0
 11
192.0196108500359
 21
161.5337797432377
 31
0.0
  0
LINE
  5
C06
330
4123
100
AcDbEntity
  8
0
 62
     0
100
AcDbLine
 10
193.7722304734269
 20
159.9579368151434
 30
0.0
 11
192.1364789845552
 21
161.5936883040151
 31
0.0
  0
LINE
  5
C07
330
4123
100
AcDbEntity
  8
0
 62
     0
100
AcDbLine
 10
193.7722304734269
 20
160.13471351044
 30
0.0
 11
192.2568596369892
 21
161.6500843468777
 31
0.0
  0
LINE
  5
C08
330
4123
100
AcDbEntity
  8
0
 62
     0
100
AcDbLine
 10
193.7722304734269
 20
160.3114902057367
 30
0.0
 11
192.380892241662
 21
161.7028284375016
 31
0.0
  0
LINE
  5
C09
330
4123
100
AcDbEntity
  8
0
 62
     0
100
AcDbLine
 10
193.7722304734269
 20
160.4882669010333
 30
0.0
 11
192.5087409953402
 21
161.75175637912
 31
0.0
  0
LINE
  5
C0A
330
4123
100
AcDbEntity
  8
0
 62
     0
100
AcDbLine
 10
193.7722304734269
 20
160.66504359633
 30
0.0
 11
192.64059938217
 21
161.7966746875869
 31
0.0
  0
LINE
  5
C0B
330
4123
100
AcDbEntity
  8
0
 62
     0
100
AcDbLine
 10
193.7722304734269
 20
160.8418202916266
 30
0.0
 11
192.7766960229203
 21
161.8373547421331
 31
0.0
  0
LINE
  5
C0C
330
4123
100
AcDbEntity
  8
0
 62
     0
100
AcDbLine
 10
193.7722304734269
 20
161.0185969869232
 30
0.0
 11
192.9173023288745
 21
161.8735251314756
 31
0.0
  0
LINE
  5
C0D
330
4123
100
AcDbEntity
  8
0
 62
     0
100
AcDbLine
 10
193.7722304734269
 20
161.1953736822199
 30
0.0
 11
193.0627426665829
 21
161.9048614890639
 31
0.0
  0
LINE
  5
C0E
330
4123
100
AcDbEntity
  8
0
 62
     0
100
AcDbLine
 10
193.7722304734269
 20
161.3721503775165
 30
0.0
 11
193.2134080971836
 21
161.9309727537598
 31
0.0
  0
LINE
  5
C0F
330
4123
100
AcDbEntity
  8
0
 62
     0
100
AcDbLine
 10
193.7722304734269
 20
161.5489270728131
 30
0.0
 11
193.3697753377922
 21
161.9513822084478
 31
0.0
  0
LINE
  5
C10
330
4123
100
AcDbEntity
  8
0
 62
     0
100
AcDbLine
 10
193.7722304734269
 20
161.7257037681098
 30
0.0
 11
193.5324335804642
 21
161.9655006610725
 31
0.0
  0
LINE
  5
C11
330
4123
100
AcDbEntity
  8
0
 62
     0
100
AcDbLine
 10
193.7722304734269
 20
161.9024804634064
 30
0.0
 11
193.7021235470592
 21
161.9725873897741
 31
0.0
  0
ENDBLK
  5
C12
330
4123
100
AcDbEntity
  8
0
100
AcDbBlockEnd
  0
BLOCK
  5
271D
330
4129
100
AcDbEntity
  8
0
100
AcDbBlockBegin
  2
LOGO
 70
     0
 10
0.0
 20
0.0
 30
0.0
  3
LOGO
  1

  0
ARC
  5
2703
330
4129
100
AcDbEntity
  8
0
100
AcDbCircle
 10
11.59973089678112
 20
-9.271599258481501
 30
0.0
 40
4.5
100
AcDbArc
 50
270.0
 51
231.0575587310159
  0
LINE
  5
2704
330
4129
100
AcDbEntity
  8
0
100
AcDbLine
 10
3.599730896781125
 20
-4.771599258481529
 30
0.0
 11
3.599730896781153
 21
-11.77159925848133
 31
0.0
  0
LINE
  5
2705
330
4129
100
AcDbEntity
  8
0
100
AcDbLine
 10
2.599730896781125
 20
-4.771599258481529
 30
0.0
 11
2.599730896781153
 21
-11.77159925848133
 31
0.0
  0
CIRCLE
  5
2706
330
4129
100
AcDbEntity
  8
0
100
AcDbCircle
 10
11.59973089678112
 20
-9.271599258481501
 30
0.0
 40
3.5
  0
ARC
  5
2707
330
4129
100
AcDbEntity
  8
0
100
AcDbCircle
 10
31.59973089678115
 20
-9.271599258481472
 30
0.0
 40
4.5
100
AcDbArc
 50
270.0
 51
231.0575587310182
  0
LINE
  5
2708
330
4129
100
AcDbEntity
  8
0
100
AcDbLine
 10
17.59973089678112
 20
-4.771599258481472
 30
0.0
 11
17.59973089678115
 21
-13.77159925848147
 31
0.0
  0
ARC
  5
2709
330
4129
100
AcDbEntity
  8
0
100
AcDbCircle
 10
22.59973089678116
 20
-7.271599258481472
 30
0.0
 40
2.5
100
AcDbArc
 50
293.1161887722295
 51
90.0
  0
CIRCLE
  5
270A
330
4129
100
AcDbEntity
  8
0
100
AcDbCircle
 10
31.59973089678115
 20
-9.271599258481472
 30
0.0
 40
3.5
  0
ARC
  5
270B
330
4129
100
AcDbEntity
  8
0
100
AcDbCircle
 10
4.599730896781153
 20
-11.77159925848133
 30
0.0
 40
1.0
100
AcDbArc
 50
180.0
 51
270.0
  0
ARC
  5
270C
330
4129
100
AcDbEntity
  8
0
100
AcDbCircle
 10
4.599730896781153
 20
-11.77159925848133
 30
0.0
 40
2.0
100
AcDbArc
 50
179.9999999999992
 51
270.0
  0
LINE
  5
270D
330
4129
100
AcDbEntity
  8
0
100
AcDbLine
 10
11.59973089678115
 20
-13.77159925848144
 30
0.0
 11
4.599730896781153
 21
-13.77159925848147
 31
0.0
  0
LINE
  5
270E
330
4129
100
AcDbEntity
  8
0
100
AcDbLine
 10
8.771303772034769
 20
-12.77159925848136
 30
0.0
 11
4.599730896781153
 21
-12.77159925848133
 31
0.0
  0
LINE
  5
270F
330
4129
100
AcDbEntity
  8
0
100
AcDbLine
 10
31.59973089678115
 20
-13.77159925848147
 30
0.0
 11
23.6715276665056
 21
-13.77159925848144
 31
0.0
  0
LINE
  5
2710
330
4129
100
AcDbEntity
  8
0
100
AcDbLine
 10
23.56565672307022
 20
-9.51278021337896
 30
0.0
 11
24.4388546544846
 21
-12.77159925848144
 31
0.0
  0
LINE
  5
2711
330
4129
100
AcDbEntity
  8
0
100
AcDbLine
 10
22.59973089678116
 20
-9.771599258481472
 30
0.0
 11
18.59973089678112
 21
-9.771599258481472
 31
0.0
  0
LINE
  5
2712
330
4129
100
AcDbEntity
  8
0
100
AcDbLine
 10
18.59973089678115
 20
-13.77159925848144
 30
0.0
 11
17.59973089678115
 21
-13.77159925848144
 31
0.0
  0
LINE
  5
2713
330
4129
100
AcDbEntity
  8
0
100
AcDbLine
 10
18.59973089678115
 20
-9.771599258481472
 30
0.0
 11
18.59973089678115
 21
-13.77159925848144
 31
0.0
  0
LINE
  5
2714
330
4129
100
AcDbEntity
  8
0
100
AcDbLine
 10
22.59973089678116
 20
-9.771599258481472
 30
0.0
 11
23.67152766650562
 21
-13.77159925848147
 31
0.0
  0
ARC
  5
2715
330
4129
100
AcDbEntity
  8
0
100
AcDbCircle
 10
22.59973089678116
 20
-7.271599258481472
 30
0.0
 40
2.5
100
AcDbArc
 50
270.0
 51
270.0000000000007
  0
LINE
  5
2716
330
4129
100
AcDbEntity
  8
0
100
AcDbLine
 10
28.77130377203494
 20
-12.77159925848147
 30
0.0
 11
24.43885465448463
 21
-12.77159925848144
 31
0.0
  0
LINE
  5
2717
330
4129
100
AcDbEntity
  8
0
100
AcDbLine
 10
3.599730896781125
 20
-4.771599258481472
 30
0.0
 11
2.599730896781125
 21
-4.771599258481472
 31
0.0
  0
LINE
  5
2718
330
4129
100
AcDbEntity
  8
0
100
AcDbLine
 10
22.59973089678116
 20
-8.771599258481472
 30
0.0
 11
18.59973089678115
 21
-8.771599258481472
 31
0.0
  0
LINE
  5
2719
330
4129
100
AcDbEntity
  8
0
100
AcDbLine
 10
22.59973089678116
 20
-5.771599258481472
 30
0.0
 11
18.59973089678115
 21
-5.771599258481472
 31
0.0
  0
LINE
  5
271A
330
4129
100
AcDbEntity
  8
0
100
AcDbLine
 10
22.59973089678116
 20
-4.771599258481472
 30
0.0
 11
17.59973089678115
 21
-4.771599258481472
 31
0.0
  0
LINE
  5
271B
330
4129
100
AcDbEntity
  8
0
100
AcDbLine
 10
18.59973089678115
 20
-5.771599258481472
 30
0.0
 11
18.59973089678115
 21
-8.771599258481472
 31
0.0
  0
ARC
  5
271C
330
4129
100
AcDbEntity
  8
0
100
AcDbCircle
 10
22.59973089678116
 20
-7.271599258481472
 30
0.0
 40
1.5
100
AcDbArc
 50
270.0
 51
90.0
  0
ENDBLK
  5
271E
330
4129
100
AcDbEntity
  8
0
100
AcDbBlockEnd
  0
BLOCK
  5
41B3
330
41A9
100
AcDbEntity
  8
0
100
AcDbBlockBegin
  2
*D3
 70
     1
 10
0.0
 20
0.0
 30
0.0
  3
*D3
  1

  0
LINE
  5
46E2
330
41A9
100
AcDbEntity
  8
BEM
 62
     0
370
    -2
100
AcDbLine
 10
421.0616970106006
 20
1033.122872682336
 30
0.0
 11
421.0616970106006
 21
1045.545147561844
 31
0.0
  0
LINE
  5
46E3
330
41A9
100
AcDbEntity
  8
BEM
 62
     0
370
    -2
100
AcDbLine
 10
640.0616970106004
 20
1033.122872682336
 30
0.0
 11
640.0616970106004
 21
1045.545147561844
 31
0.0
  0
LINE
  5
46E4
330
41A9
100
AcDbEntity
  8
BEM
 62
     0
370
    -2
100
AcDbLine
 10
428.0616970106006
 20
1043.545147561844
 30
0.0
 11
633.0616970106005
 21
1043.545147561844
 31
0.0
  0
SOLID
  5
46E5
330
41A9
100
AcDbEntity
  8
BEM
 62
     0
100
AcDbTrace
 10
428.0616970106006
 20
1044.71181422851
 30
0.0
 11
428.0616970106006
 21
1042.378480895177
 31
0.0
 12
421.0616970106006
 22
1043.545147561844
 32
0.0
 13
421.0616970106006
 23
1043.545147561844
 33
0.0
  0
SOLID
  5
46E6
330
41A9
100
AcDbEntity
  8
BEM
 62
     0
100
AcDbTrace
 10
633.0616970106005
 20
1044.71181422851
 30
0.0
 11
633.0616970106005
 21
1042.378480895177
 31
0.0
 12
640.0616970106004
 22
1043.545147561844
 32
0.0
 13
640.0616970106004
 23
1043.545147561844
 33
0.0
  0
MTEXT
  5
46E7
330
41A9
100
AcDbEntity
  8
BEM
 62
     1
100
AcDbMText
 10
530.5616970106004
 20
1050.045147561844
 30
0.0
 40
7.0
 41
0.0
 71
     5
 72
     1
  1
\A1;%%c219
 73
     1
 44
1.0
  0
POINT
  5
46E8
330
41A9
100
AcDbEntity
  8
DEFPOINTS
 62
     0
100
AcDbPoint
 10
421.0616970106006
 20
1031.122872682336
 30
0.0
  0
POINT
  5
46E9
330
41A9
100
AcDbEntity
  8
DEFPOINTS
 62
     0
100
AcDbPoint
 10
640.0616970106004
 20
1031.122872682336
 30
0.0
  0
POINT
  5
46EA
330
41A9
100
AcDbEntity
  8
DEFPOINTS
 62
     0
100
AcDbPoint
 10
640.0616970106004
 20
1043.545147561844
 30
0.0
  0
ENDBLK
  5
41B4
330
41A9
100
AcDbEntity
  8
0
100
AcDbBlockEnd
  0
BLOCK
  5
41CB
330
41C1
100
AcDbEntity
  8
0
100
AcDbBlockBegin
  2
*D4
 70
     1
 10
0.0
 20
0.0
 30
0.0
  3
*D4
  1

  0
LINE
  5
41C2
330
41C1
100
AcDbEntity
  8
BEM
 62
     0
370
    -2
100
AcDbLine
 10
280.7722304734269
 20
453.5101991605285
 30
0.0
 11
384.6892194914912
 21
453.5101991605285
 31
0.0
  0
LINE
  5
41C3
330
41C1
100
AcDbEntity
  8
BEM
 62
     0
370
    -2
100
AcDbLine
 10
312.7722304734269
 20
1033.510199160528
 30
0.0
 11
384.6892194914913
 21
1033.510199160528
 31
0.0
  0
LINE
  5
41C4
330
41C1
100
AcDbEntity
  8
BEM
 62
     0
370
    -2
100
AcDbLine
 10
382.6892194914912
 20
460.5101991605285
 30
0.0
 11
382.6892194914913
 21
1026.510199160528
 31
0.0
  0
SOLID
  5
41C5
330
41C1
100
AcDbEntity
  8
BEM
 62
     0
100
AcDbTrace
 10
381.5225528248245
 20
460.5101991605285
 30
0.0
 11
383.8558861581578
 21
460.5101991605285
 31
0.0
 12
382.6892194914912
 22
453.5101991605285
 32
0.0
 13
382.6892194914912
 23
453.5101991605285
 33
0.0
  0
SOLID
  5
41C6
330
41C1
100
AcDbEntity
  8
BEM
 62
     0
100
AcDbTrace
 10
381.5225528248246
 20
1026.510199160528
 30
0.0
 11
383.8558861581579
 21
1026.510199160528
 31
0.0
 12
382.6892194914913
 22
1033.510199160528
 32
0.0
 13
382.6892194914913
 23
1033.510199160528
 33
0.0
  0
MTEXT
  5
41C7
330
41C1
100
AcDbEntity
  8
BEM
 62
     1
100
AcDbMText
 10
377.1892194914911
 20
743.5101991605286
 30
0.0
 40
7.0
 41
0.0
 71
     5
 72
     1
  1
\A1;580
 11
0.0000000000000001
 21
1.0
 31
0.0
 73
     1
 44
1.0
  0
POINT
  5
41C8
330
41C1
100
AcDbEntity
  8
DEFPOINTS
 62
     0
100
AcDbPoint
 10
278.7722304734269
 20
453.5101991605285
 30
0.0
  0
POINT
  5
41C9
330
41C1
100
AcDbEntity
  8
DEFPOINTS
 62
     0
100
AcDbPoint
 10
310.7722304734269
 20
1033.510199160528
 30
0.0
  0
POINT
  5
41CA
330
41C1
100
AcDbEntity
  8
DEFPOINTS
 62
     0
100
AcDbPoint
 10
382.6892194914913
 20
1033.510199160528
 30
0.0
  0
ENDBLK
  5
41CC
330
41C1
100
AcDbEntity
  8
0
100
AcDbBlockEnd
  0
BLOCK
  5
41D7
330
41CD
100
AcDbEntity
  8
0
100
AcDbBlockBegin
  2
*D5
 70
     1
 10
0.0
 20
0.0
 30
0.0
  3
*D5
  1

  0
LINE
  5
41CE
330
41CD
100
AcDbEntity
  8
BEM
 62
     0
370
    -2
100
AcDbLine
 10
312.7722304734269
 20
1033.510199160528
 30
0.0
 11
367.7818667706635
 21
1033.510199160528
 31
0.0
  0
LINE
  5
41CF
330
41CD
100
AcDbEntity
  8
BEM
 62
     0
370
    -2
100
AcDbLine
 10
312.7722304734271
 20
518.5101991605278
 30
0.0
 11
367.7818667706633
 21
518.5101991605278
 31
0.0
  0
LINE
  5
41D0
330
41CD
100
AcDbEntity
  8
BEM
 62
     0
370
    -2
100
AcDbLine
 10
365.7818667706635
 20
1026.510199160528
 30
0.0
 11
365.7818667706633
 21
525.5101991605278
 31
0.0
  0
SOLID
  5
41D1
330
41CD
100
AcDbEntity
  8
BEM
 62
     0
100
AcDbTrace
 10
364.6152001039967
 20
1026.510199160528
 30
0.0
 11
366.9485334373301
 21
1026.510199160528
 31
0.0
 12
365.7818667706635
 22
1033.510199160528
 32
0.0
 13
365.7818667706635
 23
1033.510199160528
 33
0.0
  0
SOLID
  5
41D2
330
41CD
100
AcDbEntity
  8
BEM
 62
     0
100
AcDbTrace
 10
364.6152001039967
 20
525.5101991605278
 30
0.0
 11
366.94853343733
 21
525.5101991605278
 31
0.0
 12
365.7818667706633
 22
518.5101991605278
 32
0.0
 13
365.7818667706633
 23
518.5101991605278
 33
0.0
  0
MTEXT
  5
41D3
330
41CD
100
AcDbEntity
  8
BEM
 62
     1
100
AcDbMText
 10
360.2818667706633
 20
776.0101991605282
 30
0.0
 40
7.0
 41
0.0
 71
     5
 72
     1
  1
\A1;515
 11
0.0000000000000001
 21
1.0
 31
0.0
 73
     1
 44
1.0
  0
POINT
  5
41D4
330
41CD
100
AcDbEntity
  8
DEFPOINTS
 62
     0
100
AcDbPoint
 10
310.7722304734269
 20
1033.510199160528
 30
0.0
  0
POINT
  5
41D5
330
41CD
100
AcDbEntity
  8
DEFPOINTS
 62
     0
100
AcDbPoint
 10
310.7722304734271
 20
518.5101991605278
 30
0.0
  0
POINT
  5
41D6
330
41CD
100
AcDbEntity
  8
DEFPOINTS
 62
     0
100
AcDbPoint
 10
365.7818667706633
 20
518.5101991605278
 30
0.0
  0
ENDBLK
  5
41D8
330
41CD
100
AcDbEntity
  8
0
100
AcDbBlockEnd
  0
BLOCK
  5
41E3
330
41D9
100
AcDbEntity
  8
0
100
AcDbBlockBegin
  2
*D6
 70
     1
 10
0.0
 20
0.0
 30
0.0
  3
*D6
  1

  0
LINE
  5
446D
330
41D9
100
AcDbEntity
  8
BEM
 62
     0
370
    -2
100
AcDbLine
 10
312.7722304734269
 20
518.5101991605285
 30
0.0
 11
351.6878343452827
 21
518.5101991605285
 31
0.0
  0
LINE
  5
446E
330
41D9
100
AcDbEntity
  8
BEM
 62
     0
370
    -2
100
AcDbLine
 10
339.0574857885044
 20
813.5101991605285
 30
0.0
 11
351.6878343452827
 21
813.5101991605285
 31
0.0
  0
LINE
  5
446F
330
41D9
100
AcDbEntity
  8
BEM
 62
     0
370
    -2
100
AcDbLine
 10
349.6878343452827
 20
525.5101991605284
 30
0.0
 11
349.6878343452828
 21
806.5101991605285
 31
0.0
  0
SOLID
  5
4470
330
41D9
100
AcDbEntity
  8
BEM
 62
     0
100
AcDbTrace
 10
348.521167678616
 20
525.5101991605284
 30
0.0
 11
350.8545010119494
 21
525.5101991605284
 31
0.0
 12
349.6878343452827
 22
518.5101991605285
 32
0.0
 13
349.6878343452827
 23
518.5101991605285
 33
0.0
  0
SOLID
  5
4471
330
41D9
100
AcDbEntity
  8
BEM
 62
     0
100
AcDbTrace
 10
348.521167678616
 20
806.5101991605285
 30
0.0
 11
350.8545010119494
 21
806.5101991605285
 31
0.0
 12
349.6878343452828
 22
813.5101991605285
 32
0.0
 13
349.6878343452828
 23
813.5101991605285
 33
0.0
  0
MTEXT
  5
4472
330
41D9
100
AcDbEntity
  8
BEM
 62
     1
100
AcDbMText
 10
344.1878343452826
 20
666.0101991605285
 30
0.0
 40
7.0
 41
0.0
 71
     5
 72
     1
  1
\A1;295
 11
0.0000000000000001
 21
1.0
 31
0.0
 73
     1
 44
1.0
  0
POINT
  5
4473
330
41D9
100
AcDbEntity
  8
DEFPOINTS
 62
     0
100
AcDbPoint
 10
310.7722304734269
 20
518.5101991605285
 30
0.0
  0
POINT
  5
4474
330
41D9
100
AcDbEntity
  8
DEFPOINTS
 62
     0
100
AcDbPoint
 10
337.0574857885044
 20
813.5101991605285
 30
0.0
  0
POINT
  5
4475
330
41D9
100
AcDbEntity
  8
DEFPOINTS
 62
     0
100
AcDbPoint
 10
349.6878343452828
 20
813.5101991605285
 30
0.0
  0
ENDBLK
  5
41E4
330
41D9
100
AcDbEntity
  8
0
100
AcDbBlockEnd
  0
BLOCK
  5
4502
330
44F8
100
AcDbEntity
  8
0
100
AcDbBlockBegin
  2
*D7
 70
     1
 10
0.0
 20
0.0
 30
0.0
  3
*D7
  1

  0
LINE
  5
4706
330
44F8
100
AcDbEntity
  8
BEM
 62
     0
370
    -2
100
AcDbLine
 10
121.7722304734268
 20
461.5101991605284
 30
0.0
 11
121.7722304734268
 21
426.4132537261399
 31
0.0
  0
LINE
  5
4707
330
44F8
100
AcDbEntity
  8
BEM
 62
     0
370
    -2
100
AcDbLine
 10
280.772230473427
 20
461.5101991605285
 30
0.0
 11
280.772230473427
 21
426.4132537261399
 31
0.0
  0
LINE
  5
4708
330
44F8
100
AcDbEntity
  8
BEM
 62
     0
370
    -2
100
AcDbLine
 10
128.7722304734268
 20
428.41325372614
 30
0.0
 11
273.772230473427
 21
428.41325372614
 31
0.0
  0
SOLID
  5
4709
330
44F8
100
AcDbEntity
  8
BEM
 62
     0
100
AcDbTrace
 10
128.7722304734268
 20
429.5799203928067
 30
0.0
 11
128.7722304734268
 21
427.2465870594733
 31
0.0
 12
121.7722304734268
 22
428.41325372614
 32
0.0
 13
121.7722304734268
 23
428.41325372614
 33
0.0
  0
SOLID
  5
470A
330
44F8
100
AcDbEntity
  8
BEM
 62
     0
100
AcDbTrace
 10
273.772230473427
 20
429.5799203928067
 30
0.0
 11
273.772230473427
 21
427.2465870594733
 31
0.0
 12
280.772230473427
 22
428.41325372614
 32
0.0
 13
280.772230473427
 23
428.41325372614
 33
0.0
  0
MTEXT
  5
470B
330
44F8
100
AcDbEntity
  8
BEM
 62
     1
100
AcDbMText
 10
201.2722304734269
 20
434.9132537261399
 30
0.0
 40
7.0
 41
0.0
 71
     5
 72
     1
  1
\A1;%%c159
  7
GREEKS
 73
     1
 44
1.0
  0
POINT
  5
470C
330
44F8
100
AcDbEntity
  8
DEFPOINTS
 62
     0
100
AcDbPoint
 10
121.7722304734268
 20
463.5101991605284
 30
0.0
  0
POINT
  5
470D
330
44F8
100
AcDbEntity
  8
DEFPOINTS
 62
     0
100
AcDbPoint
 10
280.772230473427
 20
463.5101991605285
 30
0.0
  0
POINT
  5
470E
330
44F8
100
AcDbEntity
  8
DEFPOINTS
 62
     0
100
AcDbPoint
 10
280.772230473427
 20
428.41325372614
 30
0.0
  0
ENDBLK
  5
4503
330
44F8
100
AcDbEntity
  8
0
100
AcDbBlockEnd
  0
ENDSEC
  0
SECTION
  2
ENTITIES
  0
LINE
  5
C13
330
410E
100
AcDbEntity
  8
HILF
100
AcDbLine
 10
840.0
 20
-0.0000000000007235
 30
0.0
 11
840.0000000000003
 21
1187.999999999999
 31
0.0
  0
LINE
  5
C14
330
410E
100
AcDbEntity
  8
HILF
100
AcDbLine
 10
0.0
 20
0.0
 30
0.0
 11
840.0
 21
-0.0000000000007235
 31
0.0
  0
LINE
  5
C15
330
410E
100
AcDbEntity
  8
STEMPEL
100
AcDbLine
 10
10.00000000000102
 20
1178.0
 30
0.0
 11
10.0
 21
9.999999999999994
 31
0.0
  0
LINE
  5
C16
330
410E
100
AcDbEntity
  8
STEMPEL
100
AcDbLine
 10
830.0
 20
9.999999999999277
 30
0.0
 11
830.0000000000004
 21
1177.999999999999
 31
0.0
  0
LINE
  5
C17
330
410E
100
AcDbEntity
  8
STEMPEL
100
AcDbLine
 10
10.0
 20
9.999999999999994
 30
0.0
 11
830.0
 21
9.999999999999277
 31
0.0
  0
TEXT
  5
C18
330
410E
100
AcDbEntity
  8
TEXT
100
AcDbText
 10
826.8846909804086
 20
1185.248442600929
 30
0.0
 40
4.0
  1
Diese Zeichnung ist urheberrechtlich geschützt und bleibt unser Eigentum. Sie darf weder ganz noch teilweise vervielfältigt und nicht an Dritte weitergegeben werden.
 50
180.0
 41
0.8
  7
GREEKS
100
AcDbText
  0
LINE
  5
C19
330
410E
100
AcDbEntity
  8
HILF
100
AcDbLine
 10
246.0000000000001
 20
9.999999999999788
 30
0.0
 11
246.0000000000001
 21
-0.0000000000002119
 31
0.0
  0
LINE
  5
C1A
330
410E
100
AcDbEntity
  8
HILF
100
AcDbLine
 10
0.0000000000002274
 20
210.0
 30
0.0
 11
10.00000000000023
 21
210.0
 31
0.0
  0
LINE
  5
C1B
330
410E
100
AcDbEntity
  8
HILF
100
AcDbLine
 10
0.0
 20
0.0
 30
0.0
 11
0.0000000000004547
 21
1188.0
 31
0.0
  0
LINE
  5
C1C
330
410E
100
AcDbEntity
  8
HILF
100
AcDbLine
 10
0.0000000000004547
 20
1188.0
 30
0.0
 11
840.0000000000003
 21
1187.999999999999
 31
0.0
  0
LINE
  5
C1D
330
410E
100
AcDbEntity
  8
STEMPEL
100
AcDbLine
 10
10.00000000000102
 20
1178.0
 30
0.0
 11
830.0000000000004
 21
1177.999999999999
 31
0.0
  0
LINE
  5
C1E
330
410E
100
AcDbEntity
  8
HILF
100
AcDbLine
 10
0.0000000000003411
 20
804.0
 30
0.0
 11
10.00000000000068
 21
803.9999999999999
 31
0.0
  0
LINE
  5
C1F
330
410E
100
AcDbEntity
  8
HILF
100
AcDbLine
 10
0.0000000000002274
 20
419.9999999999999
 30
0.0
 11
10.00000000000034
 21
419.9999999999999
 31
0.0
  0
LINE
  5
C20
330
410E
100
AcDbEntity
  8
HILF
100
AcDbLine
 10
246.0000000000001
 20
-0.0000000000002119
 30
0.0
 11
234.2857142857145
 21
9.999999999999797
 31
0.0
  0
LINE
  5
C21
330
410E
100
AcDbEntity
  8
HILF
100
AcDbLine
 10
10.00000000000011
 20
201.4634146341464
 30
0.0
 11
0.0000000000002274
 21
210.0
 31
0.0
  0
LINE
  5
C22
330
410E
100
AcDbEntity
  8
HILF
100
AcDbLine
 10
830.0
 20
419.9999999999991
 30
0.0
 11
840.0000000000002
 21
419.999999999999
 31
0.0
  0
LINE
  5
C23
330
410E
100
AcDbEntity
  8
HILF
100
AcDbLine
 10
830.0000000000004
 20
803.999999999999
 30
0.0
 11
840.0000000000003
 21
803.999999999999
 31
0.0
  0
LINE
  5
C24
330
410E
100
AcDbEntity
  8
HILF
100
AcDbLine
 10
246.0000000000014
 20
1187.999999999999
 30
0.0
 11
246.0000000000014
 21
1177.999999999999
 31
0.0
  0
TEXT
  5
C5A
330
410E
100
AcDbEntity
  8
VOLL
100
AcDbText
 10
104.5045372476799
 20
1282.726069958654
 30
0.0
 40
1.8
  1

  7
GREEKS
100
AcDbText
  0
TEXT
  5
C5B
330
410E
100
AcDbEntity
  8
TEXT
100
AcDbText
 10
436.3368054512728
 20
1288.284305491879
 30
0.0
 40
2.5
  1
  
  7
GREEKS
 72
     1
 11
438.5987102131776
 21
1288.284305491879
 31
0.0
100
AcDbText
  0
TEXT
  5
C5C
330
410E
100
AcDbEntity
  8
BEM
100
AcDbText
 10
680.4565227637548
 20
1423.843187522282
 30
0.0
 40
2.5
  1
 
 72
     4
 11
681.5874751447072
 21
1423.843187522282
 31
0.0
100
AcDbText
  0
TEXT
  5
C5D
330
410E
100
AcDbEntity
  8
BEM
100
AcDbText
 10
542.6014128742865
 20
1295.747267154032
 30
0.0
 40
2.5
  1

  7
GREEKS
100
AcDbText
  0
TEXT
  5
C5E
330
410E
100
AcDbEntity
  8
BEM
100
AcDbText
 10
563.1631989339987
 20
1280.808819301712
 30
0.0
 40
2.5
  1

 41
0.8
  7
GREEKS
100
AcDbText
  0
TEXT
  5
C5F
330
410E
100
AcDbEntity
  8
BEM
100
AcDbText
 10
563.0238689157117
 20
1270.730369236999
 30
0.0
 40
2.5
  1

 41
0.8
  7
GREEKS
100
AcDbText
  0
TEXT
  5
C60
330
410E
100
AcDbEntity
  8
BEM
100
AcDbText
 10
563.0771287994742
 20
1275.676152173314
 30
0.0
 40
2.5
  1

 41
0.8
  7
GREEKS
100
AcDbText
  0
TEXT
  5
C61
330
410E
100
AcDbEntity
  8
BEM
100
AcDbText
 10
563.1196468373701
 20
1265.635581597359
 30
0.0
 40
1.8
  1

 41
0.8
  7
GREEKS
100
AcDbText
  0
TEXT
  5
C62
330
410E
100
AcDbEntity
  8
BEM
100
AcDbText
 10
550.5473315937885
 20
1291.073926084527
 30
0.0
 40
2.0
  1

 41
0.8
  7
GREEKS
 72
     1
 11
550.5473315937885
 21
1291.073926084527
 31
0.0
100
AcDbText
  0
ARC
  5
C64
102
{ACAD_REACTORS
330
4589
330
4669
102
}
330
410E
100
AcDbEntity
  8
STEMPEL
  6
Continuous
100
AcDbCircle
 10
475.0616970106006
 20
1015.339768464402
 30
0.0
 40
35.0
100
AcDbArc
 50
155.0000000000036
 51
180.0
  0
ARC
  5
C65
102
{ACAD_REACTORS
330
4589
102
}
330
410E
100
AcDbEntity
  8
STEMPEL
  6
Continuous
100
AcDbCircle
 10
475.0616970106006
 20
1015.339768464402
 30
0.0
 40
32.5
100
AcDbArc
 50
155.0000000000069
 51
180.0
  0
ARC
  5
C66
102
{ACAD_REACTORS
330
4589
102
}
330
410E
100
AcDbEntity
  8
STEMPEL
  6
Continuous
100
AcDbCircle
 10
441.0616970106006
 20
943.5951247677314
 30
0.0
 40
12.5
100
AcDbArc
 50
0.0
 51
34.77194403194844
  0
ARC
  5
C67
102
{ACAD_REACTORS
330
4589
330
48AC
102
}
330
410E
100
AcDbEntity
  8
STEMPEL
  6
Continuous
100
AcDbCircle
 10
441.0616970106006
 20
943.5951247677314
 30
0.0
 40
10.0
100
AcDbArc
 50
0.0
 51
34.77194403194847
  0
LINE
  5
C68
102
{ACAD_REACTORS
330
4589
102
}
330
410E
100
AcDbEntity
  8
STEMPEL
  6
Continuous
100
AcDbLine
 10
453.5616970106006
 20
943.5951247677314
 30
0.0
 11
453.5616970106006
 21
461.1228726823275
 31
0.0
  0
LINE
  5
C69
102
{ACAD_REACTORS
330
4589
330
4859
330
48AC
102
}
330
410E
100
AcDbEntity
  8
STEMPEL
  6
Continuous
100
AcDbLine
 10
451.0616970106005
 20
943.5951247677314
 30
0.0
 11
451.0616970106006
 21
461.0137203250553
 31
0.0
  0
ARC
  5
C6A
102
{ACAD_REACTORS
330
4589
102
}
330
410E
100
AcDbEntity
  8
STEMPEL
  6
Continuous
100
AcDbCircle
 10
475.0597246903587
 20
999.120174201618
 30
0.0
 40
32.5
100
AcDbArc
 50
180.0
 51
207.7536279564358
  0
ARC
  5
C6B
102
{ACAD_REACTORS
330
4589
330
48AC
102
}
330
410E
100
AcDbEntity
  8
STEMPEL
  6
Continuous
100
AcDbCircle
 10
475.0616970106006
 20
999.1178726823356
 30
0.0
 40
35.00004740563918
100
AcDbArc
 50
179.9056985509158
 51
207.527183620552
  0
ARC
  5
C6C
102
{ACAD_REACTORS
330
4589
102
}
330
410E
100
AcDbEntity
  8
STEMPEL
  6
Continuous
100
AcDbCircle
 10
464.0616970106005
 20
959.5638441904027
 30
0.0
 40
15.5
100
AcDbArc
 50
180.0
 51
214.7719440319485
  0
ARC
  5
C6D
102
{ACAD_REACTORS
330
4589
330
48AC
102
}
330
410E
100
AcDbEntity
  8
STEMPEL
  6
Continuous
100
AcDbCircle
 10
464.0616970106005
 20
959.5638441904027
 30
0.0
 40
18.0
100
AcDbArc
 50
180.0
 51
214.7719440319486
  0
ARC
  5
C6E
102
{ACAD_REACTORS
330
4589
102
}
330
410E
100
AcDbEntity
  8
STEMPEL
  6
Continuous
100
AcDbCircle
 10
428.0616970106006
 20
974.6228726823357
 30
0.0
 40
20.5
100
AcDbArc
 50
0.0
 51
27.17643727586394
  0
LINE
  5
C6F
102
{ACAD_REACTORS
330
4589
102
}
330
410E
100
AcDbEntity
  8
STEMPEL
  6
Continuous
100
AcDbLine
 10
448.5616970106006
 20
974.6228726823357
 30
0.0
 11
448.5616970106006
 21
959.5638441904027
 31
0.0
  0
LINE
  5
C70
102
{ACAD_REACTORS
330
4589
330
48AC
102
}
330
410E
100
AcDbEntity
  8
STEMPEL
  6
Continuous
100
AcDbLine
 10
446.0616970106006
 20
974.6228726823357
 30
0.0
 11
446.0616970106006
 21
959.5638441904027
 31
0.0
  0
ARC
  5
C71
102
{ACAD_REACTORS
330
4589
330
48AC
102
}
330
410E
100
AcDbEntity
  8
STEMPEL
  6
Continuous
100
AcDbCircle
 10
428.0616970106006
 20
974.6228726823357
 30
0.0
 40
18.0
100
AcDbArc
 50
0.0
 51
27.52718362055202
  0
LINE
  5
C72
102
{ACAD_REACTORS
330
4589
102
}
330
410E
100
AcDbEntity
  8
STEMPEL
  6
Continuous
100
AcDbLine
 10
442.5616970106005
 20
1015.339768464402
 30
0.0
 11
442.5616970106005
 21
999.0602671531821
 31
0.0
  0
LINE
  5
C73
102
{ACAD_REACTORS
330
4589
330
4669
330
48AC
102
}
330
410E
100
AcDbEntity
  8
STEMPEL
  6
Continuous
100
AcDbLine
 10
440.0616970106006
 20
1015.339768464402
 30
0.0
 11
440.0616970106006
 21
999.0602671531821
 31
0.0
  0
LINE
  5
C76
102
{ACAD_REACTORS
330
4589
330
4669
102
}
330
410E
100
AcDbEntity
  8
STEMPEL
  6
Continuous
100
AcDbLine
 10
443.8032522131944
 20
1031.122872682336
 30
0.0
 11
443.3409244643178
 21
1030.131407625326
 31
0.0
  0
LINE
  5
C77
102
{ACAD_REACTORS
330
4589
102
}
330
410E
100
AcDbEntity
  8
STEMPEL
  6
Continuous
100
AcDbLine
 10
446.5616970106006
 20
1031.122872682336
 30
0.0
 11
445.6066939319093
 21
1029.074861970974
 31
0.0
  0
ARC
  5
C78
102
{ACAD_REACTORS
330
4589
102
}
330
410E
100
AcDbEntity
  8
STEMPEL
  6
Continuous
100
AcDbCircle
 10
586.0616970106004
 20
1015.339768464402
 30
0.0
 40
32.5
100
AcDbArc
 50
0.0
 51
24.99999999999309
  0
ARC
  5
C79
102
{ACAD_REACTORS
330
4589
330
4669
102
}
330
410E
100
AcDbEntity
  8
STEMPEL
  6
Continuous
100
AcDbCircle
 10
586.0616970106004
 20
1015.339768464402
 30
0.0
 40
35.0
100
AcDbArc
 50
0.0
 51
24.99999999999312
  0
ARC
  5
C7B
102
{ACAD_REACTORS
330
4589
102
}
330
410E
100
AcDbEntity
  8
STEMPEL
  6
Continuous
100
AcDbCircle
 10
586.0636693308424
 20
999.120174201618
 30
0.0
 40
32.5
100
AcDbArc
 50
332.2463720435643
 51
0.0
  0
ARC
  5
C7C
102
{ACAD_REACTORS
330
4589
330
48AC
102
}
330
410E
100
AcDbEntity
  8
STEMPEL
  6
Continuous
100
AcDbCircle
 10
586.0616970106004
 20
999.1178726823356
 30
0.0
 40
35.00004740563918
100
AcDbArc
 50
332.472816379448
 51
0.0943014490841215
  0
ARC
  5
C7D
102
{ACAD_REACTORS
330
4589
102
}
330
410E
100
AcDbEntity
  8
STEMPEL
  6
Continuous
100
AcDbCircle
 10
620.0616970106004
 20
943.5951247677314
 30
0.0
 40
12.5
100
AcDbArc
 50
145.2280559680515
 51
180.0
  0
ARC
  5
C7E
102
{ACAD_REACTORS
330
4589
330
48AC
102
}
330
410E
100
AcDbEntity
  8
STEMPEL
  6
Continuous
100
AcDbCircle
 10
620.0616970106004
 20
943.5951247677314
 30
0.0
 40
10.0
100
AcDbArc
 50
145.2280559680515
 51
180.0
  0
LINE
  5
C81
102
{ACAD_REACTORS
330
4589
102
}
330
410E
100
AcDbEntity
  8
STEMPEL
  6
Continuous
100
AcDbLine
 10
612.5616970106005
 20
974.6228726823357
 30
0.0
 11
612.5616970106005
 21
959.5638441904027
 31
0.0
  0
LINE
  5
C82
102
{ACAD_REACTORS
330
4589
330
48AC
102
}
330
410E
100
AcDbEntity
  8
STEMPEL
  6
Continuous
100
AcDbLine
 10
615.0616970106004
 20
974.6228726823357
 30
0.0
 11
615.0616970106004
 21
959.5638441904027
 31
0.0
  0
ARC
  5
C83
102
{ACAD_REACTORS
330
4589
330
48AC
102
}
330
410E
100
AcDbEntity
  8
STEMPEL
  6
Continuous
100
AcDbCircle
 10
633.0616970106005
 20
974.6228726823357
 30
0.0
 40
18.0
100
AcDbArc
 50
152.472816379448
 51
180.0
  0
ARC
  5
C84
102
{ACAD_REACTORS
330
4589
102
}
330
410E
100
AcDbEntity
  8
STEMPEL
  6
Continuous
100
AcDbCircle
 10
633.0616970106005
 20
974.6228726823357
 30
0.0
 40
20.5
100
AcDbArc
 50
152.1156863126274
 51
180.0
  0
ARC
  5
C85
102
{ACAD_REACTORS
330
4589
102
}
330
410E
100
AcDbEntity
  8
STEMPEL
  6
Continuous
100
AcDbCircle
 10
597.0616970106005
 20
959.5638441904027
 30
0.0
 40
15.5
100
AcDbArc
 50
325.2280559680515
 51
0.0
  0
ARC
  5
C86
102
{ACAD_REACTORS
330
4589
330
48AC
102
}
330
410E
100
AcDbEntity
  8
STEMPEL
  6
Continuous
100
AcDbCircle
 10
597.0616970106005
 20
959.5638441904027
 30
0.0
 40
18.0
100
AcDbArc
 50
325.2280559680514
 51
0.0
  0
LINE
  5
C87
102
{ACAD_REACTORS
330
4589
102
}
330
410E
100
AcDbEntity
  8
STEMPEL
  6
Continuous
100
AcDbLine
 10
618.5616970106004
 20
1015.339768464402
 30
0.0
 11
618.5616970106004
 21
999.0602671531821
 31
0.0
  0
LINE
  5
C88
102
{ACAD_REACTORS
330
4589
330
4669
330
48AC
102
}
330
410E
100
AcDbEntity
  8
STEMPEL
  6
Continuous
100
AcDbLine
 10
621.0616970106005
 20
1015.339768464402
 30
0.0
 11
621.0616970106005
 21
999.0602671531821
 31
0.0
  0
LINE
  5
C89
102
{ACAD_REACTORS
330
4589
330
4669
102
}
330
410E
100
AcDbEntity
  8
STEMPEL
  6
Continuous
100
AcDbLine
 10
617.3201418080068
 20
1031.122872682336
 30
0.0
 11
617.7824695568833
 21
1030.131407625326
 31
0.0
  0
LINE
  5
C8A
102
{ACAD_REACTORS
330
4589
330
45B6
330
4669
102
}
330
410E
100
AcDbEntity
  8
STEMPEL
  6
Continuous
100
AcDbLine
 10
421.0616970106006
 20
1031.122872682336
 30
0.0
 11
640.0616970106004
 21
1031.122872682336
 31
0.0
  0
LINE
  5
C8D
102
{ACAD_REACTORS
330
4589
102
}
330
410E
100
AcDbEntity
  8
STEMPEL
  6
Continuous
100
AcDbLine
 10
614.5616970106004
 20
1031.122872682336
 30
0.0
 11
615.5167000892916
 21
1029.074861970974
 31
0.0
  0
ARC
  5
C8E
330
410E
100
AcDbEntity
  8
VERDECKT
  6
VERDECKT
100
AcDbCircle
 10
111.7722304734269
 20
945.9824512459242
 30
0.0
 40
10.0
100
AcDbArc
 50
0.0
 51
34.77194403194847
  0
ARC
  5
C8F
330
410E
100
AcDbEntity
  8
VERDECKT
  6
VERDECKT
100
AcDbCircle
 10
145.7722304734269
 20
1017.727094942595
 30
0.0
 40
35.0
100
AcDbArc
 50
155.0000000000036
 51
180.0
  0
ARC
  5
C90
330
410E
100
AcDbEntity
  8
VERDECKT
  6
VERDECKT
100
AcDbCircle
 10
98.77223047342694
 20
977.0101991605285
 30
0.0
 40
18.0
100
AcDbArc
 50
0.0
 51
27.52718362055202
  0
ARC
  5
C91
330
410E
100
AcDbEntity
  8
VERDECKT
  6
VERDECKT
100
AcDbCircle
 10
145.7722304734269
 20
1001.505199160528
 30
0.0
 40
35.00004740563918
100
AcDbArc
 50
179.9056985509158
 51
207.527183620552
  0
LINE
  5
C92
330
410E
100
AcDbEntity
  8
VERDECKT
  6
VERDECKT
100
AcDbLine
 10
116.7722304734269
 20
977.0101991605285
 30
0.0
 11
116.7722304734269
 21
961.9511706685953
 31
0.0
  0
ARC
  5
C94
330
410E
100
AcDbEntity
  8
VERDECKT
  6
VERDECKT
100
AcDbCircle
 10
134.7722304734269
 20
961.9511706685953
 30
0.0
 40
18.0
100
AcDbArc
 50
180.0
 51
214.7719440319486
  0
LINE
  5
C95
330
410E
100
AcDbEntity
  8
VERDECKT
  6
VERDECKT
100
AcDbLine
 10
110.7722304734269
 20
1017.727094942595
 30
0.0
 11
110.7722304734269
 21
1001.447593631375
 31
0.0
  0
LINE
  5
C96
330
410E
100
AcDbEntity
  8
VERDECKT
  6
VERDECKT
100
AcDbLine
 10
114.5137856760208
 20
1033.510199160528
 30
0.0
 11
114.0514579271442
 21
1032.518734103519
 31
0.0
  0
ARC
  5
C97
330
410E
100
AcDbEntity
  8
VERDECKT
  6
VERDECKT
100
AcDbCircle
 10
256.7722304734269
 20
1017.727094942595
 30
0.0
 40
35.0
100
AcDbArc
 50
0.0
 51
24.99999999999312
  0
LINE
  5
C98
330
410E
100
AcDbEntity
  8
MITTEL
100
AcDbLine
 10
201.2722304734269
 20
1038.510199160528
 30
0.0
 11
201.2722304734269
 21
448.5101991605285
 31
0.0
  0
LINE
  5
C99
330
410E
100
AcDbEntity
  8
VERDECKT
  6
VERDECKT
100
AcDbLine
 10
121.7722304734269
 20
945.9824512459242
 30
0.0
 11
121.7722304734269
 21
516.5101991605284
 31
0.0
  0
ARC
  5
C9A
330
410E
100
AcDbEntity
  8
VERDECKT
  6
VERDECKT
100
AcDbCircle
 10
290.7722304734269
 20
945.9824512459242
 30
0.0
 40
10.0
100
AcDbArc
 50
145.2280559680515
 51
180.0
  0
LINE
  5
C9B
330
410E
100
AcDbEntity
  8
VERDECKT
  6
VERDECKT
100
AcDbLine
 10
280.7722304734269
 20
945.9824512459242
 30
0.0
 11
280.7722304734269
 21
516.5101991605272
 31
0.0
  0
ARC
  5
C9C
330
410E
100
AcDbEntity
  8
VERDECKT
  6
VERDECKT
100
AcDbCircle
 10
256.7722304734269
 20
1001.505199160528
 30
0.0
 40
35.00004740563918
100
AcDbArc
 50
332.472816379448
 51
0.0943014490841215
  0
ARC
  5
C9D
330
410E
100
AcDbEntity
  8
VERDECKT
  6
VERDECKT
100
AcDbCircle
 10
303.7722304734269
 20
977.0101991605285
 30
0.0
 40
18.0
100
AcDbArc
 50
152.472816379448
 51
180.0
  0
ARC
  5
C9E
330
410E
100
AcDbEntity
  8
VERDECKT
  6
VERDECKT
100
AcDbCircle
 10
267.7722304734269
 20
961.9511706685953
 30
0.0
 40
18.0
100
AcDbArc
 50
325.2280559680514
 51
0.0
  0
LINE
  5
CA0
330
410E
100
AcDbEntity
  8
VERDECKT
  6
VERDECKT
100
AcDbLine
 10
285.7722304734269
 20
977.0101991605285
 30
0.0
 11
285.7722304734269
 21
961.9511706685953
 31
0.0
  0
LINE
  5
CA1
330
410E
100
AcDbEntity
  8
VERDECKT
  6
VERDECKT
100
AcDbLine
 10
291.7722304734269
 20
1017.727094942595
 30
0.0
 11
291.7722304734269
 21
1001.447593631375
 31
0.0
  0
LINE
  5
CA2
330
410E
100
AcDbEntity
  8
STEMPEL
  6
Continuous
100
AcDbLine
 10
91.77223047342693
 20
1033.510199160528
 30
0.0
 11
310.7722304734269
 21
1033.510199160528
 31
0.0
  0
LINE
  5
CA3
330
410E
100
AcDbEntity
  8
VERDECKT
  6
VERDECKT
100
AcDbLine
 10
288.0306752708331
 20
1033.510199160528
 30
0.0
 11
288.4930030197096
 21
1032.518734103519
 31
0.0
  0
LINE
  5
CBD
102
{ACAD_REACTORS
330
45B6
102
}
330
410E
100
AcDbEntity
  8
STEMPEL
100
AcDbLine
 10
421.0616970106006
 20
1031.122872682336
 30
0.0
 11
421.0616970106006
 21
514.1228726823353
 31
0.0
  0
LINE
  5
CBE
102
{ACAD_REACTORS
330
45B6
330
45E1
102
}
330
410E
100
AcDbEntity
  8
STEMPEL
100
AcDbLine
 10
640.0616970106004
 20
1031.122872682336
 30
0.0
 11
640.0616970106006
 21
743.4203298839447
 31
0.0
  0
LINE
  5
CBF
330
410E
100
AcDbEntity
  8
STEMPEL
100
AcDbLine
 10
310.7722304734269
 20
1033.510199160528
 30
0.0
 11
310.7722304734271
 21
516.5101991605268
 31
0.0
  0
LINE
  5
CC0
330
410E
100
AcDbEntity
  8
STEMPEL
100
AcDbLine
 10
91.77223047342693
 20
1033.510199160528
 30
0.0
 11
91.77223047342693
 21
516.5101991605268
 31
0.0
  0
LINE
  5
CC1
102
{ACAD_REACTORS
330
45B6
330
4669
330
4859
330
48AC
102
}
330
410E
100
AcDbEntity
  8
STEMPEL
100
AcDbLine
 10
423.9616970106005
 20
1031.122872682336
 30
0.0
 11
423.9616970106005
 21
516.1228726823354
 31
0.0
  0
LINE
  5
CC2
102
{ACAD_REACTORS
330
45B6
330
45E1
330
462C
330
4669
330
48AC
102
}
330
410E
100
AcDbEntity
  8
STEMPEL
100
AcDbLine
 10
637.1616970106006
 20
1031.122872682336
 30
0.0
 11
637.1616970106006
 21
754.2601991605283
 31
0.0
  0
LINE
  5
CC4
330
410E
100
AcDbEntity
  8
STEMPEL
  6
Continuous
100
AcDbLine
 10
640.0616970106006
 20
516.1228726823357
 30
0.0
 11
637.1616970106004
 21
516.1228726823357
 31
0.0
  0
LINE
  5
CC6
330
410E
100
AcDbEntity
  8
STEMPEL
  6
Continuous
100
AcDbLine
 10
121.7722304734269
 20
516.5101991605268
 30
0.0
 11
121.7722304734269
 21
463.4010468032476
 31
0.0
  0
LINE
  5
CC7
330
410E
100
AcDbEntity
  8
STEMPEL
  6
Continuous
100
AcDbLine
 10
280.7722304734268
 20
516.5101991605268
 30
0.0
 11
280.7722304734269
 21
463.4010468032484
 31
0.0
  0
LINE
  5
CC8
330
410E
100
AcDbEntity
  8
MITTEL
100
AcDbLine
 10
67.55672205816825
 20
813.5101991605285
 30
0.0
 11
337.0574857885044
 21
813.5101991605285
 31
0.0
  0
CIRCLE
  5
CC9
102
{ACAD_REACTORS
330
43D0
330
4804
102
}
330
410E
100
AcDbEntity
  8
STEMPEL
100
AcDbCircle
 10
201.2722304734269
 20
233.675675874031
 30
0.0
 40
109.5
  0
CIRCLE
  5
CCA
102
{ACAD_REACTORS
330
43D0
330
43E4
330
4804
330
48F6
330
492F
102
}
330
410E
100
AcDbEntity
  8
STEMPEL
100
AcDbCircle
 10
201.2722304734269
 20
233.675675874031
 30
0.0
 40
106.6
  0
CIRCLE
  5
CCB
102
{ACAD_REACTORS
330
481D
330
48F6
330
492F
102
}
330
410E
100
AcDbEntity
  8
STEMPEL
100
AcDbCircle
 10
201.2722304734269
 20
233.675675874031
 30
0.0
 40
79.5
  0
CIRCLE
  5
CCC
102
{ACAD_REACTORS
330
481D
102
}
330
410E
100
AcDbEntity
  8
STEMPEL
100
AcDbCircle
 10
201.2722304734269
 20
233.675675874031
 30
0.0
 40
77.0
  0
LINE
  5
CCD
102
{ACAD_REACTORS
330
43D0
330
4804
330
481D
330
492F
102
}
330
410E
100
AcDbEntity
  8
MITTEL
  6
STRICHPUNKT
100
AcDbLine
 10
315.7722304734269
 20
233.675675874031
 30
0.0
 11
86.77223047342693
 21
233.675675874031
 31
0.0
  0
LINE
  5
CCE
102
{ACAD_REACTORS
330
43D0
330
43E4
330
43ED
330
481D
330
48F6
330
492F
102
}
330
410E
100
AcDbEntity
  8
MITTEL
  6
STRICHPUNKT
100
AcDbLine
 10
201.2722304734269
 20
348.175675874031
 30
0.0
 11
201.2722304734269
 21
119.175675874031
 31
0.0
  0
LINE
  5
CCF
102
{ACAD_REACTORS
330
4392
330
481D
102
}
330
410E
100
AcDbEntity
  8
STEMPEL
  6
Continuous
100
AcDbLine
 10
152.2722304734269
 20
174.2787062543611
 30
0.0
 11
152.2722304734269
 21
148.675675874031
 31
0.0
  0
LINE
  5
CD0
102
{ACAD_REACTORS
330
4392
330
492F
102
}
330
410E
100
AcDbEntity
  8
STEMPEL
  6
Continuous
100
AcDbLine
 10
150.2722304734269
 20
171.0717622583472
 30
0.0
 11
150.2722304734269
 21
148.675675874031
 31
0.0
  0
LINE
  5
CD1
102
{ACAD_REACTORS
330
4392
330
481D
102
}
330
410E
100
AcDbEntity
  8
STEMPEL
  6
Continuous
100
AcDbLine
 10
250.2722304734269
 20
174.2787062543611
 30
0.0
 11
250.2722304734269
 21
148.675675874031
 31
0.0
  0
LINE
  5
CD2
102
{ACAD_REACTORS
330
4392
330
492F
102
}
330
410E
100
AcDbEntity
  8
STEMPEL
  6
Continuous
100
AcDbLine
 10
252.2722304734269
 20
171.0717622583472
 30
0.0
 11
252.2722304734269
 21
148.675675874031
 31
0.0
  0
LINE
  5
CD3
102
{ACAD_REACTORS
330
43D0
330
4804
102
}
330
410E
100
AcDbEntity
  8
STEMPEL
100
AcDbLine
 10
137.6400000746087
 20
148.1508300427072
 30
0.0
 11
135.9089168836464
 21
145.8241691335999
 31
0.0
  0
LINE
  5
CD4
330
410E
100
AcDbEntity
  8
STEMPEL
100
AcDbLine
 10
146.2722304734269
 20
144.175675874031
 30
0.0
 11
146.2722304734269
 21
142.175675874031
 31
0.0
  0
LINE
  5
CD5
102
{ACAD_REACTORS
330
43E4
330
43ED
102
}
330
410E
100
AcDbEntity
  8
STEMPEL
  6
Continuous
100
AcDbLine
 10
256.2722304734269
 20
144.1756758740309
 30
0.0
 11
146.2722304734269
 21
144.175675874031
 31
0.0
  0
LINE
  5
CD6
102
{ACAD_REACTORS
330
43E4
330
492F
102
}
330
410E
100
AcDbEntity
  8
STEMPEL
  6
Continuous
100
AcDbLine
 10
255.9651002098011
 20
142.1756758740309
 30
0.0
 11
146.5793607370527
 21
142.175675874031
 31
0.0
  0
LINE
  5
CD7
102
{ACAD_REACTORS
330
492F
102
}
330
410E
100
AcDbEntity
  8
STEMPEL
100
AcDbLine
 10
193.7722304734269
 20
135.3398399578169
 30
0.0
 11
193.7722304734269
 21
127.3398399578169
 31
0.0
  0
LINE
  5
CD8
330
410E
100
AcDbEntity
  8
STEMPEL
100
AcDbLine
 10
193.7722304734269
 20
127.3398399578169
 30
0.0
 11
208.7722304734269
 21
127.3398399578169
 31
0.0
  0
LINE
  5
CD9
102
{ACAD_REACTORS
330
492F
102
}
330
410E
100
AcDbEntity
  8
STEMPEL
100
AcDbLine
 10
193.7722304734269
 20
135.3398399578169
 30
0.0
 11
208.7722304734269
 21
135.3398399578169
 31
0.0
  0
LINE
  5
CDA
102
{ACAD_REACTORS
330
4392
102
}
330
410E
100
AcDbEntity
  8
STEMPEL
100
AcDbLine
 10
250.2722304734269
 20
171.0717622583472
 30
0.0
 11
252.2722304734268
 21
171.0717622583472
 31
0.0
  0
LINE
  5
CDB
102
{ACAD_REACTORS
330
4392
102
}
330
410E
100
AcDbEntity
  8
STEMPEL
100
AcDbLine
 10
152.2722304734269
 20
171.0717622583472
 30
0.0
 11
150.2722304734269
 21
171.0717622583472
 31
0.0
  0
ARC
  5
CDC
102
{ACAD_REACTORS
330
492F
102
}
330
410E
100
AcDbEntity
  8
SCHRAFF
100
AcDbCircle
 10
151.0988425625241
 20
173.4020602959776
 30
0.0
 40
2.472564759521095
100
AcDbArc
 50
164.6826302055622
 51
250.4691947197046
  0
INSERT
  5
CDD
330
410E
100
AcDbEntity
  8
SCHRAFF
100
AcDbBlockReference
  2
*X0
 10
-34.27067414500857
 20
-30.91891890189823
 30
0.0
1001
ACAD
1000
HATCH
1002
{
1070
    16
1000
ANSI31,I
1040
1.0
1040
0.0
1002
}
  0
INSERT
  5
CDE
330
410E
100
AcDbEntity
  8
SCHRAFF
100
AcDbBlockReference
  2
*X0
 10
436.8151350918624
 20
-30.91891890189823
 30
0.0
 41
-1.0
1001
ACAD
1000
HATCH
1002
{
1070
    16
1000
ANSI31,I
1040
1.0
1040
0.0
1002
}
  0
ARC
  5
CDF
102
{ACAD_REACTORS
330
492F
102
}
330
410E
100
AcDbEntity
  8
SCHRAFF
100
AcDbCircle
 10
251.4456183843297
 20
173.4020602959776
 30
0.0
 40
2.472564759521095
100
AcDbArc
 50
289.5308052802954
 51
15.31736979443774
  0
LINE
  5
CE2
102
{ACAD_REACTORS
330
4392
330
43ED
330
492F
102
}
330
410E
100
AcDbEntity
  8
STEMPEL
  6
Continuous
100
AcDbLine
 10
256.2722304734269
 20
148.675675874031
 30
0.0
 11
146.2722304734269
 21
148.675675874031
 31
0.0
  0
LINE
  5
CE3
102
{ACAD_REACTORS
330
43E4
330
43ED
330
492F
102
}
330
410E
100
AcDbEntity
  8
STEMPEL
100
AcDbLine
 10
146.2722304734269
 20
148.675675874031
 30
0.0
 11
146.2722304734269
 21
142.35995981157
 31
0.0
  0
LINE
  5
CF8
330
410E
100
AcDbEntity
  8
MITTEL
  6
STRICHPUNKT
100
AcDbLine
 10
189.3330129995333
 20
882.5101991605285
 30
0.0
 11
213.1162573025791
 21
882.5101991605285
 31
0.0
  0
CIRCLE
  5
D03
330
410E
100
AcDbEntity
  8
STEMPEL
100
AcDbCircle
 10
201.2722304734269
 20
882.5101991605285
 30
0.0
 40
6.0
  0
CIRCLE
  5
D04
330
410E
100
AcDbEntity
  8
STEMPEL
100
AcDbCircle
 10
201.2722304734269
 20
744.5101991605285
 30
0.0
 40
6.0
  0
LINE
  5
D05
330
410E
100
AcDbEntity
  8
MITTEL
  6
STRICHPUNKT
100
AcDbLine
 10
189.3330129995332
 20
744.5101991605282
 30
0.0
 11
213.1162573025791
 21
744.5101991605282
 31
0.0
  0
LINE
  5
D06
330
410E
100
AcDbEntity
  8
VERDECKT
100
AcDbLine
 10
193.7722304734269
 20
917.5101991605284
 30
0.0
 11
193.7722304734269
 21
877.5101991605284
 31
0.0
  0
LINE
  5
D07
330
410E
100
AcDbEntity
  8
VERDECKT
100
AcDbLine
 10
208.7722304734269
 20
917.5101991605284
 30
0.0
 11
208.7722304734269
 21
877.5101991605284
 31
0.0
  0
LINE
  5
D08
330
410E
100
AcDbEntity
  8
VERDECKT
  6
STRICHPUNKT
100
AcDbLine
 10
193.7722304734269
 20
877.5101991605284
 30
0.0
 11
208.7722304734269
 21
877.5101991605282
 31
0.0
  0
LINE
  5
D09
330
410E
100
AcDbEntity
  8
VERDECKT
  6
STRICHPUNKT
100
AcDbLine
 10
193.7722304734269
 20
749.5101991605282
 30
0.0
 11
208.7722304734269
 21
749.5101991605282
 31
0.0
  0
LINE
  5
D0A
330
410E
100
AcDbEntity
  8
VERDECKT
  6
STRICHPUNKT
100
AcDbLine
 10
193.7722304734269
 20
917.5101991605284
 30
0.0
 11
208.7722304734269
 21
917.5101991605284
 31
0.0
  0
LINE
  5
D0B
330
410E
100
AcDbEntity
  8
VERDECKT
  6
STRICHPUNKT
100
AcDbLine
 10
193.7722304734269
 20
709.5101991605282
 30
0.0
 11
208.7722304734269
 21
709.5101991605282
 31
0.0
  0
LINE
  5
D0C
330
410E
100
AcDbEntity
  8
VERDECKT
100
AcDbLine
 10
193.7722304734269
 20
749.5101991605282
 30
0.0
 11
193.7722304734269
 21
709.5101991605282
 31
0.0
  0
LINE
  5
D0D
330
410E
100
AcDbEntity
  8
VERDECKT
100
AcDbLine
 10
208.7722304734269
 20
749.5101991605282
 30
0.0
 11
208.7722304734269
 21
709.5101991605282
 31
0.0
  0
TEXT
  5
D0E
330
410E
100
AcDbEntity
  8
VOLL
100
AcDbText
 10
333.5202310907134
 20
1310.296211281335
 30
0.0
 40
1.8
  1

  7
GREEKS
100
AcDbText
  0
TEXT
  5
D0F
330
410E
100
AcDbEntity
  8
TEXT
100
AcDbText
 10
665.3524992943064
 20
1315.854446814561
 30
0.0
 40
2.5
  1
  
  7
GREEKS
 72
     1
 11
667.6144040562112
 21
1315.854446814561
 31
0.0
100
AcDbText
  0
TEXT
  5
D10
330
410E
100
AcDbEntity
  8
BEM
100
AcDbText
 10
909.4722166067883
 20
1451.413328844963
 30
0.0
 40
2.5
  1
 
 72
     4
 11
910.6031689877408
 21
1451.413328844963
 31
0.0
100
AcDbText
  0
TEXT
  5
D11
330
410E
100
AcDbEntity
  8
BEM
100
AcDbText
 10
560.544119880525
 20
1330.634745565934
 30
0.0
 40
2.5
  1

  7
GREEKS
100
AcDbText
  0
TEXT
  5
D12
330
410E
100
AcDbEntity
  8
VOLL
100
AcDbText
 10
546.4779268608035
 20
1310.451484908899
 30
0.0
 40
1.8
  1

  7
GREEKS
100
AcDbText
  0
TEXT
  5
D13
330
410E
100
AcDbEntity
  8
BEM
100
AcDbText
 10
580.9659917000882
 20
1315.177209232119
 30
0.0
 40
2.5
  1

 41
0.8
  7
GREEKS
100
AcDbText
  0
TEXT
  5
D14
330
410E
100
AcDbEntity
  8
BEM
100
AcDbText
 10
580.9659917000882
 20
1310.483440678067
 30
0.0
 40
2.5
  1

 41
0.8
  7
GREEKS
100
AcDbText
  0
TEXT
  5
D15
330
410E
100
AcDbEntity
  8
BEM
100
AcDbText
 10
580.9659917000882
 20
1305.245596859404
 30
0.0
 40
2.5
  1

 41
0.8
  7
GREEKS
100
AcDbText
  0
TEXT
  5
D16
330
410E
100
AcDbEntity
  8
BEM
100
AcDbText
 10
580.8930472227139
 20
1300.740407909306
 30
0.0
 40
1.8
  1

 41
0.8
  7
GREEKS
100
AcDbText
  0
TEXT
  5
D17
330
410E
100
AcDbEntity
  8
BEM
100
AcDbText
 10
568.2094763431025
 20
1326.331997005531
 30
0.0
 40
2.0
  1

 41
0.8
  7
GREEKS
 72
     1
 11
568.2094763431025
 21
1326.331997005531
 31
0.0
100
AcDbText
  0
TEXT
  5
D18
330
410E
100
AcDbEntity
  8
TEXT
100
AcDbText
 10
878.3101950643965
 20
1316.009720442124
 30
0.0
 40
2.5
  1
  
  7
GREEKS
 72
     1
 11
880.5720998263014
 21
1316.009720442124
 31
0.0
100
AcDbText
  0
TEXT
  5
D19
330
410E
100
AcDbEntity
  8
BEM
100
AcDbText
 10
1122.429912376879
 20
1451.568602472527
 30
0.0
 40
2.5
  1
 
 72
     4
 11
1123.560864757831
 21
1451.568602472527
 31
0.0
100
AcDbText
  0
TEXT
  5
D2A
330
410E
100
AcDbEntity
  8
TEXT
  6
ByBlock
 62
     3
100
AcDbText
 10
71.56238394083513
 20
827.7300022111978
 30
0.0
 40
10.0
  1
A
 50
90.8386931796442
 41
0.8
 72
     1
 11
66.51831028108711
 21
830.7041075849944
 31
0.0
100
AcDbText
 73
     2
  0
LINE
  5
D2B
330
410E
100
AcDbEntity
  8
TEXT
  6
ByBlock
 62
     3
100
AcDbLine
 10
75.29744295103125
 20
820.5094492296304
 30
0.0
 11
75.26740179461388
 21
838.0887225640364
 31
0.0
  0
SOLID
  5
D2C
330
410E
100
AcDbEntity
  8
TEXT
  6
ByBlock
 62
     3
100
AcDbTrace
 10
74.1309012728476
 20
820.4923722225281
 30
0.0
 11
76.4639846292149
 21
820.5265262367326
 31
0.0
 12
75.39990499364478
 22
813.5101991605285
 32
0.0
 13
75.39990499364478
 23
813.5101991605285
 33
0.0
  0
CIRCLE
  5
D2F
330
410E
100
AcDbEntity
  8
VERDECKT
100
AcDbCircle
 10
201.2722304734269
 20
813.5101991605285
 30
0.0
 40
51.0
  0
CIRCLE
  5
D30
330
410E
100
AcDbEntity
  8
VERDECKT
100
AcDbCircle
 10
201.2722304734269
 20
813.5101991605285
 30
0.0
 40
49.0
  0
TEXT
  5
D35
330
410E
100
AcDbEntity
  8
TEXT
  6
ByBlock
 62
     3
100
AcDbText
 10
327.7501969119446
 20
828.1109137795841
 30
0.0
 40
10.0
  1
B
 50
90.8386931796442
 41
0.8
 72
     4
 11
322.711699417781
 21
830.7041075849944
 31
0.0
100
AcDbText
  0
LINE
  5
D36
330
410E
100
AcDbEntity
  8
TEXT
  6
ByBlock
 62
     3
100
AcDbLine
 10
331.4908320877251
 20
820.5094492296304
 30
0.0
 11
331.4607909313078
 21
838.0887225640364
 31
0.0
  0
SOLID
  5
D37
330
410E
100
AcDbEntity
  8
TEXT
  6
ByBlock
 62
     3
100
AcDbTrace
 10
330.3242904095415
 20
820.4923722225281
 30
0.0
 11
332.6573737659088
 21
820.5265262367326
 31
0.0
 12
331.5932941303387
 22
813.5101991605285
 32
0.0
 13
331.5932941303387
 23
813.5101991605285
 33
0.0
  0
DIMENSION
  5
D38
330
410E
100
AcDbEntity
  8
BEM
100
AcDbDimension
  2
*D6
 10
349.6878343452828
 20
813.5101991605285
 30
0.0
 11
344.1878343452826
 21
666.0101991605285
 31
0.0
 70
    32
 71
     5
 42
295.0
  3
STANDARD
100
AcDbAlignedDimension
 13
310.7722304734269
 23
518.5101991605285
 33
0.0
 14
337.0574857885044
 24
813.5101991605285
 34
0.0
 50
90.0
100
AcDbRotatedDimension
1001
ACAD
1000
DSTYLE
1002
{
1070
    40
1040
2.0
1070
    41
1040
3.5
1070
    42
1040
1.0
1070
    43
1040
8.0
1070
    44
1040
1.0
1070
    73
1070
     0
1070
    74
1070
     0
1070
    77
1070
     1
1070
    78
1070
     8
1070
   140
1040
3.5
1070
   141
1040
1.5
1070
   147
1040
1.0
1070
   178
1070
     1
1070
   271
1070
     0
1070
   272
1070
     0
1002
}
  0
DIMENSION
  5
D3B
330
410E
100
AcDbEntity
  8
BEM
100
AcDbDimension
  2
*D4
 10
382.6892194914913
 20
1033.510199160528
 30
0.0
 11
377.1892194914911
 21
743.5101991605286
 31
0.0
 70
    32
 71
     5
 42
580.0
  3
STANDARD
100
AcDbAlignedDimension
 13
278.7722304734269
 23
453.5101991605285
 33
0.0
 14
310.7722304734269
 24
1033.510199160528
 34
0.0
 50
90.0
100
AcDbRotatedDimension
1001
ACAD
1000
DSTYLE
1002
{
1070
    40
1040
2.0
1070
    41
1040
3.5
1070
    42
1040
1.0
1070
    43
1040
8.0
1070
    44
1040
1.0
1070
    73
1070
     0
1070
    74
1070
     0
1070
    77
1070
     1
1070
    78
1070
     8
1070
   140
1040
3.5
1070
   141
1040
1.5
1070
   147
1040
1.0
1070
   178
1070
     1
1070
   271
1070
     0
1070
   272
1070
     0
1002
}
  0
LINE
  5
D41
102
{ACAD_REACTORS
330
4635
330
463A
330
48AC
102
}
330
410E
100
AcDbEntity
  8
STEMPEL
100
AcDbLine
 10
615.5616970106006
 20
868.510199160528
 30
0.0
 11
615.5616970106006
 21
758.5101991605285
 31
0.0
  0
LINE
  5
D42
102
{ACAD_REACTORS
330
4859
330
48AC
102
}
330
410E
100
AcDbEntity
  8
MITTEL
100
AcDbLine
 10
416.0616970106006
 20
813.5101991605282
 30
0.0
 11
645.8594879797285
 21
813.5101991605285
 31
0.0
  0
LINE
  5
D43
102
{ACAD_REACTORS
330
462C
330
48AC
102
}
330
410E
100
AcDbEntity
  8
STEMPEL
  6
STRICHPUNKT
100
AcDbLine
 10
629.1616970106006
 20
911.0101991605285
 30
0.0
 11
637.1616970106004
 21
911.0101991605283
 31
0.0
  0
LINE
  5
D44
330
410E
100
AcDbEntity
  8
MITTEL
100
AcDbLine
 10
624.1616970106007
 20
876.0101991605285
 30
0.0
 11
645.0616970106006
 21
876.0101991605285
 31
0.0
  0
LINE
  5
D45
102
{ACAD_REACTORS
330
462C
330
48AC
102
}
330
410E
100
AcDbEntity
  8
STEMPEL
  6
STRICHPUNKT
100
AcDbLine
 10
629.1616970106006
 20
871.0101991605284
 30
0.0
 11
637.1616970106004
 21
871.0101991605283
 31
0.0
  0
LINE
  5
D46
102
{ACAD_REACTORS
330
4600
330
463A
330
48AC
102
}
330
410E
100
AcDbEntity
  8
STEMPEL
  6
VERDECKT
100
AcDbLine
 10
622.0616970106005
 20
868.5101991605284
 30
0.0
 11
615.5616970106006
 21
868.510199160528
 31
0.0
  0
LINE
  5
D47
102
{ACAD_REACTORS
330
4600
330
463A
330
48AC
102
}
330
410E
100
AcDbEntity
  8
STEMPEL
  6
VERDECKT
100
AcDbLine
 10
622.0616970106005
 20
758.5101991605285
 30
0.0
 11
615.5616970106006
 21
758.5101991605285
 31
0.0
  0
LINE
  5
D48
102
{ACAD_REACTORS
330
462C
330
48AC
102
}
330
410E
100
AcDbEntity
  8
STEMPEL
  6
STRICHPUNKT
100
AcDbLine
 10
629.1616970106006
 20
756.0101991605282
 30
0.0
 11
637.1616970106004
 21
756.0101991605282
 31
0.0
  0
LINE
  5
D49
330
410E
100
AcDbEntity
  8
MITTEL
  6
STRICHPUNKT
100
AcDbLine
 10
622.6525708531739
 20
751.0101991605282
 30
0.0
 11
646.4358151562199
 21
751.0101991605282
 31
0.0
  0
LINE
  5
D4A
102
{ACAD_REACTORS
330
462C
330
48AC
102
}
330
410E
100
AcDbEntity
  8
STEMPEL
  6
STRICHPUNKT
100
AcDbLine
 10
629.1616970106005
 20
716.0101991605282
 30
0.0
 11
637.1616970106006
 21
716.0101991605282
 31
0.0
  0
LINE
  5
D4B
102
{ACAD_REACTORS
330
462C
330
48AC
102
}
330
410E
100
AcDbEntity
  8
STEMPEL
100
AcDbLine
 10
629.1616970106006
 20
911.0101991605285
 30
0.0
 11
629.1616970106006
 21
871.0101991605284
 31
0.0
  0
LINE
  5
D4C
102
{ACAD_REACTORS
330
462C
330
48AC
102
}
330
410E
100
AcDbEntity
  8
STEMPEL
100
AcDbLine
 10
629.1616970106006
 20
756.0101991605283
 30
0.0
 11
629.1616970106005
 21
716.0101991605282
 31
0.0
  0
LINE
  5
D4D
102
{ACAD_REACTORS
330
45E1
102
}
330
410E
100
AcDbEntity
  8
STEMPEL
100
AcDbLine
 10
637.5616970106006
 20
879.2601991605284
 30
0.0
 11
640.0616970106006
 21
882.0101991605284
 31
0.0
  0
LINE
  5
D4E
102
{ACAD_REACTORS
330
45E1
330
462C
102
}
330
410E
100
AcDbEntity
  8
STEMPEL
100
AcDbLine
 10
637.5616970106006
 20
879.2601991605284
 30
0.0
 11
629.1616970106006
 21
879.2601991605284
 31
0.0
  0
LINE
  5
D4F
330
410E
100
AcDbEntity
  8
STEMPEL
100
AcDbLine
 10
637.5616970106003
 20
879.2601991605284
 30
0.0
 11
637.5616970106003
 21
872.7601991605284
 31
0.0
  0
LINE
  5
D50
102
{ACAD_REACTORS
330
45E1
330
462C
102
}
330
410E
100
AcDbEntity
  8
STEMPEL
100
AcDbLine
 10
637.5616970106006
 20
872.7601991605284
 30
0.0
 11
629.1616970106006
 21
872.7601991605284
 31
0.0
  0
LINE
  5
D51
102
{ACAD_REACTORS
330
45E1
102
}
330
410E
100
AcDbEntity
  8
STEMPEL
100
AcDbLine
 10
637.5616970106006
 20
872.7601991605284
 30
0.0
 11
640.0616970106006
 21
870.0101991605285
 31
0.0
  0
LINE
  5
D52
102
{ACAD_REACTORS
330
45E1
330
462C
102
}
330
410E
100
AcDbEntity
  8
STEMPEL
100
AcDbLine
 10
637.5616970106007
 20
754.2601991605282
 30
0.0
 11
629.1616970106006
 21
754.2601991605282
 31
0.0
  0
LINE
  5
D53
330
410E
100
AcDbEntity
  8
STEMPEL
100
AcDbLine
 10
637.5616970106005
 20
754.2601991605282
 30
0.0
 11
637.5616970106005
 21
747.7601991605283
 31
0.0
  0
LINE
  5
D54
102
{ACAD_REACTORS
330
45E1
102
}
330
410E
100
AcDbEntity
  8
STEMPEL
100
AcDbLine
 10
637.5616970106007
 20
754.2601991605282
 30
0.0
 11
640.0616970106007
 21
757.0101991605282
 31
0.0
  0
LINE
  5
D55
102
{ACAD_REACTORS
330
45E1
102
}
330
410E
100
AcDbEntity
  8
STEMPEL
100
AcDbLine
 10
637.5616970106007
 20
747.7601991605283
 30
0.0
 11
640.0616970106007
 21
745.0101991605282
 31
0.0
  0
LINE
  5
D56
102
{ACAD_REACTORS
330
45E1
330
462C
102
}
330
410E
100
AcDbEntity
  8
STEMPEL
100
AcDbLine
 10
637.5616970106007
 20
747.7601991605283
 30
0.0
 11
629.1616970106006
 21
747.7601991605283
 31
0.0
  0
LINE
  5
D57
330
410E
100
AcDbEntity
  8
MITTEL
100
AcDbLine
 10
644.8124809308786
 20
751.0101991605282
 30
0.0
 11
626.5281276766909
 21
751.0101991605282
 31
0.0
  0
LINE
  5
D58
102
{ACAD_REACTORS
330
4600
330
463A
102
}
330
410E
100
AcDbEntity
  8
STEMPEL
100
AcDbLine
 10
620.0616970106004
 20
868.5101991605282
 30
0.0
 11
620.0616970106004
 21
758.5101991605285
 31
0.0
  0
LINE
  5
D59
102
{ACAD_REACTORS
330
4600
330
48AC
102
}
330
410E
100
AcDbEntity
  8
STEMPEL
100
AcDbLine
 10
622.0616970106005
 20
868.5101991605284
 30
0.0
 11
622.0616970106005
 21
758.5101991605285
 31
0.0
  0
LINE
  5
D5A
102
{ACAD_REACTORS
330
4635
330
48AC
102
}
330
410E
100
AcDbEntity
  8
STEMPEL
  6
Continuous
100
AcDbLine
 10
610.0616970106004
 20
864.5101991605285
 30
0.0
 11
615.5616970106006
 21
864.5101991605285
 31
0.0
  0
LINE
  5
D5B
102
{ACAD_REACTORS
330
4635
330
48AC
102
}
330
410E
100
AcDbEntity
  8
STEMPEL
  6
Continuous
100
AcDbLine
 10
610.0616970106004
 20
762.5101991605284
 30
0.0
 11
615.5616970106006
 21
762.5101991605284
 31
0.0
  0
LINE
  5
D61
330
410E
100
AcDbEntity
  8
TEXT
 62
     3
100
AcDbLine
 10
61.47351658482614
 20
362.0044042591346
 30
0.0
 11
136.9470324183129
 21
362.0044042591346
 31
0.0
  0
TEXT
  5
D62
330
410E
100
AcDbEntity
  8
TEXT
 62
     3
100
AcDbText
 10
62.64070009674298
 20
364.5204279036486
 30
0.0
 40
10.0
  1
Schnitt A-B
 41
0.8
100
AcDbText
  0
LINE
  5
D65
102
{ACAD_REACTORS
330
492F
102
}
330
410E
100
AcDbEntity
  8
STEMPEL
100
AcDbLine
 10
208.7722304734269
 20
127.3398399578169
 30
0.0
 11
208.7722304734269
 21
135.3398399578169
 31
0.0
  0
LINE
  5
D67
102
{ACAD_REACTORS
330
43E4
330
43ED
330
492F
102
}
330
410E
100
AcDbEntity
  8
STEMPEL
100
AcDbLine
 10
256.2722304734269
 20
148.675675874031
 30
0.0
 11
256.2722304734269
 21
142.35995981157
 31
0.0
  0
LINE
  5
D6D
102
{ACAD_REACTORS
330
45B6
330
45E1
102
}
330
410E
100
AcDbEntity
  8
STEMPEL
100
AcDbLine
 10
637.1616970106004
 20
883.4202605588339
 30
0.0
 11
640.0616970106004
 21
883.4202605588339
 31
0.0
  0
LINE
  5
D6E
102
{ACAD_REACTORS
330
45B6
330
45E1
102
}
330
410E
100
AcDbEntity
  8
STEMPEL
100
AcDbLine
 10
637.1616970106006
 20
743.4203298839447
 30
0.0
 11
640.0616970106004
 21
743.4203298839447
 31
0.0
  0
LINE
  5
D72
102
{ACAD_REACTORS
330
45B6
102
}
330
410E
100
AcDbEntity
  8
STEMPEL
100
AcDbLine
 10
640.0616970106006
 20
743.4203298839447
 30
0.0
 11
640.0616970106004
 21
514.1228726823355
 31
0.0
  0
LINE
  5
D73
102
{ACAD_REACTORS
330
45B6
330
462C
330
48AC
102
}
330
410E
100
AcDbEntity
  8
STEMPEL
100
AcDbLine
 10
637.1616970106006
 20
743.4203298839447
 30
0.0
 11
637.1616970106006
 21
516.1228726823354
 31
0.0
  0
LINE
  5
D78
102
{ACAD_REACTORS
330
45E1
330
462C
102
}
330
410E
100
AcDbEntity
  8
STEMPEL
100
AcDbLine
 10
637.1616970106006
 20
747.7601991605283
 30
0.0
 11
637.1616970106006
 21
743.4203298839447
 31
0.0
  0
LINE
  5
D80
102
{ACAD_REACTORS
330
4589
102
}
330
410E
100
AcDbEntity
  8
STEMPEL
  6
Continuous
100
AcDbLine
 10
607.5616970106006
 20
943.5951247677314
 30
0.0
 11
607.5616970106004
 21
862.5101991605285
 31
0.0
  0
LINE
  5
D81
102
{ACAD_REACTORS
330
4589
330
4635
330
48AC
102
}
330
410E
100
AcDbEntity
  8
STEMPEL
  6
Continuous
100
AcDbLine
 10
610.0616970106004
 20
943.5951247677314
 30
0.0
 11
610.0616970106004
 21
862.5101991605284
 31
0.0
  0
LINE
  5
D86
102
{ACAD_REACTORS
330
4589
330
4635
102
}
330
410E
100
AcDbEntity
  8
STEMPEL
  6
Continuous
100
AcDbLine
 10
607.5616970106003
 20
862.5101991605284
 30
0.0
 11
615.5616970106006
 21
862.5101991605285
 31
0.0
  0
LINE
  5
D87
102
{ACAD_REACTORS
330
4589
330
4635
102
}
330
410E
100
AcDbEntity
  8
STEMPEL
  6
Continuous
100
AcDbLine
 10
607.5616970106006
 20
764.5101991605285
 30
0.0
 11
615.5616970106006
 21
764.5101991605285
 31
0.0
  0
DIMENSION
  5
D94
330
410E
100
AcDbEntity
  8
BEM
100
AcDbDimension
  2
*D3
 10
640.0616970106004
 20
1043.545147561844
 30
0.0
 11
530.5616970106004
 21
1043.545147561844
 31
0.0
 70
   160
  1
%%c<>
 71
     5
 42
218.9999999999999
  3
STANDARD
100
AcDbAlignedDimension
 13
421.0616970106006
 23
1031.122872682336
 33
0.0
 14
640.0616970106004
 24
1031.122872682336
 34
0.0
100
AcDbRotatedDimension
1001
ACAD
1000
DSTYLE
1002
{
1070
    40
1040
2.0
1070
    41
1040
3.5
1070
    42
1040
1.0
1070
    43
1040
8.0
1070
    44
1040
1.0
1070
    73
1070
     0
1070
    74
1070
     0
1070
    77
1070
     1
1070
    78
1070
     8
1070
    79
1070
     2
1070
   140
1040
3.5
1070
   141
1040
1.5
1070
   147
1040
1.5
1070
   172
1070
     1
1070
   178
1070
     1
1070
   179
1070
     2
1070
   271
1070
     0
1070
   272
1070
     0
1070
   279
1070
     0
1002
}
  0
ARC
  5
D96
102
{ACAD_REACTORS
330
492F
102
}
330
410E
100
AcDbEntity
  8
SCHRAFF
100
AcDbCircle
 10
193.7722304734269
 20
127.3398399578169
 30
0.0
 40
3.714490184642703
100
AcDbArc
 50
90.0
 51
174.9672481431018
  0
INSERT
  5
D97
330
410E
100
AcDbEntity
  8
SCHRAFF
100
AcDbBlockReference
  2
*X1
 10
0.0
 20
-30.91891890189823
 30
0.0
1001
ACAD
1000
HATCH
1002
{
1070
    16
1000
ANSI31,I
1040
1.0
1040
1.570796326794896
1002
}
  0
INSERT
  5
D98
330
410E
100
AcDbEntity
  8
SCHRAFF
100
AcDbBlockReference
  2
*X1
 10
403.1325270662217
 20
-30.12357662562977
 30
0.0
 41
-1.0
 50
0.2260779942800362
1001
ACAD
1000
HATCH
1002
{
1070
    16
1000
ANSI31,I
1040
1.0
1040
1.570796326794896
1002
}
  0
ARC
  5
D99
102
{ACAD_REACTORS
330
492F
102
}
330
410E
100
AcDbEntity
  8
SCHRAFF
100
AcDbCircle
 10
208.737348407982
 20
127.369364717452
 30
0.0
 40
3.714490184642703
100
AcDbArc
 50
5.258829851178266
 51
90.22607799428005
  0
TEXT
  5
1829
330
410E
100
AcDbEntity
  8
BEM
100
AcDbText
 10
1525.162562638361
 20
726.5397407961129
 30
0.0
 40
2.5
  1

 41
0.8
  7
GREEKS
100
AcDbText
  0
LINE
  5
1846
330
410E
100
AcDbEntity
  8
STEMPEL
100
AcDbLine
 10
310.7722304734271
 20
518.5101991605278
 30
0.0
 11
91.77223047342693
 21
518.5101991605272
 31
0.0
  0
POINT
  5
19B7
330
410E
100
AcDbEntity
  8
VERDECKT
  6
ByBlock
 62
     0
100
AcDbPoint
 10
114.7722304734269
 20
1033.510199160528
 30
0.0
  0
POINT
  5
19B8
330
410E
100
AcDbEntity
  8
VERDECKT
  6
ByBlock
 62
     0
100
AcDbPoint
 10
287.7722304734271
 20
1033.510199160528
 30
0.0
  0
POINT
  5
19C0
330
410E
100
AcDbEntity
  8
VERDECKT
  6
ByBlock
 62
     0
100
AcDbPoint
 10
104.2722304734269
 20
1033.510199160528
 30
0.0
  0
POINT
  5
19E1
330
410E
100
AcDbEntity
  8
VERDECKT
  6
ByBlock
 62
     0
100
AcDbPoint
 10
109.2722304734269
 20
1033.510199160528
 30
0.0
  0
POINT
  5
19E2
330
410E
100
AcDbEntity
  8
VERDECKT
  6
ByBlock
 62
     0
100
AcDbPoint
 10
99.27223047342693
 20
1033.510199160528
 30
0.0
  0
POINT
  5
19EC
330
410E
100
AcDbEntity
  8
VERDECKT
  6
ByBlock
 62
     0
100
AcDbPoint
 10
114.7722304734269
 20
1033.510199160528
 30
0.0
  0
POINT
  5
19ED
330
410E
100
AcDbEntity
  8
VERDECKT
  6
ByBlock
 62
     0
100
AcDbPoint
 10
114.7722304734269
 20
1033.510199160528
 30
0.0
  0
POINT
  5
19F7
330
410E
100
AcDbEntity
  8
VERDECKT
  6
ByBlock
 62
     0
100
AcDbPoint
 10
109.2722304734269
 20
1033.510199160528
 30
0.0
  0
POINT
  5
19F8
330
410E
100
AcDbEntity
  8
VERDECKT
  6
ByBlock
 62
     0
100
AcDbPoint
 10
109.2722304734269
 20
1033.510199160528
 30
0.0
  0
POINT
  5
1CBB
330
410E
100
AcDbEntity
  8
VERDECKT
  6
ByBlock
 62
     0
100
AcDbPoint
 10
303.2722304734269
 20
1033.510199160528
 30
0.0
  0
POINT
  5
1CC3
330
410E
100
AcDbEntity
  8
VERDECKT
  6
ByBlock
 62
     0
100
AcDbPoint
 10
293.2722304734269
 20
1033.510199160528
 30
0.0
  0
POINT
  5
1CC4
330
410E
100
AcDbEntity
  8
VERDECKT
  6
ByBlock
 62
     0
100
AcDbPoint
 10
293.2722304734269
 20
1033.510199160528
 30
0.0
  0
POINT
  5
1CC5
330
410E
100
AcDbEntity
  8
VERDECKT
  6
ByBlock
 62
     0
100
AcDbPoint
 10
293.2722304734269
 20
1033.510199160528
 30
0.0
  0
POINT
  5
1CC6
330
410E
100
AcDbEntity
  8
VERDECKT
  6
ByBlock
 62
     0
100
AcDbPoint
 10
298.2722304734269
 20
1033.510199160528
 30
0.0
  0
LINE
  5
1CCD
102
{ACAD_REACTORS
330
48AC
102
}
330
410E
100
AcDbEntity
  8
STEMPEL
100
AcDbLine
 10
635.3116970106007
 20
532.1228726823346
 30
0.0
 11
610.0616970106004
 21
532.1228726823347
 31
0.0
  0
LINE
  5
1CCE
330
410E
100
AcDbEntity
  8
STEMPEL
100
AcDbLine
 10
617.3616970106007
 20
523.1228726823348
 30
0.0
 11
610.0616970106004
 21
523.1228726823348
 31
0.0
  0
LINE
  5
1CD1
102
{ACAD_REACTORS
330
48AC
102
}
330
410E
100
AcDbEntity
  8
STEMPEL
100
AcDbLine
 10
423.9616970106005
 20
530.2728726823353
 30
0.0
 11
425.8116970106009
 21
532.1228726823355
 31
0.0
  0
LINE
  5
1CD2
330
410E
100
AcDbEntity
  8
STEMPEL
100
AcDbLine
 10
423.8116970106009
 20
516.1228726823357
 30
0.0
 11
421.0616970106009
 21
516.1228726823357
 31
0.0
  0
LINE
  5
1CDE
330
410E
100
AcDbEntity
  8
STEMPEL
100
AcDbLine
 10
451.061697010601
 20
523.1228726823355
 30
0.0
 11
451.061697010601
 21
532.1228726823355
 31
0.0
  0
LINE
  5
1CF0
330
410E
100
AcDbEntity
  8
STEMPEL
100
AcDbLine
 10
610.0616970106007
 20
523.1228726823348
 30
0.0
 11
610.0616970106008
 21
532.1228726823348
 31
0.0
  0
LINE
  5
1CFC
102
{ACAD_REACTORS
330
48AC
102
}
330
410E
100
AcDbEntity
  8
STEMPEL
100
AcDbLine
 10
637.1616970106006
 20
530.2728726823347
 30
0.0
 11
635.3116970106007
 21
532.1228726823346
 31
0.0
  0
LINE
  5
1D02
330
410E
100
AcDbEntity
  8
STEMPEL
100
AcDbLine
 10
640.0616970106007
 20
516.1228726823346
 30
0.0
 11
637.3116970106009
 21
516.1228726823346
 31
0.0
  0
LINE
  5
1D03
102
{ACAD_REACTORS
330
45B6
102
}
330
410E
100
AcDbEntity
  8
STEMPEL
100
AcDbLine
 10
640.0616970106007
 20
516.1228726823346
 30
0.0
 11
637.1616970106006
 21
516.1228726823346
 31
0.0
  0
LINE
  5
1D07
102
{ACAD_REACTORS
330
4669
330
48AC
102
}
330
410E
100
AcDbEntity
  8
STEMPEL
100
AcDbLine
 10
635.3116970106007
 20
1013.122872682335
 30
0.0
 11
621.0616970106005
 21
1013.122872682335
 31
0.0
  0
LINE
  5
1D0F
102
{ACAD_REACTORS
330
4669
330
48AC
102
}
330
410E
100
AcDbEntity
  8
STEMPEL
100
AcDbLine
 10
423.9616970106005
 20
1014.972872682335
 30
0.0
 11
425.8116970106006
 21
1013.122872682335
 31
0.0
  0
LINE
  5
1D29
102
{ACAD_REACTORS
330
4669
330
48AC
102
}
330
410E
100
AcDbEntity
  8
STEMPEL
100
AcDbLine
 10
637.1616970106006
 20
1014.972872682335
 30
0.0
 11
635.3116970106007
 21
1013.122872682335
 31
0.0
  0
LINE
  5
1D43
102
{ACAD_REACTORS
330
45B6
102
}
330
410E
100
AcDbEntity
  8
STEMPEL
  6
Continuous
100
AcDbLine
 10
423.9616970106006
 20
516.1228726823357
 30
0.0
 11
421.0616970106006
 21
516.1228726823357
 31
0.0
  0
LINE
  5
1D46
330
410E
100
AcDbEntity
  8
STEMPEL
100
AcDbLine
 10
451.0616970106005
 20
523.1228726823353
 30
0.0
 11
443.761697010601
 21
523.1228726823353
 31
0.0
  0
LINE
  5
1D47
102
{ACAD_REACTORS
330
48AC
102
}
330
410E
100
AcDbEntity
  8
STEMPEL
100
AcDbLine
 10
451.0616970106006
 20
532.1228726823351
 30
0.0
 11
425.8116970106007
 21
532.1228726823351
 31
0.0
  0
LINE
  5
1D9F
330
410E
100
AcDbEntity
  8
VERDECKT
100
AcDbLine
 10
94.67223047342693
 20
1033.510199160528
 30
0.0
 11
94.67223047342695
 21
518.5101991605273
 31
0.0
  0
LINE
  5
1DA0
330
410E
100
AcDbEntity
  8
VERDECKT
100
AcDbLine
 10
307.872230473427
 20
1033.510199160528
 30
0.0
 11
307.872230473427
 21
518.5101991605278
 31
0.0
  0
LINE
  5
1DA2
102
{ACAD_REACTORS
330
4669
330
48AC
102
}
330
410E
100
AcDbEntity
  8
STEMPEL
100
AcDbLine
 10
440.0616970106006
 20
1013.122872682335
 30
0.0
 11
425.8116970106008
 21
1013.122872682335
 31
0.0
  0
LINE
  5
1E6A
330
410E
100
AcDbEntity
  8
STEMPEL
100
AcDbLine
 10
730.0000000000004
 20
1177.999999999999
 30
0.0
 11
830.0000000000004
 21
1177.999999999999
 31
0.0
  0
TEXT
  5
2FA6
330
410E
100
AcDbEntity
  8
VOLL
100
AcDbText
 10
1091.2314774606
 20
165.4993687905898
 30
0.0
 40
1.8
  1

  7
GREEKS
100
AcDbText
  0
TEXT
  5
2FA7
330
410E
100
AcDbEntity
  8
VOLL
100
AcDbText
 10
1180.897651386273
 20
170.7914855063092
 30
0.0
 40
1.8
  1

  7
GREEKS
100
AcDbText
  0
TEXT
  5
2FA8
330
410E
100
AcDbEntity
  8
TEXT
100
AcDbText
 10
1512.729919589866
 20
176.3497210395347
 30
0.0
 40
2.5
  1
  
  7
GREEKS
 72
     1
 11
1514.991824351771
 21
176.3497210395347
 31
0.0
100
AcDbText
  0
TEXT
  5
2FA9
330
410E
100
AcDbEntity
  8
BEM
100
AcDbText
 10
1756.849636902348
 20
311.9086030699369
 30
0.0
 40
2.5
  1
 
 72
     4
 11
1757.980589283301
 21
311.9086030699369
 31
0.0
100
AcDbText
  0
TEXT
  5
2FAA
330
410E
100
AcDbEntity
  8
BEM
100
AcDbText
 10
1322.538981032198
 20
194.4281996974705
 30
0.0
 40
2.5
  1

  7
GREEKS
100
AcDbText
  0
TEXT
  5
2FAB
330
410E
100
AcDbEntity
  8
VOLL
100
AcDbText
 10
1308.472788012476
 20
174.2449390404355
 30
0.0
 40
1.8
  1

  7
GREEKS
100
AcDbText
  0
TEXT
  5
2FAC
330
410E
100
AcDbEntity
  8
BEM
100
AcDbText
 10
1342.960852851761
 20
178.970663363656
 30
0.0
 40
2.5
  1

 41
0.8
  7
GREEKS
100
AcDbText
  0
TEXT
  5
2FAD
330
410E
100
AcDbEntity
  8
BEM
100
AcDbText
 10
1342.960852851761
 20
174.2768948096039
 30
0.0
 40
2.5
  1

 41
0.8
  7
GREEKS
100
AcDbText
  0
TEXT
  5
2FAE
330
410E
100
AcDbEntity
  8
BEM
100
AcDbText
 10
1342.960852851761
 20
169.0390509909404
 30
0.0
 40
2.5
  1

 41
0.8
  7
GREEKS
100
AcDbText
  0
TEXT
  5
2FAF
330
410E
100
AcDbEntity
  8
BEM
100
AcDbText
 10
1342.887908374387
 20
164.5338620408428
 30
0.0
 40
1.8
  1

 41
0.8
  7
GREEKS
100
AcDbText
  0
TEXT
  5
2FB0
330
410E
100
AcDbEntity
  8
BEM
100
AcDbText
 10
1330.204337494775
 20
190.125451137068
 30
0.0
 40
2.0
  1

 41
0.8
  7
GREEKS
 72
     1
 11
1330.204337494775
 21
190.125451137068
 31
0.0
100
AcDbText
  0
TEXT
  5
2FB1
330
410E
100
AcDbEntity
  8
TEXT
100
AcDbText
 10
1640.305056216069
 20
179.803174573661
 30
0.0
 40
2.5
  1
  
  7
GREEKS
 72
     1
 11
1642.566960977974
 21
179.803174573661
 31
0.0
100
AcDbText
  0
TEXT
  5
2FB2
330
410E
100
AcDbEntity
  8
BEM
100
AcDbText
 10
1884.424773528552
 20
315.3620566040633
 30
0.0
 40
2.5
  1
 
 72
     4
 11
1885.555725909504
 21
315.3620566040633
 31
0.0
100
AcDbText
  0
TEXT
  5
2FB3
330
410E
100
AcDbEntity
  8
VOLL
100
AcDbText
 10
1233.189552407762
 20
181.6964531024246
 30
0.0
 40
1.8
  1

  7
GREEKS
100
AcDbText
  0
TEXT
  5
2FB4
330
410E
100
AcDbEntity
  8
TEXT
100
AcDbText
 10
1565.021820611355
 20
187.2546886356501
 30
0.0
 40
2.5
  1
  
  7
GREEKS
 72
     1
 11
1567.28372537326
 21
187.2546886356501
 31
0.0
100
AcDbText
  0
TEXT
  5
2FB5
330
410E
100
AcDbEntity
  8
BEM
100
AcDbText
 10
1809.141537923837
 20
322.8135706660524
 30
0.0
 40
2.5
  1
 
 72
     4
 11
1810.272490304789
 21
322.8135706660524
 31
0.0
100
AcDbText
  0
TEXT
  5
2FB6
330
410E
100
AcDbEntity
  8
BEM
100
AcDbText
 10
1388.329154564557
 20
202.0298639921012
 30
0.0
 40
2.5
  1

  7
GREEKS
100
AcDbText
  0
TEXT
  5
2FB7
330
410E
100
AcDbEntity
  8
VOLL
100
AcDbText
 10
1374.262961544836
 20
181.846603335066
 30
0.0
 40
1.8
  1

  7
GREEKS
100
AcDbText
  0
TEXT
  5
2FB8
330
410E
100
AcDbEntity
  8
BEM
100
AcDbText
 10
1408.751026384121
 20
186.5723276582866
 30
0.0
 40
2.5
  1

 41
0.8
  7
GREEKS
100
AcDbText
  0
TEXT
  5
2FB9
330
410E
100
AcDbEntity
  8
BEM
100
AcDbText
 10
1408.751026384121
 20
181.8785591042345
 30
0.0
 40
2.5
  1

 41
0.8
  7
GREEKS
100
AcDbText
  0
TEXT
  5
2FBA
330
410E
100
AcDbEntity
  8
BEM
100
AcDbText
 10
1408.751026384121
 20
176.640715285571
 30
0.0
 40
2.5
  1

 41
0.8
  7
GREEKS
100
AcDbText
  0
TEXT
  5
2FBB
330
410E
100
AcDbEntity
  8
BEM
100
AcDbText
 10
1408.678081906746
 20
172.1355263354733
 30
0.0
 40
1.8
  1

 41
0.8
  7
GREEKS
100
AcDbText
  0
TEXT
  5
2FBC
330
410E
100
AcDbEntity
  8
BEM
100
AcDbText
 10
1395.994511027135
 20
197.7271154316986
 30
0.0
 40
2.0
  1

 41
0.8
  7
GREEKS
 72
     1
 11
1395.994511027135
 21
197.7271154316986
 31
0.0
100
AcDbText
  0
TEXT
  5
2FBD
330
410E
100
AcDbEntity
  8
TEXT
100
AcDbText
 10
1706.095229748429
 20
187.4048388682916
 30
0.0
 40
2.5
  1
  
  7
GREEKS
 72
     1
 11
1708.357134510334
 21
187.4048388682916
 31
0.0
100
AcDbText
  0
TEXT
  5
2FBE
330
410E
100
AcDbEntity
  8
BEM
100
AcDbText
 10
1950.214947060911
 20
322.9637208986939
 30
0.0
 40
2.5
  1
 
 72
     4
 11
1951.345899441864
 21
322.9637208986939
 31
0.0
100
AcDbText
  0
TEXT
  5
2FBF
330
410E
100
AcDbEntity
  8
VOLL
100
AcDbText
 10
1169.167340981005
 20
169.8807435766761
 30
0.0
 40
1.8
  1

  7
GREEKS
100
AcDbText
  0
TEXT
  5
2FC0
330
410E
100
AcDbEntity
  8
TEXT
100
AcDbText
 10
1500.999609184598
 20
175.4389791099016
 30
0.0
 40
2.5
  1
  
  7
GREEKS
 72
     1
 11
1503.261513946503
 21
175.4389791099016
 31
0.0
100
AcDbText
  0
TEXT
  5
2FC1
330
410E
100
AcDbEntity
  8
BEM
100
AcDbText
 10
1745.11932649708
 20
310.9978611403039
 30
0.0
 40
2.5
  1
 
 72
     4
 11
1746.250278878032
 21
310.9978611403039
 31
0.0
100
AcDbText
  0
TEXT
  5
2FC2
330
410E
100
AcDbEntity
  8
BEM
100
AcDbText
 10
1334.512954060655
 20
210.0339742752618
 30
0.0
 40
2.5
  1

  7
GREEKS
100
AcDbText
  0
TEXT
  5
2FC3
330
410E
100
AcDbEntity
  8
VOLL
100
AcDbText
 10
1320.446761040934
 20
189.8507136182266
 30
0.0
 40
1.8
  1

  7
GREEKS
100
AcDbText
  0
TEXT
  5
2FC4
330
410E
100
AcDbEntity
  8
BEM
100
AcDbText
 10
1354.934825880218
 20
194.5764379414472
 30
0.0
 40
2.5
  1

 41
0.8
  7
GREEKS
100
AcDbText
  0
TEXT
  5
2FC5
330
410E
100
AcDbEntity
  8
BEM
100
AcDbText
 10
1354.934825880218
 20
189.8826693873951
 30
0.0
 40
2.5
  1

 41
0.8
  7
GREEKS
100
AcDbText
  0
TEXT
  5
2FC6
330
410E
100
AcDbEntity
  8
BEM
100
AcDbText
 10
1354.934825880218
 20
184.6448255687316
 30
0.0
 40
2.5
  1

 41
0.8
  7
GREEKS
100
AcDbText
  0
TEXT
  5
2FC7
330
410E
100
AcDbEntity
  8
BEM
100
AcDbText
 10
1354.861881402844
 20
180.139636618634
 30
0.0
 40
1.8
  1

 41
0.8
  7
GREEKS
100
AcDbText
  0
TEXT
  5
2FC8
330
410E
100
AcDbEntity
  8
BEM
100
AcDbText
 10
1342.178310523232
 20
205.7312257148593
 30
0.0
 40
2.0
  1

 41
0.8
  7
GREEKS
 72
     1
 11
1342.178310523232
 21
205.7312257148593
 31
0.0
100
AcDbText
  0
TEXT
  5
2FC9
330
410E
100
AcDbEntity
  8
TEXT
100
AcDbText
 10
1652.279029244527
 20
195.4089491514522
 30
0.0
 40
2.5
  1
  
  7
GREEKS
 72
     1
 11
1654.540934006432
 21
195.4089491514522
 31
0.0
100
AcDbText
  0
TEXT
  5
2FCA
330
410E
100
AcDbEntity
  8
BEM
100
AcDbText
 10
1896.398746557009
 20
330.9678311818545
 30
0.0
 40
2.5
  1
 
 72
     4
 11
1897.529698937961
 21
330.9678311818545
 31
0.0
100
AcDbText
  0
TEXT
  5
2FCB
330
410E
100
AcDbEntity
  8
VOLL
100
AcDbText
 10
1496.748917234116
 20
174.9991869541786
 30
0.0
 40
1.8
  1

  7
GREEKS
100
AcDbText
  0
TEXT
  5
2FCC
330
410E
100
AcDbEntity
  8
VOLL
100
AcDbText
 10
1586.41509115979
 20
180.2913036698979
 30
0.0
 40
1.8
  1

  7
GREEKS
100
AcDbText
  0
TEXT
  5
2FCD
330
410E
100
AcDbEntity
  8
TEXT
100
AcDbText
 10
1918.247359363382
 20
185.8495392031235
 30
0.0
 40
2.5
  1
  
  7
GREEKS
 72
     1
 11
1920.509264125287
 21
185.8495392031235
 31
0.0
100
AcDbText
  0
TEXT
  5
2FCE
330
410E
100
AcDbEntity
  8
BEM
100
AcDbText
 10
2162.367076675865
 20
321.4084212335257
 30
0.0
 40
2.5
  1
 
 72
     4
 11
2163.498029056817
 21
321.4084212335257
 31
0.0
100
AcDbText
  0
TEXT
  5
2FCF
330
410E
100
AcDbEntity
  8
BEM
100
AcDbText
 10
1728.056420805714
 20
203.9280178610594
 30
0.0
 40
2.5
  1

  7
GREEKS
100
AcDbText
  0
TEXT
  5
2FD0
330
410E
100
AcDbEntity
  8
VOLL
100
AcDbText
 10
1713.990227785993
 20
183.7447572040242
 30
0.0
 40
1.8
  1

  7
GREEKS
100
AcDbText
  0
TEXT
  5
2FD1
330
410E
100
AcDbEntity
  8
BEM
100
AcDbText
 10
1748.478292625277
 20
188.4704815272448
 30
0.0
 40
2.5
  1

 41
0.8
  7
GREEKS
100
AcDbText
  0
TEXT
  5
2FD2
330
410E
100
AcDbEntity
  8
BEM
100
AcDbText
 10
1748.478292625277
 20
183.7767129731927
 30
0.0
 40
2.5
  1

 41
0.8
  7
GREEKS
100
AcDbText
  0
TEXT
  5
2FD3
330
410E
100
AcDbEntity
  8
BEM
100
AcDbText
 10
1748.478292625277
 20
178.5388691545292
 30
0.0
 40
2.5
  1

 41
0.8
  7
GREEKS
100
AcDbText
  0
TEXT
  5
2FD4
330
410E
100
AcDbEntity
  8
BEM
100
AcDbText
 10
1748.405348147903
 20
174.0336802044316
 30
0.0
 40
1.8
  1

 41
0.8
  7
GREEKS
100
AcDbText
  0
TEXT
  5
2FD5
330
410E
100
AcDbEntity
  8
BEM
100
AcDbText
 10
1735.721777268291
 20
199.6252693006568
 30
0.0
 40
2.0
  1

 41
0.8
  7
GREEKS
 72
     1
 11
1735.721777268291
 21
199.6252693006568
 31
0.0
100
AcDbText
  0
TEXT
  5
2FD6
330
410E
100
AcDbEntity
  8
TEXT
100
AcDbText
 10
2045.822495989586
 20
189.3029927372498
 30
0.0
 40
2.5
  1
  
  7
GREEKS
 72
     1
 11
2048.084400751491
 21
189.3029927372498
 31
0.0
100
AcDbText
  0
TEXT
  5
2FD7
330
410E
100
AcDbEntity
  8
BEM
100
AcDbText
 10
2289.942213302068
 20
324.861874767652
 30
0.0
 40
2.5
  1
 
 72
     4
 11
2291.07316568302
 21
324.861874767652
 31
0.0
100
AcDbText
  0
TEXT
  5
2FD8
330
410E
100
AcDbEntity
  8
VOLL
100
AcDbText
 10
1504.6622319259
 20
152.0501140616781
 30
0.0
 40
1.8
  1

  7
GREEKS
100
AcDbText
  0
TEXT
  5
2FD9
330
410E
100
AcDbEntity
  8
VOLL
100
AcDbText
 10
1594.328405851573
 20
157.3422307773974
 30
0.0
 40
1.8
  1

  7
GREEKS
100
AcDbText
  0
TEXT
  5
2FDA
330
410E
100
AcDbEntity
  8
TEXT
100
AcDbText
 10
1926.160674055166
 20
162.9004663106229
 30
0.0
 40
2.5
  1
  
  7
GREEKS
 72
     1
 11
1928.422578817071
 21
162.9004663106229
 31
0.0
100
AcDbText
  0
TEXT
  5
2FDB
330
410E
100
AcDbEntity
  8
BEM
100
AcDbText
 10
2170.280391367648
 20
298.4593483410252
 30
0.0
 40
2.5
  1
 
 72
     4
 11
2171.4113437486
 21
298.4593483410252
 31
0.0
100
AcDbText
  0
TEXT
  5
2FDC
330
410E
100
AcDbEntity
  8
BEM
100
AcDbText
 10
1735.969735497497
 20
180.9789449685588
 30
0.0
 40
2.5
  1

  7
GREEKS
100
AcDbText
  0
TEXT
  5
2FDD
330
410E
100
AcDbEntity
  8
VOLL
100
AcDbText
 10
1721.903542477776
 20
160.7956843115237
 30
0.0
 40
1.8
  1

  7
GREEKS
100
AcDbText
  0
TEXT
  5
2FDE
330
410E
100
AcDbEntity
  8
BEM
100
AcDbText
 10
1756.391607317061
 20
165.5214086347443
 30
0.0
 40
2.5
  1

 41
0.8
  7
GREEKS
100
AcDbText
  0
TEXT
  5
2FDF
330
410E
100
AcDbEntity
  8
BEM
100
AcDbText
 10
1756.391607317061
 20
160.8276400806921
 30
0.0
 40
2.5
  1

 41
0.8
  7
GREEKS
100
AcDbText
  0
TEXT
  5
2FE0
330
410E
100
AcDbEntity
  8
BEM
100
AcDbText
 10
1756.391607317061
 20
155.5897962620286
 30
0.0
 40
2.5
  1

 41
0.8
  7
GREEKS
100
AcDbText
  0
TEXT
  5
2FE1
330
410E
100
AcDbEntity
  8
BEM
100
AcDbText
 10
1756.318662839686
 20
151.084607311931
 30
0.0
 40
1.8
  1

 41
0.8
  7
GREEKS
100
AcDbText
  0
TEXT
  5
2FE2
330
410E
100
AcDbEntity
  8
BEM
100
AcDbText
 10
1743.635091960075
 20
176.6761964081563
 30
0.0
 40
2.0
  1

 41
0.8
  7
GREEKS
 72
     1
 11
1743.635091960075
 21
176.6761964081563
 31
0.0
100
AcDbText
  0
TEXT
  5
2FE3
330
410E
100
AcDbEntity
  8
TEXT
100
AcDbText
 10
2053.735810681369
 20
166.3539198447493
 30
0.0
 40
2.5
  1
  
  7
GREEKS
 72
     1
 11
2055.997715443274
 21
166.3539198447493
 31
0.0
100
AcDbText
  0
TEXT
  5
2FE4
330
410E
100
AcDbEntity
  8
BEM
100
AcDbText
 10
2297.855527993851
 20
301.9128018751515
 30
0.0
 40
2.5
  1
 
 72
     4
 11
2298.986480374804
 21
301.9128018751515
 31
0.0
100
AcDbText
  0
TEXT
  5
2FE5
330
410E
100
AcDbEntity
  8
VOLL
100
AcDbText
 10
1646.620306873061
 20
168.2471983735128
 30
0.0
 40
1.8
  1

  7
GREEKS
100
AcDbText
  0
TEXT
  5
2FE6
330
410E
100
AcDbEntity
  8
TEXT
100
AcDbText
 10
1978.452575076654
 20
173.8054339067384
 30
0.0
 40
2.5
  1
  
  7
GREEKS
 72
     1
 11
1980.714479838559
 21
173.8054339067384
 31
0.0
100
AcDbText
  0
TEXT
  5
2FE7
330
410E
100
AcDbEntity
  8
BEM
100
AcDbText
 10
2222.572292389136
 20
309.3643159371406
 30
0.0
 40
2.5
  1
 
 72
     4
 11
2223.703244770089
 21
309.3643159371406
 31
0.0
100
AcDbText
  0
TEXT
  5
2FE8
330
410E
100
AcDbEntity
  8
BEM
100
AcDbText
 10
1801.759909029857
 20
188.5806092631894
 30
0.0
 40
2.5
  1

  7
GREEKS
100
AcDbText
  0
TEXT
  5
2FE9
330
410E
100
AcDbEntity
  8
VOLL
100
AcDbText
 10
1787.693716010135
 20
168.3973486061543
 30
0.0
 40
1.8
  1

  7
GREEKS
100
AcDbText
  0
TEXT
  5
2FEA
330
410E
100
AcDbEntity
  8
BEM
100
AcDbText
 10
1822.18178084942
 20
173.1230729293749
 30
0.0
 40
2.5
  1

 41
0.8
  7
GREEKS
100
AcDbText
  0
TEXT
  5
2FEB
330
410E
100
AcDbEntity
  8
BEM
100
AcDbText
 10
1822.18178084942
 20
168.4293043753227
 30
0.0
 40
2.5
  1

 41
0.8
  7
GREEKS
100
AcDbText
  0
TEXT
  5
2FEC
330
410E
100
AcDbEntity
  8
BEM
100
AcDbText
 10
1822.18178084942
 20
163.1914605566592
 30
0.0
 40
2.5
  1

 41
0.8
  7
GREEKS
100
AcDbText
  0
TEXT
  5
2FED
330
410E
100
AcDbEntity
  8
BEM
100
AcDbText
 10
1822.108836372046
 20
158.6862716065616
 30
0.0
 40
1.8
  1

 41
0.8
  7
GREEKS
100
AcDbText
  0
TEXT
  5
2FEE
330
410E
100
AcDbEntity
  8
BEM
100
AcDbText
 10
1809.425265492435
 20
184.2778607027869
 30
0.0
 40
2.0
  1

 41
0.8
  7
GREEKS
 72
     1
 11
1809.425265492435
 21
184.2778607027869
 31
0.0
100
AcDbText
  0
TEXT
  5
2FEF
330
410E
100
AcDbEntity
  8
TEXT
100
AcDbText
 10
2119.525984213729
 20
173.9555841393798
 30
0.0
 40
2.5
  1
  
  7
GREEKS
 72
     1
 11
2121.787888975633
 21
173.9555841393798
 31
0.0
100
AcDbText
  0
TEXT
  5
2FF0
330
410E
100
AcDbEntity
  8
BEM
100
AcDbText
 10
2363.645701526211
 20
309.514466169782
 30
0.0
 40
2.5
  1
 
 72
     4
 11
2364.776653907163
 21
309.514466169782
 31
0.0
100
AcDbText
  0
TEXT
  5
2FF1
330
410E
100
AcDbEntity
  8
VOLL
100
AcDbText
 10
1277.237447186177
 20
362.9094278533188
 30
0.0
 40
1.8
  1

  7
GREEKS
100
AcDbText
  0
TEXT
  5
2FF2
330
410E
100
AcDbEntity
  8
VOLL
100
AcDbText
 10
1366.90362111185
 20
368.2015445690381
 30
0.0
 40
1.8
  1

  7
GREEKS
100
AcDbText
  0
TEXT
  5
2FF3
330
410E
100
AcDbEntity
  8
TEXT
100
AcDbText
 10
1698.735889315443
 20
373.7597801022637
 30
0.0
 40
2.5
  1
  
  7
GREEKS
 72
     1
 11
1700.997794077348
 21
373.7597801022637
 31
0.0
100
AcDbText
  0
TEXT
  5
2FF4
330
410E
100
AcDbEntity
  8
BEM
100
AcDbText
 10
1942.855606627925
 20
509.3186621326658
 30
0.0
 40
2.5
  1
 
 72
     4
 11
1943.986559008877
 21
509.3186621326658
 31
0.0
100
AcDbText
  0
TEXT
  5
2FF5
330
410E
100
AcDbEntity
  8
BEM
100
AcDbText
 10
1508.544950757774
 20
391.8382587601995
 30
0.0
 40
2.5
  1

  7
GREEKS
100
AcDbText
  0
TEXT
  5
2FF6
330
410E
100
AcDbEntity
  8
VOLL
100
AcDbText
 10
1494.478757738053
 20
371.6549981031644
 30
0.0
 40
1.8
  1

  7
GREEKS
100
AcDbText
  0
TEXT
  5
2FF7
330
410E
100
AcDbEntity
  8
BEM
100
AcDbText
 10
1528.966822577338
 20
376.380722426385
 30
0.0
 40
2.5
  1

 41
0.8
  7
GREEKS
100
AcDbText
  0
TEXT
  5
2FF8
330
410E
100
AcDbEntity
  8
BEM
100
AcDbText
 10
1528.966822577338
 20
371.6869538723329
 30
0.0
 40
2.5
  1

 41
0.8
  7
GREEKS
100
AcDbText
  0
TEXT
  5
2FF9
330
410E
100
AcDbEntity
  8
BEM
100
AcDbText
 10
1528.966822577338
 20
366.4491100536694
 30
0.0
 40
2.5
  1

 41
0.8
  7
GREEKS
100
AcDbText
  0
TEXT
  5
2FFA
330
410E
100
AcDbEntity
  8
BEM
100
AcDbText
 10
1528.893878099963
 20
361.9439211035717
 30
0.0
 40
1.8
  1

 41
0.8
  7
GREEKS
100
AcDbText
  0
TEXT
  5
2FFB
330
410E
100
AcDbEntity
  8
BEM
100
AcDbText
 10
1516.210307220352
 20
387.535510199797
 30
0.0
 40
2.0
  1

 41
0.8
  7
GREEKS
 72
     1
 11
1516.210307220352
 21
387.535510199797
 31
0.0
100
AcDbText
  0
TEXT
  5
2FFC
330
410E
100
AcDbEntity
  8
TEXT
100
AcDbText
 10
1826.311025941646
 20
377.2132336363899
 30
0.0
 40
2.5
  1
  
  7
GREEKS
 72
     1
 11
1828.572930703551
 21
377.2132336363899
 31
0.0
100
AcDbText
  0
TEXT
  5
2FFD
330
410E
100
AcDbEntity
  8
BEM
100
AcDbText
 10
2070.430743254128
 20
512.7721156667921
 30
0.0
 40
2.5
  1
 
 72
     4
 11
2071.561695635081
 21
512.7721156667921
 31
0.0
100
AcDbText
  0
TEXT
  5
2FFE
330
410E
100
AcDbEntity
  8
VOLL
100
AcDbText
 10
1419.195522133338
 20
379.1065121651535
 30
0.0
 40
1.8
  1

  7
GREEKS
100
AcDbText
  0
TEXT
  5
2FFF
330
410E
100
AcDbEntity
  8
TEXT
100
AcDbText
 10
1751.027790336931
 20
384.6647476983791
 30
0.0
 40
2.5
  1
  
  7
GREEKS
 72
     1
 11
1753.289695098836
 21
384.6647476983791
 31
0.0
100
AcDbText
  0
TEXT
  5
3000
330
410E
100
AcDbEntity
  8
BEM
100
AcDbText
 10
1995.147507649413
 20
520.2236297287814
 30
0.0
 40
2.5
  1
 
 72
     4
 11
1996.278460030366
 21
520.2236297287814
 31
0.0
100
AcDbText
  0
TEXT
  5
3001
330
410E
100
AcDbEntity
  8
BEM
100
AcDbText
 10
1574.335124290134
 20
399.4399230548301
 30
0.0
 40
2.5
  1

  7
GREEKS
100
AcDbText
  0
TEXT
  5
3002
330
410E
100
AcDbEntity
  8
VOLL
100
AcDbText
 10
1560.268931270413
 20
379.256662397795
 30
0.0
 40
1.8
  1

  7
GREEKS
100
AcDbText
  0
TEXT
  5
3003
330
410E
100
AcDbEntity
  8
BEM
100
AcDbText
 10
1594.756996109697
 20
383.9823867210156
 30
0.0
 40
2.5
  1

 41
0.8
  7
GREEKS
100
AcDbText
  0
TEXT
  5
3004
330
410E
100
AcDbEntity
  8
BEM
100
AcDbText
 10
1594.756996109697
 20
379.2886181669634
 30
0.0
 40
2.5
  1

 41
0.8
  7
GREEKS
100
AcDbText
  0
TEXT
  5
3005
330
410E
100
AcDbEntity
  8
BEM
100
AcDbText
 10
1594.756996109697
 20
374.0507743482999
 30
0.0
 40
2.5
  1

 41
0.8
  7
GREEKS
100
AcDbText
  0
TEXT
  5
3006
330
410E
100
AcDbEntity
  8
BEM
100
AcDbText
 10
1594.684051632323
 20
369.5455853982023
 30
0.0
 40
1.8
  1

 41
0.8
  7
GREEKS
100
AcDbText
  0
TEXT
  5
3007
330
410E
100
AcDbEntity
  8
BEM
100
AcDbText
 10
1582.000480752712
 20
395.1371744944276
 30
0.0
 40
2.0
  1

 41
0.8
  7
GREEKS
 72
     1
 11
1582.000480752712
 21
395.1371744944276
 31
0.0
100
AcDbText
  0
TEXT
  5
3008
330
410E
100
AcDbEntity
  8
TEXT
100
AcDbText
 10
1892.101199474006
 20
384.8148979310206
 30
0.0
 40
2.5
  1
  
  7
GREEKS
 72
     1
 11
1894.36310423591
 21
384.8148979310206
 31
0.0
100
AcDbText
  0
TEXT
  5
3009
330
410E
100
AcDbEntity
  8
BEM
100
AcDbText
 10
2136.220916786488
 20
520.3737799614227
 30
0.0
 40
2.5
  1
 
 72
     4
 11
2137.35186916744
 21
520.3737799614227
 31
0.0
100
AcDbText
  0
TEXT
  5
300A
330
410E
100
AcDbEntity
  8
VOLL
100
AcDbText
 10
1355.173310706582
 20
367.290802639405
 30
0.0
 40
1.8
  1

  7
GREEKS
100
AcDbText
  0
TEXT
  5
300B
330
410E
100
AcDbEntity
  8
TEXT
100
AcDbText
 10
1687.005578910175
 20
372.8490381726306
 30
0.0
 40
2.5
  1
  
  7
GREEKS
 72
     1
 11
1689.26748367208
 21
372.8490381726306
 31
0.0
100
AcDbText
  0
TEXT
  5
300C
330
410E
100
AcDbEntity
  8
BEM
100
AcDbText
 10
1931.125296222657
 20
508.4079202030328
 30
0.0
 40
2.5
  1
 
 72
     4
 11
1932.256248603609
 21
508.4079202030328
 31
0.0
100
AcDbText
  0
TEXT
  5
300D
330
410E
100
AcDbEntity
  8
BEM
100
AcDbText
 10
1520.518923786232
 20
407.4440333379907
 30
0.0
 40
2.5
  1

  7
GREEKS
100
AcDbText
  0
TEXT
  5
300E
330
410E
100
AcDbEntity
  8
VOLL
100
AcDbText
 10
1506.45273076651
 20
387.2607726809556
 30
0.0
 40
1.8
  1

  7
GREEKS
100
AcDbText
  0
TEXT
  5
300F
330
410E
100
AcDbEntity
  8
BEM
100
AcDbText
 10
1540.940795605795
 20
391.9864970041762
 30
0.0
 40
2.5
  1

 41
0.8
  7
GREEKS
100
AcDbText
  0
TEXT
  5
3010
330
410E
100
AcDbEntity
  8
BEM
100
AcDbText
 10
1540.940795605795
 20
387.2927284501241
 30
0.0
 40
2.5
  1

 41
0.8
  7
GREEKS
100
AcDbText
  0
TEXT
  5
3011
330
410E
100
AcDbEntity
  8
BEM
100
AcDbText
 10
1540.940795605795
 20
382.0548846314606
 30
0.0
 40
2.5
  1

 41
0.8
  7
GREEKS
100
AcDbText
  0
TEXT
  5
3012
330
410E
100
AcDbEntity
  8
BEM
100
AcDbText
 10
1540.86785112842
 20
377.5496956813629
 30
0.0
 40
1.8
  1

 41
0.8
  7
GREEKS
100
AcDbText
  0
TEXT
  5
3013
330
410E
100
AcDbEntity
  8
BEM
100
AcDbText
 10
1528.184280248809
 20
403.1412847775881
 30
0.0
 40
2.0
  1

 41
0.8
  7
GREEKS
 72
     1
 11
1528.184280248809
 21
403.1412847775881
 31
0.0
100
AcDbText
  0
TEXT
  5
3014
330
410E
100
AcDbEntity
  8
TEXT
100
AcDbText
 10
1838.284998970103
 20
392.8190082141812
 30
0.0
 40
2.5
  1
  
  7
GREEKS
 72
     1
 11
1840.546903732008
 21
392.8190082141812
 31
0.0
100
AcDbText
  0
TEXT
  5
3015
330
410E
100
AcDbEntity
  8
BEM
100
AcDbText
 10
2082.404716282586
 20
528.3778902445833
 30
0.0
 40
2.5
  1
 
 72
     4
 11
2083.535668663538
 21
528.3778902445833
 31
0.0
100
AcDbText
  0
TEXT
  5
3016
330
410E
100
AcDbEntity
  8
VOLL
100
AcDbText
 10
1283.638800118717
 20
341.2533308447548
 30
0.0
 40
1.8
  1

  7
GREEKS
100
AcDbText
  0
TEXT
  5
3017
330
410E
100
AcDbEntity
  8
VOLL
100
AcDbText
 10
1373.304974044391
 20
346.5454475604742
 30
0.0
 40
1.8
  1

  7
GREEKS
100
AcDbText
  0
TEXT
  5
3018
330
410E
100
AcDbEntity
  8
TEXT
100
AcDbText
 10
1705.137242247984
 20
352.1036830936997
 30
0.0
 40
2.5
  1
  
  7
GREEKS
 72
     1
 11
1707.399147009888
 21
352.1036830936997
 31
0.0
100
AcDbText
  0
TEXT
  5
3019
330
410E
100
AcDbEntity
  8
BEM
100
AcDbText
 10
1949.256959560466
 20
487.6625651241019
 30
0.0
 40
2.5
  1
 
 72
     4
 11
1950.387911941418
 21
487.6625651241019
 31
0.0
100
AcDbText
  0
TEXT
  5
301A
330
410E
100
AcDbEntity
  8
BEM
100
AcDbText
 10
1514.946303690315
 20
370.1821617516355
 30
0.0
 40
2.5
  1

  7
GREEKS
100
AcDbText
  0
TEXT
  5
301B
330
410E
100
AcDbEntity
  8
VOLL
100
AcDbText
 10
1500.880110670594
 20
349.9989010946005
 30
0.0
 40
1.8
  1

  7
GREEKS
100
AcDbText
  0
TEXT
  5
301C
330
410E
100
AcDbEntity
  8
BEM
100
AcDbText
 10
1535.368175509878
 20
354.724625417821
 30
0.0
 40
2.5
  1

 41
0.8
  7
GREEKS
100
AcDbText
  0
TEXT
  5
301D
330
410E
100
AcDbEntity
  8
BEM
100
AcDbText
 10
1535.368175509878
 20
350.0308568637689
 30
0.0
 40
2.5
  1

 41
0.8
  7
GREEKS
100
AcDbText
  0
TEXT
  5
301E
330
410E
100
AcDbEntity
  8
BEM
100
AcDbText
 10
1535.368175509878
 20
344.7930130451054
 30
0.0
 40
2.5
  1

 41
0.8
  7
GREEKS
100
AcDbText
  0
TEXT
  5
301F
330
410E
100
AcDbEntity
  8
BEM
100
AcDbText
 10
1535.295231032504
 20
340.2878240950077
 30
0.0
 40
1.8
  1

 41
0.8
  7
GREEKS
100
AcDbText
  0
TEXT
  5
3020
330
410E
100
AcDbEntity
  8
BEM
100
AcDbText
 10
1522.611660152893
 20
365.879413191233
 30
0.0
 40
2.0
  1

 41
0.8
  7
GREEKS
 72
     1
 11
1522.611660152893
 21
365.879413191233
 31
0.0
100
AcDbText
  0
TEXT
  5
3021
330
410E
100
AcDbEntity
  8
TEXT
100
AcDbText
 10
1832.712378874187
 20
355.557136627826
 30
0.0
 40
2.5
  1
  
  7
GREEKS
 72
     1
 11
1834.974283636091
 21
355.557136627826
 31
0.0
100
AcDbText
  0
TEXT
  5
3022
330
410E
100
AcDbEntity
  8
BEM
100
AcDbText
 10
2076.832096186669
 20
491.1160186582281
 30
0.0
 40
2.5
  1
 
 72
     4
 11
2077.963048567621
 21
491.1160186582281
 31
0.0
100
AcDbText
  0
TEXT
  5
3023
330
410E
100
AcDbEntity
  8
VOLL
100
AcDbText
 10
1425.596875065879
 20
357.4504151565895
 30
0.0
 40
1.8
  1

  7
GREEKS
100
AcDbText
  0
TEXT
  5
3024
330
410E
100
AcDbEntity
  8
TEXT
100
AcDbText
 10
1757.429143269472
 20
363.0086506898151
 30
0.0
 40
2.5
  1
  
  7
GREEKS
 72
     1
 11
1759.691048031377
 21
363.0086506898151
 31
0.0
100
AcDbText
  0
TEXT
  5
3025
330
410E
100
AcDbEntity
  8
BEM
100
AcDbText
 10
2001.548860581954
 20
498.5675327202173
 30
0.0
 40
2.5
  1
 
 72
     4
 11
2002.679812962906
 21
498.5675327202173
 31
0.0
100
AcDbText
  0
TEXT
  5
3026
330
410E
100
AcDbEntity
  8
BEM
100
AcDbText
 10
1580.736477222675
 20
377.7838260462662
 30
0.0
 40
2.5
  1

  7
GREEKS
100
AcDbText
  0
TEXT
  5
3027
330
410E
100
AcDbEntity
  8
VOLL
100
AcDbText
 10
1566.670284202954
 20
357.600565389231
 30
0.0
 40
1.8
  1

  7
GREEKS
100
AcDbText
  0
TEXT
  5
3028
330
410E
100
AcDbEntity
  8
BEM
100
AcDbText
 10
1601.158349042238
 20
362.3262897124516
 30
0.0
 40
2.5
  1

 41
0.8
  7
GREEKS
100
AcDbText
  0
TEXT
  5
3029
330
410E
100
AcDbEntity
  8
BEM
100
AcDbText
 10
1601.158349042238
 20
357.6325211583995
 30
0.0
 40
2.5
  1

 41
0.8
  7
GREEKS
100
AcDbText
  0
TEXT
  5
302A
330
410E
100
AcDbEntity
  8
BEM
100
AcDbText
 10
1601.158349042238
 20
352.3946773397359
 30
0.0
 40
2.5
  1

 41
0.8
  7
GREEKS
100
AcDbText
  0
TEXT
  5
302B
330
410E
100
AcDbEntity
  8
BEM
100
AcDbText
 10
1601.085404564864
 20
347.8894883896384
 30
0.0
 40
1.8
  1

 41
0.8
  7
GREEKS
100
AcDbText
  0
TEXT
  5
302C
330
410E
100
AcDbEntity
  8
BEM
100
AcDbText
 10
1588.401833685253
 20
373.4810774858636
 30
0.0
 40
2.0
  1

 41
0.8
  7
GREEKS
 72
     1
 11
1588.401833685253
 21
373.4810774858636
 31
0.0
100
AcDbText
  0
TEXT
  5
302D
330
410E
100
AcDbEntity
  8
TEXT
100
AcDbText
 10
1898.502552406547
 20
363.1588009224566
 30
0.0
 40
2.5
  1
  
  7
GREEKS
 72
     1
 11
1900.764457168451
 21
363.1588009224566
 31
0.0
100
AcDbText
  0
TEXT
  5
302E
330
410E
100
AcDbEntity
  8
BEM
100
AcDbText
 10
2142.622269719029
 20
498.7176829528587
 30
0.0
 40
2.5
  1
 
 72
     4
 11
2143.753222099981
 21
498.7176829528587
 31
0.0
100
AcDbText
  0
TEXT
  5
302F
330
410E
100
AcDbEntity
  8
VOLL
100
AcDbText
 10
1361.574663639123
 20
345.634705630841
 30
0.0
 40
1.8
  1

  7
GREEKS
100
AcDbText
  0
TEXT
  5
3030
330
410E
100
AcDbEntity
  8
TEXT
100
AcDbText
 10
1693.406931842715
 20
351.1929411640666
 30
0.0
 40
2.5
  1
  
  7
GREEKS
 72
     1
 11
1695.66883660462
 21
351.1929411640666
 31
0.0
100
AcDbText
  0
TEXT
  5
3031
330
410E
100
AcDbEntity
  8
BEM
100
AcDbText
 10
1937.526649155198
 20
486.7518231944688
 30
0.0
 40
2.5
  1
 
 72
     4
 11
1938.65760153615
 21
486.7518231944688
 31
0.0
100
AcDbText
  0
TEXT
  5
3032
330
410E
100
AcDbEntity
  8
BEM
100
AcDbText
 10
1526.920276718773
 20
385.7879363294268
 30
0.0
 40
2.5
  1

  7
GREEKS
100
AcDbText
  0
TEXT
  5
3033
330
410E
100
AcDbEntity
  8
VOLL
100
AcDbText
 10
1512.854083699051
 20
365.6046756723916
 30
0.0
 40
1.8
  1

  7
GREEKS
100
AcDbText
  0
TEXT
  5
3034
330
410E
100
AcDbEntity
  8
BEM
100
AcDbText
 10
1547.342148538336
 20
370.3303999956122
 30
0.0
 40
2.5
  1

 41
0.8
  7
GREEKS
100
AcDbText
  0
TEXT
  5
3035
330
410E
100
AcDbEntity
  8
BEM
100
AcDbText
 10
1547.342148538336
 20
365.6366314415601
 30
0.0
 40
2.5
  1

 41
0.8
  7
GREEKS
100
AcDbText
  0
TEXT
  5
3036
330
410E
100
AcDbEntity
  8
BEM
100
AcDbText
 10
1547.342148538336
 20
360.3987876228966
 30
0.0
 40
2.5
  1

 41
0.8
  7
GREEKS
100
AcDbText
  0
TEXT
  5
3037
330
410E
100
AcDbEntity
  8
BEM
100
AcDbText
 10
1547.269204060961
 20
355.8935986727989
 30
0.0
 40
1.8
  1

 41
0.8
  7
GREEKS
100
AcDbText
  0
TEXT
  5
3038
330
410E
100
AcDbEntity
  8
BEM
100
AcDbText
 10
1534.58563318135
 20
381.4851877690243
 30
0.0
 40
2.0
  1

 41
0.8
  7
GREEKS
 72
     1
 11
1534.58563318135
 21
381.4851877690243
 31
0.0
100
AcDbText
  0
TEXT
  5
3039
330
410E
100
AcDbEntity
  8
TEXT
100
AcDbText
 10
1844.686351902644
 20
371.1629112056172
 30
0.0
 40
2.5
  1
  
  7
GREEKS
 72
     1
 11
1846.948256664549
 21
371.1629112056172
 31
0.0
100
AcDbText
  0
TEXT
  5
303A
330
410E
100
AcDbEntity
  8
BEM
100
AcDbText
 10
2088.806069215126
 20
506.7217932360194
 30
0.0
 40
2.5
  1
 
 72
     4
 11
2089.937021596079
 21
506.7217932360194
 31
0.0
100
AcDbText
  0
TEXT
  5
303B
330
410E
100
AcDbEntity
  8
VOLL
100
AcDbText
 10
1639.975802494869
 20
326.0441158978027
 30
0.0
 40
1.8
  1

  7
GREEKS
100
AcDbText
  0
TEXT
  5
303C
330
410E
100
AcDbEntity
  8
TEXT
100
AcDbText
 10
1971.808070698462
 20
331.6023514310283
 30
0.0
 40
2.5
  1
  
  7
GREEKS
 72
     1
 11
1974.069975460367
 21
331.6023514310283
 31
0.0
100
AcDbText
  0
TEXT
  5
303D
330
410E
100
AcDbEntity
  8
BEM
100
AcDbText
 10
2215.927788010944
 20
467.1612334614305
 30
0.0
 40
2.5
  1
 
 72
     4
 11
2217.058740391897
 21
467.1612334614305
 31
0.0
100
AcDbText
  0
TEXT
  5
303E
330
410E
100
AcDbEntity
  8
VOLL
100
AcDbText
 10
1797.51051957203
 20
331.599671532874
 30
0.0
 40
1.8
  1

  7
GREEKS
100
AcDbText
  0
TEXT
  5
303F
330
410E
100
AcDbEntity
  8
BEM
100
AcDbText
 10
1831.998584411315
 20
336.3253958560946
 30
0.0
 40
2.5
  1

 41
0.8
  7
GREEKS
100
AcDbText
  0
TEXT
  5
3040
330
410E
100
AcDbEntity
  8
BEM
100
AcDbText
 10
1831.998584411315
 20
331.6316273020424
 30
0.0
 40
2.5
  1

 41
0.8
  7
GREEKS
100
AcDbText
  0
TEXT
  5
3041
330
410E
100
AcDbEntity
  8
BEM
100
AcDbText
 10
1831.998584411315
 20
326.3937834833789
 30
0.0
 40
2.5
  1

 41
0.8
  7
GREEKS
100
AcDbText
  0
TEXT
  5
3042
330
410E
100
AcDbEntity
  8
BEM
100
AcDbText
 10
1831.925639933941
 20
321.8885945332813
 30
0.0
 40
1.8
  1

 41
0.8
  7
GREEKS
100
AcDbText
  0
TEXT
  5
3043
330
410E
100
AcDbEntity
  8
TEXT
100
AcDbText
 10
2129.342787775624
 20
337.1579070660995
 30
0.0
 40
2.5
  1
  
  7
GREEKS
 72
     1
 11
2131.604692537528
 21
337.1579070660995
 31
0.0
100
AcDbText
  0
TEXT
  5
3044
330
410E
100
AcDbEntity
  8
BEM
100
AcDbText
 10
2373.462505088106
 20
472.7167890965017
 30
0.0
 40
2.5
  1
 
 72
     4
 11
2374.593457469059
 21
472.7167890965017
 31
0.0
100
AcDbText
  0
TEXT
  5
3045
330
410E
100
AcDbEntity
  8
VOLL
100
AcDbText
 10
1384.460137716413
 20
391.9188956935428
 30
0.0
 40
1.8
  1

  7
GREEKS
100
AcDbText
  0
TEXT
  5
3046
330
410E
100
AcDbEntity
  8
TEXT
100
AcDbText
 10
1716.292405920006
 20
397.4771312267684
 30
0.0
 40
2.5
  1
  
  7
GREEKS
 72
     1
 11
1718.554310681911
 21
397.4771312267684
 31
0.0
100
AcDbText
  0
TEXT
  5
3047
330
410E
100
AcDbEntity
  8
BEM
100
AcDbText
 10
1960.412123232488
 20
533.0360132571707
 30
0.0
 40
2.5
  1
 
 72
     4
 11
1961.54307561344
 21
533.0360132571707
 31
0.0
100
AcDbText
  0
TEXT
  5
3048
330
410E
100
AcDbEntity
  8
BEM
100
AcDbText
 10
1822.557013343019
 20
404.9400928889205
 30
0.0
 40
2.5
  1

  7
GREEKS
100
AcDbText
  0
TEXT
  5
3049
330
410E
100
AcDbEntity
  8
BEM
100
AcDbText
 10
1843.118799402732
 20
390.0016450366004
 30
0.0
 40
2.5
  1

 41
0.8
  7
GREEKS
100
AcDbText
  0
TEXT
  5
304A
330
410E
100
AcDbEntity
  8
BEM
100
AcDbText
 10
1842.979469384445
 20
379.9231949718874
 30
0.0
 40
2.5
  1

 41
0.8
  7
GREEKS
100
AcDbText
  0
TEXT
  5
304B
330
410E
100
AcDbEntity
  8
BEM
100
AcDbText
 10
1843.032729268207
 20
384.8689779082031
 30
0.0
 40
2.5
  1

 41
0.8
  7
GREEKS
100
AcDbText
  0
TEXT
  5
304C
330
410E
100
AcDbEntity
  8
BEM
100
AcDbText
 10
1843.075247306103
 20
374.8284073322474
 30
0.0
 40
1.8
  1

 41
0.8
  7
GREEKS
100
AcDbText
  0
TEXT
  5
304D
330
410E
100
AcDbEntity
  8
BEM
100
AcDbText
 10
1830.502932062521
 20
400.2667518194156
 30
0.0
 40
2.0
  1

 41
0.8
  7
GREEKS
 72
     1
 11
1830.502932062521
 21
400.2667518194156
 31
0.0
100
AcDbText
  0
TEXT
  5
304E
330
410E
100
AcDbEntity
  8
VOLL
100
AcDbText
 10
1563.698071587225
 20
386.2301304591574
 30
0.0
 40
1.8
  1

  7
GREEKS
100
AcDbText
  0
TEXT
  5
304F
330
410E
100
AcDbEntity
  8
TEXT
100
AcDbText
 10
1895.530339790818
 20
391.7883659923829
 30
0.0
 40
2.5
  1
  
  7
GREEKS
 72
     1
 11
1897.792244552723
 21
391.7883659923829
 31
0.0
100
AcDbText
  0
TEXT
  5
3050
330
410E
100
AcDbEntity
  8
BEM
100
AcDbText
 10
2139.650057103301
 20
527.3472480227851
 30
0.0
 40
2.5
  1
 
 72
     4
 11
2140.781009484253
 21
527.3472480227851
 31
0.0
100
AcDbText
  0
TEXT
  5
3051
330
410E
100
AcDbEntity
  8
BEM
100
AcDbText
 10
1678.187089965392
 20
449.1690565599309
 30
0.0
 40
2.5
  1

  7
GREEKS
100
AcDbText
  0
TEXT
  5
3052
330
410E
100
AcDbEntity
  8
VOLL
100
AcDbText
 10
1664.120896945672
 20
428.9857959028958
 30
0.0
 40
1.8
  1

  7
GREEKS
100
AcDbText
  0
TEXT
  5
3053
330
410E
100
AcDbEntity
  8
BEM
100
AcDbText
 10
1698.608961784956
 20
433.7115202261164
 30
0.0
 40
2.5
  1

 41
0.8
  7
GREEKS
100
AcDbText
  0
TEXT
  5
3054
330
410E
100
AcDbEntity
  8
BEM
100
AcDbText
 10
1698.608961784956
 20
429.0177516720643
 30
0.0
 40
2.5
  1

 41
0.8
  7
GREEKS
100
AcDbText
  0
TEXT
  5
3055
330
410E
100
AcDbEntity
  8
BEM
100
AcDbText
 10
1698.608961784956
 20
423.7799078534008
 30
0.0
 40
2.5
  1

 41
0.8
  7
GREEKS
100
AcDbText
  0
TEXT
  5
3056
330
410E
100
AcDbEntity
  8
BEM
100
AcDbText
 10
1698.536017307581
 20
419.2747189033032
 30
0.0
 40
1.8
  1

 41
0.8
  7
GREEKS
100
AcDbText
  0
TEXT
  5
3057
330
410E
100
AcDbEntity
  8
BEM
100
AcDbText
 10
1685.85244642797
 20
444.8663079995284
 30
0.0
 40
2.0
  1

 41
0.8
  7
GREEKS
 72
     1
 11
1685.85244642797
 21
444.8663079995284
 31
0.0
100
AcDbText
  0
TEXT
  5
3058
330
410E
100
AcDbEntity
  8
TEXT
100
AcDbText
 10
1995.953165149265
 20
434.5440314361214
 30
0.0
 40
2.5
  1
  
  7
GREEKS
 72
     1
 11
1998.215069911169
 21
434.5440314361214
 31
0.0
100
AcDbText
  0
TEXT
  5
3059
330
410E
100
AcDbEntity
  8
BEM
100
AcDbText
 10
2240.072882461746
 20
570.1029134665236
 30
0.0
 40
2.5
  1
 
 72
     4
 11
2241.203834842699
 21
570.1029134665236
 31
0.0
100
AcDbText
  0
TEXT
  5
305A
330
410E
100
AcDbEntity
  8
VOLL
100
AcDbText
 10
1372.368689796557
 20
345.6976781641605
 30
0.0
 40
1.8
  1

  7
GREEKS
100
AcDbText
  0
TEXT
  5
305B
330
410E
100
AcDbEntity
  8
VOLL
100
AcDbText
 10
1462.03486372223
 20
350.9897948798798
 30
0.0
 40
1.8
  1

  7
GREEKS
100
AcDbText
  0
TEXT
  5
305C
330
410E
100
AcDbEntity
  8
TEXT
100
AcDbText
 10
1793.867131925823
 20
356.5480304131053
 30
0.0
 40
2.5
  1
  
  7
GREEKS
 72
     1
 11
1796.129036687728
 21
356.5480304131053
 31
0.0
100
AcDbText
  0
TEXT
  5
305D
330
410E
100
AcDbEntity
  8
BEM
100
AcDbText
 10
2037.986849238305
 20
492.1069124435075
 30
0.0
 40
2.5
  1
 
 72
     4
 11
2039.117801619257
 21
492.1069124435075
 31
0.0
100
AcDbText
  0
TEXT
  5
305E
330
410E
100
AcDbEntity
  8
BEM
100
AcDbText
 10
1603.676193368154
 20
374.6265090710412
 30
0.0
 40
2.5
  1

  7
GREEKS
100
AcDbText
  0
TEXT
  5
305F
330
410E
100
AcDbEntity
  8
VOLL
100
AcDbText
 10
1589.610000348433
 20
354.4432484140061
 30
0.0
 40
1.8
  1

  7
GREEKS
100
AcDbText
  0
TEXT
  5
3060
330
410E
100
AcDbEntity
  8
BEM
100
AcDbText
 10
1624.098065187717
 20
359.1689727372267
 30
0.0
 40
2.5
  1

 41
0.8
  7
GREEKS
100
AcDbText
  0
TEXT
  5
3061
330
410E
100
AcDbEntity
  8
BEM
100
AcDbText
 10
1624.098065187717
 20
354.4752041831745
 30
0.0
 40
2.5
  1

 41
0.8
  7
GREEKS
100
AcDbText
  0
TEXT
  5
3062
330
410E
100
AcDbEntity
  8
BEM
100
AcDbText
 10
1624.098065187717
 20
349.237360364511
 30
0.0
 40
2.5
  1

 41
0.8
  7
GREEKS
100
AcDbText
  0
TEXT
  5
3063
330
410E
100
AcDbEntity
  8
BEM
100
AcDbText
 10
1624.025120710343
 20
344.7321714144134
 30
0.0
 40
1.8
  1

 41
0.8
  7
GREEKS
100
AcDbText
  0
TEXT
  5
3064
330
410E
100
AcDbEntity
  8
BEM
100
AcDbText
 10
1611.341549830732
 20
370.3237605106387
 30
0.0
 40
2.0
  1

 41
0.8
  7
GREEKS
 72
     1
 11
1611.341549830732
 21
370.3237605106387
 31
0.0
100
AcDbText
  0
TEXT
  5
3065
330
410E
100
AcDbEntity
  8
TEXT
100
AcDbText
 10
1921.442268552026
 20
360.0014839472316
 30
0.0
 40
2.5
  1
  
  7
GREEKS
 72
     1
 11
1923.704173313931
 21
360.0014839472316
 31
0.0
100
AcDbText
  0
TEXT
  5
3066
330
410E
100
AcDbEntity
  8
BEM
100
AcDbText
 10
2165.561985864508
 20
495.5603659776338
 30
0.0
 40
2.5
  1
 
 72
     4
 11
2166.692938245461
 21
495.5603659776338
 31
0.0
100
AcDbText
  0
TEXT
  5
3067
330
410E
100
AcDbEntity
  8
VOLL
100
AcDbText
 10
1348.897055599189
 20
387.6523222018807
 30
0.0
 40
1.8
  1

  7
GREEKS
100
AcDbText
  0
TEXT
  5
3068
330
410E
100
AcDbEntity
  8
VOLL
100
AcDbText
 10
1438.563229524862
 20
392.9444389176
 30
0.0
 40
1.8
  1

  7
GREEKS
100
AcDbText
  0
TEXT
  5
3069
330
410E
100
AcDbEntity
  8
TEXT
100
AcDbText
 10
1770.395497728455
 20
398.5026744508255
 30
0.0
 40
2.5
  1
  
  7
GREEKS
 72
     1
 11
1772.65740249036
 21
398.5026744508255
 31
0.0
100
AcDbText
  0
TEXT
  5
306A
330
410E
100
AcDbEntity
  8
BEM
100
AcDbText
 10
2014.515215040938
 20
534.0615564812277
 30
0.0
 40
2.5
  1
 
 72
     4
 11
2015.64616742189
 21
534.0615564812277
 31
0.0
100
AcDbText
  0
TEXT
  5
306B
330
410E
100
AcDbEntity
  8
BEM
100
AcDbText
 10
1580.204559170787
 20
416.5811531087613
 30
0.0
 40
2.5
  1

  7
GREEKS
100
AcDbText
  0
TEXT
  5
306C
330
410E
100
AcDbEntity
  8
VOLL
100
AcDbText
 10
1566.138366151065
 20
396.3978924517263
 30
0.0
 40
1.8
  1

  7
GREEKS
100
AcDbText
  0
TEXT
  5
306D
330
410E
100
AcDbEntity
  8
BEM
100
AcDbText
 10
1600.62643099035
 20
401.1236167749468
 30
0.0
 40
2.5
  1

 41
0.8
  7
GREEKS
100
AcDbText
  0
TEXT
  5
306E
330
410E
100
AcDbEntity
  8
BEM
100
AcDbText
 10
1600.62643099035
 20
396.4298482208947
 30
0.0
 40
2.5
  1

 41
0.8
  7
GREEKS
100
AcDbText
  0
TEXT
  5
306F
330
410E
100
AcDbEntity
  8
BEM
100
AcDbText
 10
1600.62643099035
 20
391.1920044022312
 30
0.0
 40
2.5
  1

 41
0.8
  7
GREEKS
100
AcDbText
  0
TEXT
  5
3070
330
410E
100
AcDbEntity
  8
BEM
100
AcDbText
 10
1600.553486512976
 20
386.6868154521336
 30
0.0
 40
1.8
  1

 41
0.8
  7
GREEKS
100
AcDbText
  0
TEXT
  5
3071
330
410E
100
AcDbEntity
  8
BEM
100
AcDbText
 10
1587.869915633364
 20
412.2784045483588
 30
0.0
 40
2.0
  1

 41
0.8
  7
GREEKS
 72
     1
 11
1587.869915633364
 21
412.2784045483588
 31
0.0
100
AcDbText
  0
TEXT
  5
3072
330
410E
100
AcDbEntity
  8
TEXT
100
AcDbText
 10
1897.970634354658
 20
401.9561279849518
 30
0.0
 40
2.5
  1
  
  7
GREEKS
 72
     1
 11
1900.232539116563
 21
401.9561279849518
 31
0.0
100
AcDbText
  0
TEXT
  5
3073
330
410E
100
AcDbEntity
  8
BEM
100
AcDbText
 10
2142.090351667141
 20
537.515010015354
 30
0.0
 40
2.5
  1
 
 72
     4
 11
2143.221304048093
 21
537.515010015354
 31
0.0
100
AcDbText
  0
TEXT
  5
3134
330
410E
100
AcDbEntity
  8
VOLL
100
AcDbText
 10
1315.642578672115
 20
1369.562068952269
 30
0.0
 40
1.8
  1

  7
GREEKS
100
AcDbText
  0
TEXT
  5
3135
330
410E
100
AcDbEntity
  8
TEXT
100
AcDbText
 10
1647.474846875709
 20
1375.120304485495
 30
0.0
 40
2.5
  1
  
  7
GREEKS
 72
     1
 11
1649.736751637613
 21
1375.120304485495
 31
0.0
100
AcDbText
  0
TEXT
  5
3136
330
410E
100
AcDbEntity
  8
BEM
100
AcDbText
 10
1891.594564188191
 20
1510.679186515897
 30
0.0
 40
2.5
  1
 
 72
     4
 11
1892.725516569143
 21
1510.679186515897
 31
0.0
100
AcDbText
  0
TEXT
  5
3137
330
410E
100
AcDbEntity
  8
BEM
100
AcDbText
 10
1542.666467461927
 20
1389.900603236867
 30
0.0
 40
2.5
  1

  7
GREEKS
100
AcDbText
  0
TEXT
  5
3138
330
410E
100
AcDbEntity
  8
VOLL
100
AcDbText
 10
1528.600274442205
 20
1369.717342579832
 30
0.0
 40
1.8
  1

  7
GREEKS
100
AcDbText
  0
TEXT
  5
3139
330
410E
100
AcDbEntity
  8
BEM
100
AcDbText
 10
1563.08833928149
 20
1374.443066903053
 30
0.0
 40
2.5
  1

 41
0.8
  7
GREEKS
100
AcDbText
  0
TEXT
  5
313A
330
410E
100
AcDbEntity
  8
BEM
100
AcDbText
 10
1563.08833928149
 20
1369.749298349001
 30
0.0
 40
2.5
  1

 41
0.8
  7
GREEKS
100
AcDbText
  0
TEXT
  5
313B
330
410E
100
AcDbEntity
  8
BEM
100
AcDbText
 10
1563.08833928149
 20
1364.511454530337
 30
0.0
 40
2.5
  1

 41
0.8
  7
GREEKS
100
AcDbText
  0
TEXT
  5
313C
330
410E
100
AcDbEntity
  8
BEM
100
AcDbText
 10
1563.015394804116
 20
1360.00626558024
 30
0.0
 40
1.8
  1

 41
0.8
  7
GREEKS
100
AcDbText
  0
TEXT
  5
313D
330
410E
100
AcDbEntity
  8
BEM
100
AcDbText
 10
1550.331823924505
 20
1385.597854676465
 30
0.0
 40
2.0
  1

 41
0.8
  7
GREEKS
 72
     1
 11
1550.331823924505
 21
1385.597854676465
 31
0.0
100
AcDbText
  0
TEXT
  5
313E
330
410E
100
AcDbEntity
  8
TEXT
100
AcDbText
 10
1860.432542645799
 20
1375.275578113058
 30
0.0
 40
2.5
  1
  
  7
GREEKS
 72
     1
 11
1862.694447407703
 21
1375.275578113058
 31
0.0
100
AcDbText
  0
TEXT
  5
313F
330
410E
100
AcDbEntity
  8
BEM
100
AcDbText
 10
2104.552259958281
 20
1510.83446014346
 30
0.0
 40
2.5
  1
 
 72
     4
 11
2105.683212339233
 21
1510.83446014346
 31
0.0
100
AcDbText
  0
TEXT
  5
36D1
330
410E
100
AcDbEntity
  8
BEM
100
AcDbText
 10
2422.783268354852
 20
626.4543263898322
 30
0.0
 40
2.5
  1

 41
0.8
  7
GREEKS
100
AcDbText
  0
TEXT
  5
3771
330
410E
100
AcDbEntity
  8
VOLL
100
AcDbText
 10
2997.005305939478
 20
940.8877894407995
 30
0.0
 40
1.8
  1

  7
GREEKS
100
AcDbText
  0
TEXT
  5
3772
330
410E
100
AcDbEntity
  8
VOLL
100
AcDbText
 10
3309.186508205026
 20
911.2133970164929
 30
0.0
 40
1.8
  1

  7
GREEKS
100
AcDbText
  0
TEXT
  5
3773
330
410E
100
AcDbEntity
  8
TEXT
100
AcDbText
 10
3641.018776408619
 20
916.7716325497185
 30
0.0
 40
2.5
  1
  
  7
GREEKS
 72
     1
 11
3643.280681170523
 21
916.7716325497185
 31
0.0
100
AcDbText
  0
TEXT
  5
3774
330
410E
100
AcDbEntity
  8
BEM
100
AcDbText
 10
3885.138493721101
 20
1052.330514580121
 30
0.0
 40
2.5
  1
 
 72
     4
 11
3886.269446102053
 21
1052.330514580121
 31
0.0
100
AcDbText
  0
TEXT
  5
3775
330
410E
100
AcDbEntity
  8
BEM
100
AcDbText
 10
3423.675526583193
 20
974.1523231172665
 30
0.0
 40
2.5
  1

  7
GREEKS
100
AcDbText
  0
TEXT
  5
3776
330
410E
100
AcDbEntity
  8
VOLL
100
AcDbText
 10
3409.609333563472
 20
953.9690624602314
 30
0.0
 40
1.8
  1

  7
GREEKS
100
AcDbText
  0
TEXT
  5
3777
330
410E
100
AcDbEntity
  8
BEM
100
AcDbText
 10
3444.097398402756
 20
958.6947867834521
 30
0.0
 40
2.5
  1

 41
0.8
  7
GREEKS
100
AcDbText
  0
TEXT
  5
3778
330
410E
100
AcDbEntity
  8
BEM
100
AcDbText
 10
3444.097398402756
 20
954.0010182293999
 30
0.0
 40
2.5
  1

 41
0.8
  7
GREEKS
100
AcDbText
  0
TEXT
  5
3779
330
410E
100
AcDbEntity
  8
BEM
100
AcDbText
 10
3444.097398402756
 20
948.7631744107364
 30
0.0
 40
2.5
  1

 41
0.8
  7
GREEKS
100
AcDbText
  0
TEXT
  5
377A
330
410E
100
AcDbEntity
  8
BEM
100
AcDbText
 10
3444.024453925382
 20
944.2579854606387
 30
0.0
 40
1.8
  1

 41
0.8
  7
GREEKS
100
AcDbText
  0
TEXT
  5
377B
330
410E
100
AcDbEntity
  8
BEM
100
AcDbText
 10
3431.34088304577
 20
969.849574556864
 30
0.0
 40
2.0
  1

 41
0.8
  7
GREEKS
 72
     1
 11
3431.34088304577
 21
969.849574556864
 31
0.0
100
AcDbText
  0
TEXT
  5
377C
330
410E
100
AcDbEntity
  8
TEXT
100
AcDbText
 10
3741.441601767065
 20
959.527297993457
 30
0.0
 40
2.5
  1
  
  7
GREEKS
 72
     1
 11
3743.703506528969
 21
959.527297993457
 31
0.0
100
AcDbText
  0
TEXT
  5
377D
330
410E
100
AcDbEntity
  8
BEM
100
AcDbText
 10
3985.561319079547
 20
1095.086180023859
 30
0.0
 40
2.5
  1
 
 72
     4
 11
3986.692271460499
 21
1095.086180023859
 31
0.0
100
AcDbText
  0
TEXT
  5
377E
330
410E
100
AcDbEntity
  8
VOLL
100
AcDbText
 10
2626.868256161984
 20
1314.821528688589
 30
0.0
 40
1.8
  1

  7
GREEKS
100
AcDbText
  0
TEXT
  5
377F
330
410E
100
AcDbEntity
  8
VOLL
100
AcDbText
 10
3003.557172451008
 20
1357.151856090718
 30
0.0
 40
1.8
  1

  7
GREEKS
100
AcDbText
  0
TEXT
  5
3780
330
410E
100
AcDbEntity
  8
VOLL
100
AcDbText
 10
3315.738374716556
 20
1327.477463666411
 30
0.0
 40
1.8
  1

  7
GREEKS
100
AcDbText
  0
TEXT
  5
3781
330
410E
100
AcDbEntity
  8
TEXT
100
AcDbText
 10
3647.570642920149
 20
1333.035699199636
 30
0.0
 40
2.5
  1
  
  7
GREEKS
 72
     1
 11
3649.832547682054
 21
1333.035699199636
 31
0.0
100
AcDbText
  0
TEXT
  5
3782
330
410E
100
AcDbEntity
  8
BEM
100
AcDbText
 10
3891.690360232632
 20
1468.594581230039
 30
0.0
 40
2.5
  1
 
 72
     4
 11
3892.821312613584
 21
1468.594581230039
 31
0.0
100
AcDbText
  0
TEXT
  5
3783
330
410E
100
AcDbEntity
  8
BEM
100
AcDbText
 10
3430.227393094724
 20
1390.416389767185
 30
0.0
 40
2.5
  1

  7
GREEKS
100
AcDbText
  0
TEXT
  5
3784
330
410E
100
AcDbEntity
  8
VOLL
100
AcDbText
 10
3416.161200075002
 20
1370.23312911015
 30
0.0
 40
1.8
  1

  7
GREEKS
100
AcDbText
  0
TEXT
  5
3785
330
410E
100
AcDbEntity
  8
BEM
100
AcDbText
 10
3450.649264914286
 20
1374.95885343337
 30
0.0
 40
2.5
  1

 41
0.8
  7
GREEKS
100
AcDbText
  0
TEXT
  5
3786
330
410E
100
AcDbEntity
  8
BEM
100
AcDbText
 10
3450.649264914286
 20
1370.265084879318
 30
0.0
 40
2.5
  1

 41
0.8
  7
GREEKS
100
AcDbText
  0
TEXT
  5
3787
330
410E
100
AcDbEntity
  8
BEM
100
AcDbText
 10
3450.649264914286
 20
1365.027241060654
 30
0.0
 40
2.5
  1

 41
0.8
  7
GREEKS
100
AcDbText
  0
TEXT
  5
3788
330
410E
100
AcDbEntity
  8
BEM
100
AcDbText
 10
3450.576320436912
 20
1360.522052110557
 30
0.0
 40
1.8
  1

 41
0.8
  7
GREEKS
100
AcDbText
  0
TEXT
  5
3789
330
410E
100
AcDbEntity
  8
BEM
100
AcDbText
 10
3437.892749557301
 20
1386.113641206782
 30
0.0
 40
2.0
  1

 41
0.8
  7
GREEKS
 72
     1
 11
3437.892749557301
 21
1386.113641206782
 31
0.0
100
AcDbText
  0
TEXT
  5
378A
330
410E
100
AcDbEntity
  8
TEXT
100
AcDbText
 10
3747.993468278596
 20
1375.791364643375
 30
0.0
 40
2.5
  1
  
  7
GREEKS
 72
     1
 11
3750.2553730405
 21
1375.791364643375
 31
0.0
100
AcDbText
  0
TEXT
  5
378B
330
410E
100
AcDbEntity
  8
BEM
100
AcDbText
 10
3992.113185591077
 20
1511.350246673777
 30
0.0
 40
2.5
  1
 
 72
     4
 11
3993.24413797203
 21
1511.350246673777
 31
0.0
100
AcDbText
  0
TEXT
  5
378C
330
410E
100
AcDbEntity
  8
VOLL
100
AcDbText
 10
2794.281937799546
 20
1708.666538865009
 30
0.0
 40
1.8
  1

  7
GREEKS
100
AcDbText
  0
TEXT
  5
378D
330
410E
100
AcDbEntity
  8
TEXT
100
AcDbText
 10
3126.114206003139
 20
1714.224774398234
 30
0.0
 40
2.5
  1
  
  7
GREEKS
 72
     1
 11
3128.376110765044
 21
1714.224774398234
 31
0.0
100
AcDbText
  0
TEXT
  5
378E
330
410E
100
AcDbEntity
  8
BEM
100
AcDbText
 10
3370.233923315621
 20
1849.783656428637
 30
0.0
 40
2.5
  1
 
 72
     4
 11
3371.364875696573
 21
1849.783656428637
 31
0.0
100
AcDbText
  0
TEXT
  5
378F
330
410E
100
AcDbEntity
  8
BEM
100
AcDbText
 10
2908.770956177713
 20
1771.605464965783
 30
0.0
 40
2.5
  1

  7
GREEKS
100
AcDbText
  0
TEXT
  5
3790
330
410E
100
AcDbEntity
  8
VOLL
100
AcDbText
 10
2894.704763157992
 20
1751.422204308748
 30
0.0
 40
1.8
  1

  7
GREEKS
100
AcDbText
  0
TEXT
  5
3791
330
410E
100
AcDbEntity
  8
BEM
100
AcDbText
 10
2929.192827997276
 20
1756.147928631968
 30
0.0
 40
2.5
  1

 41
0.8
  7
GREEKS
100
AcDbText
  0
TEXT
  5
3792
330
410E
100
AcDbEntity
  8
BEM
100
AcDbText
 10
2929.192827997276
 20
1751.454160077916
 30
0.0
 40
2.5
  1

 41
0.8
  7
GREEKS
100
AcDbText
  0
TEXT
  5
3793
330
410E
100
AcDbEntity
  8
BEM
100
AcDbText
 10
2929.192827997276
 20
1746.216316259253
 30
0.0
 40
2.5
  1

 41
0.8
  7
GREEKS
100
AcDbText
  0
TEXT
  5
3794
330
410E
100
AcDbEntity
  8
BEM
100
AcDbText
 10
2929.119883519902
 20
1741.711127309155
 30
0.0
 40
1.8
  1

 41
0.8
  7
GREEKS
100
AcDbText
  0
TEXT
  5
3795
330
410E
100
AcDbEntity
  8
BEM
100
AcDbText
 10
2916.436312640291
 20
1767.30271640538
 30
0.0
 40
2.0
  1

 41
0.8
  7
GREEKS
 72
     1
 11
2916.436312640291
 21
1767.30271640538
 31
0.0
100
AcDbText
  0
TEXT
  5
3796
330
410E
100
AcDbEntity
  8
TEXT
100
AcDbText
 10
3226.537031361585
 20
1756.980439841973
 30
0.0
 40
2.5
  1
  
  7
GREEKS
 72
     1
 11
3228.798936123489
 21
1756.980439841973
 31
0.0
100
AcDbText
  0
TEXT
  5
3797
330
410E
100
AcDbEntity
  8
BEM
100
AcDbText
 10
3470.656748674067
 20
1892.539321872375
 30
0.0
 40
2.5
  1
 
 72
     4
 11
3471.787701055019
 21
1892.539321872375
 31
0.0
100
AcDbText
  0
TEXT
  5
3798
330
410E
100
AcDbEntity
  8
VOLL
100
AcDbText
 10
3227.329782562967
 20
1976.920024391045
 30
0.0
 40
1.8
  1

  7
GREEKS
100
AcDbText
  0
TEXT
  5
3799
330
410E
100
AcDbEntity
  8
VOLL
100
AcDbText
 10
3539.510984828515
 20
1947.245631966739
 30
0.0
 40
1.8
  1

  7
GREEKS
100
AcDbText
  0
TEXT
  5
379A
330
410E
100
AcDbEntity
  8
TEXT
100
AcDbText
 10
3871.343253032108
 20
1952.803867499964
 30
0.0
 40
2.5
  1
  
  7
GREEKS
 72
     1
 11
3873.605157794012
 21
1952.803867499964
 31
0.0
100
AcDbText
  0
TEXT
  5
379B
330
410E
100
AcDbEntity
  8
BEM
100
AcDbText
 10
4115.46297034459
 20
2088.362749530366
 30
0.0
 40
2.5
  1
 
 72
     4
 11
4116.593922725542
 21
2088.362749530366
 31
0.0
100
AcDbText
  0
TEXT
  5
379C
330
410E
100
AcDbEntity
  8
BEM
100
AcDbText
 10
3654.000003206682
 20
2010.184558067512
 30
0.0
 40
2.5
  1

  7
GREEKS
100
AcDbText
  0
TEXT
  5
379D
330
410E
100
AcDbEntity
  8
VOLL
100
AcDbText
 10
3639.93381018696
 20
1990.001297410477
 30
0.0
 40
1.8
  1

  7
GREEKS
100
AcDbText
  0
TEXT
  5
379E
330
410E
100
AcDbEntity
  8
BEM
100
AcDbText
 10
3674.421875026245
 20
1994.727021733698
 30
0.0
 40
2.5
  1

 41
0.8
  7
GREEKS
100
AcDbText
  0
TEXT
  5
379F
330
410E
100
AcDbEntity
  8
BEM
100
AcDbText
 10
3674.421875026245
 20
1990.033253179645
 30
0.0
 40
2.5
  1

 41
0.8
  7
GREEKS
100
AcDbText
  0
TEXT
  5
37A0
330
410E
100
AcDbEntity
  8
BEM
100
AcDbText
 10
3674.421875026245
 20
1984.795409360982
 30
0.0
 40
2.5
  1

 41
0.8
  7
GREEKS
100
AcDbText
  0
TEXT
  5
37A1
330
410E
100
AcDbEntity
  8
BEM
100
AcDbText
 10
3674.348930548871
 20
1980.290220410884
 30
0.0
 40
1.8
  1

 41
0.8
  7
GREEKS
100
AcDbText
  0
TEXT
  5
37A2
330
410E
100
AcDbEntity
  8
BEM
100
AcDbText
 10
3661.665359669259
 20
2005.88180950711
 30
0.0
 40
2.0
  1

 41
0.8
  7
GREEKS
 72
     1
 11
3661.665359669259
 21
2005.88180950711
 31
0.0
100
AcDbText
  0
TEXT
  5
37A3
330
410E
100
AcDbEntity
  8
TEXT
100
AcDbText
 10
3971.766078390554
 20
1995.559532943703
 30
0.0
 40
2.5
  1
  
  7
GREEKS
 72
     1
 11
3974.027983152458
 21
1995.559532943703
 31
0.0
100
AcDbText
  0
TEXT
  5
37A4
330
410E
100
AcDbEntity
  8
BEM
100
AcDbText
 10
4215.885795703036
 20
2131.118414974105
 30
0.0
 40
2.5
  1
 
 72
     4
 11
4217.016748083988
 21
2131.118414974105
 31
0.0
100
AcDbText
  0
TEXT
  5
37A5
330
410E
100
AcDbEntity
  8
VOLL
100
AcDbText
 10
2956.253130628319
 20
2358.481275265404
 30
0.0
 40
1.8
  1

  7
GREEKS
100
AcDbText
  0
TEXT
  5
37A6
330
410E
100
AcDbEntity
  8
VOLL
100
AcDbText
 10
3265.676590850036
 20
2385.405986623684
 30
0.0
 40
1.8
  1

  7
GREEKS
100
AcDbText
  0
TEXT
  5
37A7
330
410E
100
AcDbEntity
  8
VOLL
100
AcDbText
 10
3577.857793115584
 20
2355.731594199378
 30
0.0
 40
1.8
  1

  7
GREEKS
100
AcDbText
  0
TEXT
  5
37A8
330
410E
100
AcDbEntity
  8
TEXT
100
AcDbText
 10
3909.690061319177
 20
2361.289829732603
 30
0.0
 40
2.5
  1
  
  7
GREEKS
 72
     1
 11
3911.951966081082
 21
2361.289829732603
 31
0.0
100
AcDbText
  0
TEXT
  5
37A9
330
410E
100
AcDbEntity
  8
BEM
100
AcDbText
 10
4153.809778631659
 20
2496.848711763005
 30
0.0
 40
2.5
  1
 
 72
     4
 11
4154.940731012612
 21
2496.848711763005
 31
0.0
100
AcDbText
  0
TEXT
  5
37AA
330
410E
100
AcDbEntity
  8
BEM
100
AcDbText
 10
3692.346811493751
 20
2418.670520300151
 30
0.0
 40
2.5
  1

  7
GREEKS
100
AcDbText
  0
TEXT
  5
37AB
330
410E
100
AcDbEntity
  8
VOLL
100
AcDbText
 10
3678.28061847403
 20
2398.487259643116
 30
0.0
 40
1.8
  1

  7
GREEKS
100
AcDbText
  0
TEXT
  5
37AC
330
410E
100
AcDbEntity
  8
BEM
100
AcDbText
 10
3712.768683313315
 20
2403.212983966337
 30
0.0
 40
2.5
  1

 41
0.8
  7
GREEKS
100
AcDbText
  0
TEXT
  5
37AD
330
410E
100
AcDbEntity
  8
BEM
100
AcDbText
 10
3712.768683313315
 20
2398.519215412284
 30
0.0
 40
2.5
  1

 41
0.8
  7
GREEKS
100
AcDbText
  0
TEXT
  5
37AE
330
410E
100
AcDbEntity
  8
BEM
100
AcDbText
 10
3712.768683313315
 20
2393.281371593621
 30
0.0
 40
2.5
  1

 41
0.8
  7
GREEKS
100
AcDbText
  0
TEXT
  5
37AF
330
410E
100
AcDbEntity
  8
BEM
100
AcDbText
 10
3712.69573883594
 20
2388.776182643523
 30
0.0
 40
1.8
  1

 41
0.8
  7
GREEKS
100
AcDbText
  0
TEXT
  5
37B0
330
410E
100
AcDbEntity
  8
BEM
100
AcDbText
 10
3700.012167956329
 20
2414.367771739749
 30
0.0
 40
2.0
  1

 41
0.8
  7
GREEKS
 72
     1
 11
3700.012167956329
 21
2414.367771739749
 31
0.0
100
AcDbText
  0
TEXT
  5
37B1
330
410E
100
AcDbEntity
  8
TEXT
100
AcDbText
 10
4010.112886677623
 20
2404.045495176342
 30
0.0
 40
2.5
  1
  
  7
GREEKS
 72
     1
 11
4012.374791439527
 21
2404.045495176342
 31
0.0
100
AcDbText
  0
TEXT
  5
37B2
330
410E
100
AcDbEntity
  8
BEM
100
AcDbText
 10
4254.232603990105
 20
2539.604377206743
 30
0.0
 40
2.5
  1
 
 72
     4
 11
4255.363556371057
 21
2539.604377206743
 31
0.0
100
AcDbText
  0
TEXT
  5
37B3
330
410E
100
AcDbEntity
  8
VOLL
100
AcDbText
 10
2922.401129675156
 20
2754.245080806955
 30
0.0
 40
1.8
  1

  7
GREEKS
100
AcDbText
  0
TEXT
  5
37B4
330
410E
100
AcDbEntity
  8
TEXT
100
AcDbText
 10
3254.23339787875
 20
2759.80331634018
 30
0.0
 40
2.5
  1
  
  7
GREEKS
 72
     1
 11
3256.495302640654
 21
2759.80331634018
 31
0.0
100
AcDbText
  0
TEXT
  5
37B5
330
410E
100
AcDbEntity
  8
BEM
100
AcDbText
 10
3498.353115191232
 20
2895.362198370582
 30
0.0
 40
2.5
  1
 
 72
     4
 11
3499.484067572184
 21
2895.362198370582
 31
0.0
100
AcDbText
  0
TEXT
  5
37B6
330
410E
100
AcDbEntity
  8
BEM
100
AcDbText
 10
3149.425018464969
 20
2774.583615091553
 30
0.0
 40
2.5
  1

  7
GREEKS
100
AcDbText
  0
TEXT
  5
37B7
330
410E
100
AcDbEntity
  8
VOLL
100
AcDbText
 10
3135.358825445246
 20
2754.400354434518
 30
0.0
 40
1.8
  1

  7
GREEKS
100
AcDbText
  0
TEXT
  5
37B8
330
410E
100
AcDbEntity
  8
BEM
100
AcDbText
 10
3169.846890284532
 20
2759.126078757739
 30
0.0
 40
2.5
  1

 41
0.8
  7
GREEKS
100
AcDbText
  0
TEXT
  5
37B9
330
410E
100
AcDbEntity
  8
BEM
100
AcDbText
 10
3169.846890284532
 20
2754.432310203687
 30
0.0
 40
2.5
  1

 41
0.8
  7
GREEKS
100
AcDbText
  0
TEXT
  5
37BA
330
410E
100
AcDbEntity
  8
BEM
100
AcDbText
 10
3169.846890284532
 20
2749.194466385023
 30
0.0
 40
2.5
  1

 41
0.8
  7
GREEKS
100
AcDbText
  0
TEXT
  5
37BB
330
410E
100
AcDbEntity
  8
BEM
100
AcDbText
 10
3169.773945807157
 20
2744.689277434926
 30
0.0
 40
1.8
  1

 41
0.8
  7
GREEKS
100
AcDbText
  0
TEXT
  5
37BC
330
410E
100
AcDbEntity
  8
BEM
100
AcDbText
 10
3157.090374927546
 20
2770.28086653115
 30
0.0
 40
2.0
  1

 41
0.8
  7
GREEKS
 72
     1
 11
3157.090374927546
 21
2770.28086653115
 31
0.0
100
AcDbText
  0
TEXT
  5
37BD
330
410E
100
AcDbEntity
  8
TEXT
100
AcDbText
 10
3467.19109364884
 20
2759.958589967744
 30
0.0
 40
2.5
  1
  
  7
GREEKS
 72
     1
 11
3469.452998410745
 21
2759.958589967744
 31
0.0
100
AcDbText
  0
TEXT
  5
37BE
330
410E
100
AcDbEntity
  8
BEM
100
AcDbText
 10
3711.310810961322
 20
2895.517471998146
 30
0.0
 40
2.5
  1
 
 72
     4
 11
3712.441763342275
 21
2895.517471998146
 31
0.0
100
AcDbText
  0
TEXT
  5
37BF
330
410E
100
AcDbEntity
  8
VOLL
100
AcDbText
 10
2795.56747423249
 20
1086.475598415291
 30
0.0
 40
1.8
  1

  7
GREEKS
100
AcDbText
  0
TEXT
  5
37C0
330
410E
100
AcDbEntity
  8
TEXT
100
AcDbText
 10
3127.399742436083
 20
1092.033833948516
 30
0.0
 40
2.5
  1
  
  7
GREEKS
 72
     1
 11
3129.661647197988
 21
1092.033833948516
 31
0.0
100
AcDbText
  0
TEXT
  5
37C1
330
410E
100
AcDbEntity
  8
BEM
100
AcDbText
 10
3371.519459748565
 20
1227.592715978919
 30
0.0
 40
2.5
  1
 
 72
     4
 11
3372.650412129517
 21
1227.592715978919
 31
0.0
100
AcDbText
  0
TEXT
  5
37C2
330
410E
100
AcDbEntity
  8
BEM
100
AcDbText
 10
3022.591363022301
 20
1106.814132699889
 30
0.0
 40
2.5
  1

  7
GREEKS
100
AcDbText
  0
TEXT
  5
37C3
330
410E
100
AcDbEntity
  8
VOLL
100
AcDbText
 10
3008.52517000258
 20
1086.630872042854
 30
0.0
 40
1.8
  1

  7
GREEKS
100
AcDbText
  0
TEXT
  5
37C4
330
410E
100
AcDbEntity
  8
BEM
100
AcDbText
 10
3043.013234841864
 20
1091.356596366074
 30
0.0
 40
2.5
  1

 41
0.8
  7
GREEKS
100
AcDbText
  0
TEXT
  5
37C5
330
410E
100
AcDbEntity
  8
BEM
100
AcDbText
 10
3043.013234841864
 20
1086.662827812022
 30
0.0
 40
2.5
  1

 41
0.8
  7
GREEKS
100
AcDbText
  0
TEXT
  5
37C6
330
410E
100
AcDbEntity
  8
BEM
100
AcDbText
 10
3043.013234841864
 20
1081.424983993359
 30
0.0
 40
2.5
  1

 41
0.8
  7
GREEKS
100
AcDbText
  0
TEXT
  5
37C7
330
410E
100
AcDbEntity
  8
BEM
100
AcDbText
 10
3042.94029036449
 20
1076.919795043261
 30
0.0
 40
1.8
  1

 41
0.8
  7
GREEKS
100
AcDbText
  0
TEXT
  5
37C8
330
410E
100
AcDbEntity
  8
BEM
100
AcDbText
 10
3030.256719484879
 20
1102.511384139486
 30
0.0
 40
2.0
  1

 41
0.8
  7
GREEKS
 72
     1
 11
3030.256719484879
 21
1102.511384139486
 31
0.0
100
AcDbText
  0
TEXT
  5
37C9
330
410E
100
AcDbEntity
  8
TEXT
100
AcDbText
 10
3340.357438206173
 20
1092.189107576079
 30
0.0
 40
2.5
  1
  
  7
GREEKS
 72
     1
 11
3342.619342968077
 21
1092.189107576079
 31
0.0
100
AcDbText
  0
TEXT
  5
37CA
330
410E
100
AcDbEntity
  8
BEM
100
AcDbText
 10
3584.477155518655
 20
1227.747989606482
 30
0.0
 40
2.5
  1
 
 72
     4
 11
3585.608107899607
 21
1227.747989606482
 31
0.0
100
AcDbText
  0
TEXT
  5
37CB
330
410E
100
AcDbEntity
  8
VOLL
100
AcDbText
 10
2597.358944777274
 20
932.6320833522556
 30
0.0
 40
3.6
  1

  7
GREEKS
100
AcDbText
  0
TEXT
  5
37CC
330
410E
100
AcDbEntity
  8
TEXT
 62
     1
100
AcDbText
 10
753.0058791601472
 20
1002.979117340994
 30
0.0
 40
7.0
  1
Verbundrohr DN 150
 50
90.0
 41
0.8
  7
GREEKS
100
AcDbText
  0
LINE
  5
37CD
330
410E
100
AcDbEntity
  8
STEMPEL
100
AcDbLine
 10
730.0000000000004
 20
1177.999999999999
 30
0.0
 11
730.0000000000004
 21
817.999999999999
 31
0.0
  0
LINE
  5
37CE
330
410E
100
AcDbEntity
  8
STEMPEL
100
AcDbLine
 10
730.0000000000004
 20
817.999999999999
 30
0.0
 11
830.0000000000004
 21
817.9999999999989
 31
0.0
  0
LINE
  5
37CF
330
410E
100
AcDbEntity
  8
STEMPEL
100
AcDbLine
 10
730.0000000000004
 20
913.9999999999993
 30
0.0
 11
830.0000000000004
 21
913.9999999999991
 31
0.0
  0
LINE
  5
37D0
330
410E
100
AcDbEntity
  8
STEMPEL
100
AcDbLine
 10
730.0000000000004
 20
997.9999999999991
 30
0.0
 11
830.0000000000004
 21
997.9999999999991
 31
0.0
  0
LINE
  5
37D1
330
410E
100
AcDbEntity
  8
STEMPEL
100
AcDbLine
 10
730.0000000000004
 20
1099.999999999999
 30
0.0
 11
800.0000000000005
 21
1099.999999999999
 31
0.0
  0
LINE
  5
37D2
330
410E
100
AcDbEntity
  8
STEMPEL
100
AcDbLine
 10
810.0000000000004
 20
913.9999999999991
 30
0.0
 11
810.0000000000004
 21
817.9999999999989
 31
0.0
  0
LINE
  5
37D3
330
410E
100
AcDbEntity
  8
STEMPEL
100
AcDbLine
 10
800.0000000000005
 20
1177.999999999999
 30
0.0
 11
800.0000000000005
 21
913.9999999999991
 31
0.0
  0
LINE
  5
37D4
330
410E
100
AcDbEntity
  8
STEMPEL
100
AcDbLine
 10
760.0000000000004
 20
1177.999999999999
 30
0.0
 11
760.0000000000004
 21
913.9999999999993
 31
0.0
  0
LINE
  5
37D5
330
410E
100
AcDbEntity
  8
VOLL
100
AcDbLine
 10
730.0000000000004
 20
831.9999999999991
 30
0.0
 11
830.0000000000004
 21
831.9999999999989
 31
0.0
  0
LINE
  5
37D6
330
410E
100
AcDbEntity
  8
VOLL
100
AcDbLine
 10
730.0000000000004
 20
871.9999999999993
 30
0.0
 11
830.0000000000004
 21
871.9999999999988
 31
0.0
  0
LINE
  5
37D7
330
410E
100
AcDbEntity
  8
VOLL
100
AcDbLine
 10
730.0000000000004
 20
891.9999999999992
 30
0.0
 11
830.0000000000004
 21
891.9999999999989
 31
0.0
  0
LINE
  5
37D8
330
410E
100
AcDbEntity
  8
VOLL
100
AcDbLine
 10
760.0000000000004
 20
931.9999999999993
 30
0.0
 11
800.0000000000005
 21
931.9999999999993
 31
0.0
  0
LINE
  5
37D9
330
410E
100
AcDbEntity
  8
VOLL
100
AcDbLine
 10
730.0000000000004
 20
957.9999999999992
 30
0.0
 11
800.0000000000005
 21
957.9999999999991
 31
0.0
  0
LINE
  5
37DA
330
410E
100
AcDbEntity
  8
HILF
100
AcDbLine
 10
740.0000000000004
 20
817.999999999999
 30
0.0
 11
740.0000000000004
 21
913.9999999999993
 31
0.0
  0
LINE
  5
37DB
330
410E
100
AcDbEntity
  8
HILF
100
AcDbLine
 10
750.0000000000004
 20
817.999999999999
 30
0.0
 11
750.0000000000004
 21
913.9999999999993
 31
0.0
  0
LINE
  5
37DC
330
410E
100
AcDbEntity
  8
HILF
100
AcDbLine
 10
760.0000000000004
 20
817.999999999999
 30
0.0
 11
760.0000000000004
 21
913.9999999999993
 31
0.0
  0
LINE
  5
37DD
330
410E
100
AcDbEntity
  8
HILF
100
AcDbLine
 10
770.0000000000004
 20
817.999999999999
 30
0.0
 11
770.0000000000004
 21
913.9999999999993
 31
0.0
  0
LINE
  5
37DE
330
410E
100
AcDbEntity
  8
HILF
100
AcDbLine
 10
780.0000000000005
 20
817.999999999999
 30
0.0
 11
780.0000000000005
 21
913.9999999999993
 31
0.0
  0
LINE
  5
37DF
330
410E
100
AcDbEntity
  8
HILF
100
AcDbLine
 10
790.0000000000004
 20
817.999999999999
 30
0.0
 11
790.0000000000004
 21
913.9999999999993
 31
0.0
  0
LINE
  5
37E0
330
410E
100
AcDbEntity
  8
HILF
100
AcDbLine
 10
800.0000000000005
 20
817.999999999999
 30
0.0
 11
800.0000000000005
 21
913.9999999999993
 31
0.0
  0
LINE
  5
37E1
330
410E
100
AcDbEntity
  8
HILF
100
AcDbLine
 10
770.0000000000004
 20
913.9999999999993
 30
0.0
 11
770.0000000000004
 21
997.9999999999991
 31
0.0
  0
LINE
  5
37E2
330
410E
100
AcDbEntity
  8
HILF
100
AcDbLine
 10
780.0000000000005
 20
913.9999999999993
 30
0.0
 11
780.0000000000005
 21
997.9999999999991
 31
0.0
  0
LINE
  5
37E3
330
410E
100
AcDbEntity
  8
HILF
100
AcDbLine
 10
790.0000000000004
 20
913.9999999999993
 30
0.0
 11
790.0000000000004
 21
997.9999999999991
 31
0.0
  0
LINE
  5
37E4
330
410E
100
AcDbEntity
  8
HILF
100
AcDbLine
 10
755.9624175243588
 20
1002.773680109694
 30
0.0
 11
755.9624175243588
 21
1094.62978425148
 31
0.0
  0
LINE
  5
37E5
330
410E
100
AcDbEntity
  8
HILF
100
AcDbLine
 10
770.0000000000004
 20
1002.773680109694
 30
0.0
 11
770.0000000000004
 21
1094.62978425148
 31
0.0
  0
LINE
  5
37E6
330
410E
100
AcDbEntity
  8
HILF
100
AcDbLine
 10
780.0000000000005
 20
1002.773680109694
 30
0.0
 11
780.0000000000005
 21
1094.62978425148
 31
0.0
  0
LINE
  5
37E7
330
410E
100
AcDbEntity
  8
HILF
100
AcDbLine
 10
790.0000000000004
 20
1002.773680109694
 30
0.0
 11
790.0000000000004
 21
1094.62978425148
 31
0.0
  0
LINE
  5
37E8
330
410E
100
AcDbEntity
  8
VOLL
100
AcDbLine
 10
780.0000000000005
 20
1099.999999999999
 30
0.0
 11
780.0000000000005
 21
1177.999999999999
 31
0.0
  0
LINE
  5
37E9
330
410E
100
AcDbEntity
  8
HILF
100
AcDbLine
 10
756.2201636304421
 20
1104.723861629699
 30
0.0
 11
756.2201636304421
 21
1172.858883932672
 31
0.0
  0
TEXT
  5
37EA
330
410E
100
AcDbEntity
  8
TEXT
100
AcDbText
 10
823.0404667644446
 20
839.7392474193383
 30
0.0
 40
4.0
  1
Änderung
 50
90.0
 41
0.8
  7
GREEKS
 72
     4
 11
821.326181050159
 21
850.4821045621953
 31
0.0
100
AcDbText
  0
TEXT
  5
37EB
330
410E
100
AcDbEntity
  8
TEXT
100
AcDbText
 10
737.5379104912913
 20
921.5163572150368
 30
0.0
 40
5.0
  1
Maßstab
 50
90.0
  7
GREEKS
100
AcDbText
  0
TEXT
  5
37EC
330
410E
100
AcDbEntity
  8
TEXT
100
AcDbText
 10
737.5815831565183
 20
965.9646614905589
 30
0.0
 40
5.0
  1
zul.Abw.
 50
90.0
 41
0.8
  7
GREEKS
100
AcDbText
  0
TEXT
  5
37ED
330
410E
100
AcDbEntity
  8
TEXT
100
AcDbText
 10
737.4510671988223
 20
1002.8779403809
 30
0.0
 40
5.0
  1
Benennung
 50
90.0
  7
GREEKS
100
AcDbText
  0
TEXT
  5
37EE
330
410E
100
AcDbEntity
  8
TEXT
100
AcDbText
 10
737.6867965462865
 20
1104.178754957633
 30
0.0
 40
5.0
  1
Zeichnungs Nr.
 50
90.0
  7
GREEKS
100
AcDbText
  0
TEXT
  5
37EF
330
410E
100
AcDbEntity
  8
TEXT
100
AcDbText
 10
809.1543942980697
 20
1002.742238391135
 30
0.0
 40
5.0
  1
Bauvorhaben
 50
90.0
  7
GREEKS
100
AcDbText
  0
TEXT
  5
37F0
330
410E
100
AcDbEntity
  8
TEXT
100
AcDbText
 10
766.8188176290004
 20
1104.723861629699
 30
0.0
 40
5.0
  1
Ersatz für:
 50
90.0
  7
GREEKS
100
AcDbText
  0
TEXT
  5
37F1
330
410E
100
AcDbEntity
  8
TEXT
100
AcDbText
 10
826.3453415397284
 20
826.2664110704566
 30
0.0
 40
3.6
  1
Index
 50
180.0
  7
GREEKS
100
AcDbText
  0
TEXT
  5
37F2
330
410E
100
AcDbEntity
  8
TEXT
100
AcDbText
 10
822.6617706399355
 20
878.0351218385709
 30
0.0
 40
4.0
  1
Tag
 50
90.0
 41
0.8
  7
GREEKS
 72
     4
 11
821.3284373066022
 21
881.7684551719041
 31
0.0
100
AcDbText
  0
TEXT
  5
37F3
330
410E
100
AcDbEntity
  8
TEXT
100
AcDbText
 10
823.4067578303362
 20
896.9263272074634
 30
0.0
 40
4.0
  1
Name
 50
90.0
 41
0.8
  7
GREEKS
 72
     4
 11
821.406757830336
 21
903.2501367312729
 31
0.0
100
AcDbText
  0
TEXT
  5
37F4
330
410E
100
AcDbEntity
  8
TEXT
100
AcDbText
 10
766.6811949877009
 20
940.3311673153641
 30
0.0
 40
3.6
  1
Tag
 50
90.0
 41
0.8
  7
GREEKS
100
AcDbText
  0
TEXT
  5
37F5
330
410E
100
AcDbEntity
  8
TEXT
100
AcDbText
 10
766.690389080848
 20
970.4626584226287
 30
0.0
 40
3.6
  1
Name
 50
90.0
  7
GREEKS
100
AcDbText
  0
TEXT
  5
37F6
330
410E
100
AcDbEntity
  8
TEXT
100
AcDbText
 10
776.3700963038209
 20
915.5836127167606
 30
0.0
 40
3.6
  1
Gez.
 50
90.0
  7
GREEKS
100
AcDbText
  0
TEXT
  5
37F7
330
410E
100
AcDbEntity
  8
TEXT
100
AcDbText
 10
786.3107370857164
 20
915.5515086571663
 30
0.0
 40
3.6
  1
Gepr.
 50
90.0
  7
GREEKS
100
AcDbText
  0
TEXT
  5
37F8
330
410E
100
AcDbEntity
  8
TEXT
100
AcDbText
 10
796.4705361035021
 20
915.6006777387295
 30
0.0
 40
3.6
  1
Norm.
 50
90.0
  7
GREEKS
100
AcDbText
  0
TEXT
  5
37F9
330
410E
100
AcDbEntity
  8
TEXT
100
AcDbText
 10
776.4974674124914
 20
973.1121860477735
 30
0.0
 40
3.6
  1
Koeh
 50
90.0
 41
0.8
  7
GREEKS
 72
     1
 11
776.4974674124914
 21
977.8436146192021
 31
0.0
100
AcDbText
  0
TEXT
  5
37FA
330
410E
100
AcDbEntity
  8
TEXT
100
AcDbText
 10
787.9258382212142
 20
1105.2400861497
 30
0.0
 40
5.0
  1
ersetzt durch:
 50
90.0
  7
GREEKS
100
AcDbText
  0
TEXT
  5
37FB
330
410E
100
AcDbEntity
  8
TEXT
100
AcDbText
 10
766.8541631609587
 20
916.542601095182
 30
0.0
 40
3.6
  1
2011
 50
90.0
  7
GREEKS
100
AcDbText
  0
TEXT
  5
37FC
330
410E
100
AcDbEntity
  8
TEXT
100
AcDbText
 10
776.5944676464055
 20
938.7243741963313
 30
0.0
 40
3.6
  1
14.02.
 50
90.0
 41
0.8
  7
GREEKS
 72
     1
 11
776.5944676464055
 21
944.7586599106172
 31
0.0
100
AcDbText
  0
TEXT
  5
37FD
330
410E
100
AcDbEntity
  8
TEXT
 62
     1
100
AcDbText
 10
753.7758949562681
 20
926.806431036444
 30
0.0
 40
7.0
  1
1:2
 50
90.0
  7
GREEKS
100
AcDbText
  0
TEXT
  5
37FE
330
410E
100
AcDbEntity
  8
TEXT
100
AcDbText
 10
767.7034887269591
 20
1002.862987254256
 30
0.0
 40
5.0
  1
mit Reinigungsöffnung
 50
90.0
 41
0.8
  7
GREEKS
100
AcDbText
  0
TEXT
  5
37FF
330
410E
100
AcDbEntity
  8
TEXT
 62
     1
100
AcDbText
 10
752.9813625823644
 20
1114.904439484235
 30
0.0
 40
7.0
  1
58057150W
 50
90.0
 41
0.8
  7
GREEKS
 72
     1
 11
752.9813625823644
 21
1138.371106150902
 31
0.0
100
AcDbText
  0
TEXT
  5
3800
330
410E
100
AcDbEntity
  8
TEXT
100
AcDbText
 10
797.8049542698649
 20
1002.971340053455
 30
0.0
 40
3.6
  1
58057150W.DWG
 50
90.0
  7
GREEKS
100
AcDbText
  0
TEXT
  5
3801
330
410E
100
AcDbEntity
  8
TEXT
100
AcDbText
 10
744.7612310158565
 20
977.0971729588314
 30
0.0
 40
4.0
  1

 50
90.0
 41
0.8
  7
GREEKS
 72
     1
 11
744.7612310158565
 21
977.0971729588314
 31
0.0
100
AcDbText
  0
TEXT
  5
3802
330
410E
100
AcDbEntity
  8
TEXT
100
AcDbText
 10
726.4045780774095
 20
818.2031266103846
 30
0.0
 40
5.0
  1
Erstellt mit AUTOCAD 2004
 50
90.0
  7
GREEKS
100
AcDbText
  0
INSERT
  5
3803
330
410E
100
AcDbEntity
  8
STEMPEL
100
AcDbBlockReference
  2
LOGO
 10
795.6760802813287
 20
916.9705276546521
 30
0.0
 41
2.0
 42
2.0
 43
2.0
 50
90.0
  0
TEXT
  5
3804
330
410E
100
AcDbEntity
  8
VOLL
100
AcDbText
 10
3166.058300722932
 20
1086.206567692794
 30
0.0
 40
1.8
  1

  7
GREEKS
100
AcDbText
  0
TEXT
  5
3805
330
410E
100
AcDbEntity
  8
VOLL
100
AcDbText
 10
3174.818248042051
 20
1125.21304715127
 30
0.0
 40
1.8
  1

  7
GREEKS
100
AcDbText
  0
TEXT
  5
3806
330
410E
100
AcDbEntity
  8
TEXT
100
AcDbText
 10
778.6322720157131
 20
1002.862987254256
 30
0.0
 40
5.0
  1
Reinigungsöffnung versenkt
 50
90.0
 41
0.8
  7
GREEKS
100
AcDbText
  0
TEXT
  5
3807
330
410E
100
AcDbEntity
  8
VOLL
100
AcDbText
 10
3966.295387957084
 20
1045.987048694699
 30
0.0
 40
1.8
  1

  7
GREEKS
100
AcDbText
  0
TEXT
  5
3808
330
410E
100
AcDbEntity
  8
VOLL
100
AcDbText
 10
3915.999028962724
 20
1161.222639101057
 30
0.0
 40
1.8
  1

  7
GREEKS
100
AcDbText
  0
TEXT
  5
3809
330
410E
100
AcDbEntity
  8
VOLL
100
AcDbText
 10
4672.953304786264
 20
1179.05875430288
 30
0.0
 40
1.8
  1

  7
GREEKS
100
AcDbText
  0
TEXT
  5
380A
330
410E
100
AcDbEntity
  8
VOLL
100
AcDbText
 10
4589.126040244666
 20
1186.871337048206
 30
0.0
 40
1.8
  1

  7
GREEKS
100
AcDbText
  0
TEXT
  5
380B
330
410E
100
AcDbEntity
  8
VOLL
100
AcDbText
 10
5312.868263855265
 20
1290.183136544039
 30
0.0
 40
1.8
  1

  7
GREEKS
100
AcDbText
  0
TEXT
  5
380C
330
410E
100
AcDbEntity
  8
VOLL
100
AcDbText
 10
5340.653334406827
 20
1366.790744109475
 30
0.0
 40
1.8
  1

  7
GREEKS
100
AcDbText
  0
LINE
  5
380D
330
410E
100
AcDbEntity
  8
STEMPEL
100
AcDbLine
 10
730.0000000000004
 20
1177.999999999999
 30
0.0
 11
830.0000000000004
 21
1177.999999999999
 31
0.0
  0
LINE
  5
380E
330
410E
100
AcDbEntity
  8
HILF
100
AcDbLine
 10
825.1060174197172
 20
1002.773680109694
 30
0.0
 11
825.1060174197172
 21
1172.858883932672
 31
0.0
  0
TEXT
  5
3810
330
410E
100
AcDbEntity
  8
TEXT
100
AcDbText
 10
788.1591534980097
 20
1002.862987254256
 30
0.0
 40
5.0
  1
EDV-Art.Nr.58057.150X
 50
90.0
 41
0.8
  7
GREEKS
100
AcDbText
  0
ARC
  5
39CD
330
410E
100
AcDbEntity
  8
VERDECKT
  6
VERDECKT
100
AcDbCircle
 10
145.7722304734269
 20
1017.727094942595
 30
0.0
 40
32.5
100
AcDbArc
 50
150.9459828618014
 51
180.0
  0
LINE
  5
39CE
330
410E
100
AcDbEntity
  8
VERDECKT
  6
VERDECKT
100
AcDbLine
 10
113.2722304734269
 20
1017.727094942595
 30
0.0
 11
113.2722304734269
 21
1001.447593631375
 31
0.0
  0
ARC
  5
39CF
330
410E
100
AcDbEntity
  8
VERDECKT
  6
VERDECKT
100
AcDbCircle
 10
145.7722304734269
 20
1001.505199160528
 30
0.0
 40
32.50004740563918
100
AcDbArc
 50
179.9056985509158
 51
207.527183620552
  0
ARC
  5
39D0
330
410E
100
AcDbEntity
  8
VERDECKT
  6
VERDECKT
100
AcDbCircle
 10
98.77223047342694
 20
977.0101991605285
 30
0.0
 40
20.5
100
AcDbArc
 50
0.0
 51
27.52718362055202
  0
LINE
  5
39D1
330
410E
100
AcDbEntity
  8
VERDECKT
  6
VERDECKT
100
AcDbLine
 10
119.2722304734269
 20
977.0101991605285
 30
0.0
 11
119.2722304734269
 21
961.9511706685953
 31
0.0
  0
ARC
  5
39D2
330
410E
100
AcDbEntity
  8
VERDECKT
  6
VERDECKT
100
AcDbCircle
 10
134.7722304734269
 20
961.9511706685953
 30
0.0
 40
15.5
100
AcDbArc
 50
180.0
 51
214.7719440319486
  0
LINE
  5
39D3
330
410E
100
AcDbEntity
  8
VERDECKT
  6
VERDECKT
100
AcDbLine
 10
124.2722304734269
 20
945.9824512459242
 30
0.0
 11
124.2722304734269
 21
463.5101991605193
 31
0.0
  0
ARC
  5
39D4
330
410E
100
AcDbEntity
  8
VERDECKT
  6
VERDECKT
100
AcDbCircle
 10
111.7722304734269
 20
945.9824512459242
 30
0.0
 40
12.5
100
AcDbArc
 50
0.0
 51
34.77194403194847
  0
ARC
  5
39D5
330
410E
100
AcDbEntity
  8
VERDECKT
  6
VERDECKT
100
AcDbCircle
 10
256.7722304734269
 20
1017.727094942595
 30
0.0
 40
32.5
100
AcDbArc
 50
0.0
 51
29.05401713819859
  0
LINE
  5
39D6
330
410E
100
AcDbEntity
  8
VERDECKT
  6
VERDECKT
100
AcDbLine
 10
289.2722304734269
 20
1017.727094942595
 30
0.0
 11
289.2722304734269
 21
1001.447593631375
 31
0.0
  0
ARC
  5
39D7
330
410E
100
AcDbEntity
  8
VERDECKT
  6
VERDECKT
100
AcDbCircle
 10
256.7722304734269
 20
1001.505199160528
 30
0.0
 40
32.50004740563918
100
AcDbArc
 50
332.472816379448
 51
0.0943014490841215
  0
ARC
  5
39D8
330
410E
100
AcDbEntity
  8
VERDECKT
  6
VERDECKT
100
AcDbCircle
 10
303.7722304734269
 20
977.0101991605285
 30
0.0
 40
20.5
100
AcDbArc
 50
152.472816379448
 51
180.0
  0
LINE
  5
39D9
330
410E
100
AcDbEntity
  8
VERDECKT
  6
VERDECKT
100
AcDbLine
 10
283.2722304734269
 20
977.0101991605285
 30
0.0
 11
283.2722304734269
 21
961.9511706685953
 31
0.0
  0
ARC
  5
39DA
330
410E
100
AcDbEntity
  8
VERDECKT
  6
VERDECKT
100
AcDbCircle
 10
267.7722304734269
 20
961.9511706685953
 30
0.0
 40
15.5
100
AcDbArc
 50
325.2280559680514
 51
0.0
  0
ARC
  5
39DB
330
410E
100
AcDbEntity
  8
VERDECKT
  6
VERDECKT
100
AcDbCircle
 10
290.7722304734269
 20
945.9824512459242
 30
0.0
 40
12.5
100
AcDbArc
 50
145.2280559680515
 51
180.0
  0
LINE
  5
39DC
330
410E
100
AcDbEntity
  8
VERDECKT
  6
VERDECKT
100
AcDbLine
 10
278.2722304734269
 20
945.9824512459242
 30
0.0
 11
278.2722304734269
 21
463.5101991605188
 31
0.0
  0
LINE
  5
3A1A
330
410E
100
AcDbEntity
  8
MITTEL
100
AcDbLine
 10
530.5616970106007
 20
1036.122872682335
 30
0.0
 11
530.5616970106007
 21
446.1228726823357
 31
0.0
  0
DIMENSION
  5
3C49
330
410E
100
AcDbEntity
  8
BEM
100
AcDbDimension
  2
*D5
 10
365.7818667706633
 20
518.5101991605278
 30
0.0
 11
360.2818667706633
 21
776.0101991605282
 31
0.0
 70
    32
 71
     5
 42
515.0000000000006
  3
STANDARD
100
AcDbAlignedDimension
 13
310.7722304734269
 23
1033.510199160528
 33
0.0
 14
310.7722304734271
 24
518.5101991605278
 34
0.0
 50
90.0
100
AcDbRotatedDimension
1001
ACAD
1000
DSTYLE
1002
{
1070
    40
1040
2.0
1070
    41
1040
3.5
1070
    42
1040
1.0
1070
    43
1040
8.0
1070
    44
1040
1.0
1070
    73
1070
     0
1070
    74
1070
     0
1070
    77
1070
     1
1070
    78
1070
     8
1070
   140
1040
3.5
1070
   141
1040
1.5
1070
   147
1040
1.0
1070
   178
1070
     1
1070
   271
1070
     0
1070
   272
1070
     0
1002
}
  0
TEXT
  5
3CCC
330
410E
100
AcDbEntity
  8
TEXT
100
AcDbText
 10
753.4475168665176
 20
960.1066967683552
 30
0.0
 40
4.0
  1
DIN EN1123-2
 50
90.0
 41
0.8
  7
GREEKS
 72
     1
 11
753.4475168665176
 21
977.0971729588314
 31
0.0
100
AcDbText
  0
TEXT
  5
4174
330
410E
100
AcDbEntity
  8
TEXT
 62
     1
100
AcDbText
 10
630.8066937095252
 20
450.3800674483204
 30
0.0
 40
7.0
  1
Rohrende leicht eingezogen
 41
0.8
 72
     1
 11
688.8066937095252
 21
450.3800674483204
 31
0.0
100
AcDbText
  0
TEXT
  5
4175
330
410E
100
AcDbEntity
  8
TEXT
 62
     1
100
AcDbText
 10
768.2446785084618
 20
581.8066337254578
 30
0.0
 40
7.0
  1
Außenrohr: P235 TR1 EN10217-1 feuerverzinkt
 50
90.0
 41
0.8
100
AcDbText
  0
TEXT
  5
4176
330
410E
100
AcDbEntity
  8
TEXT
 62
     1
100
AcDbText
 10
785.0072138920113
 20
585.3123944566561
 30
0.0
 40
7.0
  1
Innenrohr: E195 EN10305 feuervezinkt
 50
90.0
 41
0.8
100
AcDbText
  0
TEXT
  5
4177
330
410E
100
AcDbEntity
  8
TEXT
 62
     1
100
AcDbText
 10
797.4901124553162
 20
619.1879837394374
 30
0.0
 40
7.0
  1
   und innenbeschichtet
 50
90.0
 41
0.8
100
AcDbText
  0
TEXT
  5
4178
330
410E
100
AcDbEntity
  8
TEXT
 62
     1
100
AcDbText
 10
812.3249067810107
 20
582.8473034584702
 30
0.0
 40
7.0
  1
Dämmung: 2 K-PU-Schaum
 50
90.0
 41
0.8
100
AcDbText
  0
CIRCLE
  5
4288
330
410E
100
AcDbEntity
  8
STEMPEL
100
AcDbCircle
 10
201.2722304734269
 20
813.5101991605285
 30
0.0
 40
80.0
  0
HATCH
  5
4392
330
410E
100
AcDbEntity
  8
SCHRAFF
100
AcDbHatch
 10
0.0
 20
0.0
 30
0.0
210
0.0
220
0.0
230
1.0
  2
_USER
 70
     0
 71
     1
 91
        2
 92
        7
 72
     0
 73
     1
 93
        4
 10
250.272230473427
 20
148.675675874031
 10
252.2722304734268
 20
148.675675874031
 10
252.272230473427
 20
171.0717622583472
 10
250.272230473427
 20
171.0717622583472
 97
        4
330
CDA
330
CD1
330
CE2
330
CD2
 92
        7
 72
     0
 73
     1
 93
        4
 10
152.2722304734269
 20
171.0717622583471
 10
150.2722304734269
 20
171.0717622583472
 10
150.2722304734269
 20
148.675675874031
 10
152.2722304734269
 20
148.675675874031
 97
        4
330
CDB
330
CD0
330
CE2
330
CCF
 75
     0
 76
     0
 52
135.0
 41
2.0
 77
     0
 78
     1
 53
135.0
 43
0.0
 44
0.0
 45
-1.414213562373095
 46
-1.414213562373094
 79
     0
 47
0.1615889485180939
 98
        2
 10
251.2645680403111
 20
164.3042605323726
 10
151.4936650406289
 20
161.3956601189893
  0
LINE
  5
43BF
102
{ACAD_REACTORS
330
43D0
330
4804
102
}
330
410E
100
AcDbEntity
  8
STEMPEL
100
AcDbLine
 10
264.9044608722452
 20
148.1508300427072
 30
0.0
 11
266.6355440632074
 21
145.8241691335999
 31
0.0
  0
HATCH
  5
43D0
330
410E
100
AcDbEntity
  8
SCHRAFF
100
AcDbHatch
 10
0.0
 20
0.0
 30
0.0
210
0.0
220
0.0
230
1.0
  2
_USER
 70
     0
 71
     1
 91
        4
 92
        7
 72
     1
 73
     1
 93
        4
 10
201.2722304734269
 20
343.175675874031
 42
0.0
 10
201.2722304734269
 20
340.275675874031
 42
-0.4142135623730951
 10
307.872230473427
 20
233.675675874031
 42
0.0
 10
310.7722304734269
 20
233.675675874031
 42
0.4142135623730951
 97
        4
330
CCE
330
CCA
330
CCD
330
CC9
 92
        7
 72
     1
 73
     1
 93
        4
 10
201.2722304734269
 20
340.275675874031
 42
0.0
 10
201.2722304734269
 20
343.175675874031
 42
0.4142135623730951
 10
91.77223047342693
 20
233.675675874031
 42
0.0
 10
94.67223047342693
 20
233.675675874031
 42
-0.4142135623730951
 97
        4
330
CCE
330
CC9
330
CCD
330
CCA
 92
       23
 72
     1
 73
     1
 93
        4
 10
264.9044608722452
 20
148.1508300427072
 42
0.0
 10
266.6355440632074
 20
145.8241691335999
 42
0.2370811620226475
 10
310.7722304734269
 20
233.675675874031
 42
0.0
 10
307.872230473427
 20
233.675675874031
 42
-0.2370811620226476
 97
        4
330
CCD
330
CCA
330
43BF
330
CC9
 92
        7
 72
     1
 73
     1
 93
        4
 10
135.9089168836464
 20
145.8241691335999
 42
0.616708799227019
 10
310.7722304734269
 20
233.675675874031
 42
0.0
 10
307.872230473427
 20
233.675675874031
 42
-0.6167087992270193
 10
137.6400000746087
 20
148.1508300427072
 42
0.0
 97
        4
330
CCD
330
CC9
330
CD3
330
CCA
 75
     0
 76
     0
 52
45.0
 41
2.0
 77
     0
 78
     1
 53
45.0
 43
0.0
 44
0.0
 45
-1.414213562373094
 46
1.414213562373095
 79
     0
 47
0.5636380430729981
 98
        4
 10
282.1676243694856
 20
306.8590428655534
 10
184.0252417896481
 20
340.1136858804694
 10
308.6773480280308
 20
227.9497153805787
 10
100.5478093980473
 20
194.1314329725328
  0
HATCH
  5
43E4
330
410E
100
AcDbEntity
  8
SCHRAFF
100
AcDbHatch
 10
0.0
 20
0.0
 30
0.0
210
0.0
220
0.0
230
1.0
  2
_USER
 70
     0
 71
     1
 91
        2
 92
        7
 72
     1
 73
     1
 93
        5
 10
201.2722304734269
 20
144.175675874031
 42
0.0
 10
201.2722304734269
 20
142.175675874031
 42
0.0
 10
255.9651002098011
 20
142.1756758740309
 42
0.0008399990261512
 10
256.2722304734269
 20
142.35995981157
 42
0.0
 10
256.2722304734269
 20
144.1756758740309
 42
0.0
 97
        5
330
CD5
330
CCE
330
CD6
330
CCA
330
D67
 92
        7
 72
     1
 73
     1
 93
        5
 10
146.2722304734269
 20
144.175675874031
 42
0.0
 10
146.2722304734269
 20
142.35995981157
 42
0.0008399990261512
 10
146.5793607370527
 20
142.175675874031
 42
0.0
 10
201.2722304734269
 20
142.1756758740309
 42
0.0
 10
201.2722304734269
 20
144.1756758740309
 42
0.0
 97
        5
330
CD5
330
CE3
330
CCA
330
CD6
330
CCE
 75
     0
 76
     0
 52
135.0
 41
2.0
 77
     0
 78
     1
 53
135.0
 43
0.0
 44
0.0
 45
-1.414213562373095
 46
-1.414213562373094
 79
     0
 47
0.2426774959990301
 98
        2
 10
231.2828992033783
 20
143.2043869587596
 10
193.1555882308767
 20
143.2043869587596
  0
HATCH
  5
43ED
330
410E
100
AcDbEntity
  8
SCHRAFF
100
AcDbHatch
 10
0.0
 20
0.0
 30
0.0
210
0.0
220
0.0
230
1.0
  2
NET
 70
     0
 71
     1
 91
        2
 92
        7
 72
     0
 73
     1
 93
        4
 10
201.2722304734269
 20
148.675675874031
 10
201.2722304734269
 20
144.175675874031
 10
256.2722304734269
 20
144.1756758740309
 10
256.2722304734269
 20
148.675675874031
 97
        4
330
CE2
330
CCE
330
CD5
330
D67
 92
        7
 72
     0
 73
     1
 93
        4
 10
146.2722304734269
 20
148.675675874031
 10
146.2722304734269
 20
144.175675874031
 10
201.2722304734269
 20
144.175675874031
 10
201.2722304734269
 20
148.6756758740309
 97
        4
330
CE2
330
CE3
330
CD5
330
CCE
 75
     0
 76
     1
 52
45.0
 41
10.0
 77
     0
 78
     2
 53
45.0
 43
0.0
 44
0.0
 45
-0.8838834764831842
 46
0.8838834764831844
 79
     0
 53
135.0
 43
0.0
 44
0.0
 45
-0.8838834764831844
 46
-0.8838834764831842
 79
     0
 47
0.2426774959990301
 98
        2
 10
231.2828992033783
 20
147.0872255362924
 10
187.3272090029586
 20
147.0872255362924
  0
LINE
  5
44BD
102
{ACAD_REACTORS
330
4589
102
}
330
410E
100
AcDbEntity
  8
STEMPEL
100
AcDbLine
 10
610.0616970106004
 20
461.0137203250523
 30
0.0
 11
609.1963599692006
 21
451.1228726823356
 31
0.0
  0
LINE
  5
44BE
102
{ACAD_REACTORS
330
4589
102
}
330
410E
100
AcDbEntity
  8
STEMPEL
100
AcDbLine
 10
607.5616970106003
 20
461.1228726823222
 30
0.0
 11
606.6868103753422
 21
451.1228726823356
 31
0.0
  0
LINE
  5
44BF
102
{ACAD_REACTORS
330
4589
102
}
330
410E
100
AcDbEntity
  8
STEMPEL
100
AcDbLine
 10
453.5616970106006
 20
461.1228726823275
 30
0.0
 11
454.4365836458592
 21
451.1228726823355
 31
0.0
  0
LINE
  5
44C0
102
{ACAD_REACTORS
330
4589
102
}
330
410E
100
AcDbEntity
  8
STEMPEL
100
AcDbLine
 10
451.0616970106006
 20
461.0137203250553
 30
0.0
 11
451.9270340520007
 21
451.1228726823355
 31
0.0
  0
LINE
  5
44C1
102
{ACAD_REACTORS
330
4589
102
}
330
410E
100
AcDbEntity
  8
STEMPEL
  6
Continuous
100
AcDbLine
 10
609.1963599692006
 20
451.1228726823356
 30
0.0
 11
451.9270340520007
 21
451.1228726823355
 31
0.0
  0
LINE
  5
44C2
330
410E
100
AcDbEntity
  8
HILF
  6
Continuous
100
AcDbLine
 10
605.0521474167431
 20
461.1228726823356
 30
0.0
 11
456.0712466044583
 21
461.1228726823354
 31
0.0
  0
LINE
  5
44F1
330
410E
100
AcDbEntity
  8
STEMPEL
100
AcDbLine
 10
280.7722304734269
 20
463.4010468032484
 30
0.0
 11
279.9068934320269
 21
453.5101991605285
 31
0.0
  0
LINE
  5
44F2
330
410E
100
AcDbEntity
  8
VERDECKT
100
AcDbLine
 10
278.2722304734269
 20
463.5101991605188
 30
0.0
 11
277.3973438381684
 21
453.5101991605285
 31
0.0
  0
LINE
  5
44F3
330
410E
100
AcDbEntity
  8
VERDECKT
100
AcDbLine
 10
124.2722304734269
 20
463.5101991605193
 30
0.0
 11
125.1471171086854
 21
453.5101991605284
 31
0.0
  0
LINE
  5
44F4
330
410E
100
AcDbEntity
  8
STEMPEL
100
AcDbLine
 10
121.7722304734269
 20
463.4010468032476
 30
0.0
 11
122.6375675148269
 21
453.5101991605284
 31
0.0
  0
LINE
  5
44F5
330
410E
100
AcDbEntity
  8
STEMPEL
  6
Continuous
100
AcDbLine
 10
279.9068934320268
 20
453.5101991605285
 30
0.0
 11
122.6375675148269
 21
453.5101991605284
 31
0.0
  0
LINE
  5
44F6
330
410E
100
AcDbEntity
  8
HILF
  6
Continuous
100
AcDbLine
 10
278.2722304734277
 20
463.5101991605284
 30
0.0
 11
124.2722304734269
 21
463.5101991605284
 31
0.0
  0
DIMENSION
  5
44F7
330
410E
100
AcDbEntity
  8
BEM
100
AcDbDimension
  2
*D7
 10
280.772230473427
 20
428.41325372614
 30
0.0
 11
201.2722304734269
 21
434.9132537261399
 31
0.0
 70
    32
  1
%%c<>
 71
     5
 42
159.0000000000002
  3
STANDARD
100
AcDbAlignedDimension
 13
121.7722304734268
 23
463.5101991605284
 33
0.0
 14
280.772230473427
 24
463.5101991605285
 34
0.0
100
AcDbRotatedDimension
1001
ACAD
1000
DSTYLE
1002
{
1070
    40
1040
2.0
1070
    41
1040
3.5
1070
    42
1040
1.0
1070
    43
1040
7.0
1070
    44
1040
1.0
1070
    73
1070
     0
1070
    74
1070
     0
1070
    77
1070
     1
1070
    78
1070
     8
1070
    79
1070
     2
1070
   140
1040
3.5
1070
   141
1040
1.5
1070
   146
1040
0.5142857142857144
1070
   147
1040
1.5
1070
   172
1070
     1
1070
   178
1070
     1
1070
   179
1070
     2
1070
   271
1070
     2
1070
   272
1070
     2
1070
   284
1070
     8
1070
   285
1070
     8
1070
   286
1070
     8
1070
   289
1070
     0
1070
   340
1005
4139
1002
}
  0
ARC
  5
4513
330
410E
100
AcDbEntity
  8
STEMPEL
100
AcDbCircle
 10
666.9586666302694
 20
813.5101991605285
 30
0.0
 40
76.99999999999917
100
AcDbArc
 50
140.4788036413575
 51
219.5211963586427
  0
LINE
  5
4514
102
{ACAD_REACTORS
330
4589
330
4635
330
48AC
102
}
330
410E
100
AcDbEntity
  8
STEMPEL
  6
Continuous
100
AcDbLine
 10
610.0616970106004
 20
764.5101991605285
 30
0.0
 11
610.0616970106004
 21
461.0137203250523
 31
0.0
  0
LINE
  5
4515
102
{ACAD_REACTORS
330
4589
102
}
330
410E
100
AcDbEntity
  8
STEMPEL
  6
Continuous
100
AcDbLine
 10
607.5616970106003
 20
764.5101991605283
 30
0.0
 11
607.5616970106003
 21
461.1228726823222
 31
0.0
  0
HATCH
  5
4589
330
410E
100
AcDbEntity
  8
SCHRAFF
100
AcDbHatch
 10
0.0
 20
0.0
 30
0.0
210
0.0
220
0.0
230
1.0
  2
_USER
 70
     0
 71
     1
 91
        3
 92
        7
 72
     1
 73
     1
 93
       20
 10
610.0616970106004
 20
943.5951247677314
 42
-0.1528962216020393
 10
611.8474112963147
 20
949.2982388472567
 42
0.1528962216020402
 10
615.0616970106004
 20
959.5638441904027
 42
0.0
 10
615.0616970106004
 20
974.6228726823357
 42
-0.1206909349745687
 10
617.0994471370279
 20
982.9419218451688
 42
0.1202734944249426
 10
621.0616970106005
 20
999.0602671531965
 42
0.0
 10
621.0616970106005
 20
1015.339768464402
 42
0.1095178116832399
 10
617.7824695568833
 20
1030.131407625326
 42
0.0
 10
617.3201418080067
 20
1031.122872682336
 42
0.0
 10
614.5616970106003
 20
1031.122872682336
 42
0.0
 10
615.5167000892916
 20
1029.074861970974
 42
-0.1095178116832422
 10
618.5616970106004
 20
1015.339768464402
 42
0.0
 10
618.5616970106004
 20
999.4782201842566
 42
-0.1244894853096718
 10
614.8248093058753
 20
983.9858811115341
 42
0.1191385083152293
 10
612.5616970106005
 20
974.6228726823355
 42
0.0
 10
612.5616970106005
 20
959.5638441904027
 42
-0.1528962216020395
 10
609.7938398677434
 20
950.724017367138
 42
0.1528962216020407
 10
607.5616970106006
 20
943.5951247677312
 42
0.0
 10
607.5616970106004
 20
862.5101991605285
 42
0.0
 10
610.0616970106004
 20
862.5101991605285
 42
0.0
 97
       20
330
C7E
330
C86
330
C82
330
C83
330
C7C
330
C88
330
C79
330
C89
330
C8A
330
C8D
330
C78
330
C87
330
C7B
330
C84
330
C81
330
C85
330
C7D
330
D80
330
D86
330
D81
 92
        7
 72
     1
 73
     1
 93
       22
 10
453.5616970106006
 20
943.5951247677314
 42
0.1528962216020395
 10
451.3295541534577
 20
950.724017367138
 42
-0.1528962216020393
 10
448.5616970106006
 20
959.5638441904027
 42
0.0
 10
448.5616970106006
 20
974.6228726823357
 42
0.1191385083151673
 10
446.2985847153281
 20
983.9858811115298
 42
-0.1244894853096468
 10
442.5616970106005
 20
999.4782201842486
 42
0.0
 10
442.5616970106005
 20
1015.339768464402
 42
-0.1095178116832384
 10
445.6066939319093
 20
1029.074861970974
 42
0.0
 10
446.5616970106006
 20
1031.122872682336
 42
0.0
 10
443.8032522131944
 20
1031.122872682336
 42
0.0
 10
443.3409244643178
 20
1030.131407625326
 42
0.1095178116832424
 10
440.0616970106006
 20
1015.339768464402
 42
0.0
 10
440.0616970106006
 20
999.0602671531924
 42
0.1202734944249129
 10
444.0239468841731
 20
982.9419218451688
 42
-0.1206909349745668
 10
446.0616970106006
 20
974.6228726823359
 42
0.0
 10
446.0616970106006
 20
959.5638441904027
 42
0.1528962216020384
 10
449.2759827248863
 20
949.2982388472569
 42
-0.1528962216020388
 10
451.0616970106005
 20
943.5951247677314
 42
0.0
 10
451.0616970106007
 20
461.0137203250543
 42
0.0
 10
451.9270340520008
 20
451.1228726823356
 42
0.0
 10
454.4365836458593
 20
451.1228726823356
 42
0.0
 10
453.5616970106006
 20
461.1228726823283
 42
0.0
 97
       22
330
C66
330
C6C
330
C6F
330
C6E
330
C6A
330
C72
330
C65
330
C77
330
C8A
330
C76
330
C64
330
C73
330
C6B
330
C71
330
C70
330
C6D
330
C67
330
C69
330
44C0
330
44C1
330
44BF
330
C68
 92
        7
 72
     0
 73
     1
 93
        6
 10
610.0616970106004
 20
764.5101991605285
 10
607.5616970106003
 20
764.5101991605285
 10
607.5616970106003
 20
461.1228726823228
 10
606.686810375342
 20
451.1228726823356
 10
609.1963599692006
 20
451.1228726823356
 10
610.0616970106004
 20
461.0137203250517
 97
        6
330
D87
330
4515
330
44BE
330
44C1
330
44BD
330
4514
 75
     0
 76
     0
 52
45.0
 41
2.0
 77
     0
 78
     1
 53
45.0
 43
0.0
 44
0.0
 45
-1.414213562373094
 46
1.414213562373095
 79
     0
 47
1.267021050220204
 98
        3
 10
609.1807163983166
 20
895.2435882088957
 10
451.9589831381381
 20
885.107420402261
 10
609.1807163983166
 20
636.7712937435567
  0
HATCH
  5
45B6
330
410E
100
AcDbEntity
  8
SCHRAFF
100
AcDbHatch
 10
0.0
 20
0.0
 30
0.0
210
0.0
220
0.0
230
1.0
  2
_USER
 70
     0
 71
     1
 91
        3
 92
        7
 72
     0
 73
     1
 93
        4
 10
637.1616970106007
 20
883.4202605588339
 10
640.0616970106004
 20
883.4202605588341
 10
640.0616970106003
 20
1031.122872682336
 10
637.1616970106006
 20
1031.122872682336
 97
        4
330
C8A
330
CC2
330
D6D
330
CBE
 92
        7
 72
     0
 73
     1
 93
        4
 10
423.9616970106005
 20
1031.122872682336
 10
421.0616970106006
 20
1031.122872682336
 10
421.0616970106005
 20
516.1228726823357
 10
423.9616970106006
 20
516.1228726823357
 97
        4
330
C8A
330
CBD
330
1D43
330
CC1
 92
        7
 72
     0
 73
     1
 93
        4
 10
637.1616970106004
 20
516.1228726823346
 10
640.0616970106006
 20
516.1228726823346
 10
640.0616970106004
 20
743.4203298839447
 10
637.1616970106006
 20
743.4203298839447
 97
        4
330
D6E
330
D73
330
1D03
330
D72
 75
     0
 76
     0
 52
135.0
 41
2.0
 77
     0
 78
     1
 53
135.0
 43
0.0
 44
0.0
 45
-1.414213562373095
 46
-1.414213562373094
 79
     0
 47
1.267021050220204
 98
        3
 10
638.3428097369396
 20
976.332936260575
 10
422.7968897995151
 20
954.7935779219132
 10
638.3428097369396
 20
665.912777237369
  0
HATCH
  5
45E1
330
410E
100
AcDbEntity
  8
SCHRAFF
100
AcDbHatch
 10
0.0
 20
0.0
 30
0.0
210
0.0
220
0.0
230
1.0
  2
_USER
 70
     0
 71
     1
 91
        3
 92
        7
 72
     0
 73
     1
 93
        5
 10
640.0616970106006
 20
882.0101991605284
 10
640.0616970106006
 20
883.4202605588339
 10
637.1616970106006
 20
883.4202605588339
 10
637.1616970106007
 20
879.2601991605286
 10
637.5616970106005
 20
879.2601991605284
 97
        5
330
CBE
330
D6D
330
CC2
330
D4E
330
D4D
 92
        7
 72
     0
 73
     1
 93
        6
 10
640.0616970106004
 20
870.0101991605285
 10
637.5616970106006
 20
872.7601991605284
 10
637.1616970106006
 20
872.7601991605284
 10
637.1616970106006
 20
754.2601991605282
 10
637.5616970106007
 20
754.2601991605281
 10
640.0616970106006
 20
757.010199160528
 97
        6
330
D51
330
D50
330
CC2
330
D52
330
D54
330
CBE
 92
        7
 72
     0
 73
     1
 93
        5
 10
637.5616970106006
 20
747.7601991605283
 10
637.1616970106004
 20
747.7601991605281
 10
637.1616970106006
 20
743.4203298839447
 10
640.0616970106006
 20
743.4203298839447
 10
640.0616970106007
 20
745.0101991605285
 97
        5
330
D56
330
D78
330
D6E
330
CBE
330
D55
 75
     0
 76
     0
 52
45.0
 41
2.0
 77
     0
 78
     1
 53
45.0
 43
0.0
 44
0.0
 45
-1.414213562373094
 46
1.414213562373095
 79
     0
 47
0.4963330551881524
 98
        3
 10
638.01459986387
 20
881.7266197851031
 10
639.0079647177735
 20
863.3622965943596
 10
638.5112795964251
 20
745.2350269137578
  0
HATCH
  5
4600
330
410E
100
AcDbEntity
  8
SCHRAFF
100
AcDbHatch
 10
0.0
 20
0.0
 30
0.0
210
0.0
220
0.0
230
1.0
  2
_USER
 70
     0
 71
     1
 91
        1
 92
        7
 72
     0
 73
     1
 93
        4
 10
622.0616970106005
 20
868.5101991605284
 10
620.0616970106004
 20
868.510199160528
 10
620.0616970106004
 20
758.5101991605285
 10
622.0616970106005
 20
758.5101991605285
 97
        4
330
D46
330
D58
330
D47
330
D59
 75
     0
 76
     0
 52
135.0
 41
2.0
 77
     0
 78
     1
 53
135.0
 43
0.0
 44
0.0
 45
-1.414213562373095
 46
-1.414213562373094
 79
     0
 47
0.4963330551881524
 98
        1
 10
621.1273380707889
 20
853.9319699068627
  0
HATCH
  5
462C
330
410E
100
AcDbEntity
  8
SCHRAFF
100
AcDbHatch
 10
0.0
 20
0.0
 30
0.0
210
0.0
220
0.0
230
1.0
  2
_USER
 70
     0
 71
     1
 91
        4
 92
        7
 72
     0
 73
     1
 93
        4
 10
637.1616970106004
 20
911.0101991605283
 10
629.1616970106006
 20
911.0101991605285
 10
629.1616970106006
 20
879.2601991605284
 10
637.1616970106006
 20
879.2601991605284
 97
        4
330
D43
330
D4B
330
D4E
330
CC2
 92
        7
 72
     0
 73
     1
 93
        4
 10
637.1616970106004
 20
872.7601991605284
 10
629.1616970106006
 20
872.7601991605284
 10
629.1616970106005
 20
871.0101991605283
 10
637.1616970106006
 20
871.0101991605283
 97
        4
330
D50
330
D4B
330
D45
330
CC2
 92
        7
 72
     0
 73
     1
 93
        4
 10
637.1616970106006
 20
756.0101991605282
 10
629.1616970106006
 20
756.0101991605282
 10
629.1616970106005
 20
754.2601991605282
 10
637.1616970106006
 20
754.2601991605282
 97
        4
330
D48
330
D4C
330
D52
330
CC2
 92
        7
 72
     0
 73
     1
 93
        5
 10
637.1616970106006
 20
743.4203298839447
 10
637.1616970106006
 20
747.7601991605283
 10
629.1616970106005
 20
747.7601991605283
 10
629.1616970106006
 20
716.0101991605284
 10
637.1616970106006
 20
716.0101991605282
 97
        5
330
D78
330
D56
330
D4C
330
D4A
330
D73
 75
     0
 76
     0
 52
45.0
 41
1.0
 77
     0
 78
     1
 53
45.0
 43
0.0
 44
0.0
 45
-0.7071067811865475
 46
0.7071067811865476
 79
     0
 47
0.4963330551881524
 98
        4
 10
633.5444391605287
 20
894.1349471732168
 10
633.0477540391803
 20
872.2962930976059
 10
632.0543891852776
 20
755.6580223676615
 10
632.0543891852776
 20
738.286365144023
  0
HATCH
  5
4635
330
410E
100
AcDbEntity
  8
SCHRAFF
100
AcDbHatch
 10
0.0
 20
0.0
 30
0.0
210
0.0
220
0.0
230
1.0
  2
_USER
 70
     0
 71
     1
 91
        2
 92
        7
 72
     0
 73
     1
 93
        4
 10
615.5616970106006
 20
864.5101991605285
 10
610.0616970106004
 20
864.5101991605285
 10
610.0616970106004
 20
862.5101991605284
 10
615.5616970106006
 20
862.5101991605287
 97
        4
330
D5A
330
D81
330
D86
330
D41
 92
        7
 72
     0
 73
     1
 93
        4
 10
615.5616970106006
 20
764.5101991605285
 10
610.0616970106004
 20
764.5101991605285
 10
610.0616970106005
 20
762.5101991605285
 10
615.5616970106006
 20
762.5101991605284
 97
        4
330
D87
330
4514
330
D5B
330
D41
 75
     0
 76
     0
 52
135.0
 41
2.0
 77
     0
 78
     1
 53
135.0
 43
0.0
 44
0.0
 45
-1.414213562373095
 46
-1.414213562373094
 79
     0
 47
0.2716153382322887
 98
        2
 10
613.0171118445077
 20
863.6837432054973
 10
612.2016903495295
 20
764.0009127297007
  0
HATCH
  5
463A
330
410E
100
AcDbEntity
  8
SCHRAFF
100
AcDbHatch
 10
0.0
 20
0.0
 30
0.0
210
0.0
220
0.0
230
1.0
  2
NET
 70
     0
 71
     1
 91
        1
 92
        7
 72
     0
 73
     1
 93
        4
 10
620.0616970106004
 20
868.5101991605284
 10
615.5616970106006
 20
868.510199160528
 10
615.5616970106004
 20
758.5101991605285
 10
620.0616970106006
 20
758.5101991605287
 97
        4
330
D46
330
D41
330
D47
330
D58
 75
     0
 76
     1
 52
45.0
 41
10.0
 77
     0
 78
     2
 53
45.0
 43
0.0
 44
0.0
 45
-0.8838834764831842
 46
0.8838834764831844
 79
     0
 53
135.0
 43
0.0
 44
0.0
 45
-0.8838834764831844
 46
-0.8838834764831842
 79
     0
 47
0.2716153382322887
 98
        1
 10
618.1814515719024
 20
837.8802841998814
  0
HATCH
  5
4669
330
410E
100
AcDbEntity
  8
SCHRAFF
100
AcDbHatch
 10
0.0
 20
0.0
 30
0.0
210
0.0
220
0.0
230
1.0
  2
NET
 70
     0
 71
     1
 91
        2
 92
        7
 72
     1
 73
     1
 93
        7
 10
637.1616970106006
 20
1031.122872682336
 42
0.0
 10
617.3201418080068
 20
1031.122872682336
 42
0.0
 10
617.7824695568833
 20
1030.131407625326
 42
-0.1095178116832399
 10
621.0616970106005
 20
1015.339768464402
 42
0.0
 10
621.0616970106005
 20
1013.122872682335
 42
0.0
 10
635.3116970106007
 20
1013.122872682335
 42
0.0
 10
637.1616970106007
 20
1014.972872682335
 42
0.0
 97
        7
330
C8A
330
C89
330
C79
330
C88
330
1D07
330
1D29
330
CC2
 92
        7
 72
     1
 73
     1
 93
        7
 10
443.3409244643178
 20
1030.131407625326
 42
0.0
 10
443.8032522131944
 20
1031.122872682336
 42
0.0
 10
423.9616970106005
 20
1031.122872682336
 42
0.0
 10
423.9616970106005
 20
1014.972872682335
 42
0.0
 10
425.8116970106005
 20
1013.122872682335
 42
0.0
 10
440.0616970106005
 20
1013.122872682335
 42
0.0
 10
440.0616970106006
 20
1015.339768464402
 42
-0.1095178116832399
 97
        7
330
C76
330
C8A
330
CC1
330
1D0F
330
1DA2
330
C73
330
C64
 75
     0
 76
     1
 52
45.0
 41
20.0
 77
     0
 78
     2
 53
45.0
 43
0.0
 44
0.0
 45
-1.767766952966368
 46
1.767766952966368
 79
     0
 53
135.0
 43
0.0
 44
0.0
 45
-1.767766952966368
 46
-1.767766952966368
 79
     0
 47
1.16919957426617
 98
        2
 10
632.3225301742459
 20
1024.272447152212
 10
431.0779731209186
 20
1021.934047695095
  0
LINE
  5
470F
330
410E
100
AcDbEntity
  8
HILF
100
AcDbLine
 10
610.4639040019425
 20
978.9053662477538
 30
0.0
 11
450.6594900192586
 21
978.9053662477538
 31
0.0
  0
LINE
  5
4710
330
410E
100
AcDbEntity
  8
HILF
100
AcDbLine
 10
608.8968745999494
 20
954.1853154483979
 30
0.0
 11
452.2265194212515
 21
954.185315448398
 31
0.0
  0
LINE
  5
4711
330
410E
100
AcDbEntity
  8
HILF
100
AcDbLine
 10
605.3623287054171
 20
946.5831962910673
 30
0.0
 11
455.761065315784
 21
946.5831962910671
 31
0.0
  0
TEXT
  5
4718
330
410E
100
AcDbEntity
  8
TEXT
 62
     1
100
AcDbText
 10
503.0262371736413
 20
896.5309374261403
 30
0.0
 40
7.0
  1
DN150
 50
90.0
 41
0.8
100
AcDbText
  0
HATCH
  5
473A
330
410E
100
AcDbEntity
  8
SCHRAFF
100
AcDbHatch
 10
0.0
 20
0.0
 30
0.0
210
0.0
220
0.0
230
1.0
  2
NET
 70
     0
 71
     0
 91
        2
 92
        7
 72
     0
 73
     1
 93
       11
 10
637.1616970106011
 20
530.272872682335
 10
635.3116970106009
 20
532.1228726823354
 10
610.061697010601
 20
532.1228726823354
 10
610.0616970106009
 20
523.1228726823353
 10
617.3616970106011
 20
523.1228726823353
 10
621.4031488949283
 20
516.1228726823353
 10
632.5616970106009
 20
516.1228726823353
 10
632.561697010601
 20
514.1228726823353
 10
640.0616970106009
 20
514.1228726823353
 10
640.0616970106009
 20
516.1228726823354
 10
637.1616970106011
 20
516.1228726823355
 97
        0
 92
        7
 72
     0
 73
     1
 93
       11
 10
451.0616970106009
 20
532.1228726823354
 10
425.8116970106009
 20
532.1228726823354
 10
423.9616970106009
 20
530.2728726823354
 10
423.9616970106009
 20
516.1228726823353
 10
421.061697010601
 20
516.1228726823353
 10
421.0616970106009
 20
514.1228726823353
 10
428.661697010601
 20
514.1228726823353
 10
428.661697010601
 20
516.1228726823355
 10
439.7202451262737
 20
516.1228726823354
 10
443.761697010601
 20
523.1228726823353
 10
451.0616970106009
 20
523.1228726823353
 97
        0
 75
     0
 76
     1
 52
45.0
 41
20.0
 77
     0
 78
     2
 53
45.0
 43
314.5218401063035
 44
258.1346178845784
 45
-1.767766952966368
 46
1.767766952966368
 79
     0
 53
135.0
 43
314.5218401063035
 44
258.1346178845784
 45
-1.767766952966368
 46
-1.767766952966368
 79
     0
 47
0.2699286479089143
 98
        2
 10
628.0523171780956
 20
527.1749694954423
 10
431.6958048622359
 20
525.5553982832432
  0
LINE
  5
473B
330
410E
100
AcDbEntity
  8
STEMPEL
100
AcDbLine
 10
640.0616970106009
 20
514.1228726823355
 30
0.0
 11
610.0616970106012
 21
514.1228726823355
 31
0.0
  0
LINE
  5
473C
330
410E
100
AcDbEntity
  8
STEMPEL
100
AcDbLine
 10
617.361697010601
 20
523.1228726823353
 30
0.0
 11
621.4031488949284
 21
516.1228726823352
 31
0.0
  0
LINE
  5
473D
330
410E
100
AcDbEntity
  8
STEMPEL
100
AcDbLine
 10
632.561697010601
 20
516.1228726823353
 30
0.0
 11
610.0616970106012
 21
516.1228726823353
 31
0.0
  0
LINE
  5
473E
330
410E
100
AcDbEntity
  8
STEMPEL
100
AcDbLine
 10
632.561697010601
 20
514.1228726823353
 30
0.0
 11
632.5616970106009
 21
516.1228726823353
 31
0.0
  0
POINT
  5
473F
330
410E
100
AcDbEntity
  8
DEFPOINTS
  6
ByBlock
 62
     0
100
AcDbPoint
 10
622.561697010601
 20
516.1228726823353
 30
0.0
  0
POINT
  5
4740
330
410E
100
AcDbEntity
  8
DEFPOINTS
  6
ByBlock
 62
     0
100
AcDbPoint
 10
632.561697010601
 20
514.1228726823353
 30
0.0
  0
POINT
  5
4741
330
410E
100
AcDbEntity
  8
DEFPOINTS
  6
ByBlock
 62
     0
100
AcDbPoint
 10
621.4031488949284
 20
516.1228726823353
 30
0.0
  0
POINT
  5
4742
330
410E
100
AcDbEntity
  8
DEFPOINTS
  6
ByBlock
 62
     0
100
AcDbPoint
 10
621.4031488949284
 20
516.1228726823353
 30
0.0
  0
POINT
  5
4743
330
410E
100
AcDbEntity
  8
DEFPOINTS
  6
ByBlock
 62
     0
100
AcDbPoint
 10
621.4031488949284
 20
516.1228726823352
 30
0.0
  0
POINT
  5
4744
330
410E
100
AcDbEntity
  8
DEFPOINTS
  6
ByBlock
 62
     0
100
AcDbPoint
 10
632.561697010601
 20
514.1228726823353
 30
0.0
  0
LINE
  5
4745
330
410E
100
AcDbEntity
  8
STEMPEL
100
AcDbLine
 10
451.0616970106009
 20
514.1228726823353
 30
0.0
 11
421.0616970106009
 21
514.1228726823353
 31
0.0
  0
LINE
  5
4746
330
410E
100
AcDbEntity
  8
STEMPEL
100
AcDbLine
 10
451.0616970106009
 20
516.1228726823354
 30
0.0
 11
428.661697010601
 21
516.1228726823354
 31
0.0
  0
LINE
  5
4747
330
410E
100
AcDbEntity
  8
STEMPEL
100
AcDbLine
 10
428.661697010601
 20
514.1228726823353
 30
0.0
 11
428.661697010601
 21
516.1228726823353
 31
0.0
  0
LINE
  5
4748
330
410E
100
AcDbEntity
  8
STEMPEL
100
AcDbLine
 10
443.761697010601
 20
523.1228726823353
 30
0.0
 11
439.7202451262736
 21
516.1228726823352
 31
0.0
  0
POINT
  5
4749
330
410E
100
AcDbEntity
  8
DEFPOINTS
  6
ByBlock
 62
     0
100
AcDbPoint
 10
439.7202451262737
 20
516.1228726823353
 30
0.0
  0
POINT
  5
474A
330
410E
100
AcDbEntity
  8
DEFPOINTS
  6
ByBlock
 62
     0
100
AcDbPoint
 10
428.661697010601
 20
514.1228726823353
 30
0.0
  0
POINT
  5
474B
330
410E
100
AcDbEntity
  8
DEFPOINTS
  6
ByBlock
 62
     0
100
AcDbPoint
 10
428.661697010601
 20
516.1228726823353
 30
0.0
  0
LINE
  5
474C
330
410E
100
AcDbEntity
  8
VERDECKT
100
AcDbLine
 10
307.872230473427
 20
532.6601991605262
 30
0.0
 11
306.0222304734272
 21
534.5101991605262
 31
0.0
  0
LINE
  5
474D
330
410E
100
AcDbEntity
  8
VERDECKT
100
AcDbLine
 10
306.0222304734272
 20
534.5101991605262
 30
0.0
 11
280.7722304734268
 21
534.5101991605263
 31
0.0
  0
POINT
  5
474E
330
410E
100
AcDbEntity
  8
VERDECKT
100
AcDbPoint
 10
303.2722304734274
 20
516.5101991605268
 30
0.0
  0
POINT
  5
4752
330
410E
100
AcDbEntity
  8
VERDECKT
100
AcDbPoint
 10
303.2722304734274
 20
516.5101991605268
 30
0.0
  0
LINE
  5
4754
330
410E
100
AcDbEntity
  8
VERDECKT
100
AcDbLine
 10
303.2722304734274
 20
516.5101991605268
 30
0.0
 11
303.2722304734273
 21
518.5101991605269
 31
0.0
  0
LINE
  5
4756
330
410E
100
AcDbEntity
  8
VERDECKT
100
AcDbLine
 10
288.0722304734273
 20
525.5101991605268
 30
0.0
 11
292.1136823577548
 21
518.5101991605267
 31
0.0
  0
LINE
  5
4757
330
410E
100
AcDbEntity
  8
VERDECKT
100
AcDbLine
 10
288.072230473427
 20
525.5101991605264
 30
0.0
 11
280.7722304734268
 21
525.5101991605264
 31
0.0
  0
LINE
  5
4758
330
410E
100
AcDbEntity
  8
VERDECKT
100
AcDbLine
 10
121.772230473427
 20
534.5101991605266
 30
0.0
 11
96.5222304734271
 21
534.5101991605266
 31
0.0
  0
LINE
  5
4759
330
410E
100
AcDbEntity
  8
VERDECKT
100
AcDbLine
 10
94.67223047342685
 20
532.6601991605269
 30
0.0
 11
96.52223047342733
 21
534.5101991605271
 31
0.0
  0
POINT
  5
475B
330
410E
100
AcDbEntity
  8
VERDECKT
100
AcDbPoint
 10
99.37223047342735
 20
516.5101991605268
 30
0.0
  0
LINE
  5
475D
330
410E
100
AcDbEntity
  8
VERDECKT
100
AcDbLine
 10
114.4722304734274
 20
525.5101991605268
 30
0.0
 11
110.4307785891
 21
518.5101991605267
 31
0.0
  0
LINE
  5
475E
330
410E
100
AcDbEntity
  8
VERDECKT
100
AcDbLine
 10
99.37223047342735
 20
516.5101991605268
 30
0.0
 11
99.37223047342735
 21
518.5101991605269
 31
0.0
  0
LINE
  5
4760
330
410E
100
AcDbEntity
  8
VERDECKT
100
AcDbLine
 10
121.7722304734269
 20
525.5101991605268
 30
0.0
 11
114.4722304734274
 21
525.5101991605268
 31
0.0
  0
LINE
  5
4761
330
410E
100
AcDbEntity
  8
STEMPEL
100
AcDbLine
 10
310.7722304734271
 20
516.5101991605268
 30
0.0
 11
91.77223047342693
 21
516.5101991605268
 31
0.0
  0
LINE
  5
4762
330
410E
100
AcDbEntity
  8
VERDECKT
100
AcDbLine
 10
276.0728621682433
 20
948.9705227692601
 30
0.0
 11
126.4715987786102
 21
948.9705227692599
 31
0.0
  0
LINE
  5
4763
330
410E
100
AcDbEntity
  8
VERDECKT
100
AcDbLine
 10
279.6074080627757
 20
956.5726419265907
 30
0.0
 11
122.9370528840777
 21
956.5726419265908
 31
0.0
  0
LINE
  5
4764
330
410E
100
AcDbEntity
  8
VERDECKT
100
AcDbLine
 10
281.1744374647688
 20
981.2926927259466
 30
0.0
 11
121.3700234820848
 21
981.2926927259466
 31
0.0
  0
LINE
  5
4771
102
{ACAD_REACTORS
330
4859
330
48AC
102
}
330
410E
100
AcDbEntity
  8
STEMPEL
100
AcDbLine
 10
423.9616970106006
 20
823.5101991605283
 30
0.0
 11
451.0616970106006
 21
823.5101991605283
 31
0.0
  0
LINE
  5
4772
102
{ACAD_REACTORS
330
4859
330
48AC
102
}
330
410E
100
AcDbEntity
  8
STEMPEL
100
AcDbLine
 10
423.9616970106006
 20
803.5101991605284
 30
0.0
 11
451.0616970106006
 21
803.5101991605282
 31
0.0
  0
HATCH
  5
4804
330
410E
100
AcDbEntity
  8
SCHRAFF
100
AcDbHatch
 10
0.0
 20
0.0
 30
0.0
210
0.0
220
0.0
230
1.0
  2
_USER
 70
     0
 71
     1
 91
        2
 92
        7
 72
     1
 73
     1
 93
        4
 10
264.9044608722452
 20
148.1508300427072
 42
0.0
 10
266.6355440632074
 20
145.8241691335999
 42
0.2370811620226475
 10
310.7722304734269
 20
233.675675874031
 42
0.0
 10
307.872230473427
 20
233.675675874031
 42
-0.2370811620226476
 97
        4
330
CCD
330
CCA
330
43BF
330
CC9
 92
        7
 72
     1
 73
     1
 93
        4
 10
94.67223047342693
 20
233.675675874031
 42
0.0
 10
91.77223047342693
 20
233.675675874031
 42
0.2370811620226475
 10
135.9089168836464
 20
145.8241691335999
 42
0.0
 10
137.6400000746087
 20
148.1508300427072
 42
-0.2370811620226476
 97
        4
330
CCD
330
CC9
330
CD3
330
CCA
 75
     0
 76
     0
 52
135.0
 41
2.0
 77
     0
 78
     1
 53
135.0
 43
0.0
 44
0.0
 45
-1.414213562373095
 46
-1.414213562373094
 79
     0
 47
0.3827352392168087
 98
        2
 10
307.5741281620421
 20
215.1015811496359
 10
121.4641944020322
 20
161.1359133047263
  0
HATCH
  5
481D
330
410E
100
AcDbEntity
  8
SCHRAFF
100
AcDbHatch
 10
0.0
 20
0.0
 30
0.0
210
0.0
220
0.0
230
1.0
  2
_USER
 70
     0
 71
     1
 91
        4
 92
        7
 72
     1
 73
     1
 93
        4
 10
201.2722304734269
 20
313.175675874031
 42
0.0
 10
201.2722304734269
 20
310.675675874031
 42
-0.4142135623730951
 10
278.2722304734269
 20
233.675675874031
 42
0.0
 10
280.7722304734269
 20
233.675675874031
 42
0.4142135623730951
 97
        4
330
CCE
330
CCC
330
CCD
330
CCB
 92
        7
 72
     1
 73
     1
 93
        4
 10
201.2722304734269
 20
313.175675874031
 42
0.4142135623730951
 10
121.7722304734269
 20
233.675675874031
 42
0.0
 10
124.2722304734269
 20
233.675675874031
 42
-0.4142135623730951
 10
201.2722304734269
 20
310.675675874031
 42
0.0
 97
        4
330
CCB
330
CCD
330
CCC
330
CCE
 92
        7
 72
     1
 73
     1
 93
        4
 10
280.7722304734269
 20
233.675675874031
 42
0.0
 10
278.2722304734269
 20
233.675675874031
 42
-0.2238875363520722
 10
250.2722304734269
 20
174.278706254361
 42
0.0
 10
250.2722304734269
 20
171.0717622583472
 42
0.2306373077678214
 97
        4
330
CCD
330
CCC
330
CD1
330
CCB
 92
        7
 72
     1
 73
     1
 93
        4
 10
124.2722304734269
 20
233.675675874031
 42
0.0
 10
121.7722304734269
 20
233.675675874031
 42
0.2306373077678214
 10
152.2722304734269
 20
171.0717622583472
 42
0.0
 10
152.2722304734269
 20
174.278706254361
 42
-0.2238875363520722
 97
        4
330
CCD
330
CCB
330
CCF
330
CCC
 75
     0
 76
     0
 52
45.0
 41
2.0
 77
     0
 78
     1
 53
45.0
 43
0.0
 44
0.0
 45
-1.414213562373094
 46
1.414213562373095
 79
     0
 47
0.298471780737303
 98
        4
 10
211.444440832438
 20
311.4774924390344
 10
195.3182487205549
 20
311.1790194413038
 10
279.2341821999698
 20
230.2931667959642
 10
123.6462774523734
 20
229.6962235949068
  0
HATCH
  5
4859
330
410E
100
AcDbEntity
  8
SCHRAFF
100
AcDbHatch
 10
0.0
 20
0.0
 30
0.0
210
0.0
220
0.0
230
1.0
  2
_USER
 70
     0
 71
     1
 91
        2
 92
        7
 72
     0
 73
     1
 93
        4
 10
451.0616970106005
 20
813.5101991605282
 10
451.0616970106005
 20
823.5101991605283
 10
423.9616970106005
 20
823.5101991605283
 10
423.9616970106006
 20
813.5101991605283
 97
        4
330
4771
330
CC1
330
D42
330
C69
 92
        7
 72
     0
 73
     1
 93
        4
 10
423.9616970106005
 20
813.5101991605282
 10
423.9616970106005
 20
803.5101991605284
 10
451.0616970106005
 20
803.5101991605282
 10
451.0616970106005
 20
813.5101991605283
 97
        4
330
D42
330
CC1
330
4772
330
C69
 75
     0
 76
     0
 52
45.0
 41
1.0
 77
     0
 78
     1
 53
45.0
 43
0.0
 44
0.0
 45
-0.7071067811865475
 46
0.7071067811865476
 79
     0
 47
0.4863158498500436
 98
        2
 10
433.0614457320198
 20
814.75422993862
 10
433.0614457320198
 20
810.8637025547269
  0
HATCH
  5
48AC
330
410E
100
AcDbEntity
  8
SCHRAFF
100
AcDbHatch
 10
0.0
 20
0.0
 30
0.0
210
0.0
220
0.0
230
1.0
  2
HONEY
 70
     0
 71
     1
 91
        4
 92
        7
 72
     1
 73
     1
 93
       19
 10
615.0616970106004
 20
959.5638441904027
 42
-0.1528962216020397
 10
611.8474112963148
 20
949.2982388472567
 42
0.152896221602043
 10
610.0616970106004
 20
943.5951247677312
 42
0.0
 10
610.0616970106005
 20
864.5101991605285
 42
0.0
 10
615.5616970106006
 20
864.5101991605285
 42
0.0
 10
615.5616970106006
 20
868.510199160528
 42
0.0
 10
622.0616970106005
 20
868.5101991605284
 42
0.0
 10
622.0616970106005
 20
813.5101991605285
 42
0.0
 10
637.1616970106004
 20
813.5101991605283
 42
0.0
 10
637.1616970106004
 20
871.0101991605283
 42
0.0
 10
629.1616970106006
 20
871.0101991605284
 42
0.0
 10
629.1616970106006
 20
911.0101991605285
 42
0.0
 10
637.1616970106006
 20
911.0101991605283
 42
0.0
 10
637.1616970106007
 20
1014.972872682335
 42
0.0
 10
635.3116970106007
 20
1013.122872682335
 42
0.0
 10
621.0616970106003
 20
1013.122872682335
 42
0.0
 10
621.0616970106005
 20
999.1754782114755
 42
-0.1211084169868071
 10
617.0994471370279
 20
982.9419218451688
 42
0.1206909349745671
 10
615.0616970106004
 20
974.6228726823359
 42
0.0
 97
       18
330
1D29
330
1D07
330
C88
330
C7C
330
C83
330
C82
330
C86
330
C7E
330
D81
330
D5A
330
D41
330
D46
330
D59
330
D42
330
CC2
330
D45
330
D4B
330
D43
 92
        7
 72
     1
 73
     1
 93
       11
 10
423.9616970106006
 20
823.5101991605283
 42
0.0
 10
451.0616970106005
 20
823.5101991605283
 42
0.0
 10
451.0616970106005
 20
943.5951247677314
 42
0.1528962216020421
 10
449.2759827248863
 20
949.2982388472569
 42
-0.1528962216020381
 10
446.0616970106006
 20
959.5638441904027
 42
0.0
 10
446.0616970106006
 20
974.6228726823357
 42
0.1206909349745686
 10
444.023946884173
 20
982.9419218451688
 42
-0.1211084169868613
 10
440.0616970106006
 20
999.175478211483
 42
0.0
 10
440.0616970106005
 20
1013.122872682335
 42
0.0
 10
425.8116970106004
 20
1013.122872682335
 42
0.0
 10
423.9616970106005
 20
1014.972872682335
 42
0.0
 97
       11
330
C67
330
C6D
330
C70
330
C71
330
C6B
330
C73
330
1DA2
330
1D0F
330
CC1
330
4771
330
C69
 92
        7
 72
     0
 73
     1
 93
       13
 10
637.1616970106004
 20
813.5101991605287
 10
622.0616970106005
 20
813.5101991605285
 10
622.0616970106005
 20
758.5101991605285
 10
615.5616970106004
 20
758.5101991605285
 10
615.5616970106004
 20
762.5101991605285
 10
610.0616970106004
 20
762.5101991605284
 10
610.0616970106004
 20
532.1228726823348
 10
635.3116970106007
 20
532.1228726823346
 10
637.1616970106004
 20
530.2728726823347
 10
637.1616970106006
 20
716.0101991605282
 10
629.1616970106005
 20
716.0101991605284
 10
629.1616970106007
 20
756.0101991605282
 10
637.1616970106004
 20
756.0101991605281
 97
       13
330
D42
330
D59
330
D47
330
D41
330
D5B
330
4514
330
1CCD
330
1CFC
330
D73
330
D4A
330
D4C
330
D48
330
CC2
 92
        7
 72
     0
 73
     1
 93
        5
 10
423.9616970106004
 20
803.5101991605282
 10
423.9616970106006
 20
530.2728726823354
 10
425.8116970106006
 20
532.1228726823352
 10
451.0616970106006
 20
532.1228726823351
 10
451.0616970106005
 20
803.5101991605282
 97
        5
330
4772
330
CC1
330
1CD1
330
1D47
330
C69
 75
     0
 76
     1
 52
0.0
 41
30.0
 77
     0
 78
     3
 53
0.0
 43
0.0
 44
0.0
 45
5.625
 46
3.247595249999999
 79
     2
 49
3.75
 49
-7.5
 53
120.0
 43
0.0
 44
0.0
 45
-5.624999987709673
 46
3.247595271287468
 79
     2
 49
3.75
 49
-7.5
 53
60.0
 43
0.0
 44
0.0
 45
0.0000000122903263
 46
6.495190521287468
 79
     2
 49
-7.5
 49
3.75
 47
0.9965881509010431
 98
        4
 10
622.3292505776489
 20
974.2186021149199
 10
436.8635944891284
 20
933.3584895615564
 10
630.3062662627598
 20
789.8497934586698
 10
440.8521023316835
 20
798.8190871397505
  0
TEXT
  5
48AD
330
410E
100
AcDbEntity
  8
TEXT
 62
     1
100
AcDbText
 10
777.5681267330919
 20
1138.371106150902
 30
0.0
 40
7.0
  1

 50
90.0
 41
0.8
  7
GREEKS
 72
     1
 11
777.5681267330919
 21
1138.371106150902
 31
0.0
100
AcDbText
  0
LINE
  5
48EC
102
{ACAD_REACTORS
330
48F6
330
492F
102
}
330
410E
100
AcDbEntity
  8
STEMPEL
  6
STRICHPUNKT
100
AcDbLine
 10
202.2722304734269
 20
340.233453628637
 30
0.0
 11
202.2722304734269
 21
313.1190519352232
 31
0.0
  0
LINE
  5
48ED
102
{ACAD_REACTORS
330
48F6
330
492F
102
}
330
410E
100
AcDbEntity
  8
STEMPEL
  6
STRICHPUNKT
100
AcDbLine
 10
200.2722304734269
 20
340.233453628637
 30
0.0
 11
200.2722304734269
 21
313.1190519352232
 31
0.0
  0
HATCH
  5
48F6
330
410E
100
AcDbEntity
  8
SCHRAFF
100
AcDbHatch
 10
0.0
 20
0.0
 30
0.0
210
0.0
220
0.0
230
1.0
  2
_USER
 70
     0
 71
     1
 91
        2
 92
        7
 72
     1
 73
     1
 93
        4
 10
202.2722304734269
 20
340.2709853393166
 42
0.0023452544577308
 10
201.2722304734269
 20
340.275675874031
 42
0.0
 10
201.2722304734269
 20
313.175675874031
 42
-0.0031447473858477
 10
202.2722304734269
 20
313.1693863170592
 42
0.0
 97
        4
330
CCA
330
CCE
330
CCB
330
48EC
 92
        7
 72
     1
 73
     1
 93
        4
 10
201.2722304734269
 20
340.275675874031
 42
0.0023452544577308
 10
200.2722304734269
 20
340.2709853393166
 42
0.0
 10
200.2722304734269
 20
313.1693863170592
 42
-0.0031447473858477
 10
201.2722304734269
 20
313.175675874031
 42
0.0
 97
        4
330
CCA
330
48ED
330
CCB
330
CCE
 75
     0
 76
     0
 52
45.0
 41
1.0
 77
     0
 78
     1
 53
45.0
 43
0.0
 44
0.0
 45
-0.7071067811865475
 46
0.7071067811865476
 79
     0
 47
0.1081095036214263
 98
        2
 10
201.9868417865077
 20
337.0169696726457
 10
200.796990785599
 20
336.8007515748304
  0
HATCH
  5
492F
330
410E
100
AcDbEntity
  8
SCHRAFF
100
AcDbHatch
 10
0.0
 20
0.0
 30
0.0
210
0.0
220
0.0
230
1.0
  2
HONEY
 70
     0
 71
     1
 91
        6
 92
        7
 72
     1
 73
     1
 93
        4
 10
280.7722304734269
 20
233.675675874031
 42
0.0
 10
307.872230473427
 20
233.675675874031
 42
0.4114685924280321
 10
202.2722304734269
 20
340.2709853393166
 42
0.0
 10
202.2722304734269
 20
313.1693863170592
 42
-0.4105340545522238
 97
        4
330
48EC
330
CCB
330
CCD
330
CCA
 92
        7
 72
     1
 73
     1
 93
        4
 10
200.2722304734269
 20
340.2709853393166
 42
0.411468592428032
 10
94.67223047342693
 20
233.675675874031
 42
0.0
 10
121.7722304734269
 20
233.675675874031
 42
-0.4105340545522238
 10
200.2722304734269
 20
313.1693863170592
 42
0.0
 97
        4
330
CCA
330
CCD
330
CCB
330
48ED
 92
        7
 72
     1
 73
     1
 93
        7
 10
253.8363581206038
 20
174.0328851555268
 42
-0.3901374168185865
 10
252.2722304734269
 20
171.0717622583472
 42
0.0
 10
252.2722304734269
 20
148.675675874031
 42
0.0
 10
256.2722304734269
 20
148.675675874031
 42
0.0
 10
256.2722304734269
 20
142.35995981157
 42
0.2629943412625793
 10
307.872230473427
 20
233.675675874031
 42
0.0
 10
280.7722304734269
 20
233.675675874031
 42
-0.2153389564097863
 97
        7
330
CCD
330
CCB
330
CDF
330
CD2
330
CE2
330
D67
330
CCA
 92
        7
 72
     1
 73
     1
 93
        7
 10
146.2722304734269
 20
142.35995981157
 42
0.0
 10
146.2722304734269
 20
148.675675874031
 42
0.0
 10
150.2722304734269
 20
148.675675874031
 42
0.0
 10
150.2722304734269
 20
171.0717622583472
 42
-0.3901374168185905
 10
148.70810282625
 20
174.0328851555268
 42
-0.2153389564097863
 10
121.7722304734269
 20
233.675675874031
 42
0.0
 10
94.67223047342693
 20
233.675675874031
 42
0.262994341262579
 97
        7
330
CCD
330
CCA
330
CE3
330
CE2
330
CD0
330
CDC
330
CCB
 92
        7
 72
     1
 73
     1
 93
        6
 10
201.2722304734269
 20
142.1756758740309
 42
0.0
 10
201.2722304734269
 20
135.3398399578169
 42
0.0
 10
208.772230473427
 20
135.3398399578169
 42
0.0
 10
208.7722304734269
 20
131.0836911130878
 42
-0.3885706587582916
 10
212.4402693641999
 20
127.6623045129891
 42
0.1088758926679165
 10
255.9651002098011
 20
142.1756758740309
 42
0.0
 97
        6
330
CD6
330
CCE
330
CD9
330
D65
330
D99
330
CCA
 92
        7
 72
     1
 73
     1
 93
        6
 10
146.5793607370527
 20
142.175675874031
 42
0.1087992230848215
 10
190.0720607082017
 20
127.6656942815878
 42
-0.3887142227198694
 10
193.7722304734269
 20
131.0543301424596
 42
0.0
 10
193.7722304734269
 20
135.3398399578169
 42
0.0
 10
201.2722304734269
 20
135.3398399578169
 42
0.0
 10
201.2722304734269
 20
142.1756758740309
 42
0.0
 97
        6
330
CD6
330
CCA
330
D96
330
CD7
330
CD9
330
CCE
 75
     0
 76
     1
 52
0.0
 41
30.0
 77
     0
 78
     3
 53
0.0
 43
0.0
 44
0.0
 45
5.625
 46
3.247595249999999
 79
     2
 49
3.75
 49
-7.5
 53
120.0
 43
0.0
 44
0.0
 45
-5.624999987709673
 46
3.247595271287468
 79
     2
 49
3.75
 49
-7.5
 53
60.0
 43
0.0
 44
0.0
 45
0.0000000122903263
 46
6.495190521287468
 79
     2
 49
-7.5
 49
3.75
 47
0.4223027639029488
 98
        6
 10
236.4857647097319
 20
318.7008557463309
 10
194.2325254424909
 20
322.9238824946833
 10
282.5417933622934
 20
195.3884467553075
 10
121.5569586961587
 20
182.7193637163368
 10
220.4295323005977
 20
136.6883637775549
 10
189.1621382180042
 20
138.3775744768964
  0
CIRCLE
  5
4939
330
410E
100
AcDbEntity
  8
VERDECKT
100
AcDbCircle
 10
201.2722304734269
 20
813.5101991605285
 30
0.0
 40
55.0
  0
ENDSEC
  0
SECTION
  2
OBJECTS
  0
DICTIONARY
  5
40FA
330
0
100
AcDbDictionary
281
     1
  3
ACAD_COLOR
350
4109
  3
ACAD_GROUP
350
40FB
  3
ACAD_LAYOUT
350
4107
  3
ACAD_MATERIAL
350
4108
  3
ACAD_MLINESTYLE
350
4104
  3
ACAD_PLOTSETTINGS
350
4106
  3
ACAD_PLOTSTYLENAME
350
40FC
  3
AcDbVariableDictionary
350
4183
  0
DICTIONARY
  5
4109
102
{ACAD_REACTORS
330
40FA
102
}
330
40FA
100
AcDbDictionary
281
     1
  0
DICTIONARY
  5
40FB
102
{ACAD_REACTORS
330
40FA
102
}
330
40FA
100
AcDbDictionary
281
     1
  0
DICTIONARY
  5
4107
102
{ACAD_REACTORS
330
40FA
102
}
330
40FA
100
AcDbDictionary
281
     1
  3
Layout1
350
410D
  3
Model
350
4111
  0
DICTIONARY
  5
4108
102
{ACAD_REACTORS
330
40FA
102
}
330
40FA
100
AcDbDictionary
281
     1
  0
DICTIONARY
  5
4104
102
{ACAD_REACTORS
330
40FA
102
}
330
40FA
100
AcDbDictionary
281
     1
  3
Standard
350
4105
  0
DICTIONARY
  5
4106
102
{ACAD_REACTORS
330
40FA
102
}
330
40FA
100
AcDbDictionary
281
     1
  0
ACDBDICTIONARYWDFLT
  5
40FC
102
{ACAD_REACTORS
330
40FA
102
}
330
40FA
100
AcDbDictionary
281
     1
  3
Normal
350
40FD
100
AcDbDictionaryWithDefault
340
40FD
  0
DICTIONARY
  5
4183
102
{ACAD_REACTORS
330
40FA
102
}
330
40FA
100
AcDbDictionary
281
     1
  3
DIMASSOC
350
4185
  3
HIDETEXT
350
4184
  3
PROJECTNAME
350
4186
  0
LAYOUT
  5
410D
102
{ACAD_REACTORS
330
4107
102
}
330
4107
100
AcDbPlotSettings
  1

  2
RICOH Aficio 2027 PCL 6
  4

  6

 40
0.0
 41
0.0
 42
0.0
 43
0.0
 44
0.0
 45
0.0
 46
0.0
 47
0.0
 48
0.0
 49
0.0
140
0.0
141
0.0
142
1.0
143
1.0
 70
   688
 72
     0
 73
     0
 74
     5
  7
monochrome1.ctb
 75
    16
147
1.0
 76
     0
 77
     2
 78
   300
148
0.0
149
0.0
100
AcDbLayout
  1
Layout1
 70
     0
 71
     1
 10
0.0
 20
0.0
 11
12.0
 21
9.0
 12
0.0
 22
0.0
 32
0.0
 14
1.000000000000000E+20
 24
1.000000000000000E+20
 34
1.000000000000000E+20
 15
-1.000000000000000E+20
 25
-1.000000000000000E+20
 35
-1.000000000000000E+20
146
0.0
 13
0.0
 23
0.0
 33
0.0
 16
1.0
 26
0.0
 36
0.0
 17
0.0
 27
1.0
 37
0.0
 76
     0
330
410A
  0
LAYOUT
  5
4111
102
{ACAD_REACTORS
330
4107
102
}
330
4107
100
AcDbPlotSettings
  1

  2
RICOH Aficio 2027 PCL 6
  4
A4
  6

 40
5.027083396911621
 41
5.027085304260253
 42
5.027084350585937
 43
5.027069091796875
 44
209.9733276367187
 45
296.9259948730469
 46
0.0
 47
0.0
 48
0.0
 49
0.0
140
0.0
141
0.0
142
1.0
143
4.201698328791795
 70
 11952
 72
     1
 73
     0
 74
     2
  7
monochrome1.ctb
 75
     0
147
0.2379989998681204
 76
     0
 77
     2
 78
   300
148
0.0
149
0.0
100
AcDbLayout
  1
Model
 70
     1
 71
     0
 10
0.0
 20
0.0
 11
12.0
 21
9.0
 12
0.0
 22
0.0
 32
0.0
 14
0.0
 24
0.0
 34
0.0
 15
0.0
 25
0.0
 35
0.0
146
0.0
 13
0.0
 23
0.0
 33
0.0
 16
1.0
 26
0.0
 36
0.0
 17
0.0
 27
1.0
 37
0.0
 76
     0
330
410E
  0
MLINESTYLE
  5
4105
102
{ACAD_REACTORS
330
4104
102
}
330
4104
100
AcDbMlineStyle
  2
STANDARD
 70
     0
  3

 62
   256
 51
90.0
 52
90.0
 71
     2
 49
0.5
 62
   256
  6
BYLAYER
 49
-0.5
 62
   256
  6
BYLAYER
  0
ACDBPLACEHOLDER
  5
40FD
102
{ACAD_REACTORS
330
40FC
102
}
330
40FC
  0
DICTIONARYVAR
  5
4185
102
{ACAD_REACTORS
330
4183
102
}
330
4183
100
DictionaryVariables
280
     0
  1
2
  0
DICTIONARYVAR
  5
4184
102
{ACAD_REACTORS
330
4183
102
}
330
4183
100
DictionaryVariables
280
     0
  1
1
  0
DICTIONARYVAR
  5
4186
102
{ACAD_REACTORS
330
4183
102
}
330
4183
100
DictionaryVariables
280
     0
  1

  0
ENDSEC
  0
EOF
