  0
SECTION
  2
HEADER
  9
$ACADVER
  1
AC1018
  9
$ACADMAINTVER
 70
     2
  9
$DWGCODEPAGE
  3
ANSI_1252
  9
$INSBASE
 10
0.0
 20
0.0
 30
0.0
  9
$EXTMIN
 10
-0.0512671842575401
 20
-0.0725064463072158
 30
-0.0000122064724423
  9
$EXTMAX
 10
840.0512750076059
 20
1188.072517510757
 30
0.2000122083351442
  9
$LIMMIN
 10
0.0
 20
0.0
  9
$LIMMAX
 10
840.0000000000003
 20
1187.999999999999
  9
$ORTHOMODE
 70
     1
  9
$REGENMODE
 70
     1
  9
$FILLMODE
 70
     1
  9
$QTEXTMODE
 70
     0
  9
$MIRRTEXT
 70
     1
  9
$LTSCALE
 40
20.0
  9
$ATTMODE
 70
     1
  9
$TEXTSIZE
 40
3.5
  9
$TRACEWID
 40
0.6248711305964321
  9
$TEXTSTYLE
  7
GREEKS
  9
$CLAYER
  8
SCHRAFF
  9
$CELTYPE
  6
ByLayer
  9
$CECOLOR
 62
   256
  9
$CELTSCALE
 40
1.0
  9
$DISPSILH
 70
     0
  9
$DIMSCALE
 40
2.0
  9
$DIMASZ
 40
3.5
  9
$DIMEXO
 40
1.0
  9
$DIMDLI
 40
8.0
  9
$DIMRND
 40
0.0
  9
$DIMDLE
 40
0.0
  9
$DIMEXE
 40
1.0
  9
$DIMTP
 40
0.0
  9
$DIMTM
 40
0.0
  9
$DIMTXT
 40
3.5
  9
$DIMCEN
 40
1.5
  9
$DIMTSZ
 40
0.0
  9
$DIMTOL
 70
     0
  9
$DIMLIM
 70
     0
  9
$DIMTIH
 70
     0
  9
$DIMTOH
 70
     0
  9
$DIMSE1
 70
     0
  9
$DIMSE2
 70
     0
  9
$DIMTAD
 70
     1
  9
$DIMZIN
 70
     8
  9
$DIMBLK
  1

  9
$DIMASO
 70
     1
  9
$DIMSHO
 70
     0
  9
$DIMPOST
  1

  9
$DIMAPOST
  1

  9
$DIMALT
 70
     0
  9
$DIMALTD
 70
     2
  9
$DIMALTF
 40
25.4
  9
$DIMLFAC
 40
1.0
  9
$DIMTOFL
 70
     1
  9
$DIMTVP
 40
0.0
  9
$DIMTIX
 70
     0
  9
$DIMSOXD
 70
     0
  9
$DIMSAH
 70
     0
  9
$DIMBLK1
  1

  9
$DIMBLK2
  1

  9
$DIMSTYLE
  2
STANDARD
  9
$DIMCLRD
 70
     0
  9
$DIMCLRE
 70
     0
  9
$DIMCLRT
 70
     1
  9
$DIMTFAC
 40
1.0
  9
$DIMGAP
 40
1.5
  9
$DIMJUST
 70
     0
  9
$DIMSD1
 70
     0
  9
$DIMSD2
 70
     0
  9
$DIMTOLJ
 70
     1
  9
$DIMTZIN
 70
     8
  9
$DIMALTZ
 70
     8
  9
$DIMALTTZ
 70
     8
  9
$DIMUPT
 70
     0
  9
$DIMDEC
 70
     2
  9
$DIMTDEC
 70
     2
  9
$DIMALTU
 70
     2
  9
$DIMALTTD
 70
     2
  9
$DIMTXSTY
  7
STANDARD
  9
$DIMAUNIT
 70
     0
  9
$DIMADEC
 70
     2
  9
$DIMALTRND
 40
0.0
  9
$DIMAZIN
 70
     2
  9
$DIMDSEP
 70
    46
  9
$DIMATFIT
 70
     3
  9
$DIMFRAC
 70
     0
  9
$DIMLDRBLK
  1

  9
$DIMLUNIT
 70
     2
  9
$DIMLWD
 70
    -2
  9
$DIMLWE
 70
    -2
  9
$DIMTMOVE
 70
     0
  9
$LUNITS
 70
     2
  9
$LUPREC
 70
     2
  9
$SKETCHINC
 40
1.0
  9
$FILLETRAD
 40
0.0
  9
$AUNITS
 70
     0
  9
$AUPREC
 70
     0
  9
$MENU
  1
ACAD
  9
$ELEVATION
 40
0.0
  9
$PELEVATION
 40
0.0
  9
$THICKNESS
 40
0.2
  9
$LIMCHECK
 70
     0
  9
$CHAMFERA
 40
0.0
  9
$CHAMFERB
 40
0.0
  9
$CHAMFERC
 40
0.0
  9
$CHAMFERD
 40
0.0
  9
$SKPOLY
 70
     0
  9
$TDCREATE
 40
2451883.437458635
  9
$TDUCREATE
 40
2451883.395791968
  9
$TDUPDATE
 40
2455607.366371979
  9
$TDUUPDATE
 40
2455607.324705312
  9
$TDINDWG
 40
0.2213410301
  9
$TDUSRTIMER
 40
0.2213410301
  9
$USRTIMER
 70
     1
  9
$ANGBASE
 50
0.0
  9
$ANGDIR
 70
     0
  9
$PDMODE
 70
     0
  9
$PDSIZE
 40
0.0
  9
$PLINEWID
 40
0.0
  9
$SPLFRAME
 70
     0
  9
$SPLINETYPE
 70
     6
  9
$SPLINESEGS
 70
     8
  9
$HANDSEED
  5
4DF6
  9
$SURFTAB1
 70
     6
  9
$SURFTAB2
 70
     6
  9
$SURFTYPE
 70
     6
  9
$SURFU
 70
     6
  9
$SURFV
 70
     6
  9
$UCSBASE
  2

  9
$UCSNAME
  2

  9
$UCSORG
 10
0.0
 20
0.0
 30
0.0
  9
$UCSXDIR
 10
1.0
 20
0.0
 30
0.0
  9
$UCSYDIR
 10
0.0
 20
1.0
 30
0.0
  9
$UCSORTHOREF
  2

  9
$UCSORTHOVIEW
 70
     0
  9
$UCSORGTOP
 10
0.0
 20
0.0
 30
0.0
  9
$UCSORGBOTTOM
 10
0.0
 20
0.0
 30
0.0
  9
$UCSORGLEFT
 10
0.0
 20
0.0
 30
0.0
  9
$UCSORGRIGHT
 10
0.0
 20
0.0
 30
0.0
  9
$UCSORGFRONT
 10
0.0
 20
0.0
 30
0.0
  9
$UCSORGBACK
 10
0.0
 20
0.0
 30
0.0
  9
$PUCSBASE
  2

  9
$PUCSNAME
  2

  9
$PUCSORG
 10
0.0
 20
0.0
 30
0.0
  9
$PUCSXDIR
 10
1.0
 20
0.0
 30
0.0
  9
$PUCSYDIR
 10
0.0
 20
1.0
 30
0.0
  9
$PUCSORTHOREF
  2

  9
$PUCSORTHOVIEW
 70
     0
  9
$PUCSORGTOP
 10
0.0
 20
0.0
 30
0.0
  9
$PUCSORGBOTTOM
 10
0.0
 20
0.0
 30
0.0
  9
$PUCSORGLEFT
 10
0.0
 20
0.0
 30
0.0
  9
$PUCSORGRIGHT
 10
0.0
 20
0.0
 30
0.0
  9
$PUCSORGFRONT
 10
0.0
 20
0.0
 30
0.0
  9
$PUCSORGBACK
 10
0.0
 20
0.0
 30
0.0
  9
$USERI1
 70
     0
  9
$USERI2
 70
     0
  9
$USERI3
 70
     0
  9
$USERI4
 70
     0
  9
$USERI5
 70
     0
  9
$USERR1
 40
0.0
  9
$USERR2
 40
0.0
  9
$USERR3
 40
0.0
  9
$USERR4
 40
0.0
  9
$USERR5
 40
0.0
  9
$WORLDVIEW
 70
     1
  9
$SHADEDGE
 70
     3
  9
$SHADEDIF
 70
    70
  9
$TILEMODE
 70
     1
  9
$MAXACTVP
 70
    16
  9
$PINSBASE
 10
0.0
 20
0.0
 30
0.0
  9
$PLIMCHECK
 70
     0
  9
$PEXTMIN
 10
1.000000000000000E+20
 20
1.000000000000000E+20
 30
1.000000000000000E+20
  9
$PEXTMAX
 10
-1.000000000000000E+20
 20
-1.000000000000000E+20
 30
-1.000000000000000E+20
  9
$PLIMMIN
 10
0.0
 20
0.0
  9
$PLIMMAX
 10
12.0
 20
9.0
  9
$UNITMODE
 70
     0
  9
$VISRETAIN
 70
     0
  9
$PLINEGEN
 70
     0
  9
$PSLTSCALE
 70
     0
  9
$TREEDEPTH
 70
  3020
  9
$CMLSTYLE
  2
Standard
  9
$CMLJUST
 70
     0
  9
$CMLSCALE
 40
1.0
  9
$PROXYGRAPHICS
 70
     1
  9
$MEASUREMENT
 70
     0
  9
$CELWEIGHT
370
    -1
  9
$ENDCAPS
280
     0
  9
$JOINSTYLE
280
     0
  9
$LWDISPLAY
290
     0
  9
$INSUNITS
 70
     0
  9
$HYPERLINKBASE
  1

  9
$STYLESHEET
  1
monochrome 1.ctb
  9
$XEDIT
290
     1
  9
$CEPSNTYPE
380
     0
  9
$PSTYLEMODE
290
     1
  9
$FINGERPRINTGUID
  2
{3EF75387-DDC0-4F29-926E-6C04AFB9343C}
  9
$VERSIONGUID
  2
{20E3BFEF-D39C-429B-832D-2D904D929A43}
  9
$EXTNAMES
290
     1
  9
$PSVPSCALE
 40
0.0
  9
$OLESTARTUP
290
     0
  9
$SORTENTS
280
   127
  9
$INDEXCTL
280
     0
  9
$HIDETEXT
280
     1
  9
$XCLIPFRAME
290
     0
  9
$HALOGAP
280
     0
  9
$OBSCOLOR
 70
   257
  9
$OBSLTYPE
280
     0
  9
$INTERSECTIONDISPLAY
280
     0
  9
$INTERSECTIONCOLOR
 70
   257
  9
$DIMASSOC
280
     2
  9
$PROJECTNAME
  1

  0
ENDSEC
  0
SECTION
  2
CLASSES
  0
CLASS
  1
ACDBDICTIONARYWDFLT
  2
AcDbDictionaryWithDefault
  3
ObjectDBX Classes
 90
        0
 91
        1
280
     0
281
     0
  0
CLASS
  1
DICTIONARYVAR
  2
AcDbDictionaryVar
  3
ObjectDBX Classes
 90
        0
 91
        3
280
     0
281
     0
  0
CLASS
  1
DIMASSOC
  2
AcDbDimAssoc
  3
"AcDbDimAssoc|Product Desc:     AcDim ARX App For Dimension|Company:          Autodesk, Inc.|WEB Address:      www.autodesk.com"
 90
        0
 91
        0
280
     0
281
     0
  0
ENDSEC
  0
SECTION
  2
TABLES
  0
TABLE
  2
VPORT
  5
46CA
330
0
100
AcDbSymbolTable
 70
     2
  0
VPORT
  5
4DF5
330
46CA
100
AcDbSymbolTableRecord
100
AcDbViewportTableRecord
  2
*Active
 70
     0
 10
0.0
 20
0.0
 11
1.0
 21
1.0
 12
420.0000000000001
 22
593.9999999999995
 13
0.0
 23
0.0
 14
1.0
 24
1.0
 15
10.0
 25
10.0
 16
0.0
 26
0.0
 36
1.0
 17
0.0
 27
0.0
 37
0.0
 40
1187.999999999999
 41
1.336927223719676
 42
50.0
 43
0.0
 44
0.0
 50
0.0
 51
0.0
 71
     0
 72
  1500
 73
     1
 74
     0
 75
     0
 76
     0
 77
     0
 78
     0
281
     0
 65
     1
110
0.0
120
0.0
130
0.0
111
1.0
121
0.0
131
0.0
112
0.0
122
1.0
132
0.0
 79
     0
146
0.0
  0
ENDTAB
  0
TABLE
  2
LTYPE
  5
46C7
330
0
100
AcDbSymbolTable
 70
     4
  0
LTYPE
  5
46D5
330
46C7
100
AcDbSymbolTableRecord
100
AcDbLinetypeTableRecord
  2
ByBlock
 70
     0
  3

 72
    65
 73
     0
 40
0.0
  0
LTYPE
  5
46D6
330
46C7
100
AcDbSymbolTableRecord
100
AcDbLinetypeTableRecord
  2
ByLayer
 70
     0
  3

 72
    65
 73
     0
 40
0.0
  0
LTYPE
  5
46D7
330
46C7
100
AcDbSymbolTableRecord
100
AcDbLinetypeTableRecord
  2
AUSGEZOGEN
 70
     0
  3
Ausgezogene Linie
 72
    65
 73
     0
 40
0.0
  0
LTYPE
  5
470E
330
46C7
100
AcDbSymbolTableRecord
100
AcDbLinetypeTableRecord
  2
STRICHPUNKT
 70
     0
  3
__ . __ . __ . __ . __ . __ . __ . __ . __ . __
 72
    65
 73
     4
 40
1.0
 49
0.5
 74
     0
 49
-0.25
 74
     0
 49
0.0
 74
     0
 49
-0.25
 74
     0
  0
LTYPE
  5
470F
330
46C7
100
AcDbSymbolTableRecord
100
AcDbLinetypeTableRecord
  2
VERDECKT
 70
     0
  3
__ __ __ __ __ __ __ __ __ __ __ __ __ __ __ __
 72
    65
 73
     2
 40
0.375
 49
0.25
 74
     0
 49
-0.125
 74
     0
  0
LTYPE
  5
4710
330
46C7
100
AcDbSymbolTableRecord
100
AcDbLinetypeTableRecord
  2
CONTINUOUS
 70
     0
  3
Solid line
 72
    65
 73
     0
 40
0.0
  0
ENDTAB
  0
TABLE
  2
LAYER
  5
46C4
330
0
100
AcDbSymbolTable
 70
    10
  0
LAYER
  5
46D2
330
46C4
100
AcDbSymbolTableRecord
100
AcDbLayerTableRecord
  2
0
 70
     0
 62
     7
  6
AUSGEZOGEN
370
    -3
390
46D1
  0
LAYER
  5
4713
330
46C4
100
AcDbSymbolTableRecord
100
AcDbLayerTableRecord
  2
HILF
 70
     0
 62
     2
  6
AUSGEZOGEN
370
    -3
390
46D1
  0
LAYER
  5
4714
330
46C4
100
AcDbSymbolTableRecord
100
AcDbLayerTableRecord
  2
BEM
 70
     0
 62
     7
  6
AUSGEZOGEN
370
    -3
390
46D1
  0
LAYER
  5
4715
330
46C4
100
AcDbSymbolTableRecord
100
AcDbLayerTableRecord
  2
STEMPEL
 70
     0
 62
     3
  6
AUSGEZOGEN
370
    -3
390
46D1
  0
LAYER
  5
4716
330
46C4
100
AcDbSymbolTableRecord
100
AcDbLayerTableRecord
  2
VOLL
 70
     0
 62
     1
  6
AUSGEZOGEN
370
    -3
390
46D1
  0
LAYER
  5
4717
330
46C4
100
AcDbSymbolTableRecord
100
AcDbLayerTableRecord
  2
MITTEL
 70
     0
 62
     2
  6
STRICHPUNKT
370
    -3
390
46D1
  0
LAYER
  5
4718
330
46C4
100
AcDbSymbolTableRecord
100
AcDbLayerTableRecord
  2
VERDECKT
 70
     0
 62
     6
  6
VERDECKT
370
    -3
390
46D1
  0
LAYER
  5
4719
330
46C4
100
AcDbSymbolTableRecord
100
AcDbLayerTableRecord
  2
TEXT
 70
     0
 62
     7
  6
AUSGEZOGEN
370
    -3
390
46D1
  0
LAYER
  5
471A
330
46C4
100
AcDbSymbolTableRecord
100
AcDbLayerTableRecord
  2
DEFPOINTS
 70
     0
 62
     7
  6
AUSGEZOGEN
290
     0
370
    -3
390
46D1
  0
LAYER
  5
471B
330
46C4
100
AcDbSymbolTableRecord
100
AcDbLayerTableRecord
  2
SCHRAFF
 70
     0
 62
     7
  6
AUSGEZOGEN
370
    -3
390
46D1
  0
ENDTAB
  0
TABLE
  2
STYLE
  5
46C5
330
0
100
AcDbSymbolTable
 70
     2
  0
STYLE
  5
46D3
330
46C5
100
AcDbSymbolTableRecord
100
AcDbTextStyleTableRecord
  2
STANDARD
 70
     0
 40
0.0
 41
0.8
 50
0.0
 71
     0
 42
7.0
  3
simplex
  4

  0
STYLE
  5
470D
330
46C5
100
AcDbSymbolTableRecord
100
AcDbTextStyleTableRecord
  2
GREEKS
 70
     0
 40
0.0
 41
0.8
 50
0.0
 71
     0
 42
3.5
  3
simplex
  4

  0
ENDTAB
  0
TABLE
  2
VIEW
  5
46C8
330
0
100
AcDbSymbolTable
 70
     0
  0
ENDTAB
  0
TABLE
  2
UCS
  5
46C9
330
0
100
AcDbSymbolTable
 70
     0
  0
ENDTAB
  0
TABLE
  2
APPID
  5
46CB
330
0
100
AcDbSymbolTable
 70
     1
  0
APPID
  5
46D4
330
46CB
100
AcDbSymbolTableRecord
100
AcDbRegAppTableRecord
  2
ACAD
 70
     0
  0
ENDTAB
  0
TABLE
  2
DIMSTYLE
  5
46CC
330
0
100
AcDbSymbolTable
 70
     1
100
AcDbDimStyleTable
 71
     1
340
4712
  0
DIMSTYLE
105
4712
102
{ACAD_REACTORS
330
B47
330
BCC
330
BCB
330
B3A
330
3E15
102
}
330
46CC
100
AcDbSymbolTableRecord
100
AcDbDimStyleTableRecord
  2
STANDARD
 70
     0
271
     2
272
     2
279
     2
284
     8
285
     8
286
     8
340
46D3
  0
ENDTAB
  0
TABLE
  2
BLOCK_RECORD
  5
46C3
330
0
100
AcDbSymbolTable
 70
     9
  0
BLOCK_RECORD
  5
46E2
330
46C3
100
AcDbSymbolTableRecord
100
AcDbBlockTableRecord
  2
*Model_Space
340
46E5
  0
BLOCK_RECORD
  5
46DE
330
46C3
100
AcDbSymbolTableRecord
100
AcDbBlockTableRecord
  2
*Paper_Space
340
46E1
  0
BLOCK_RECORD
  5
46F0
330
46C3
100
AcDbSymbolTableRecord
100
AcDbBlockTableRecord
  2
*X0
340
0
102
{BLKREFS
331
B65
331
B68
102
}
  0
BLOCK_RECORD
  5
46F9
330
46C3
100
AcDbSymbolTableRecord
100
AcDbBlockTableRecord
  2
LOGO
340
0
102
{BLKREFS
331
3BC1
102
}
  0
BLOCK_RECORD
  5
4708
330
46C3
100
AcDbSymbolTableRecord
100
AcDbBlockTableRecord
  2
*X2
340
0
102
{BLKREFS
331
3CD9
102
}
  0
BLOCK_RECORD
  5
4709
330
46C3
100
AcDbSymbolTableRecord
100
AcDbBlockTableRecord
  2
*X3
340
0
102
{BLKREFS
331
3CC0
102
}
  0
BLOCK_RECORD
  5
480C
330
46C3
100
AcDbSymbolTableRecord
100
AcDbBlockTableRecord
  2
*D4
340
0
  0
BLOCK_RECORD
  5
4844
330
46C3
100
AcDbSymbolTableRecord
100
AcDbBlockTableRecord
  2
*D5
340
0
  0
BLOCK_RECORD
  5
4B10
330
46C3
100
AcDbSymbolTableRecord
100
AcDbBlockTableRecord
  2
*D6
340
0
  0
BLOCK_RECORD
  5
4B1C
330
46C3
100
AcDbSymbolTableRecord
100
AcDbBlockTableRecord
  2
*D7
340
0
  0
BLOCK_RECORD
  5
4B34
330
46C3
100
AcDbSymbolTableRecord
100
AcDbBlockTableRecord
  2
*D8
340
0
  0
ENDTAB
  0
ENDSEC
  0
SECTION
  2
BLOCKS
  0
BLOCK
  5
471E
330
46E2
100
AcDbEntity
  8
0
100
AcDbBlockBegin
  2
*Model_Space
 70
     0
 10
0.0
 20
0.0
 30
0.0
  3
*Model_Space
  1

  0
ENDBLK
  5
471F
330
46E2
100
AcDbEntity
  8
0
100
AcDbBlockEnd
  0
BLOCK
  5
471C
330
46DE
100
AcDbEntity
 67
     1
  8
0
100
AcDbBlockBegin
  2
*Paper_Space
 70
     0
 10
0.0
 20
0.0
 30
0.0
  3
*Paper_Space
  1

  0
ENDBLK
  5
471D
330
46DE
100
AcDbEntity
 67
     1
  8
0
100
AcDbBlockEnd
  0
BLOCK
  5
5EF
330
46F0
100
AcDbEntity
  8
0
100
AcDbBlockBegin
  2
*X0
 70
     1
 10
0.0
 20
0.0
 30
0.0
  3
*X0
  1

  0
LINE
  5
5F0
330
46F0
100
AcDbEntity
  8
0
 62
     0
100
AcDbLine
 10
212.1774882628756
 20
204.0457602792303
 30
0.0
 11
215.7877812047738
 21
207.6560532211285
 31
0.0
  0
LINE
  5
5F1
330
46F0
100
AcDbEntity
  8
0
 62
     0
100
AcDbLine
 10
212.0232729900587
 20
204.06832170171
 30
0.0
 11
215.6259118515285
 21
207.6709605631798
 31
0.0
  0
LINE
  5
5F2
330
46F0
100
AcDbEntity
  8
0
 62
     0
100
AcDbLine
 10
211.8693199397491
 20
204.0911453466971
 30
0.0
 11
215.4582409499618
 21
207.6800663569098
 31
0.0
  0
LINE
  5
5F3
330
46F0
100
AcDbEntity
  8
0
 62
     0
100
AcDbLine
 10
211.7156279999626
 20
204.1142301022071
 30
0.0
 11
215.2841381324523
 21
207.682740234697
 31
0.0
  0
LINE
  5
5F4
330
46F0
100
AcDbEntity
  8
0
 62
     0
100
AcDbLine
 10
211.5621960693842
 20
204.1375748669254
 30
0.0
 11
215.1028143728786
 21
207.6781931704198
 31
0.0
  0
LINE
  5
5F5
330
46F0
100
AcDbEntity
  8
0
 62
     0
100
AcDbLine
 10
211.4090230572323
 20
204.1611785500701
 30
0.0
 11
214.9132605793147
 21
207.6654160721526
 31
0.0
  0
LINE
  5
5F6
330
46F0
100
AcDbEntity
  8
0
 62
     0
100
AcDbLine
 10
211.2561078831236
 20
204.1850400712581
 30
0.0
 11
214.7141513444743
 21
207.6430835326088
 31
0.0
  0
LINE
  5
5F7
330
46F0
100
AcDbEntity
  8
0
 62
     0
100
AcDbLine
 10
211.1034494769417
 20
204.2091583603728
 30
0.0
 11
214.5036860461676
 21
207.6093949295988
 31
0.0
  0
LINE
  5
5F8
330
46F0
100
AcDbEntity
  8
0
 62
     0
100
AcDbLine
 10
211.0276828696524
 20
204.3101684483803
 30
0.0
 11
214.2793086251239
 21
207.5617942038517
 31
0.0
  0
LINE
  5
5F9
330
46F0
100
AcDbEntity
  8
0
 62
     0
100
AcDbLine
 10
211.0930462896587
 20
204.5523085636832
 30
0.0
 11
214.037168509821
 21
207.4964307838455
 31
0.0
  0
LINE
  5
5FA
330
46F0
100
AcDbEntity
  8
0
 62
     0
100
AcDbLine
 10
211.1824875000826
 20
204.8185264694037
 30
0.0
 11
213.7709506041005
 21
207.4069895734215
 31
0.0
  0
LINE
  5
5FB
330
46F0
100
AcDbEntity
  8
0
 62
     0
100
AcDbLine
 10
211.3078300294701
 20
205.1206456940878
 30
0.0
 11
213.4688313794164
 21
207.281647044034
 31
0.0
  0
LINE
  5
5FC
330
46F0
100
AcDbEntity
  8
0
 62
     0
100
AcDbLine
 10
211.4972574204597
 20
205.4868497803741
 30
0.0
 11
213.10262729313
 21
207.0922196530444
 31
0.0
  0
LINE
  5
5FD
330
46F0
100
AcDbEntity
  8
0
 62
     0
100
AcDbLine
 10
211.8867471351101
 20
206.0531161903211
 30
0.0
 11
212.536360883183
 21
206.702729938394
 31
0.0
  0
LINE
  5
5FE
330
46F0
100
AcDbEntity
  8
0
 62
     0
100
AcDbLine
 10
212.3319668809925
 20
204.0234622020505
 30
0.0
 11
215.9443615756971
 21
207.6358568967552
 31
0.0
  0
LINE
  5
5FF
330
46F0
100
AcDbEntity
  8
0
 62
     0
100
AcDbLine
 10
212.486709978152
 20
204.0014286039135
 30
0.0
 11
216.0960758704849
 21
207.6107944962464
 31
0.0
  0
LINE
  5
600
330
46F0
100
AcDbEntity
  8
0
 62
     0
100
AcDbLine
 10
212.6417186991904
 20
203.9796606296552
 30
0.0
 11
216.2432772908884
 21
207.5812192213532
 31
0.0
  0
LINE
  5
601
330
46F0
100
AcDbEntity
  8
0
 62
     0
100
AcDbLine
 10
212.7969942001834
 20
203.9581594353516
 30
0.0
 11
216.3862638385058
 21
207.5474290736739
 31
0.0
  0
LINE
  5
602
330
46F0
100
AcDbEntity
  8
0
 62
     0
100
AcDbLine
 10
212.9525376485956
 20
203.9369261884672
 30
0.0
 11
216.3980956166028
 21
207.3824841564743
 31
0.0
  0
LINE
  5
603
330
46F0
100
AcDbEntity
  8
0
 62
     0
100
AcDbLine
 10
213.1083502234313
 20
203.9159620680062
 30
0.0
 11
216.3980956166028
 21
207.2057074611777
 31
0.0
  0
LINE
  5
604
330
46F0
100
AcDbEntity
  8
0
 62
     0
100
AcDbLine
 10
213.2644331153887
 20
203.8952682646669
 30
0.0
 11
216.3980956166028
 21
207.0289307658811
 31
0.0
  0
LINE
  5
605
330
46F0
100
AcDbEntity
  8
0
 62
     0
100
AcDbLine
 10
213.4207875270167
 20
203.8748459809983
 30
0.0
 11
216.3980956166028
 21
206.8521540705844
 31
0.0
  0
LINE
  5
606
330
46F0
100
AcDbEntity
  8
0
 62
     0
100
AcDbLine
 10
213.5774146728742
 20
203.8546964315592
 30
0.0
 11
216.3980956166028
 21
206.6753773752878
 31
0.0
  0
LINE
  5
607
330
46F0
100
AcDbEntity
  8
0
 62
     0
100
AcDbLine
 10
213.7343157796926
 20
203.8348208430809
 30
0.0
 11
216.3980956166028
 21
206.4986006799911
 31
0.0
  0
LINE
  5
608
330
46F0
100
AcDbEntity
  8
0
 62
     0
100
AcDbLine
 10
213.8914920865408
 20
203.8152204546324
 30
0.0
 11
216.3980956166028
 21
206.3218239846945
 31
0.0
  0
LINE
  5
609
330
46F0
100
AcDbEntity
  8
0
 62
     0
100
AcDbLine
 10
214.0489448449933
 20
203.7958965177883
 30
0.0
 11
216.3980956166028
 21
206.1450472893979
 31
0.0
  0
LINE
  5
60A
330
46F0
100
AcDbEntity
  8
0
 62
     0
100
AcDbLine
 10
214.2066753193016
 20
203.7768502968
 30
0.0
 11
216.3980956166028
 21
205.9682705941012
 31
0.0
  0
LINE
  5
60B
330
46F0
100
AcDbEntity
  8
0
 62
     0
100
AcDbLine
 10
214.364684786568
 20
203.7580830687697
 30
0.0
 11
216.3980956166028
 21
205.7914938988046
 31
0.0
  0
LINE
  5
60C
330
46F0
100
AcDbEntity
  8
0
 62
     0
100
AcDbLine
 10
214.5229745369233
 20
203.7395961238285
 30
0.0
 11
216.3980956166028
 21
205.614717203508
 31
0.0
  0
LINE
  5
60D
330
46F0
100
AcDbEntity
  8
0
 62
     0
100
AcDbLine
 10
214.6815458737075
 20
203.721390765316
 30
0.0
 11
216.3980956166028
 21
205.4379405082113
 31
0.0
  0
LINE
  5
60E
330
46F0
100
AcDbEntity
  8
0
 62
     0
100
AcDbLine
 10
214.8404001136528
 20
203.7034683099647
 30
0.0
 11
216.3980956166028
 21
205.2611638129147
 31
0.0
  0
LINE
  5
60F
330
46F0
100
AcDbEntity
  8
0
 62
     0
100
AcDbLine
 10
214.9995385870719
 20
203.6858300880872
 30
0.0
 11
216.3980956166028
 21
205.084387117618
 31
0.0
  0
LINE
  5
610
330
46F0
100
AcDbEntity
  8
0
 62
     0
100
AcDbLine
 10
215.1589626380481
 20
203.6684774437667
 30
0.0
 11
216.3980956166028
 21
204.9076104223214
 31
0.0
  0
LINE
  5
611
330
46F0
100
AcDbEntity
  8
0
 62
     0
100
AcDbLine
 10
215.3186736246292
 20
203.6514117350512
 30
0.0
 11
216.3980956166028
 21
204.7308337270248
 31
0.0
  0
LINE
  5
612
330
46F0
100
AcDbEntity
  8
0
 62
     0
100
AcDbLine
 10
215.478672919026
 20
203.6346343341513
 30
0.0
 11
216.3980956166028
 21
204.5540570317281
 31
0.0
  0
LINE
  5
613
330
46F0
100
AcDbEntity
  8
0
 62
     0
100
AcDbLine
 10
215.6389619078129
 20
203.6181466276416
 30
0.0
 11
216.3980956166028
 21
204.3772803364315
 31
0.0
  0
LINE
  5
614
330
46F0
100
AcDbEntity
  8
0
 62
     0
100
AcDbLine
 10
215.7995419921337
 20
203.6019500166658
 30
0.0
 11
216.3980956166028
 21
204.2005036411349
 31
0.0
  0
LINE
  5
615
330
46F0
100
AcDbEntity
  8
0
 62
     0
100
AcDbLine
 10
215.9604145879104
 20
203.5860459171458
 30
0.0
 11
216.3980956166028
 21
204.0237269458383
 31
0.0
  0
LINE
  5
616
330
46F0
100
AcDbEntity
  8
0
 62
     0
100
AcDbLine
 10
216.1215811260559
 20
203.5704357599946
 30
0.0
 11
216.3980956166028
 21
203.8469502505416
 31
0.0
  0
LINE
  5
617
330
46F0
100
AcDbEntity
  8
0
 62
     0
100
AcDbLine
 10
216.2830430526913
 20
203.5551209913335
 30
0.0
 11
216.3980956166028
 21
203.6701735552449
 31
0.0
  0
ENDBLK
  5
618
330
46F0
100
AcDbEntity
  8
0
100
AcDbBlockEnd
  0
BLOCK
  5
28A0
330
46F9
100
AcDbEntity
  8
0
100
AcDbBlockBegin
  2
LOGO
 70
     0
 10
0.0
 20
0.0
 30
0.0
  3
LOGO
  1

  0
ARC
  5
2886
330
46F9
100
AcDbEntity
  8
0
100
AcDbCircle
 10
11.59973089678112
 20
-9.271599258481501
 30
0.0
 40
4.5
100
AcDbArc
 50
270.0
 51
231.0575587310159
  0
LINE
  5
2887
330
46F9
100
AcDbEntity
  8
0
100
AcDbLine
 10
3.599730896781125
 20
-4.771599258481529
 30
0.0
 11
3.599730896781153
 21
-11.77159925848133
 31
0.0
  0
LINE
  5
2888
330
46F9
100
AcDbEntity
  8
0
100
AcDbLine
 10
2.599730896781125
 20
-4.771599258481529
 30
0.0
 11
2.599730896781153
 21
-11.77159925848133
 31
0.0
  0
CIRCLE
  5
2889
330
46F9
100
AcDbEntity
  8
0
100
AcDbCircle
 10
11.59973089678112
 20
-9.271599258481501
 30
0.0
 40
3.5
  0
ARC
  5
288A
330
46F9
100
AcDbEntity
  8
0
100
AcDbCircle
 10
31.59973089678115
 20
-9.271599258481472
 30
0.0
 40
4.5
100
AcDbArc
 50
270.0
 51
231.0575587310182
  0
LINE
  5
288B
330
46F9
100
AcDbEntity
  8
0
100
AcDbLine
 10
17.59973089678112
 20
-4.771599258481472
 30
0.0
 11
17.59973089678115
 21
-13.77159925848147
 31
0.0
  0
ARC
  5
288C
330
46F9
100
AcDbEntity
  8
0
100
AcDbCircle
 10
22.59973089678116
 20
-7.271599258481472
 30
0.0
 40
2.5
100
AcDbArc
 50
293.1161887722295
 51
90.0
  0
CIRCLE
  5
288D
330
46F9
100
AcDbEntity
  8
0
100
AcDbCircle
 10
31.59973089678115
 20
-9.271599258481472
 30
0.0
 40
3.5
  0
ARC
  5
288E
330
46F9
100
AcDbEntity
  8
0
100
AcDbCircle
 10
4.599730896781153
 20
-11.77159925848133
 30
0.0
 40
1.0
100
AcDbArc
 50
180.0
 51
270.0
  0
ARC
  5
288F
330
46F9
100
AcDbEntity
  8
0
100
AcDbCircle
 10
4.599730896781153
 20
-11.77159925848133
 30
0.0
 40
2.0
100
AcDbArc
 50
179.9999999999992
 51
270.0
  0
LINE
  5
2890
330
46F9
100
AcDbEntity
  8
0
100
AcDbLine
 10
11.59973089678115
 20
-13.77159925848144
 30
0.0
 11
4.599730896781153
 21
-13.77159925848147
 31
0.0
  0
LINE
  5
2891
330
46F9
100
AcDbEntity
  8
0
100
AcDbLine
 10
8.771303772034769
 20
-12.77159925848136
 30
0.0
 11
4.599730896781153
 21
-12.77159925848133
 31
0.0
  0
LINE
  5
2892
330
46F9
100
AcDbEntity
  8
0
100
AcDbLine
 10
31.59973089678115
 20
-13.77159925848147
 30
0.0
 11
23.6715276665056
 21
-13.77159925848144
 31
0.0
  0
LINE
  5
2893
330
46F9
100
AcDbEntity
  8
0
100
AcDbLine
 10
23.56565672307022
 20
-9.51278021337896
 30
0.0
 11
24.4388546544846
 21
-12.77159925848144
 31
0.0
  0
LINE
  5
2894
330
46F9
100
AcDbEntity
  8
0
100
AcDbLine
 10
22.59973089678116
 20
-9.771599258481472
 30
0.0
 11
18.59973089678112
 21
-9.771599258481472
 31
0.0
  0
LINE
  5
2895
330
46F9
100
AcDbEntity
  8
0
100
AcDbLine
 10
18.59973089678115
 20
-13.77159925848144
 30
0.0
 11
17.59973089678115
 21
-13.77159925848144
 31
0.0
  0
LINE
  5
2896
330
46F9
100
AcDbEntity
  8
0
100
AcDbLine
 10
18.59973089678115
 20
-9.771599258481472
 30
0.0
 11
18.59973089678115
 21
-13.77159925848144
 31
0.0
  0
LINE
  5
2897
330
46F9
100
AcDbEntity
  8
0
100
AcDbLine
 10
22.59973089678116
 20
-9.771599258481472
 30
0.0
 11
23.67152766650562
 21
-13.77159925848147
 31
0.0
  0
ARC
  5
2898
330
46F9
100
AcDbEntity
  8
0
100
AcDbCircle
 10
22.59973089678116
 20
-7.271599258481472
 30
0.0
 40
2.5
100
AcDbArc
 50
270.0
 51
270.0000000000007
  0
LINE
  5
2899
330
46F9
100
AcDbEntity
  8
0
100
AcDbLine
 10
28.77130377203494
 20
-12.77159925848147
 30
0.0
 11
24.43885465448463
 21
-12.77159925848144
 31
0.0
  0
LINE
  5
289A
330
46F9
100
AcDbEntity
  8
0
100
AcDbLine
 10
3.599730896781125
 20
-4.771599258481472
 30
0.0
 11
2.599730896781125
 21
-4.771599258481472
 31
0.0
  0
LINE
  5
289B
330
46F9
100
AcDbEntity
  8
0
100
AcDbLine
 10
22.59973089678116
 20
-8.771599258481472
 30
0.0
 11
18.59973089678115
 21
-8.771599258481472
 31
0.0
  0
LINE
  5
289C
330
46F9
100
AcDbEntity
  8
0
100
AcDbLine
 10
22.59973089678116
 20
-5.771599258481472
 30
0.0
 11
18.59973089678115
 21
-5.771599258481472
 31
0.0
  0
LINE
  5
289D
330
46F9
100
AcDbEntity
  8
0
100
AcDbLine
 10
22.59973089678116
 20
-4.771599258481472
 30
0.0
 11
17.59973089678115
 21
-4.771599258481472
 31
0.0
  0
LINE
  5
289E
330
46F9
100
AcDbEntity
  8
0
100
AcDbLine
 10
18.59973089678115
 20
-5.771599258481472
 30
0.0
 11
18.59973089678115
 21
-8.771599258481472
 31
0.0
  0
ARC
  5
289F
330
46F9
100
AcDbEntity
  8
0
100
AcDbCircle
 10
22.59973089678116
 20
-7.271599258481472
 30
0.0
 40
1.5
100
AcDbArc
 50
270.0
 51
90.0
  0
ENDBLK
  5
28A1
330
46F9
100
AcDbEntity
  8
0
100
AcDbBlockEnd
  0
BLOCK
  5
4609
330
4708
100
AcDbEntity
  8
0
100
AcDbBlockBegin
  2
*X2
 70
     1
 10
0.0
 20
0.0
 30
0.0
  3
*X2
  1

  0
LINE
  5
4600
330
4708
100
AcDbEntity
  8
SCHRAFF
 62
     0
100
AcDbLine
 10
261.7215469494084
 20
212.5069149788247
 30
0.0
 11
261.9492250801105
 21
212.7345931095267
 31
0.0
  0
LINE
  5
4601
330
4708
100
AcDbEntity
  8
SCHRAFF
 62
     0
100
AcDbLine
 10
261.1338037718691
 20
212.20201451376
 30
0.0
 11
261.8280722910415
 21
212.8962830329323
 31
0.0
  0
LINE
  5
4602
330
4708
100
AcDbEntity
  8
SCHRAFF
 62
     0
100
AcDbLine
 10
260.5581909127381
 20
211.9092443671036
 30
0.0
 11
261.6915315388678
 21
213.0425849932333
 31
0.0
  0
LINE
  5
4603
330
4708
100
AcDbEntity
  8
SCHRAFF
 62
     0
100
AcDbLine
 10
260.3980956166028
 20
212.031991783443
 30
0.0
 11
261.5397750377766
 21
213.1736712046167
 31
0.0
  0
LINE
  5
4604
330
4708
100
AcDbEntity
  8
SCHRAFF
 62
     0
100
AcDbLine
 10
260.3980956166028
 20
212.3148344959176
 30
0.0
 11
261.3724349783441
 21
213.2891738576588
 31
0.0
  0
LINE
  5
4605
330
4708
100
AcDbEntity
  8
SCHRAFF
 62
     0
100
AcDbLine
 10
260.3980956166028
 20
212.5976772083922
 30
0.0
 11
261.1885345443861
 21
213.3881161361755
 31
0.0
  0
LINE
  5
4606
330
4708
100
AcDbEntity
  8
SCHRAFF
 62
     0
100
AcDbLine
 10
260.3980956166028
 20
212.8805199208667
 30
0.0
 11
260.9862853357829
 21
213.4687096400469
 31
0.0
  0
LINE
  5
4607
330
4708
100
AcDbEntity
  8
SCHRAFF
 62
     0
100
AcDbLine
 10
260.3980956166028
 20
213.1633626333414
 30
0.0
 11
260.7626391275456
 21
213.5279061442842
 31
0.0
  0
LINE
  5
4608
330
4708
100
AcDbEntity
  8
SCHRAFF
 62
     0
100
AcDbLine
 10
260.3980956166028
 20
213.446205345816
 30
0.0
 11
260.5122680024615
 21
213.5603777316747
 31
0.0
  0
ENDBLK
  5
460A
330
4708
100
AcDbEntity
  8
0
100
AcDbBlockEnd
  0
BLOCK
  5
4615
330
4709
100
AcDbEntity
  8
0
100
AcDbBlockBegin
  2
*X3
 70
     1
 10
0.0
 20
0.0
 30
0.0
  3
*X3
  1

  0
LINE
  5
460C
330
4709
100
AcDbEntity
  8
SCHRAFF
 62
     0
100
AcDbLine
 10
187.2805260268768
 20
211.8878420121687
 30
0.0
 11
187.3980956166028
 21
212.0054116018946
 31
0.0
  0
LINE
  5
460D
330
4709
100
AcDbEntity
  8
SCHRAFF
 62
     0
100
AcDbLine
 10
187.0925324616403
 20
211.9826911594067
 30
0.0
 11
187.3980956166028
 21
212.2882543143693
 31
0.0
  0
LINE
  5
460E
330
4709
100
AcDbEntity
  8
SCHRAFF
 62
     0
100
AcDbLine
 10
186.9049433872862
 20
212.0779447975273
 30
0.0
 11
187.3980956166028
 21
212.5710970268439
 31
0.0
  0
LINE
  5
460F
330
4709
100
AcDbEntity
  8
SCHRAFF
 62
     0
100
AcDbLine
 10
186.7177577824736
 20
212.1736019051893
 30
0.0
 11
187.3980956166028
 21
212.8539397393185
 31
0.0
  0
LINE
  5
4610
330
4709
100
AcDbEntity
  8
SCHRAFF
 62
     0
100
AcDbLine
 10
186.5309746381781
 20
212.2696614733684
 30
0.0
 11
187.3980956166028
 21
213.1367824517931
 31
0.0
  0
LINE
  5
4611
330
4709
100
AcDbEntity
  8
SCHRAFF
 62
     0
100
AcDbLine
 10
186.3445929575665
 20
212.3661225052315
 30
0.0
 11
187.3980956166028
 21
213.4196251642678
 31
0.0
  0
LINE
  5
4612
330
4709
100
AcDbEntity
  8
SCHRAFF
 62
     0
100
AcDbLine
 10
186.1586117558737
 20
212.4629840160133
 30
0.0
 11
187.3198343737885
 21
213.624206633928
 31
0.0
  0
LINE
  5
4613
330
4709
100
AcDbEntity
  8
SCHRAFF
 62
     0
100
AcDbLine
 10
185.9730300602815
 20
212.5602450328957
 30
0.0
 11
186.9962134115597
 21
213.5834283841739
 31
0.0
  0
LINE
  5
4614
330
4709
100
AcDbEntity
  8
SCHRAFF
 62
     0
100
AcDbLine
 10
185.7878469097998
 20
212.6579045948886
 30
0.0
 11
186.5676266957654
 21
213.4376843808542
 31
0.0
  0
ENDBLK
  5
4616
330
4709
100
AcDbEntity
  8
0
100
AcDbBlockEnd
  0
BLOCK
  5
4816
330
480C
100
AcDbEntity
  8
0
100
AcDbBlockBegin
  2
*D4
 70
     1
 10
0.0
 20
0.0
 30
0.0
  3
*D4
  1

  0
LINE
  5
4832
330
480C
100
AcDbEntity
  8
BEM
 62
     0
370
    -2
100
AcDbLine
 10
485.9080965188777
 20
470.3043732238362
 30
0.0
 11
485.9080965188777
 21
439.0855220247852
 31
0.0
  0
LINE
  5
4833
330
480C
100
AcDbEntity
  8
BEM
 62
     0
370
    -2
100
AcDbLine
 10
618.9080965188777
 20
470.304373223836
 30
0.0
 11
618.9080965188777
 21
439.0855220247852
 31
0.0
  0
LINE
  5
4834
330
480C
100
AcDbEntity
  8
BEM
 62
     0
370
    -2
100
AcDbLine
 10
492.9080965188776
 20
441.0855220247852
 30
0.0
 11
611.9080965188778
 21
441.0855220247852
 31
0.0
  0
SOLID
  5
4835
330
480C
100
AcDbEntity
  8
BEM
 62
     0
100
AcDbTrace
 10
492.9080965188776
 20
442.2521886914519
 30
0.0
 11
492.9080965188776
 21
439.9188553581185
 31
0.0
 12
485.9080965188777
 22
441.0855220247852
 32
0.0
 13
485.9080965188777
 23
441.0855220247852
 33
0.0
  0
SOLID
  5
4836
330
480C
100
AcDbEntity
  8
BEM
 62
     0
100
AcDbTrace
 10
611.9080965188778
 20
442.2521886914519
 30
0.0
 11
611.9080965188778
 21
439.9188553581185
 31
0.0
 12
618.9080965188777
 22
441.0855220247852
 32
0.0
 13
618.9080965188777
 23
441.0855220247852
 33
0.0
  0
MTEXT
  5
4837
330
480C
100
AcDbEntity
  8
BEM
 62
     1
100
AcDbMText
 10
552.4080965188777
 20
447.5855220247852
 30
0.0
 40
7.0
 41
0.0
 71
     5
 72
     1
  1
\A1;%%C133
 73
     1
 44
1.0
  0
POINT
  5
4838
330
480C
100
AcDbEntity
  8
DEFPOINTS
 62
     0
100
AcDbPoint
 10
485.9080965188777
 20
472.3043732238362
 30
0.0
  0
POINT
  5
4839
330
480C
100
AcDbEntity
  8
DEFPOINTS
 62
     0
100
AcDbPoint
 10
618.9080965188777
 20
472.304373223836
 30
0.0
  0
POINT
  5
483A
330
480C
100
AcDbEntity
  8
DEFPOINTS
 62
     0
100
AcDbPoint
 10
618.9080965188777
 20
441.0855220247852
 30
0.0
  0
ENDBLK
  5
4817
330
480C
100
AcDbEntity
  8
0
100
AcDbBlockEnd
  0
BLOCK
  5
484E
330
4844
100
AcDbEntity
  8
0
100
AcDbBlockBegin
  2
*D5
 70
     1
 10
0.0
 20
0.0
 30
0.0
  3
*D5
  1

  0
LINE
  5
4B07
330
4844
100
AcDbEntity
  8
BEM
 62
     0
370
    -2
100
AcDbLine
 10
291.5232089813436
 20
462.3043732238365
 30
0.0
 11
391.0356436215734
 21
462.3043732238364
 31
0.0
  0
LINE
  5
4B08
330
4844
100
AcDbEntity
  8
BEM
 62
     0
370
    -2
100
AcDbLine
 10
309.8980956166028
 20
1037.304373223836
 30
0.0
 11
391.0356436215735
 21
1037.304373223836
 31
0.0
  0
LINE
  5
4B09
330
4844
100
AcDbEntity
  8
BEM
 62
     0
370
    -2
100
AcDbLine
 10
389.0356436215734
 20
469.3043732238364
 30
0.0
 11
389.0356436215735
 21
1030.304373223836
 31
0.0
  0
SOLID
  5
4B0A
330
4844
100
AcDbEntity
  8
BEM
 62
     0
100
AcDbTrace
 10
387.8689769549067
 20
469.3043732238364
 30
0.0
 11
390.2023102882401
 21
469.3043732238364
 31
0.0
 12
389.0356436215734
 22
462.3043732238364
 32
0.0
 13
389.0356436215734
 23
462.3043732238364
 33
0.0
  0
SOLID
  5
4B0B
330
4844
100
AcDbEntity
  8
BEM
 62
     0
100
AcDbTrace
 10
387.8689769549069
 20
1030.304373223836
 30
0.0
 11
390.2023102882402
 21
1030.304373223836
 31
0.0
 12
389.0356436215735
 22
1037.304373223836
 32
0.0
 13
389.0356436215735
 23
1037.304373223836
 33
0.0
  0
MTEXT
  5
4B0C
330
4844
100
AcDbEntity
  8
BEM
 62
     1
100
AcDbMText
 10
382.5356436215733
 20
749.8043732238365
 30
0.0
 40
7.0
 41
0.0
 71
     5
 72
     1
  1
\A1;575
 11
0.0000000000000001
 21
1.0
 31
0.0
 73
     1
 44
1.0
  0
POINT
  5
4B0D
330
4844
100
AcDbEntity
  8
DEFPOINTS
 62
     0
100
AcDbPoint
 10
289.5232089813436
 20
462.3043732238365
 30
0.0
  0
POINT
  5
4B0E
330
4844
100
AcDbEntity
  8
DEFPOINTS
 62
     0
100
AcDbPoint
 10
307.8980956166028
 20
1037.304373223836
 30
0.0
  0
POINT
  5
4B0F
330
4844
100
AcDbEntity
  8
DEFPOINTS
 62
     0
100
AcDbPoint
 10
389.0356436215735
 20
1037.304373223836
 30
0.0
  0
ENDBLK
  5
484F
330
4844
100
AcDbEntity
  8
0
100
AcDbBlockEnd
  0
BLOCK
  5
4B1A
330
4B10
100
AcDbEntity
  8
0
100
AcDbBlockBegin
  2
*D6
 70
     1
 10
0.0
 20
0.0
 30
0.0
  3
*D6
  1

  0
LINE
  5
4B11
330
4B10
100
AcDbEntity
  8
BEM
 62
     0
370
    -2
100
AcDbLine
 10
309.8980956166027
 20
522.3043732238363
 30
0.0
 11
372.7649670527022
 21
522.3043732238363
 31
0.0
  0
LINE
  5
4B12
330
4B10
100
AcDbEntity
  8
BEM
 62
     0
370
    -2
100
AcDbLine
 10
309.8980956166028
 20
1037.304373223836
 30
0.0
 11
372.7649670527023
 21
1037.304373223836
 31
0.0
  0
LINE
  5
4B13
330
4B10
100
AcDbEntity
  8
BEM
 62
     0
370
    -2
100
AcDbLine
 10
370.7649670527022
 20
529.3043732238364
 30
0.0
 11
370.7649670527023
 21
1030.304373223836
 31
0.0
  0
SOLID
  5
4B14
330
4B10
100
AcDbEntity
  8
BEM
 62
     0
100
AcDbTrace
 10
369.5983003860356
 20
529.3043732238364
 30
0.0
 11
371.9316337193689
 21
529.3043732238364
 31
0.0
 12
370.7649670527022
 22
522.3043732238363
 32
0.0
 13
370.7649670527022
 23
522.3043732238363
 33
0.0
  0
SOLID
  5
4B15
330
4B10
100
AcDbEntity
  8
BEM
 62
     0
100
AcDbTrace
 10
369.5983003860356
 20
1030.304373223836
 30
0.0
 11
371.931633719369
 21
1030.304373223836
 31
0.0
 12
370.7649670527023
 22
1037.304373223836
 32
0.0
 13
370.7649670527023
 23
1037.304373223836
 33
0.0
  0
MTEXT
  5
4B16
330
4B10
100
AcDbEntity
  8
BEM
 62
     1
100
AcDbMText
 10
364.2649670527021
 20
779.8043732238364
 30
0.0
 40
7.0
 41
0.0
 71
     5
 72
     1
  1
\A1;515
 11
0.0000000000000001
 21
1.0
 31
0.0
 73
     1
 44
1.0
  0
POINT
  5
4B17
330
4B10
100
AcDbEntity
  8
DEFPOINTS
 62
     0
100
AcDbPoint
 10
307.8980956166027
 20
522.3043732238363
 30
0.0
  0
POINT
  5
4B18
330
4B10
100
AcDbEntity
  8
DEFPOINTS
 62
     0
100
AcDbPoint
 10
307.8980956166028
 20
1037.304373223836
 30
0.0
  0
POINT
  5
4B19
330
4B10
100
AcDbEntity
  8
DEFPOINTS
 62
     0
100
AcDbPoint
 10
370.7649670527023
 20
1037.304373223836
 30
0.0
  0
ENDBLK
  5
4B1B
330
4B10
100
AcDbEntity
  8
0
100
AcDbBlockEnd
  0
BLOCK
  5
4B26
330
4B1C
100
AcDbEntity
  8
0
100
AcDbBlockBegin
  2
*D7
 70
     1
 10
0.0
 20
0.0
 30
0.0
  3
*D7
  1

  0
LINE
  5
4B1D
330
4B1C
100
AcDbEntity
  8
BEM
 62
     0
370
    -2
100
AcDbLine
 10
309.8980956166027
 20
522.3043732238363
 30
0.0
 11
356.7649670527023
 21
522.3043732238363
 31
0.0
  0
LINE
  5
4B1E
330
4B1C
100
AcDbEntity
  8
BEM
 62
     0
370
    -2
100
AcDbLine
 10
327.5714277532935
 20
822.3043732238362
 30
0.0
 11
356.7649670527023
 21
822.3043732238362
 31
0.0
  0
LINE
  5
4B1F
330
4B1C
100
AcDbEntity
  8
BEM
 62
     0
370
    -2
100
AcDbLine
 10
354.7649670527023
 20
529.3043732238364
 30
0.0
 11
354.7649670527023
 21
815.3043732238364
 31
0.0
  0
SOLID
  5
4B20
330
4B1C
100
AcDbEntity
  8
BEM
 62
     0
100
AcDbTrace
 10
353.5983003860356
 20
529.3043732238364
 30
0.0
 11
355.931633719369
 21
529.3043732238364
 31
0.0
 12
354.7649670527023
 22
522.3043732238363
 32
0.0
 13
354.7649670527023
 23
522.3043732238363
 33
0.0
  0
SOLID
  5
4B21
330
4B1C
100
AcDbEntity
  8
BEM
 62
     0
100
AcDbTrace
 10
353.5983003860356
 20
815.3043732238364
 30
0.0
 11
355.931633719369
 21
815.3043732238364
 31
0.0
 12
354.7649670527023
 22
822.3043732238362
 32
0.0
 13
354.7649670527023
 23
822.3043732238362
 33
0.0
  0
MTEXT
  5
4B22
330
4B1C
100
AcDbEntity
  8
BEM
 62
     1
100
AcDbMText
 10
348.2649670527022
 20
672.3043732238364
 30
0.0
 40
7.0
 41
0.0
 71
     5
 72
     1
  1
\A1;300
 11
0.0000000000000001
 21
1.0
 31
0.0
 73
     1
 44
1.0
  0
POINT
  5
4B23
330
4B1C
100
AcDbEntity
  8
DEFPOINTS
 62
     0
100
AcDbPoint
 10
307.8980956166027
 20
522.3043732238363
 30
0.0
  0
POINT
  5
4B24
330
4B1C
100
AcDbEntity
  8
DEFPOINTS
 62
     0
100
AcDbPoint
 10
325.5714277532935
 20
822.3043732238362
 30
0.0
  0
POINT
  5
4B25
330
4B1C
100
AcDbEntity
  8
DEFPOINTS
 62
     0
100
AcDbPoint
 10
354.7649670527023
 20
822.3043732238362
 30
0.0
  0
ENDBLK
  5
4B27
330
4B1C
100
AcDbEntity
  8
0
100
AcDbBlockEnd
  0
BLOCK
  5
4B3E
330
4B34
100
AcDbEntity
  8
0
100
AcDbBlockBegin
  2
*D8
 70
     1
 10
0.0
 20
0.0
 30
0.0
  3
*D8
  1

  0
LINE
  5
4B49
330
4B34
100
AcDbEntity
  8
BEM
 62
     0
370
    -2
100
AcDbLine
 10
468.4080965188779
 20
1039.304373223836
 30
0.0
 11
468.4080965188779
 21
1051.765283037866
 31
0.0
  0
LINE
  5
4B4A
330
4B34
100
AcDbEntity
  8
BEM
 62
     0
370
    -2
100
AcDbLine
 10
636.408096518878
 20
1039.304373223836
 30
0.0
 11
636.408096518878
 21
1051.765283037866
 31
0.0
  0
LINE
  5
4B4B
330
4B34
100
AcDbEntity
  8
BEM
 62
     0
370
    -2
100
AcDbLine
 10
475.4080965188779
 20
1049.765283037866
 30
0.0
 11
629.4080965188781
 21
1049.765283037866
 31
0.0
  0
SOLID
  5
4B4C
330
4B34
100
AcDbEntity
  8
BEM
 62
     0
100
AcDbTrace
 10
475.4080965188779
 20
1050.931949704533
 30
0.0
 11
475.4080965188779
 21
1048.598616371199
 31
0.0
 12
468.4080965188779
 22
1049.765283037866
 32
0.0
 13
468.4080965188779
 23
1049.765283037866
 33
0.0
  0
SOLID
  5
4B4D
330
4B34
100
AcDbEntity
  8
BEM
 62
     0
100
AcDbTrace
 10
629.4080965188781
 20
1050.931949704533
 30
0.0
 11
629.4080965188781
 21
1048.598616371199
 31
0.0
 12
636.408096518878
 22
1049.765283037866
 32
0.0
 13
636.408096518878
 23
1049.765283037866
 33
0.0
  0
MTEXT
  5
4B4E
330
4B34
100
AcDbEntity
  8
BEM
 62
     1
100
AcDbMText
 10
552.408096518878
 20
1056.265283037866
 30
0.0
 40
7.0
 41
0.0
 71
     5
 72
     1
  1
\A1;%%c168
 73
     1
 44
1.0
  0
POINT
  5
4B4F
330
4B34
100
AcDbEntity
  8
DEFPOINTS
 62
     0
100
AcDbPoint
 10
468.4080965188779
 20
1037.304373223836
 30
0.0
  0
POINT
  5
4B50
330
4B34
100
AcDbEntity
  8
DEFPOINTS
 62
     0
100
AcDbPoint
 10
636.408096518878
 20
1037.304373223836
 30
0.0
  0
POINT
  5
4B51
330
4B34
100
AcDbEntity
  8
DEFPOINTS
 62
     0
100
AcDbPoint
 10
636.408096518878
 20
1049.765283037866
 30
0.0
  0
ENDBLK
  5
4B3F
330
4B34
100
AcDbEntity
  8
0
100
AcDbBlockEnd
  0
ENDSEC
  0
SECTION
  2
ENTITIES
  0
LINE
  5
9E3
330
46E2
100
AcDbEntity
  8
HILF
100
AcDbLine
 10
840.0
 20
-0.0000000000007235
 30
0.0
 11
840.0000000000003
 21
1187.999999999999
 31
0.0
  0
LINE
  5
9E4
330
46E2
100
AcDbEntity
  8
HILF
100
AcDbLine
 10
0.0
 20
0.0
 30
0.0
 11
840.0
 21
-0.0000000000007235
 31
0.0
  0
LINE
  5
9E5
330
46E2
100
AcDbEntity
  8
STEMPEL
100
AcDbLine
 10
10.00000000000102
 20
1178.0
 30
0.0
 11
10.0
 21
9.999999999999994
 31
0.0
  0
LINE
  5
9E6
330
46E2
100
AcDbEntity
  8
STEMPEL
100
AcDbLine
 10
830.0
 20
9.999999999999277
 30
0.0
 11
830.0000000000004
 21
1177.999999999999
 31
0.0
  0
LINE
  5
9E7
330
46E2
100
AcDbEntity
  8
STEMPEL
100
AcDbLine
 10
10.0
 20
9.999999999999994
 30
0.0
 11
830.0
 21
9.999999999999277
 31
0.0
  0
TEXT
  5
9E8
330
46E2
100
AcDbEntity
  8
TEXT
100
AcDbText
 10
826.8846909804086
 20
1185.248442600929
 30
0.0
 40
4.0
  1
Diese Zeichnung ist urheberrechtlich geschützt und bleibt unser Eigentum. Sie darf weder ganz noch teilweise vervielfältigt und nicht an Dritte weitergegeben werden.
 50
180.0
 41
0.8
  7
GREEKS
100
AcDbText
  0
LINE
  5
9E9
330
46E2
100
AcDbEntity
  8
HILF
100
AcDbLine
 10
246.0000000000001
 20
9.999999999999788
 30
0.0
 11
246.0000000000001
 21
-0.0000000000002119
 31
0.0
  0
LINE
  5
9EB
330
46E2
100
AcDbEntity
  8
HILF
100
AcDbLine
 10
0.0
 20
0.0
 30
0.0
 11
0.0000000000004547
 21
1188.0
 31
0.0
  0
LINE
  5
9EC
330
46E2
100
AcDbEntity
  8
HILF
100
AcDbLine
 10
0.0000000000004547
 20
1188.0
 30
0.0
 11
840.0000000000003
 21
1187.999999999999
 31
0.0
  0
LINE
  5
9ED
330
46E2
100
AcDbEntity
  8
STEMPEL
100
AcDbLine
 10
10.00000000000102
 20
1178.0
 30
0.0
 11
830.0000000000004
 21
1177.999999999999
 31
0.0
  0
LINE
  5
9EE
330
46E2
100
AcDbEntity
  8
HILF
100
AcDbLine
 10
0.0000000000003411
 20
804.0
 30
0.0
 11
10.00000000000068
 21
803.9999999999999
 31
0.0
  0
LINE
  5
9EF
330
46E2
100
AcDbEntity
  8
HILF
100
AcDbLine
 10
0.0000000000002274
 20
419.9999999999999
 30
0.0
 11
10.00000000000034
 21
419.9999999999999
 31
0.0
  0
LINE
  5
9F2
330
46E2
100
AcDbEntity
  8
HILF
100
AcDbLine
 10
830.0000000000004
 20
803.999999999999
 30
0.0
 11
840.0000000000003
 21
803.999999999999
 31
0.0
  0
LINE
  5
9F3
330
46E2
100
AcDbEntity
  8
HILF
100
AcDbLine
 10
246.0000000000014
 20
1187.999999999999
 30
0.0
 11
246.0000000000014
 21
1177.999999999999
 31
0.0
  0
TEXT
  5
A28
330
46E2
100
AcDbEntity
  8
VOLL
100
AcDbText
 10
351.9248463631179
 20
62.24216412723376
 30
0.0
 40
1.8
  1

  7
GREEKS
100
AcDbText
  0
TEXT
  5
A29
330
46E2
100
AcDbEntity
  8
TEXT
100
AcDbText
 10
683.7571145667109
 20
67.8003996604593
 30
0.0
 40
2.5
  1
  
  7
GREEKS
 72
     1
 11
686.0190193286157
 21
67.8003996604593
 31
0.0
100
AcDbText
  0
TEXT
  5
A2A
330
46E2
100
AcDbEntity
  8
BEM
100
AcDbText
 10
927.8768318791929
 20
203.3592816908615
 30
0.0
 40
2.5
  1
 
 72
     4
 11
929.0077842601453
 21
203.3592816908615
 31
0.0
100
AcDbText
  0
LINE
  5
A2C
102
{ACAD_REACTORS
330
4AFD
330
4A37
102
}
330
46E2
100
AcDbEntity
  8
STEMPEL
  6
Continuous
100
AcDbLine
 10
476.408096518878
 20
1023.701995779372
 30
0.0
 11
476.408096518878
 21
1004.595373223836
 31
0.0
  0
ARC
  5
A2D
102
{ACAD_REACTORS
330
4A37
102
}
330
46E2
100
AcDbEntity
  8
STEMPEL
  6
Continuous
100
AcDbCircle
 10
462.9080965188779
 20
984.3043732238363
 30
0.0
 40
18.0
100
AcDbArc
 50
0.0
 51
25.0071583365491
  0
ARC
  5
A2E
102
{ACAD_REACTORS
330
4A37
102
}
330
46E2
100
AcDbEntity
  8
STEMPEL
  6
Continuous
100
AcDbCircle
 10
506.408096518878
 20
1004.595373223836
 30
0.0
 40
29.99973625969209
100
AcDbArc
 50
180.0
 51
205.0071583365492
  0
LINE
  5
A2F
102
{ACAD_REACTORS
330
4A37
102
}
330
46E2
100
AcDbEntity
  8
STEMPEL
  6
Continuous
100
AcDbLine
 10
476.4083602591859
 20
1004.595373223836
 30
0.0
 11
476.408096518878
 21
1004.595373223836
 31
0.0
  0
LINE
  5
A30
102
{ACAD_REACTORS
330
4A37
102
}
330
46E2
100
AcDbEntity
  8
STEMPEL
  6
Continuous
100
AcDbLine
 10
480.908096518878
 20
984.3043732238363
 30
0.0
 11
480.908096518878
 21
970.7730926465076
 31
0.0
  0
LINE
  5
A31
102
{ACAD_REACTORS
330
4A37
102
}
330
46E2
100
AcDbEntity
  8
STEMPEL
  6
Continuous
100
AcDbLine
 10
478.9080965188779
 20
1023.701995779372
 30
0.0
 11
478.9080965188779
 21
1004.595373223836
 31
0.0
  0
LINE
  5
A32
102
{ACAD_REACTORS
330
4A37
102
}
330
46E2
100
AcDbEntity
  8
STEMPEL
  6
Continuous
100
AcDbLine
 10
483.4080965188779
 20
984.3043732238363
 30
0.0
 11
483.4080965188779
 21
970.7730926465076
 31
0.0
  0
ARC
  5
A33
102
{ACAD_REACTORS
330
4A37
102
}
330
46E2
100
AcDbEntity
  8
STEMPEL
  6
Continuous
100
AcDbCircle
 10
506.408096518878
 20
1004.595373223836
 30
0.0
 40
27.5
100
AcDbArc
 50
180.0
 51
204.8431689300618
  0
ARC
  5
A34
102
{ACAD_REACTORS
330
4A37
102
}
330
46E2
100
AcDbEntity
  8
STEMPEL
  6
Continuous
100
AcDbCircle
 10
462.9080965188779
 20
984.3043732238363
 30
0.0
 40
20.5
100
AcDbArc
 50
0.0
 51
25.2271443658872
  0
LINE
  5
A35
102
{ACAD_REACTORS
330
4A37
102
}
330
46E2
100
AcDbEntity
  8
STEMPEL
  6
Continuous
100
AcDbLine
 10
482.4080965188779
 20
1037.304373223836
 30
0.0
 11
481.4846323753699
 21
1035.323997977241
 31
0.0
  0
LINE
  5
A36
102
{ACAD_REACTORS
330
4AFD
330
4A37
102
}
330
46E2
100
AcDbEntity
  8
STEMPEL
  6
Continuous
100
AcDbLine
 10
479.6496517214716
 20
1037.304373223836
 30
0.0
 11
479.2188629077783
 21
1036.380543631593
 31
0.0
  0
ARC
  5
A37
102
{ACAD_REACTORS
330
4A37
102
}
330
46E2
100
AcDbEntity
  8
STEMPEL
  6
Continuous
100
AcDbCircle
 10
506.408096518878
 20
1023.701995779372
 30
0.0
 40
27.5
100
AcDbArc
 50
155.000000000003
 51
180.0
  0
ARC
  5
A38
102
{ACAD_REACTORS
330
4AFD
330
4A37
102
}
330
46E2
100
AcDbEntity
  8
STEMPEL
  6
Continuous
100
AcDbCircle
 10
506.408096518878
 20
1023.701995779372
 30
0.0
 40
30.0
100
AcDbArc
 50
155.0000000000032
 51
180.0
  0
ARC
  5
A39
102
{ACAD_REACTORS
330
4A37
102
}
330
46E2
100
AcDbEntity
  8
STEMPEL
  6
Continuous
100
AcDbCircle
 10
641.9080965188777
 20
984.3043732238363
 30
0.0
 40
20.5
100
AcDbArc
 50
155.2128276927822
 51
180.0
  0
ARC
  5
A3A
102
{ACAD_REACTORS
330
4A37
102
}
330
46E2
100
AcDbEntity
  8
STEMPEL
  6
Continuous
100
AcDbCircle
 10
598.4080965188777
 20
1004.595373223836
 30
0.0
 40
29.99973625969209
100
AcDbArc
 50
334.9928416634541
 51
0.0
  0
LINE
  5
A3B
102
{ACAD_REACTORS
330
4A37
102
}
330
46E2
100
AcDbEntity
  8
STEMPEL
  6
Continuous
100
AcDbLine
 10
621.4080965188777
 20
984.3043732238363
 30
0.0
 11
621.4080965188777
 21
970.7730926465076
 31
0.0
  0
LINE
  5
A3C
102
{ACAD_REACTORS
330
4A37
102
}
330
46E2
100
AcDbEntity
  8
STEMPEL
  6
Continuous
100
AcDbLine
 10
623.9080965188777
 20
984.3043732238363
 30
0.0
 11
623.9080965188779
 21
970.7730926465076
 31
0.0
  0
ARC
  5
A3D
102
{ACAD_REACTORS
330
4A37
102
}
330
46E2
100
AcDbEntity
  8
STEMPEL
  6
Continuous
100
AcDbCircle
 10
641.9080965188777
 20
984.3043732238363
 30
0.0
 40
18.0
100
AcDbArc
 50
154.9928416634541
 51
180.0
  0
LINE
  5
A3F
102
{ACAD_REACTORS
330
4A37
102
}
330
46E2
100
AcDbEntity
  8
STEMPEL
  6
Continuous
100
AcDbLine
 10
625.9080965188777
 20
1023.701995779372
 30
0.0
 11
625.9080965188777
 21
1004.595373223836
 31
0.0
  0
LINE
  5
A40
102
{ACAD_REACTORS
330
4AFD
330
4A37
102
}
330
46E2
100
AcDbEntity
  8
STEMPEL
  6
Continuous
100
AcDbLine
 10
628.4080965188778
 20
1023.701995779372
 30
0.0
 11
628.4080965188778
 21
1004.595373223836
 31
0.0
  0
ARC
  5
A41
102
{ACAD_REACTORS
330
4A37
102
}
330
46E2
100
AcDbEntity
  8
STEMPEL
  6
Continuous
100
AcDbCircle
 10
598.4080965188777
 20
1004.595373223836
 30
0.0
 40
27.5
100
AcDbArc
 50
334.8288522569565
 51
0.0
  0
LINE
  5
A42
102
{ACAD_REACTORS
330
4A37
102
}
330
46E2
100
AcDbEntity
  8
STEMPEL
  6
Continuous
100
AcDbLine
 10
628.4078327785699
 20
1004.595373223836
 30
0.0
 11
628.4080965188778
 21
1004.595373223836
 31
0.0
  0
ARC
  5
A43
102
{ACAD_REACTORS
330
4AFD
330
4A37
102
}
330
46E2
100
AcDbEntity
  8
STEMPEL
  6
Continuous
100
AcDbCircle
 10
598.4080965188777
 20
1023.701995779372
 30
0.0
 40
30.0
100
AcDbArc
 50
0.0
 51
24.99999999999358
  0
ARC
  5
A44
102
{ACAD_REACTORS
330
4A37
102
}
330
46E2
100
AcDbEntity
  8
STEMPEL
  6
Continuous
100
AcDbCircle
 10
598.4080965188777
 20
1023.701995779372
 30
0.0
 40
27.5
100
AcDbArc
 50
0.0
 51
24.9999999999937
  0
LINE
  5
A45
102
{ACAD_REACTORS
330
4A37
102
}
330
46E2
100
AcDbEntity
  8
STEMPEL
  6
Continuous
100
AcDbLine
 10
622.4080965188777
 20
1037.304373223836
 30
0.0
 11
623.3315606623857
 21
1035.323997977241
 31
0.0
  0
LINE
  5
A46
102
{ACAD_REACTORS
330
4AFD
330
4A37
102
}
330
46E2
100
AcDbEntity
  8
STEMPEL
  6
Continuous
100
AcDbLine
 10
625.166541316284
 20
1037.304373223836
 30
0.0
 11
625.5973301299773
 21
1036.380543631593
 31
0.0
  0
TEXT
  5
A48
330
46E2
100
AcDbEntity
  8
BEM
100
AcDbText
 10
578.9487351529295
 20
82.580698411832
 30
0.0
 40
2.5
  1

  7
GREEKS
100
AcDbText
  0
TEXT
  5
A49
330
46E2
100
AcDbEntity
  8
VOLL
100
AcDbText
 10
564.882542133208
 20
62.39743775479689
 30
0.0
 40
1.8
  1

  7
GREEKS
100
AcDbText
  0
TEXT
  5
A4A
330
46E2
100
AcDbEntity
  8
BEM
100
AcDbText
 10
599.3706069724927
 20
67.12316207801748
 30
0.0
 40
2.5
  1

 41
0.8
  7
GREEKS
100
AcDbText
  0
TEXT
  5
A4B
330
46E2
100
AcDbEntity
  8
BEM
100
AcDbText
 10
599.3706069724927
 20
62.42939352396533
 30
0.0
 40
2.5
  1

 41
0.8
  7
GREEKS
100
AcDbText
  0
TEXT
  5
A4C
330
46E2
100
AcDbEntity
  8
BEM
100
AcDbText
 10
599.3706069724927
 20
57.19154970530183
 30
0.0
 40
2.5
  1

 41
0.8
  7
GREEKS
100
AcDbText
  0
TEXT
  5
A4D
330
46E2
100
AcDbEntity
  8
BEM
100
AcDbText
 10
599.2976624951183
 20
52.6863607552042
 30
0.0
 40
1.8
  1

 41
0.8
  7
GREEKS
100
AcDbText
  0
TEXT
  5
A4E
330
46E2
100
AcDbEntity
  8
BEM
100
AcDbText
 10
586.614091615507
 20
78.2779498514295
 30
0.0
 40
2.0
  1

 41
0.8
  7
GREEKS
 72
     1
 11
586.614091615507
 21
78.2779498514295
 31
0.0
100
AcDbText
  0
TEXT
  5
A4F
330
46E2
100
AcDbEntity
  8
TEXT
100
AcDbText
 10
896.714810336801
 20
67.95567328802244
 30
0.0
 40
2.5
  1
  
  7
GREEKS
 72
     1
 11
898.9767150987059
 21
67.95567328802244
 31
0.0
100
AcDbText
  0
TEXT
  5
A50
330
46E2
100
AcDbEntity
  8
BEM
100
AcDbText
 10
1140.834527649283
 20
203.5145553184247
 30
0.0
 40
2.5
  1
 
 72
     4
 11
1141.965480030235
 21
203.5145553184247
 31
0.0
100
AcDbText
  0
LINE
  5
A55
102
{ACAD_REACTORS
330
4A37
102
}
330
46E2
100
AcDbEntity
  8
STEMPEL
  6
Continuous
100
AcDbLine
 10
488.4080965188779
 20
954.8043732238364
 30
0.0
 11
488.4080965188778
 21
840.880097384521
 31
0.0
  0
ARC
  5
A56
102
{ACAD_REACTORS
330
4A37
102
}
330
46E2
100
AcDbEntity
  8
STEMPEL
  6
Continuous
100
AcDbCircle
 10
498.9080965188779
 20
970.7730926465076
 30
0.0
 40
15.5
100
AcDbArc
 50
180.0
 51
214.7719440319483
  0
ARC
  5
A57
102
{ACAD_REACTORS
330
4A37
102
}
330
46E2
100
AcDbEntity
  8
STEMPEL
  6
Continuous
100
AcDbCircle
 10
475.9080965188777
 20
954.8043732238364
 30
0.0
 40
12.5
100
AcDbArc
 50
0.0
 51
34.77194403194808
  0
ARC
  5
A58
102
{ACAD_REACTORS
330
4A37
102
}
330
46E2
100
AcDbEntity
  8
STEMPEL
  6
Continuous
100
AcDbCircle
 10
498.9080965188779
 20
970.7730926465076
 30
0.0
 40
18.0
100
AcDbArc
 50
179.9999999999999
 51
214.7719440319483
  0
ARC
  5
A59
102
{ACAD_REACTORS
330
4A37
102
}
330
46E2
100
AcDbEntity
  8
STEMPEL
  6
Continuous
100
AcDbCircle
 10
475.9080965188777
 20
954.8043732238364
 30
0.0
 40
10.0
100
AcDbArc
 50
0.0
 51
34.77194403194834
  0
LINE
  5
A5A
102
{ACAD_REACTORS
330
4A37
102
}
330
46E2
100
AcDbEntity
  8
STEMPEL
  6
Continuous
100
AcDbLine
 10
616.4080965188779
 20
954.8043732238364
 30
0.0
 11
616.4080965188779
 21
859.3043732238363
 31
0.0
  0
LINE
  5
A5B
102
{ACAD_REACTORS
330
4A37
102
}
330
46E2
100
AcDbEntity
  8
STEMPEL
  6
Continuous
100
AcDbLine
 10
618.908096518878
 20
954.8043732238364
 30
0.0
 11
618.908096518878
 21
859.8043732238364
 31
0.0
  0
ARC
  5
A5C
102
{ACAD_REACTORS
330
4A37
102
}
330
46E2
100
AcDbEntity
  8
STEMPEL
  6
Continuous
100
AcDbCircle
 10
605.908096518878
 20
970.7730926465076
 30
0.0
 40
15.5
100
AcDbArc
 50
325.2280559680517
 51
0.0
  0
ARC
  5
A5D
102
{ACAD_REACTORS
330
4A37
102
}
330
46E2
100
AcDbEntity
  8
STEMPEL
  6
Continuous
100
AcDbCircle
 10
628.9080965188779
 20
954.8043732238364
 30
0.0
 40
10.0
100
AcDbArc
 50
145.2280559680516
 51
180.0
  0
ARC
  5
A5E
102
{ACAD_REACTORS
330
4A37
102
}
330
46E2
100
AcDbEntity
  8
STEMPEL
  6
Continuous
100
AcDbCircle
 10
605.908096518878
 20
970.7730926465076
 30
0.0
 40
18.0
100
AcDbArc
 50
325.2280559680517
 51
0.0000000000001018
  0
ARC
  5
A5F
102
{ACAD_REACTORS
330
4A37
102
}
330
46E2
100
AcDbEntity
  8
STEMPEL
  6
Continuous
100
AcDbCircle
 10
628.908096518879
 20
954.804373223836
 30
0.0
 40
12.50000000000103
100
AcDbArc
 50
145.2280559680526
 51
179.9999999999984
  0
LINE
  5
A61
330
46E2
100
AcDbEntity
  8
MITTEL
100
AcDbLine
 10
223.8980956166028
 20
1042.304373223836
 30
0.0
 11
223.8980956166027
 21
826.1601075557043
 31
0.0
  0
ARC
  5
A64
330
46E2
100
AcDbEntity
  8
VERDECKT
100
AcDbCircle
 10
177.8980956166027
 20
1004.595373223836
 30
0.0
 40
29.99973625969209
100
AcDbArc
 50
180.0
 51
205.0071583365492
  0
ARC
  5
A65
330
46E2
100
AcDbEntity
  8
VERDECKT
100
AcDbCircle
 10
147.3980956166027
 20
954.8043732238364
 30
0.0
 40
10.0
100
AcDbArc
 50
0.0
 51
34.77194403194834
  0
LINE
  5
A66
330
46E2
100
AcDbEntity
  8
VERDECKT
100
AcDbLine
 10
152.3980956166027
 20
984.3043732238363
 30
0.0
 11
152.3980956166027
 21
970.7730926465076
 31
0.0
  0
ARC
  5
A67
330
46E2
100
AcDbEntity
  8
VERDECKT
100
AcDbCircle
 10
170.3980956166027
 20
970.7730926465076
 30
0.0
 40
18.0
100
AcDbArc
 50
179.9999999999999
 51
214.7719440319483
  0
ARC
  5
A68
330
46E2
100
AcDbEntity
  8
VERDECKT
100
AcDbCircle
 10
134.3980956166027
 20
984.3043732238363
 30
0.0
 40
18.0
100
AcDbArc
 50
0.0
 51
25.0071583365491
  0
LINE
  5
A69
330
46E2
100
AcDbEntity
  8
VERDECKT
100
AcDbLine
 10
147.8980956166027
 20
1023.701995779372
 30
0.0
 11
147.8980956166027
 21
1004.595373223836
 31
0.0
  0
LINE
  5
A6A
330
46E2
100
AcDbEntity
  8
VERDECKT
100
AcDbLine
 10
147.8983593569106
 20
1004.595373223836
 30
0.0
 11
147.8980956166027
 21
1004.595373223836
 31
0.0
  0
ARC
  5
A6B
330
46E2
100
AcDbEntity
  8
VERDECKT
100
AcDbCircle
 10
177.8980956166027
 20
1023.701995779372
 30
0.0
 40
30.0
100
AcDbArc
 50
155.0000000000032
 51
180.0
  0
LINE
  5
A6C
330
46E2
100
AcDbEntity
  8
VERDECKT
100
AcDbLine
 10
151.1396508191966
 20
1037.304373223836
 30
0.0
 11
150.7088620055033
 21
1036.380543631593
 31
0.0
  0
ARC
  5
A6D
330
46E2
100
AcDbEntity
  8
VERDECKT
100
AcDbCircle
 10
277.3980956166028
 20
970.7730926465076
 30
0.0
 40
18.0
100
AcDbArc
 50
325.2280559680517
 51
0.0000000000001018
  0
ARC
  5
A6E
330
46E2
100
AcDbEntity
  8
VERDECKT
100
AcDbCircle
 10
300.3980956166028
 20
954.8043732238364
 30
0.0
 40
10.0
100
AcDbArc
 50
145.2280559680516
 51
180.0
  0
LINE
  5
A71
330
46E2
100
AcDbEntity
  8
VERDECKT
100
AcDbLine
 10
295.3980956166028
 20
984.3043732238363
 30
0.0
 11
295.3980956166028
 21
970.7730926465076
 31
0.0
  0
ARC
  5
A72
330
46E2
100
AcDbEntity
  8
VERDECKT
100
AcDbCircle
 10
313.3980956166028
 20
984.3043732238363
 30
0.0
 40
18.0
100
AcDbArc
 50
154.9928416634541
 51
180.0
  0
ARC
  5
A73
330
46E2
100
AcDbEntity
  8
VERDECKT
100
AcDbCircle
 10
269.8980956166028
 20
1004.595373223836
 30
0.0
 40
29.99973625969209
100
AcDbArc
 50
334.992841663454
 51
0.0
  0
LINE
  5
A74
330
46E2
100
AcDbEntity
  8
VERDECKT
100
AcDbLine
 10
299.8980956166028
 20
1023.701995779372
 30
0.0
 11
299.8980956166028
 21
1004.595373223836
 31
0.0
  0
ARC
  5
A75
330
46E2
100
AcDbEntity
  8
VERDECKT
100
AcDbCircle
 10
269.8980956166028
 20
1023.701995779372
 30
0.0
 40
30.0
100
AcDbArc
 50
0.0
 51
24.99999999999358
  0
LINE
  5
A76
330
46E2
100
AcDbEntity
  8
STEMPEL
  6
Continuous
100
AcDbLine
 10
139.8980956166027
 20
1037.304373223836
 30
0.0
 11
307.8980956166028
 21
1037.304373223836
 31
0.0
  0
LINE
  5
A77
330
46E2
100
AcDbEntity
  8
VERDECKT
100
AcDbLine
 10
296.656540414009
 20
1037.304373223836
 30
0.0
 11
297.0873292277023
 21
1036.380543631593
 31
0.0
  0
LINE
  5
A7A
102
{ACAD_REACTORS
330
4A5F
330
4AFD
102
}
330
46E2
100
AcDbEntity
  8
STEMPEL
100
AcDbLine
 10
633.9080965188779
 20
1037.304373223836
 30
0.0
 11
633.9080965188777
 21
912.3043732238361
 31
0.0
  0
LINE
  5
A7E
330
46E2
100
AcDbEntity
  8
STEMPEL
100
AcDbLine
 10
139.8980956166027
 20
522.3043732238363
 30
0.0
 11
307.8980956166027
 21
522.3043732238363
 31
0.0
  0
LINE
  5
A81
330
46E2
100
AcDbEntity
  8
STEMPEL
  6
Continuous
100
AcDbLine
 10
157.3980956166027
 20
520.3043732238361
 30
0.0
 11
157.3980956166027
 21
472.3043732238353
 31
0.0
  0
LINE
  5
A82
330
46E2
100
AcDbEntity
  8
STEMPEL
  6
Continuous
100
AcDbLine
 10
290.3980956166028
 20
520.3043732238346
 30
0.0
 11
290.3980956166027
 21
472.3043732238353
 31
0.0
  0
LINE
  5
A85
102
{ACAD_REACTORS
330
4A37
102
}
330
46E2
100
AcDbEntity
  8
STEMPEL
  6
Continuous
100
AcDbLine
 10
488.4080965188778
 20
840.880097384521
 30
0.0
 11
488.4080965188778
 21
472.4135255811057
 31
0.0
  0
LINE
  5
A87
102
{ACAD_REACTORS
330
4A5F
330
4BC1
102
}
330
46E2
100
AcDbEntity
  8
STEMPEL
100
AcDbLine
 10
468.4080965188776
 20
1037.304373223836
 30
0.0
 11
468.408096518878
 21
520.3043732238363
 31
0.0
  0
LINE
  5
A88
102
{ACAD_REACTORS
330
4A5F
330
4AFD
330
4BC1
330
4C4A
102
}
330
46E2
100
AcDbEntity
  8
STEMPEL
100
AcDbLine
 10
470.9080965188779
 20
1037.304373223836
 30
0.0
 11
470.9080965188778
 21
522.3043732238363
 31
0.0
  0
LINE
  5
A89
102
{ACAD_REACTORS
330
4A37
102
}
330
46E2
100
AcDbEntity
  8
STEMPEL
  6
Continuous
100
AcDbLine
 10
616.4080965188779
 20
785.3043732238363
 30
0.0
 11
616.4080965188779
 21
472.4135255811086
 31
0.0
  0
LINE
  5
A8B
102
{ACAD_REACTORS
330
4A5F
330
4A6C
330
4BC1
102
}
330
46E2
100
AcDbEntity
  8
STEMPEL
100
AcDbLine
 10
636.4080965188774
 20
1037.304373223836
 30
0.0
 11
636.4080965188779
 21
520.3043732238352
 31
0.0
  0
LINE
  5
A8D
330
46E2
100
AcDbEntity
  8
STEMPEL
100
AcDbLine
 10
307.8980956166028
 20
1037.304373223836
 30
0.0
 11
307.8980956166026
 21
520.3043732238344
 31
0.0
  0
LINE
  5
A8E
330
46E2
100
AcDbEntity
  8
VERDECKT
100
AcDbLine
 10
290.3980956166027
 20
954.8043732238364
 30
0.0
 11
290.3980956166027
 21
520.3043732238346
 31
0.0
  0
LINE
  5
A8F
330
46E2
100
AcDbEntity
  8
VERDECKT
100
AcDbLine
 10
157.3980956166027
 20
954.8043732238364
 30
0.0
 11
157.3980956166028
 21
520.3043732238361
 31
0.0
  0
LINE
  5
A90
330
46E2
100
AcDbEntity
  8
STEMPEL
100
AcDbLine
 10
139.8980956166028
 20
1037.304373223836
 30
0.0
 11
139.8980956166027
 21
520.3043732238365
 31
0.0
  0
LINE
  5
A91
330
46E2
100
AcDbEntity
  8
MITTEL
100
AcDbLine
 10
223.8980956166027
 20
832.4845926986242
 30
0.0
 11
223.8980956166027
 21
457.3043732238364
 31
0.0
  0
LINE
  5
A92
330
46E2
100
AcDbEntity
  8
MITTEL
100
AcDbLine
 10
552.4080965188779
 20
1042.304373223836
 30
0.0
 11
552.4080965188777
 21
457.3043732238363
 31
0.0
  0
LINE
  5
AA0
102
{ACAD_REACTORS
330
4A5F
330
4AFD
330
4A37
102
}
330
46E2
100
AcDbEntity
  8
STEMPEL
  6
Continuous
100
AcDbLine
 10
636.408096518878
 20
1037.304373223836
 30
0.0
 11
468.4080965188776
 21
1037.304373223836
 31
0.0
  0
LINE
  5
AA8
330
46E2
100
AcDbEntity
  8
MITTEL
  6
STRICHPUNKT
100
AcDbLine
 10
223.8980956166028
 20
822.3043732238362
 30
0.0
 11
345.9766251375708
 21
822.3043732238362
 31
0.0
  0
LINE
  5
AA9
330
46E2
100
AcDbEntity
  8
MITTEL
  6
STRICHPUNKT
100
AcDbLine
 10
223.8980956166028
 20
822.3043732238362
 30
0.0
 11
110.704556317194
 21
822.3043732238362
 31
0.0
  0
CIRCLE
  5
AAA
330
46E2
100
AcDbEntity
  8
VERDECKT
100
AcDbCircle
 10
223.8980956166028
 20
822.3043732238362
 30
0.0
 40
36.5
  0
CIRCLE
  5
AAB
330
46E2
100
AcDbEntity
  8
VERDECKT
100
AcDbCircle
 10
223.8980956166028
 20
822.3043732238362
 30
0.0
 40
34.0
  0
LWPOLYLINE
  5
AAC
330
46E2
100
AcDbEntity
  8
STEMPEL
100
AcDbPolyline
 90
       16
 70
     1
 43
0.0
 10
223.8980956166028
 20
892.3043732238364
 42
0.1090210334788984
 10
200.3375294313341
 20
887.1053856616688
 42
0.1022473355956782
 10
179.7039217924435
 20
871.8018479068947
 42
0.0939300991576875
 10
166.2562571470952
 20
849.4460993848676
 42
0.0887906108342234
 10
161.3980956166027
 20
822.3043732238362
 42
0.0887906108342236
 10
166.2562571470952
 20
795.162647062805
 42
0.0939300991576878
 10
179.7039217924435
 20
772.8068985407781
 42
0.1022473355956777
 10
200.337529431334
 20
757.5033607860039
 42
0.1090210334788983
 10
223.8980956166028
 20
752.3043732238363
 42
0.1090210334789011
 10
247.4586618018717
 20
757.5033607860039
 42
0.1022473355956796
 10
268.092269440762
 20
772.8068985407778
 42
0.0939300991576872
 10
281.5399340861104
 20
795.1626470628048
 42
0.0887906108342233
 10
286.3980956166028
 20
822.3043732238362
 42
0.0887906108342238
 10
281.5399340861104
 20
849.4460993848676
 42
0.0939300991576878
 10
268.092269440762
 20
871.8018479068947
 42
0.1022473355956793
 10
247.4586618018717
 20
887.1053856616686
 42
0.1090210334789011
  0
LINE
  5
AC9
102
{ACAD_REACTORS
330
4DCC
102
}
330
46E2
100
AcDbEntity
  8
MITTEL
100
AcDbLine
 10
134.8980956166028
 20
284.6985802129422
 30
0.0
 11
312.8980956166028
 21
284.6985802129422
 31
0.0
  0
LINE
  5
ACC
330
46E2
100
AcDbEntity
  8
STEMPEL
100
AcDbLine
 10
260.3980956166028
 20
211.6985802129424
 30
0.0
 11
260.3980956166028
 21
213.6985802129422
 31
0.0
  0
LINE
  5
ACD
330
46E2
100
AcDbEntity
  8
STEMPEL
100
AcDbLine
 10
257.8980956166028
 20
216.6985802129422
 30
0.0
 11
257.8980956166028
 21
226.4748737009044
 31
0.0
  0
LINE
  5
ACE
330
46E2
100
AcDbEntity
  8
STEMPEL
100
AcDbLine
 10
189.8980956166027
 20
226.4748737009044
 30
0.0
 11
189.8980956166027
 21
216.6985802129422
 31
0.0
  0
LINE
  5
ACF
102
{ACAD_REACTORS
330
4DCC
102
}
330
46E2
100
AcDbEntity
  8
STEMPEL
100
AcDbLine
 10
187.3980956166027
 20
226.4748737009044
 30
0.0
 11
187.3980956166027
 21
216.6985802129422
 31
0.0
  0
LINE
  5
AD1
102
{ACAD_REACTORS
330
489E
330
4DCC
102
}
330
46E2
100
AcDbEntity
  8
STEMPEL
100
AcDbLine
 10
183.8980956166027
 20
213.6985802129419
 30
0.0
 11
263.8980956166028
 21
213.6985802129422
 31
0.0
  0
LINE
  5
AD2
102
{ACAD_REACTORS
330
489E
330
4DCC
102
}
330
46E2
100
AcDbEntity
  8
STEMPEL
100
AcDbLine
 10
183.8980956166027
 20
216.6985802129422
 30
0.0
 11
263.8980956166028
 21
216.6985802129422
 31
0.0
  0
LINE
  5
AD3
102
{ACAD_REACTORS
330
489E
330
4DCC
102
}
330
46E2
100
AcDbEntity
  8
STEMPEL
100
AcDbLine
 10
183.8980956166027
 20
216.6985802129422
 30
0.0
 11
183.8980956166027
 21
213.6985802129419
 31
0.0
  0
LINE
  5
AD4
102
{ACAD_REACTORS
330
4DCC
102
}
330
46E2
100
AcDbEntity
  8
STEMPEL
100
AcDbLine
 10
187.659304246029
 20
211.698580212942
 30
0.0
 11
260.1368869871774
 21
211.6985802129424
 31
0.0
  0
LINE
  5
AD6
102
{ACAD_REACTORS
330
489E
102
}
330
46E2
100
AcDbEntity
  8
STEMPEL
100
AcDbLine
 10
263.8980956166028
 20
213.6985802129422
 30
0.0
 11
263.8980956166028
 21
216.6985802129422
 31
0.0
  0
ARC
  5
AD8
330
46E2
100
AcDbEntity
  8
STEMPEL
100
AcDbCircle
 10
182.3980956166027
 20
226.4748737009044
 30
0.0
 40
7.5
100
AcDbArc
 50
0.0
 51
54.51994089671744
  0
ARC
  5
AD9
102
{ACAD_REACTORS
330
4DCC
102
}
330
46E2
100
AcDbEntity
  8
STEMPEL
100
AcDbCircle
 10
182.3980956166027
 20
226.4748737009044
 30
0.0
 40
5.0
100
AcDbArc
 50
0.0
 51
54.51994089671702
  0
ARC
  5
ADA
330
46E2
100
AcDbEntity
  8
STEMPEL
100
AcDbCircle
 10
265.3980956166028
 20
226.4748737009044
 30
0.0
 40
7.5
100
AcDbArc
 50
125.4800591032825
 51
180.0
  0
ARC
  5
ADB
330
46E2
100
AcDbEntity
  8
STEMPEL
100
AcDbCircle
 10
265.3980956166028
 20
226.4748737009044
 30
0.0
 40
5.0
100
AcDbArc
 50
125.4800591032829
 51
180.0
  0
LINE
  5
ADD
330
46E2
100
AcDbEntity
  8
STEMPEL
100
AcDbLine
 10
161.3980956166028
 20
228.5759466325407
 30
0.0
 11
163.2582146642219
 21
230.2462631081479
 31
0.0
  0
CIRCLE
  5
ADF
330
46E2
100
AcDbEntity
  8
STEMPEL
100
AcDbCircle
 10
223.8980956166028
 20
877.3043732238363
 30
0.0
 40
6.0
  0
CIRCLE
  5
AE0
330
46E2
100
AcDbEntity
  8
STEMPEL
100
AcDbCircle
 10
223.8980956166028
 20
767.3043732238364
 30
0.0
 40
6.0
  0
LINE
  5
AE1
330
46E2
100
AcDbEntity
  8
MITTEL
  6
STRICHPUNKT
100
AcDbLine
 10
233.8057699626325
 20
767.3043732238364
 30
0.0
 11
212.2302298291328
 21
767.3043732238364
 31
0.0
  0
LINE
  5
AE2
330
46E2
100
AcDbEntity
  8
MITTEL
  6
STRICHPUNKT
100
AcDbLine
 10
233.8057699626325
 20
877.3043732238363
 30
0.0
 11
215.5214167084448
 21
877.3043732238363
 31
0.0
  0
LINE
  5
AE3
330
46E2
100
AcDbEntity
  8
VERDECKT
  6
STRICHPUNKT
100
AcDbLine
 10
231.3980956166028
 20
772.3043732238363
 30
0.0
 11
216.3980956166028
 21
772.3043732238363
 31
0.0
  0
LINE
  5
AE4
330
46E2
100
AcDbEntity
  8
VERDECKT
  6
STRICHPUNKT
100
AcDbLine
 10
231.3980956166028
 20
732.3043732238363
 30
0.0
 11
216.3980956166028
 21
732.3043732238363
 31
0.0
  0
LINE
  5
AE5
330
46E2
100
AcDbEntity
  8
VERDECKT
100
AcDbLine
 10
231.3980956166028
 20
772.3043732238363
 30
0.0
 11
231.3980956166028
 21
732.3043732238363
 31
0.0
  0
LINE
  5
AE6
330
46E2
100
AcDbEntity
  8
VERDECKT
100
AcDbLine
 10
216.3980956166028
 20
772.3043732238363
 30
0.0
 11
216.3980956166028
 21
732.3043732238363
 31
0.0
  0
LINE
  5
AE7
330
46E2
100
AcDbEntity
  8
VERDECKT
100
AcDbLine
 10
231.398095616603
 20
872.3043732238361
 30
0.0
 11
231.3980956166032
 21
912.3043732238361
 31
0.0
  0
LINE
  5
AE8
330
46E2
100
AcDbEntity
  8
VERDECKT
  6
STRICHPUNKT
100
AcDbLine
 10
231.3980956166032
 20
912.3043732238361
 30
0.0
 11
216.3980956166032
 21
912.3043732238361
 31
0.0
  0
LINE
  5
AE9
330
46E2
100
AcDbEntity
  8
VERDECKT
100
AcDbLine
 10
216.398095616603
 20
872.3043732238361
 30
0.0
 11
216.3980956166032
 21
912.3043732238361
 31
0.0
  0
LINE
  5
AEA
330
46E2
100
AcDbEntity
  8
VERDECKT
  6
STRICHPUNKT
100
AcDbLine
 10
231.398095616603
 20
872.3043732238361
 30
0.0
 11
216.398095616603
 21
872.3043732238361
 31
0.0
  0
LINE
  5
AEB
102
{ACAD_REACTORS
330
4DCC
102
}
330
46E2
100
AcDbEntity
  8
STEMPEL
100
AcDbLine
 10
216.3980956166028
 20
211.5444059518482
 30
0.0
 11
216.3980956166028
 21
207.5444059518482
 31
0.0
  0
LINE
  5
AEC
330
46E2
100
AcDbEntity
  8
STEMPEL
100
AcDbLine
 10
231.3980956166028
 20
211.5444059518482
 30
0.0
 11
231.3980956166028
 21
203.5444059518482
 31
0.0
  0
LINE
  5
AED
330
46E2
100
AcDbEntity
  8
STEMPEL
100
AcDbLine
 10
216.3980956166028
 20
203.5444059518482
 30
0.0
 11
231.3980956166028
 21
203.5444059518482
 31
0.0
  0
LINE
  5
AEE
330
46E2
100
AcDbEntity
  8
STEMPEL
100
AcDbLine
 10
216.3980956166028
 20
211.5444059518482
 30
0.0
 11
231.3980956166028
 21
211.5444059518482
 31
0.0
  0
LINE
  5
AEF
102
{ACAD_REACTORS
330
4A82
102
}
330
46E2
100
AcDbEntity
  8
STEMPEL
100
AcDbLine
 10
633.9080965188779
 20
912.3043732238361
 30
0.0
 11
625.9080965188779
 21
912.3043732238361
 31
0.0
  0
LINE
  5
AF0
330
46E2
100
AcDbEntity
  8
MITTEL
  6
STRICHPUNKT
100
AcDbLine
 10
641.1588804391558
 20
877.3043732238363
 30
0.0
 11
622.8745271849682
 21
877.3043732238363
 31
0.0
  0
LINE
  5
AF1
102
{ACAD_REACTORS
330
4A71
102
}
330
46E2
100
AcDbEntity
  8
STEMPEL
  6
Continuous
100
AcDbLine
 10
623.4080965188797
 20
867.3043732238364
 30
0.0
 11
625.4080965188798
 21
867.3043732238364
 31
0.0
  0
LINE
  5
AF2
102
{ACAD_REACTORS
330
4A82
102
}
330
46E2
100
AcDbEntity
  8
STEMPEL
100
AcDbLine
 10
633.9080965188779
 20
772.3043732238363
 30
0.0
 11
625.9080965188779
 21
772.3043732238363
 31
0.0
  0
LINE
  5
AF3
102
{ACAD_REACTORS
330
4A82
102
}
330
46E2
100
AcDbEntity
  8
STEMPEL
100
AcDbLine
 10
633.9080965188779
 20
732.3043732238363
 30
0.0
 11
625.9080965188779
 21
732.3043732238363
 31
0.0
  0
LINE
  5
AF4
102
{ACAD_REACTORS
330
4C4A
102
}
330
46E2
100
AcDbEntity
  8
MITTEL
100
AcDbLine
 10
463.4080965188778
 20
822.3043732238362
 30
0.0
 11
641.4080965188778
 21
822.3043732238362
 31
0.0
  0
LINE
  5
AF5
102
{ACAD_REACTORS
330
4A71
102
}
330
46E2
100
AcDbEntity
  8
STEMPEL
  6
Continuous
100
AcDbLine
 10
623.4080965188777
 20
777.3043732238363
 30
0.0
 11
625.4080965188777
 21
777.3043732238363
 31
0.0
  0
LINE
  5
AF6
102
{ACAD_REACTORS
330
4A82
102
}
330
46E2
100
AcDbEntity
  8
STEMPEL
100
AcDbLine
 10
633.9080965188779
 20
872.3043732238361
 30
0.0
 11
625.9080965188779
 21
872.3043732238364
 31
0.0
  0
LINE
  5
AF7
102
{ACAD_REACTORS
330
4A37
102
}
330
46E2
100
AcDbEntity
  8
STEMPEL
100
AcDbLine
 10
619.9080965188779
 20
858.8043732238363
 30
0.0
 11
620.4080965188779
 21
858.8043732238363
 31
0.0
  0
LINE
  5
AF8
102
{ACAD_REACTORS
330
4A37
102
}
330
46E2
100
AcDbEntity
  8
STEMPEL
100
AcDbLine
 10
619.9080965188779
 20
785.8043732238363
 30
0.0
 11
620.4080965188779
 21
785.8043732238363
 31
0.0
  0
LINE
  5
AF9
102
{ACAD_REACTORS
330
4A37
102
}
330
46E2
100
AcDbEntity
  8
STEMPEL
100
AcDbLine
 10
619.408096518878
 20
788.3043732238363
 30
0.0
 11
620.4080965188779
 21
788.3043732238363
 31
0.0
  0
LINE
  5
AFA
102
{ACAD_REACTORS
330
4A37
102
}
330
46E2
100
AcDbEntity
  8
STEMPEL
100
AcDbLine
 10
619.408096518878
 20
856.3043732238364
 30
0.0
 11
620.4080965188779
 21
856.3043732238364
 31
0.0
  0
ARC
  5
AFD
102
{ACAD_REACTORS
330
4A37
102
}
330
46E2
100
AcDbEntity
  8
STEMPEL
100
AcDbCircle
 10
619.408096518878
 20
859.3043732238363
 30
0.0
 40
3.0
100
AcDbArc
 50
180.0
 51
270.0
  0
ARC
  5
AFE
102
{ACAD_REACTORS
330
4A37
102
}
330
46E2
100
AcDbEntity
  8
STEMPEL
100
AcDbCircle
 10
619.408096518878
 20
785.3043732238363
 30
0.0
 40
3.0
100
AcDbArc
 50
90.0
 51
180.0
  0
ARC
  5
AFF
102
{ACAD_REACTORS
330
4A37
102
}
330
46E2
100
AcDbEntity
  8
STEMPEL
100
AcDbCircle
 10
619.9080965188779
 20
784.8043732238363
 30
0.0
 40
1.0
100
AcDbArc
 50
90.0
 51
180.0
  0
LINE
  5
B01
330
46E2
100
AcDbEntity
  8
STEMPEL
100
AcDbLine
 10
623.408096518878
 20
858.8043732238363
 30
0.0
 11
623.4080965188781
 21
856.3043732238366
 31
0.0
  0
ARC
  5
B03
102
{ACAD_REACTORS
330
4A37
102
}
330
46E2
100
AcDbEntity
  8
STEMPEL
100
AcDbCircle
 10
619.9080965188779
 20
859.8043732238364
 30
0.0
 40
1.0
100
AcDbArc
 50
180.0
 51
270.0
  0
LINE
  5
B04
330
46E2
100
AcDbEntity
  8
STEMPEL
100
AcDbLine
 10
625.4080965188779
 20
858.8043732238363
 30
0.0
 11
625.4080965188782
 21
856.3043732238366
 31
0.0
  0
LINE
  5
B05
330
46E2
100
AcDbEntity
  8
STEMPEL
100
AcDbLine
 10
625.4080965188782
 20
867.3043732238364
 30
0.0
 11
625.4080965188779
 21
788.3043732238363
 31
0.0
  0
LINE
  5
B06
102
{ACAD_REACTORS
330
4A71
102
}
330
46E2
100
AcDbEntity
  8
STEMPEL
100
AcDbLine
 10
625.4080965188798
 20
867.3043732238364
 30
0.0
 11
625.4080965188777
 21
777.3043732238363
 31
0.0
  0
LINE
  5
B07
102
{ACAD_REACTORS
330
4A87
102
}
330
46E2
100
AcDbEntity
  8
STEMPEL
  6
Continuous
100
AcDbLine
 10
620.4080965188779
 20
862.3043732238361
 30
0.0
 11
623.4080965188797
 21
862.3043732238361
 31
0.0
  0
LINE
  5
B08
102
{ACAD_REACTORS
330
4A87
102
}
330
46E2
100
AcDbEntity
  8
STEMPEL
  6
Continuous
100
AcDbLine
 10
620.4080965188779
 20
782.3043732238363
 30
0.0
 11
623.408096518878
 21
782.3043732238363
 31
0.0
  0
LINE
  5
B09
102
{ACAD_REACTORS
330
4A82
102
}
330
46E2
100
AcDbEntity
  8
STEMPEL
100
AcDbLine
 10
625.9080965188779
 20
912.3043732238361
 30
0.0
 11
625.9080965188779
 21
880.5543732238364
 31
0.0
  0
LINE
  5
B0A
102
{ACAD_REACTORS
330
4A82
102
}
330
46E2
100
AcDbEntity
  8
STEMPEL
100
AcDbLine
 10
625.9080965188779
 20
772.3043732238363
 30
0.0
 11
625.9080965188779
 21
732.3043732238363
 31
0.0
  0
LINE
  5
B0B
102
{ACAD_REACTORS
330
4A5F
330
4A6C
102
}
330
46E2
100
AcDbEntity
  8
STEMPEL
100
AcDbLine
 10
633.9080965188779
 20
892.3043732238362
 30
0.0
 11
636.4080965188779
 21
892.3043732238362
 31
0.0
  0
LINE
  5
B0C
102
{ACAD_REACTORS
330
4A5F
330
4A6C
102
}
330
46E2
100
AcDbEntity
  8
STEMPEL
100
AcDbLine
 10
633.9080965188779
 20
752.3043732238363
 30
0.0
 11
636.4080965188779
 21
752.3043732238363
 31
0.0
  0
LINE
  5
B0D
102
{ACAD_REACTORS
330
4A82
102
}
330
46E2
100
AcDbEntity
  8
STEMPEL
100
AcDbLine
 10
633.9080965188779
 20
880.5543732238364
 30
0.0
 11
625.9080965188779
 21
880.5543732238364
 31
0.0
  0
LINE
  5
B0E
102
{ACAD_REACTORS
330
4A82
102
}
330
46E2
100
AcDbEntity
  8
STEMPEL
100
AcDbLine
 10
633.9080965188779
 20
874.0543732238363
 30
0.0
 11
625.9080965188779
 21
874.0543732238363
 31
0.0
  0
LINE
  5
B0F
102
{ACAD_REACTORS
330
4A6C
102
}
330
46E2
100
AcDbEntity
  8
STEMPEL
100
AcDbLine
 10
633.9080965188779
 20
880.5543732238364
 30
0.0
 11
636.4080965188779
 21
883.3043732238364
 31
0.0
  0
LINE
  5
B10
102
{ACAD_REACTORS
330
4A6C
102
}
330
46E2
100
AcDbEntity
  8
STEMPEL
100
AcDbLine
 10
633.9080965188779
 20
874.0543732238363
 30
0.0
 11
636.4080965188779
 21
871.3043732238363
 31
0.0
  0
LINE
  5
B11
102
{ACAD_REACTORS
330
4A82
102
}
330
46E2
100
AcDbEntity
  8
STEMPEL
100
AcDbLine
 10
633.9080965188779
 20
770.5543732238363
 30
0.0
 11
625.9080965188779
 21
770.5543732238363
 31
0.0
  0
LINE
  5
B12
102
{ACAD_REACTORS
330
4A82
102
}
330
46E2
100
AcDbEntity
  8
STEMPEL
100
AcDbLine
 10
633.9080965188779
 20
764.0543732238363
 30
0.0
 11
625.9080965188779
 21
764.0543732238363
 31
0.0
  0
LINE
  5
B13
330
46E2
100
AcDbEntity
  8
MITTEL
  6
STRICHPUNKT
100
AcDbLine
 10
641.1588804391558
 20
767.3043732238364
 30
0.0
 11
622.8745271849682
 21
767.3043732238364
 31
0.0
  0
LINE
  5
B14
102
{ACAD_REACTORS
330
4A6C
102
}
330
46E2
100
AcDbEntity
  8
STEMPEL
100
AcDbLine
 10
633.9080965188779
 20
764.0543732238363
 30
0.0
 11
636.4080965188779
 21
761.3043732238363
 31
0.0
  0
LINE
  5
B15
102
{ACAD_REACTORS
330
4A6C
102
}
330
46E2
100
AcDbEntity
  8
STEMPEL
100
AcDbLine
 10
633.9080965188779
 20
770.5543732238363
 30
0.0
 11
636.4080965188779
 21
773.3043732238363
 31
0.0
  0
LINE
  5
B18
102
{ACAD_REACTORS
330
4A87
330
4A37
102
}
330
46E2
100
AcDbEntity
  8
STEMPEL
100
AcDbLine
 10
620.4080965188779
 20
862.3043732238359
 30
0.0
 11
620.4080965188779
 21
782.3043732238363
 31
0.0
  0
LINE
  5
B1A
330
46E2
100
AcDbEntity
  8
TEXT
  6
ByBlock
 62
     3
100
AcDbLine
 10
338.8867437428727
 20
829.2232382861751
 30
0.0
 11
338.8567025864553
 21
846.802511620581
 31
0.0
  0
TEXT
  5
B1B
330
46E2
100
AcDbEntity
  8
TEXT
  6
ByBlock
 62
     3
100
AcDbText
 10
335.146108567092
 20
836.8247028361286
 30
0.0
 40
10.0
  1
B
 50
90.8386931796442
 41
0.8
 72
     1
 11
330.1076110729284
 21
839.4178966415388
 31
0.0
100
AcDbText
 73
     2
  0
SOLID
  5
B1C
330
46E2
100
AcDbEntity
  8
TEXT
  6
ByBlock
 62
     3
100
AcDbTrace
 10
337.720202064689
 20
829.2061612790728
 30
0.0
 11
340.0532854210563
 21
829.2403152932772
 31
0.0
 12
338.9892057854862
 22
822.2239882170731
 32
0.0
 13
338.9892057854862
 23
822.2239882170731
 33
0.0
  0
SOLID
  5
B1D
330
46E2
100
AcDbEntity
  8
TEXT
  6
ByBlock
 62
     3
100
AcDbTrace
 10
117.6219798804412
 20
829.2061612790728
 30
0.0
 11
119.9550632368085
 21
829.2403152932772
 31
0.0
 12
118.8909836012384
 22
822.2239882170731
 32
0.0
 13
118.8909836012384
 23
822.2239882170731
 33
0.0
  0
TEXT
  5
B1E
330
46E2
100
AcDbEntity
  8
TEXT
  6
ByBlock
 62
     3
100
AcDbText
 10
115.0534625484287
 20
836.4437912677422
 30
0.0
 40
10.0
  1
A
 50
90.8386931796442
 41
0.8
 72
     1
 11
110.0093888886807
 21
839.4178966415388
 31
0.0
100
AcDbText
 73
     2
  0
LINE
  5
B1F
330
46E2
100
AcDbEntity
  8
TEXT
  6
ByBlock
 62
     3
100
AcDbLine
 10
118.7885215586249
 20
829.2232382861751
 30
0.0
 11
118.7584804022075
 21
846.802511620581
 31
0.0
  0
LINE
  5
B22
102
{ACAD_REACTORS
330
4A71
330
4A87
102
}
330
46E2
100
AcDbEntity
  8
STEMPEL
100
AcDbLine
 10
623.4080965188799
 20
867.3043732238364
 30
0.0
 11
623.4080965188777
 21
777.3043732238363
 31
0.0
  0
LINE
  5
B26
330
46E2
100
AcDbEntity
  8
STEMPEL
100
AcDbLine
 10
625.9080965188779
 20
880.5543732238364
 30
0.0
 11
625.9080965188779
 21
874.0543732238363
 31
0.0
  0
LINE
  5
B27
102
{ACAD_REACTORS
330
4A82
102
}
330
46E2
100
AcDbEntity
  8
STEMPEL
100
AcDbLine
 10
625.9080965188779
 20
874.0543732238363
 30
0.0
 11
625.9080965188779
 21
872.3043732238361
 31
0.0
  0
LINE
  5
B28
330
46E2
100
AcDbEntity
  8
STEMPEL
100
AcDbLine
 10
633.9080965188777
 20
880.554373223836
 30
0.0
 11
633.9080965188777
 21
874.0543732238363
 31
0.0
  0
LINE
  5
B29
102
{ACAD_REACTORS
330
4A5F
330
4A6C
330
4A82
330
4BC1
102
}
330
46E2
100
AcDbEntity
  8
STEMPEL
100
AcDbLine
 10
633.9080965188777
 20
874.0543732238363
 30
0.0
 11
633.9080965188777
 21
522.3043732238363
 31
0.0
  0
LINE
  5
B2A
102
{ACAD_REACTORS
330
4A5F
330
4A6C
330
4A82
102
}
330
46E2
100
AcDbEntity
  8
STEMPEL
100
AcDbLine
 10
633.9080965188777
 20
912.3043732238361
 30
0.0
 11
633.9080965188777
 21
880.554373223836
 31
0.0
  0
LINE
  5
B2C
330
46E2
100
AcDbEntity
  8
VERDECKT
100
AcDbLine
 10
183.8980956166027
 20
862.3043732238361
 30
0.0
 11
183.8980956166027
 21
782.3043732238363
 31
0.0
  0
LINE
  5
B2D
330
46E2
100
AcDbEntity
  8
VERDECKT
100
AcDbLine
 10
263.8980956166027
 20
862.3043732238361
 30
0.0
 11
263.8980956166027
 21
782.3043732238363
 31
0.0
  0
LINE
  5
B2E
330
46E2
100
AcDbEntity
  8
VERDECKT
  6
STRICHPUNKT
100
AcDbLine
 10
183.8980956166027
 20
862.3043732238363
 30
0.0
 11
263.8980956166027
 21
862.3043732238361
 31
0.0
  0
LINE
  5
B2F
330
46E2
100
AcDbEntity
  8
VERDECKT
  6
STRICHPUNKT
100
AcDbLine
 10
183.8980956166027
 20
782.3043732238363
 30
0.0
 11
263.8980956166027
 21
782.3043732238363
 31
0.0
  0
DIMENSION
  5
B3A
330
46E2
100
AcDbEntity
  8
BEM
100
AcDbDimension
  2
*D7
 10
354.7649670527023
 20
822.3043732238362
 30
0.0
 11
348.2649670527022
 21
672.3043732238364
 31
0.0
 70
    32
 71
     5
 42
300.0
  3
STANDARD
100
AcDbAlignedDimension
 13
307.8980956166027
 23
522.3043732238363
 33
0.0
 14
325.5714277532935
 24
822.3043732238362
 34
0.0
 50
90.0
100
AcDbRotatedDimension
1001
ACAD
1000
DSTYLE
1002
{
1070
    40
1040
2.0
1070
    41
1040
3.5
1070
    42
1040
1.0
1070
    43
1040
8.0
1070
    44
1040
1.0
1070
    73
1070
     0
1070
    74
1070
     0
1070
    77
1070
     1
1070
    78
1070
     8
1070
    79
1070
     2
1070
   140
1040
3.5
1070
   141
1040
1.5
1070
   147
1040
1.5
1070
   172
1070
     1
1070
   178
1070
     1
1070
   179
1070
     2
1070
   279
1070
     0
1002
}
  0
DIMENSION
  5
B47
330
46E2
100
AcDbEntity
  8
BEM
100
AcDbDimension
  2
*D4
 10
618.9080965188777
 20
441.0855220247852
 30
0.0
 11
552.4080965188777
 21
447.5855220247852
 31
0.0
 70
    32
  1
%%C<>
 71
     5
 42
133.0
  3
STANDARD
100
AcDbAlignedDimension
 13
485.9080965188777
 23
472.3043732238362
 33
0.0
 14
618.9080965188777
 24
472.304373223836
 34
0.0
100
AcDbRotatedDimension
1001
ACAD
1000
DSTYLE
1002
{
1070
    40
1040
2.0
1070
    41
1040
3.5
1070
    42
1040
1.0
1070
    43
1040
8.0
1070
    44
1040
1.0
1070
    73
1070
     0
1070
    74
1070
     0
1070
    77
1070
     1
1070
    78
1070
     8
1070
    79
1070
     2
1070
   140
1040
3.5
1070
   141
1040
1.5
1070
   147
1040
1.5
1070
   172
1070
     1
1070
   178
1070
     1
1070
   179
1070
     2
1070
   279
1070
     0
1002
}
  0
LINE
  5
B59
102
{ACAD_REACTORS
330
489E
330
4D45
102
}
330
46E2
100
AcDbEntity
  8
MITTEL
100
AcDbLine
 10
223.8980956166028
 20
373.6985802129421
 30
0.0
 11
223.8980956166028
 21
195.6985802129421
 31
0.0
  0
TEXT
  5
B5F
330
46E2
100
AcDbEntity
  8
TEXT
 62
     1
100
AcDbText
 10
107.098684162991
 20
382.4951989382987
 30
0.0
 40
10.0
  1
Schnitt A-B
 41
0.8
100
AcDbText
  0
LINE
  5
B62
330
46E2
100
AcDbEntity
  8
TEXT
 62
     2
100
AcDbLine
 10
105.9315006510742
 20
379.9791752937848
 30
0.0
 11
181.405016484561
 21
379.9791752937848
 31
0.0
  0
ARC
  5
B63
102
{ACAD_REACTORS
330
4DCC
102
}
330
46E2
100
AcDbEntity
  8
SCHRAFF
100
AcDbCircle
 10
215.3036816263123
 20
203.2857954471919
 30
0.0
 40
4.396988220647528
100
AcDbArc
 50
75.58752186022623
 51
167.6747181328684
  0
LINE
  5
B64
330
46E2
100
AcDbEntity
  8
STEMPEL
100
AcDbLine
 10
216.3980956166028
 20
207.5444059518482
 30
0.0
 11
216.3980956166028
 21
203.5444059518482
 31
0.0
  0
INSERT
  5
B65
330
46E2
100
AcDbEntity
  8
SCHRAFF
100
AcDbBlockReference
  2
*X0
 10
0.0
 20
0.0
 30
0.0
1001
ACAD
1000
HATCH
1002
{
1070
    16
1000
ANSI31,I
1040
1.0
1040
0.0
1002
}
  0
ARC
  5
B66
330
46E2
100
AcDbEntity
  8
SCHRAFF
100
AcDbCircle
 10
232.4925096068933
 20
203.2857954471919
 30
0.0
 40
4.396988220647528
100
AcDbArc
 50
12.32528186713163
 51
104.4124781397737
  0
LINE
  5
B67
330
46E2
100
AcDbEntity
  8
STEMPEL
100
AcDbLine
 10
231.3980956166028
 20
207.5444059518482
 30
0.0
 11
231.3980956166028
 21
203.5444059518482
 31
0.0
  0
INSERT
  5
B68
330
46E2
100
AcDbEntity
  8
SCHRAFF
100
AcDbBlockReference
  2
*X0
 10
447.7961912332055
 20
0.0
 30
0.0
 41
-1.0
1001
ACAD
1000
HATCH
1002
{
1070
    16
1000
ANSI31,I
1040
1.0
1040
0.0
1002
}
  0
LINE
  5
B6A
330
46E2
100
AcDbEntity
  8
STEMPEL
100
AcDbLine
 10
187.3980956166028
 20
213.698580212942
 30
0.0
 11
187.3980956166028
 21
211.7292035233176
 31
0.0
  0
LINE
  5
BC5
330
46E2
100
AcDbEntity
  8
HILF
  6
Continuous
100
AcDbLine
 10
490.9271957065944
 20
472.3043732238363
 30
0.0
 11
552.4080965188775
 21
472.3043732238363
 31
0.0
  0
LINE
  5
BC6
330
46E2
100
AcDbEntity
  8
HILF
  6
Continuous
100
AcDbLine
 10
613.8889973311612
 20
472.3043732238363
 30
0.0
 11
552.4080965188775
 21
472.3043732238363
 31
0.0
  0
LINE
  5
BC7
102
{ACAD_REACTORS
330
4A37
102
}
330
46E2
100
AcDbEntity
  8
STEMPEL
  6
Continuous
100
AcDbLine
 10
618.0332098836186
 20
462.3043732238364
 30
0.0
 11
486.7829831541368
 21
462.3043732238364
 31
0.0
  0
DIMENSION
  5
BCB
330
46E2
100
AcDbEntity
  8
BEM
100
AcDbDimension
  2
*D6
 10
370.7649670527023
 20
1037.304373223836
 30
0.0
 11
364.2649670527021
 21
779.8043732238364
 31
0.0
 70
    32
 71
     5
 42
514.9999999999998
  3
STANDARD
100
AcDbAlignedDimension
 13
307.8980956166027
 23
522.3043732238363
 33
0.0
 14
307.8980956166028
 24
1037.304373223836
 34
0.0
 50
90.0
100
AcDbRotatedDimension
1001
ACAD
1000
DSTYLE
1002
{
1070
    40
1040
2.0
1070
    41
1040
3.5
1070
    42
1040
1.0
1070
    43
1040
8.0
1070
    44
1040
1.0
1070
    73
1070
     0
1070
    74
1070
     0
1070
    77
1070
     1
1070
    78
1070
     8
1070
    79
1070
     2
1070
   140
1040
3.5
1070
   141
1040
1.5
1070
   147
1040
1.5
1070
   172
1070
     1
1070
   178
1070
     1
1070
   179
1070
     2
1070
   279
1070
     0
1002
}
  0
DIMENSION
  5
BCC
330
46E2
100
AcDbEntity
  8
BEM
100
AcDbDimension
  2
*D5
 10
389.0356436215735
 20
1037.304373223836
 30
0.0
 11
382.5356436215733
 21
749.8043732238365
 31
0.0
 70
    32
 71
     5
 42
574.9999999999998
  3
STANDARD
100
AcDbAlignedDimension
 13
289.5232089813436
 23
462.3043732238365
 33
0.0
 14
307.8980956166028
 24
1037.304373223836
 34
0.0
 50
90.0
100
AcDbRotatedDimension
1001
ACAD
1000
DSTYLE
1002
{
1070
    40
1040
2.0
1070
    41
1040
3.5
1070
    42
1040
1.0
1070
    43
1040
8.0
1070
    44
1040
1.0
1070
    73
1070
     0
1070
    74
1070
     0
1070
    77
1070
     1
1070
    78
1070
     8
1070
    79
1070
     2
1070
   140
1040
3.5
1070
   141
1040
1.5
1070
   147
1040
1.5
1070
   172
1070
     1
1070
   178
1070
     1
1070
   179
1070
     2
1070
   279
1070
     0
1002
}
  0
TEXT
  5
17D5
330
46E2
100
AcDbEntity
  8
BEM
100
AcDbText
 10
1582.298791751069
 20
324.8355281905294
 30
0.0
 40
2.5
  1

 41
0.8
  7
GREEKS
100
AcDbText
  0
LINE
  5
17E1
102
{ACAD_REACTORS
330
4BC1
102
}
330
46E2
100
AcDbEntity
  8
STEMPEL
100
AcDbLine
 10
473.2580965188776
 20
538.3043732238363
 30
0.0
 11
485.9080965188777
 21
538.3043732238363
 31
0.0
  0
LINE
  5
17E2
102
{ACAD_REACTORS
330
4A5F
330
4BC1
102
}
330
46E2
100
AcDbEntity
  8
STEMPEL
100
AcDbLine
 10
468.408096518878
 20
522.3043732238362
 30
0.0
 11
470.9080965188778
 21
522.3043732238363
 31
0.0
  0
LINE
  5
17E4
102
{ACAD_REACTORS
330
4BC1
102
}
330
46E2
100
AcDbEntity
  8
STEMPEL
100
AcDbLine
 10
470.9080965188777
 20
535.9543732238364
 30
0.0
 11
473.2580965188776
 21
538.3043732238363
 31
0.0
  0
LINE
  5
17E5
102
{ACAD_REACTORS
330
4BC1
102
}
330
46E2
100
AcDbEntity
  8
STEMPEL
100
AcDbLine
 10
478.5516900583266
 20
528.3043732238363
 30
0.0
 11
485.9080965188777
 21
528.3043732238363
 31
0.0
  0
LINE
  5
17E7
102
{ACAD_REACTORS
330
4A37
330
4BC1
330
4C4A
102
}
330
46E2
100
AcDbEntity
  8
STEMPEL
100
AcDbLine
 10
485.908096518878
 20
954.8043732238364
 30
0.0
 11
485.9080965188777
 21
472.3043732238362
 31
0.0
  0
LINE
  5
17EA
102
{ACAD_REACTORS
330
4BC1
102
}
330
46E2
100
AcDbEntity
  8
STEMPEL
100
AcDbLine
 10
626.2645029794287
 20
528.3043732238363
 30
0.0
 11
618.908096518878
 21
528.3043732238363
 31
0.0
  0
LINE
  5
17EE
102
{ACAD_REACTORS
330
4A37
330
4BC1
102
}
330
46E2
100
AcDbEntity
  8
STEMPEL
100
AcDbLine
 10
618.9080965188777
 20
784.8043732238363
 30
0.0
 11
618.9080965188777
 21
472.304373223836
 31
0.0
  0
LINE
  5
17F1
102
{ACAD_REACTORS
330
4A5F
330
4BC1
102
}
330
46E2
100
AcDbEntity
  8
STEMPEL
100
AcDbLine
 10
636.4080965188777
 20
522.3043732238363
 30
0.0
 11
633.9080965188777
 21
522.3043732238364
 31
0.0
  0
LINE
  5
17F3
102
{ACAD_REACTORS
330
4BC1
102
}
330
46E2
100
AcDbEntity
  8
STEMPEL
100
AcDbLine
 10
633.9080965188779
 20
535.9543732238361
 30
0.0
 11
631.5580965188776
 21
538.3043732238363
 31
0.0
  0
LINE
  5
1802
102
{ACAD_REACTORS
330
4BC1
102
}
330
46E2
100
AcDbEntity
  8
STEMPEL
100
AcDbLine
 10
631.5580965188776
 20
538.3043732238363
 30
0.0
 11
618.9080965188779
 21
538.3043732238363
 31
0.0
  0
LINE
  5
1822
102
{ACAD_REACTORS
330
4AFD
102
}
330
46E2
100
AcDbEntity
  8
STEMPEL
100
AcDbLine
 10
473.2580965188779
 20
1021.304373223837
 30
0.0
 11
476.4080965188779
 21
1021.304373223837
 31
0.0
  0
LINE
  5
1826
102
{ACAD_REACTORS
330
4AFD
102
}
330
46E2
100
AcDbEntity
  8
STEMPEL
100
AcDbLine
 10
473.2580965188779
 20
1021.304373223837
 30
0.0
 11
470.9080965188779
 21
1023.654373223838
 31
0.0
  0
LINE
  5
182E
102
{ACAD_REACTORS
330
4AFD
102
}
330
46E2
100
AcDbEntity
  8
STEMPEL
100
AcDbLine
 10
631.5580965188778
 20
1021.304373223836
 30
0.0
 11
628.4080965188778
 21
1021.304373223836
 31
0.0
  0
LINE
  5
182F
102
{ACAD_REACTORS
330
4AFD
102
}
330
46E2
100
AcDbEntity
  8
STEMPEL
100
AcDbLine
 10
631.5580965188778
 20
1021.304373223836
 30
0.0
 11
633.9080965188779
 21
1023.654373223836
 31
0.0
  0
LINE
  5
1F76
330
46E2
100
AcDbEntity
  8
STEMPEL
100
AcDbLine
 10
730.0000000000004
 20
1177.999999999999
 30
0.0
 11
830.0000000000004
 21
1177.999999999999
 31
0.0
  0
LINE
  5
1F92
330
46E2
100
AcDbEntity
  8
STEMPEL
100
AcDbLine
 10
730.0000000000004
 20
1177.999999999999
 30
0.0
 11
730.0000000000004
 21
817.9999999999989
 31
0.0
  0
TEXT
  5
3160
330
46E2
100
AcDbEntity
  8
VOLL
100
AcDbText
 10
1052.839533414482
 20
260.9148046279543
 30
0.0
 40
1.8
  1

  7
GREEKS
100
AcDbText
  0
TEXT
  5
3161
330
46E2
100
AcDbEntity
  8
VOLL
100
AcDbText
 10
1142.505707340155
 20
266.2069213436736
 30
0.0
 40
1.8
  1

  7
GREEKS
100
AcDbText
  0
TEXT
  5
3162
330
46E2
100
AcDbEntity
  8
TEXT
100
AcDbText
 10
1474.337975543748
 20
271.7651568768991
 30
0.0
 40
2.5
  1
  
  7
GREEKS
 72
     1
 11
1476.599880305653
 21
271.7651568768991
 31
0.0
100
AcDbText
  0
TEXT
  5
3163
330
46E2
100
AcDbEntity
  8
BEM
100
AcDbText
 10
1718.45769285623
 20
407.3240389073013
 30
0.0
 40
2.5
  1
 
 72
     4
 11
1719.588645237182
 21
407.3240389073013
 31
0.0
100
AcDbText
  0
TEXT
  5
3164
330
46E2
100
AcDbEntity
  8
BEM
100
AcDbText
 10
1284.14703698608
 20
289.843635534835
 30
0.0
 40
2.5
  1

  7
GREEKS
100
AcDbText
  0
TEXT
  5
3165
330
46E2
100
AcDbEntity
  8
VOLL
100
AcDbText
 10
1270.080843966358
 20
269.6603748777999
 30
0.0
 40
1.8
  1

  7
GREEKS
100
AcDbText
  0
TEXT
  5
3166
330
46E2
100
AcDbEntity
  8
BEM
100
AcDbText
 10
1304.568908805643
 20
274.3860992010204
 30
0.0
 40
2.5
  1

 41
0.8
  7
GREEKS
100
AcDbText
  0
TEXT
  5
3167
330
46E2
100
AcDbEntity
  8
BEM
100
AcDbText
 10
1304.568908805643
 20
269.6923306469683
 30
0.0
 40
2.5
  1

 41
0.8
  7
GREEKS
100
AcDbText
  0
TEXT
  5
3168
330
46E2
100
AcDbEntity
  8
BEM
100
AcDbText
 10
1304.568908805643
 20
264.4544868283048
 30
0.0
 40
2.5
  1

 41
0.8
  7
GREEKS
100
AcDbText
  0
TEXT
  5
3169
330
46E2
100
AcDbEntity
  8
BEM
100
AcDbText
 10
1304.495964328268
 20
259.9492978782072
 30
0.0
 40
1.8
  1

 41
0.8
  7
GREEKS
100
AcDbText
  0
TEXT
  5
316A
330
46E2
100
AcDbEntity
  8
BEM
100
AcDbText
 10
1291.812393448657
 20
285.5408869744325
 30
0.0
 40
2.0
  1

 41
0.8
  7
GREEKS
 72
     1
 11
1291.812393448657
 21
285.5408869744325
 31
0.0
100
AcDbText
  0
TEXT
  5
316B
330
46E2
100
AcDbEntity
  8
TEXT
100
AcDbText
 10
1601.913112169951
 20
275.2186104110254
 30
0.0
 40
2.5
  1
  
  7
GREEKS
 72
     1
 11
1604.175016931856
 21
275.2186104110254
 31
0.0
100
AcDbText
  0
TEXT
  5
316C
330
46E2
100
AcDbEntity
  8
BEM
100
AcDbText
 10
1846.032829482433
 20
410.7774924414276
 30
0.0
 40
2.5
  1
 
 72
     4
 11
1847.163781863386
 21
410.7774924414276
 31
0.0
100
AcDbText
  0
TEXT
  5
316D
330
46E2
100
AcDbEntity
  8
VOLL
100
AcDbText
 10
1194.797608361644
 20
277.1118889397889
 30
0.0
 40
1.8
  1

  7
GREEKS
100
AcDbText
  0
TEXT
  5
316E
330
46E2
100
AcDbEntity
  8
TEXT
100
AcDbText
 10
1526.629876565236
 20
282.6701244730145
 30
0.0
 40
2.5
  1
  
  7
GREEKS
 72
     1
 11
1528.891781327141
 21
282.6701244730145
 31
0.0
100
AcDbText
  0
TEXT
  5
316F
330
46E2
100
AcDbEntity
  8
BEM
100
AcDbText
 10
1770.749593877718
 20
418.2290065034167
 30
0.0
 40
2.5
  1
 
 72
     4
 11
1771.880546258671
 21
418.2290065034167
 31
0.0
100
AcDbText
  0
TEXT
  5
3170
330
46E2
100
AcDbEntity
  8
BEM
100
AcDbText
 10
1349.937210518439
 20
297.4452998294656
 30
0.0
 40
2.5
  1

  7
GREEKS
100
AcDbText
  0
TEXT
  5
3171
330
46E2
100
AcDbEntity
  8
VOLL
100
AcDbText
 10
1335.871017498718
 20
277.2620391724304
 30
0.0
 40
1.8
  1

  7
GREEKS
100
AcDbText
  0
TEXT
  5
3172
330
46E2
100
AcDbEntity
  8
BEM
100
AcDbText
 10
1370.359082338002
 20
281.987763495651
 30
0.0
 40
2.5
  1

 41
0.8
  7
GREEKS
100
AcDbText
  0
TEXT
  5
3173
330
46E2
100
AcDbEntity
  8
BEM
100
AcDbText
 10
1370.359082338002
 20
277.2939949415989
 30
0.0
 40
2.5
  1

 41
0.8
  7
GREEKS
100
AcDbText
  0
TEXT
  5
3174
330
46E2
100
AcDbEntity
  8
BEM
100
AcDbText
 10
1370.359082338002
 20
272.0561511229354
 30
0.0
 40
2.5
  1

 41
0.8
  7
GREEKS
100
AcDbText
  0
TEXT
  5
3175
330
46E2
100
AcDbEntity
  8
BEM
100
AcDbText
 10
1370.286137860628
 20
267.5509621728378
 30
0.0
 40
1.8
  1

 41
0.8
  7
GREEKS
100
AcDbText
  0
TEXT
  5
3176
330
46E2
100
AcDbEntity
  8
BEM
100
AcDbText
 10
1357.602566981017
 20
293.1425512690631
 30
0.0
 40
2.0
  1

 41
0.8
  7
GREEKS
 72
     1
 11
1357.602566981017
 21
293.1425512690631
 31
0.0
100
AcDbText
  0
TEXT
  5
3177
330
46E2
100
AcDbEntity
  8
TEXT
100
AcDbText
 10
1667.703285702311
 20
282.820274705656
 30
0.0
 40
2.5
  1
  
  7
GREEKS
 72
     1
 11
1669.965190464216
 21
282.820274705656
 31
0.0
100
AcDbText
  0
TEXT
  5
3178
330
46E2
100
AcDbEntity
  8
BEM
100
AcDbText
 10
1911.823003014793
 20
418.3791567360582
 30
0.0
 40
2.5
  1
 
 72
     4
 11
1912.953955395745
 21
418.3791567360582
 31
0.0
100
AcDbText
  0
TEXT
  5
3179
330
46E2
100
AcDbEntity
  8
VOLL
100
AcDbText
 10
1130.775396934887
 20
265.2961794140405
 30
0.0
 40
1.8
  1

  7
GREEKS
100
AcDbText
  0
TEXT
  5
317A
330
46E2
100
AcDbEntity
  8
TEXT
100
AcDbText
 10
1462.60766513848
 20
270.854414947266
 30
0.0
 40
2.5
  1
  
  7
GREEKS
 72
     1
 11
1464.869569900385
 21
270.854414947266
 31
0.0
100
AcDbText
  0
TEXT
  5
317B
330
46E2
100
AcDbEntity
  8
BEM
100
AcDbText
 10
1706.727382450962
 20
406.4132969776682
 30
0.0
 40
2.5
  1
 
 72
     4
 11
1707.858334831914
 21
406.4132969776682
 31
0.0
100
AcDbText
  0
TEXT
  5
317C
330
46E2
100
AcDbEntity
  8
BEM
100
AcDbText
 10
1296.121010014537
 20
305.4494101126262
 30
0.0
 40
2.5
  1

  7
GREEKS
100
AcDbText
  0
TEXT
  5
317D
330
46E2
100
AcDbEntity
  8
VOLL
100
AcDbText
 10
1282.054816994815
 20
285.2661494555911
 30
0.0
 40
1.8
  1

  7
GREEKS
100
AcDbText
  0
TEXT
  5
317E
330
46E2
100
AcDbEntity
  8
BEM
100
AcDbText
 10
1316.5428818341
 20
289.9918737788116
 30
0.0
 40
2.5
  1

 41
0.8
  7
GREEKS
100
AcDbText
  0
TEXT
  5
317F
330
46E2
100
AcDbEntity
  8
BEM
100
AcDbText
 10
1316.5428818341
 20
285.2981052247595
 30
0.0
 40
2.5
  1

 41
0.8
  7
GREEKS
100
AcDbText
  0
TEXT
  5
3180
330
46E2
100
AcDbEntity
  8
BEM
100
AcDbText
 10
1316.5428818341
 20
280.060261406096
 30
0.0
 40
2.5
  1

 41
0.8
  7
GREEKS
100
AcDbText
  0
TEXT
  5
3181
330
46E2
100
AcDbEntity
  8
BEM
100
AcDbText
 10
1316.469937356726
 20
275.5550724559983
 30
0.0
 40
1.8
  1

 41
0.8
  7
GREEKS
100
AcDbText
  0
TEXT
  5
3182
330
46E2
100
AcDbEntity
  8
BEM
100
AcDbText
 10
1303.786366477114
 20
301.1466615522237
 30
0.0
 40
2.0
  1

 41
0.8
  7
GREEKS
 72
     1
 11
1303.786366477114
 21
301.1466615522237
 31
0.0
100
AcDbText
  0
TEXT
  5
3183
330
46E2
100
AcDbEntity
  8
TEXT
100
AcDbText
 10
1613.887085198409
 20
290.8243849888166
 30
0.0
 40
2.5
  1
  
  7
GREEKS
 72
     1
 11
1616.148989960313
 21
290.8243849888166
 31
0.0
100
AcDbText
  0
TEXT
  5
3184
330
46E2
100
AcDbEntity
  8
BEM
100
AcDbText
 10
1858.006802510891
 20
426.3832670192188
 30
0.0
 40
2.5
  1
 
 72
     4
 11
1859.137754891843
 21
426.3832670192188
 31
0.0
100
AcDbText
  0
TEXT
  5
3185
330
46E2
100
AcDbEntity
  8
VOLL
100
AcDbText
 10
1458.356973187998
 20
270.414622791543
 30
0.0
 40
1.8
  1

  7
GREEKS
100
AcDbText
  0
TEXT
  5
3186
330
46E2
100
AcDbEntity
  8
VOLL
100
AcDbText
 10
1548.023147113672
 20
275.7067395072624
 30
0.0
 40
1.8
  1

  7
GREEKS
100
AcDbText
  0
TEXT
  5
3187
330
46E2
100
AcDbEntity
  8
TEXT
100
AcDbText
 10
1879.855415317264
 20
281.2649750404879
 30
0.0
 40
2.5
  1
  
  7
GREEKS
 72
     1
 11
1882.117320079169
 21
281.2649750404879
 31
0.0
100
AcDbText
  0
TEXT
  5
3188
330
46E2
100
AcDbEntity
  8
BEM
100
AcDbText
 10
2123.975132629746
 20
416.8238570708901
 30
0.0
 40
2.5
  1
 
 72
     4
 11
2125.106085010699
 21
416.8238570708901
 31
0.0
100
AcDbText
  0
TEXT
  5
3189
330
46E2
100
AcDbEntity
  8
BEM
100
AcDbText
 10
1689.664476759596
 20
299.3434536984238
 30
0.0
 40
2.5
  1

  7
GREEKS
100
AcDbText
  0
TEXT
  5
318A
330
46E2
100
AcDbEntity
  8
VOLL
100
AcDbText
 10
1675.598283739875
 20
279.1601930413886
 30
0.0
 40
1.8
  1

  7
GREEKS
100
AcDbText
  0
TEXT
  5
318B
330
46E2
100
AcDbEntity
  8
BEM
100
AcDbText
 10
1710.086348579159
 20
283.8859173646092
 30
0.0
 40
2.5
  1

 41
0.8
  7
GREEKS
100
AcDbText
  0
TEXT
  5
318C
330
46E2
100
AcDbEntity
  8
BEM
100
AcDbText
 10
1710.086348579159
 20
279.1921488105571
 30
0.0
 40
2.5
  1

 41
0.8
  7
GREEKS
100
AcDbText
  0
TEXT
  5
318D
330
46E2
100
AcDbEntity
  8
BEM
100
AcDbText
 10
1710.086348579159
 20
273.9543049918936
 30
0.0
 40
2.5
  1

 41
0.8
  7
GREEKS
100
AcDbText
  0
TEXT
  5
318E
330
46E2
100
AcDbEntity
  8
BEM
100
AcDbText
 10
1710.013404101785
 20
269.4491160417959
 30
0.0
 40
1.8
  1

 41
0.8
  7
GREEKS
100
AcDbText
  0
TEXT
  5
318F
330
46E2
100
AcDbEntity
  8
BEM
100
AcDbText
 10
1697.329833222173
 20
295.0407051380213
 30
0.0
 40
2.0
  1

 41
0.8
  7
GREEKS
 72
     1
 11
1697.329833222173
 21
295.0407051380213
 31
0.0
100
AcDbText
  0
TEXT
  5
3190
330
46E2
100
AcDbEntity
  8
TEXT
100
AcDbText
 10
2007.430551943468
 20
284.7184285746142
 30
0.0
 40
2.5
  1
  
  7
GREEKS
 72
     1
 11
2009.692456705373
 21
284.7184285746142
 31
0.0
100
AcDbText
  0
TEXT
  5
3191
330
46E2
100
AcDbEntity
  8
BEM
100
AcDbText
 10
2251.55026925595
 20
420.2773106050163
 30
0.0
 40
2.5
  1
 
 72
     4
 11
2252.681221636902
 21
420.2773106050163
 31
0.0
100
AcDbText
  0
TEXT
  5
3192
330
46E2
100
AcDbEntity
  8
VOLL
100
AcDbText
 10
1466.270287879782
 20
247.4655498990425
 30
0.0
 40
1.8
  1

  7
GREEKS
100
AcDbText
  0
TEXT
  5
3193
330
46E2
100
AcDbEntity
  8
VOLL
100
AcDbText
 10
1555.936461805455
 20
252.7576666147618
 30
0.0
 40
1.8
  1

  7
GREEKS
100
AcDbText
  0
TEXT
  5
3194
330
46E2
100
AcDbEntity
  8
TEXT
100
AcDbText
 10
1887.768730009048
 20
258.3159021479874
 30
0.0
 40
2.5
  1
  
  7
GREEKS
 72
     1
 11
1890.030634770952
 21
258.3159021479874
 31
0.0
100
AcDbText
  0
TEXT
  5
3195
330
46E2
100
AcDbEntity
  8
BEM
100
AcDbText
 10
2131.88844732153
 20
393.8747841783896
 30
0.0
 40
2.5
  1
 
 72
     4
 11
2133.019399702482
 21
393.8747841783896
 31
0.0
100
AcDbText
  0
TEXT
  5
3196
330
46E2
100
AcDbEntity
  8
BEM
100
AcDbText
 10
1697.577791451379
 20
276.3943808059232
 30
0.0
 40
2.5
  1

  7
GREEKS
100
AcDbText
  0
TEXT
  5
3197
330
46E2
100
AcDbEntity
  8
VOLL
100
AcDbText
 10
1683.511598431658
 20
256.2111201488881
 30
0.0
 40
1.8
  1

  7
GREEKS
100
AcDbText
  0
TEXT
  5
3198
330
46E2
100
AcDbEntity
  8
BEM
100
AcDbText
 10
1717.999663270942
 20
260.9368444721087
 30
0.0
 40
2.5
  1

 41
0.8
  7
GREEKS
100
AcDbText
  0
TEXT
  5
3199
330
46E2
100
AcDbEntity
  8
BEM
100
AcDbText
 10
1717.999663270942
 20
256.2430759180565
 30
0.0
 40
2.5
  1

 41
0.8
  7
GREEKS
100
AcDbText
  0
TEXT
  5
319A
330
46E2
100
AcDbEntity
  8
BEM
100
AcDbText
 10
1717.999663270942
 20
251.005232099393
 30
0.0
 40
2.5
  1

 41
0.8
  7
GREEKS
100
AcDbText
  0
TEXT
  5
319B
330
46E2
100
AcDbEntity
  8
BEM
100
AcDbText
 10
1717.926718793568
 20
246.5000431492955
 30
0.0
 40
1.8
  1

 41
0.8
  7
GREEKS
100
AcDbText
  0
TEXT
  5
319C
330
46E2
100
AcDbEntity
  8
BEM
100
AcDbText
 10
1705.243147913957
 20
272.0916322455207
 30
0.0
 40
2.0
  1

 41
0.8
  7
GREEKS
 72
     1
 11
1705.243147913957
 21
272.0916322455207
 31
0.0
100
AcDbText
  0
TEXT
  5
319D
330
46E2
100
AcDbEntity
  8
TEXT
100
AcDbText
 10
2015.343866635251
 20
261.7693556821137
 30
0.0
 40
2.5
  1
  
  7
GREEKS
 72
     1
 11
2017.605771397156
 21
261.7693556821137
 31
0.0
100
AcDbText
  0
TEXT
  5
319E
330
46E2
100
AcDbEntity
  8
BEM
100
AcDbText
 10
2259.463583947733
 20
397.3282377125159
 30
0.0
 40
2.5
  1
 
 72
     4
 11
2260.594536328685
 21
397.3282377125159
 31
0.0
100
AcDbText
  0
TEXT
  5
319F
330
46E2
100
AcDbEntity
  8
VOLL
100
AcDbText
 10
1608.228362826943
 20
263.6626342108773
 30
0.0
 40
1.8
  1

  7
GREEKS
100
AcDbText
  0
TEXT
  5
31A0
330
46E2
100
AcDbEntity
  8
TEXT
100
AcDbText
 10
1940.060631030536
 20
269.2208697441028
 30
0.0
 40
2.5
  1
  
  7
GREEKS
 72
     1
 11
1942.322535792441
 21
269.2208697441028
 31
0.0
100
AcDbText
  0
TEXT
  5
31A1
330
46E2
100
AcDbEntity
  8
BEM
100
AcDbText
 10
2184.180348343018
 20
404.779751774505
 30
0.0
 40
2.5
  1
 
 72
     4
 11
2185.31130072397
 21
404.779751774505
 31
0.0
100
AcDbText
  0
TEXT
  5
31A2
330
46E2
100
AcDbEntity
  8
BEM
100
AcDbText
 10
1763.367964983739
 20
283.9960451005538
 30
0.0
 40
2.5
  1

  7
GREEKS
100
AcDbText
  0
TEXT
  5
31A3
330
46E2
100
AcDbEntity
  8
VOLL
100
AcDbText
 10
1749.301771964017
 20
263.8127844435187
 30
0.0
 40
1.8
  1

  7
GREEKS
100
AcDbText
  0
TEXT
  5
31A4
330
46E2
100
AcDbEntity
  8
BEM
100
AcDbText
 10
1783.789836803302
 20
268.5385087667393
 30
0.0
 40
2.5
  1

 41
0.8
  7
GREEKS
100
AcDbText
  0
TEXT
  5
31A5
330
46E2
100
AcDbEntity
  8
BEM
100
AcDbText
 10
1783.789836803302
 20
263.8447402126872
 30
0.0
 40
2.5
  1

 41
0.8
  7
GREEKS
100
AcDbText
  0
TEXT
  5
31A6
330
46E2
100
AcDbEntity
  8
BEM
100
AcDbText
 10
1783.789836803302
 20
258.6068963940236
 30
0.0
 40
2.5
  1

 41
0.8
  7
GREEKS
100
AcDbText
  0
TEXT
  5
31A7
330
46E2
100
AcDbEntity
  8
BEM
100
AcDbText
 10
1783.716892325928
 20
254.101707443926
 30
0.0
 40
1.8
  1

 41
0.8
  7
GREEKS
100
AcDbText
  0
TEXT
  5
31A8
330
46E2
100
AcDbEntity
  8
BEM
100
AcDbText
 10
1771.033321446316
 20
279.6932965401513
 30
0.0
 40
2.0
  1

 41
0.8
  7
GREEKS
 72
     1
 11
1771.033321446316
 21
279.6932965401513
 31
0.0
100
AcDbText
  0
TEXT
  5
31A9
330
46E2
100
AcDbEntity
  8
TEXT
100
AcDbText
 10
2081.134040167611
 20
269.3710199767443
 30
0.0
 40
2.5
  1
  
  7
GREEKS
 72
     1
 11
2083.395944929515
 21
269.3710199767443
 31
0.0
100
AcDbText
  0
TEXT
  5
31AA
330
46E2
100
AcDbEntity
  8
BEM
100
AcDbText
 10
2325.253757480092
 20
404.9299020071464
 30
0.0
 40
2.5
  1
 
 72
     4
 11
2326.384709861045
 21
404.9299020071464
 31
0.0
100
AcDbText
  0
TEXT
  5
31AB
330
46E2
100
AcDbEntity
  8
VOLL
100
AcDbText
 10
1238.845503140059
 20
458.3248636906831
 30
0.0
 40
1.8
  1

  7
GREEKS
100
AcDbText
  0
TEXT
  5
31AC
330
46E2
100
AcDbEntity
  8
VOLL
100
AcDbText
 10
1328.511677065732
 20
463.6169804064024
 30
0.0
 40
1.8
  1

  7
GREEKS
100
AcDbText
  0
TEXT
  5
31AD
330
46E2
100
AcDbEntity
  8
TEXT
100
AcDbText
 10
1660.343945269325
 20
469.175215939628
 30
0.0
 40
2.5
  1
  
  7
GREEKS
 72
     1
 11
1662.605850031229
 21
469.175215939628
 31
0.0
100
AcDbText
  0
TEXT
  5
31AE
330
46E2
100
AcDbEntity
  8
BEM
100
AcDbText
 10
1904.463662581807
 20
604.7340979700302
 30
0.0
 40
2.5
  1
 
 72
     4
 11
1905.594614962759
 21
604.7340979700302
 31
0.0
100
AcDbText
  0
TEXT
  5
31AF
330
46E2
100
AcDbEntity
  8
BEM
100
AcDbText
 10
1470.153006711656
 20
487.2536945975638
 30
0.0
 40
2.5
  1

  7
GREEKS
100
AcDbText
  0
TEXT
  5
31B0
330
46E2
100
AcDbEntity
  8
VOLL
100
AcDbText
 10
1456.086813691935
 20
467.0704339405288
 30
0.0
 40
1.8
  1

  7
GREEKS
100
AcDbText
  0
TEXT
  5
31B1
330
46E2
100
AcDbEntity
  8
BEM
100
AcDbText
 10
1490.57487853122
 20
471.7961582637493
 30
0.0
 40
2.5
  1

 41
0.8
  7
GREEKS
100
AcDbText
  0
TEXT
  5
31B2
330
46E2
100
AcDbEntity
  8
BEM
100
AcDbText
 10
1490.57487853122
 20
467.1023897096972
 30
0.0
 40
2.5
  1

 41
0.8
  7
GREEKS
100
AcDbText
  0
TEXT
  5
31B3
330
46E2
100
AcDbEntity
  8
BEM
100
AcDbText
 10
1490.57487853122
 20
461.8645458910337
 30
0.0
 40
2.5
  1

 41
0.8
  7
GREEKS
100
AcDbText
  0
TEXT
  5
31B4
330
46E2
100
AcDbEntity
  8
BEM
100
AcDbText
 10
1490.501934053845
 20
457.3593569409361
 30
0.0
 40
1.8
  1

 41
0.8
  7
GREEKS
100
AcDbText
  0
TEXT
  5
31B5
330
46E2
100
AcDbEntity
  8
BEM
100
AcDbText
 10
1477.818363174234
 20
482.9509460371613
 30
0.0
 40
2.0
  1

 41
0.8
  7
GREEKS
 72
     1
 11
1477.818363174234
 21
482.9509460371613
 31
0.0
100
AcDbText
  0
TEXT
  5
31B6
330
46E2
100
AcDbEntity
  8
TEXT
100
AcDbText
 10
1787.919081895528
 20
472.6286694737543
 30
0.0
 40
2.5
  1
  
  7
GREEKS
 72
     1
 11
1790.180986657432
 21
472.6286694737543
 31
0.0
100
AcDbText
  0
TEXT
  5
31B7
330
46E2
100
AcDbEntity
  8
BEM
100
AcDbText
 10
2032.03879920801
 20
608.1875515041565
 30
0.0
 40
2.5
  1
 
 72
     4
 11
2033.169751588962
 21
608.1875515041565
 31
0.0
100
AcDbText
  0
TEXT
  5
31B8
330
46E2
100
AcDbEntity
  8
VOLL
100
AcDbText
 10
1380.80357808722
 20
474.5219480025179
 30
0.0
 40
1.8
  1

  7
GREEKS
100
AcDbText
  0
TEXT
  5
31B9
330
46E2
100
AcDbEntity
  8
TEXT
100
AcDbText
 10
1712.635846290813
 20
480.0801835357434
 30
0.0
 40
2.5
  1
  
  7
GREEKS
 72
     1
 11
1714.897751052718
 21
480.0801835357434
 31
0.0
100
AcDbText
  0
TEXT
  5
31BA
330
46E2
100
AcDbEntity
  8
BEM
100
AcDbText
 10
1956.755563603295
 20
615.6390655661457
 30
0.0
 40
2.5
  1
 
 72
     4
 11
1957.886515984247
 21
615.6390655661457
 31
0.0
100
AcDbText
  0
TEXT
  5
31BB
330
46E2
100
AcDbEntity
  8
BEM
100
AcDbText
 10
1535.943180244016
 20
494.8553588921945
 30
0.0
 40
2.5
  1

  7
GREEKS
100
AcDbText
  0
TEXT
  5
31BC
330
46E2
100
AcDbEntity
  8
VOLL
100
AcDbText
 10
1521.876987224294
 20
474.6720982351593
 30
0.0
 40
1.8
  1

  7
GREEKS
100
AcDbText
  0
TEXT
  5
31BD
330
46E2
100
AcDbEntity
  8
BEM
100
AcDbText
 10
1556.365052063579
 20
479.3978225583799
 30
0.0
 40
2.5
  1

 41
0.8
  7
GREEKS
100
AcDbText
  0
TEXT
  5
31BE
330
46E2
100
AcDbEntity
  8
BEM
100
AcDbText
 10
1556.365052063579
 20
474.7040540043278
 30
0.0
 40
2.5
  1

 41
0.8
  7
GREEKS
100
AcDbText
  0
TEXT
  5
31BF
330
46E2
100
AcDbEntity
  8
BEM
100
AcDbText
 10
1556.365052063579
 20
469.4662101856643
 30
0.0
 40
2.5
  1

 41
0.8
  7
GREEKS
100
AcDbText
  0
TEXT
  5
31C0
330
46E2
100
AcDbEntity
  8
BEM
100
AcDbText
 10
1556.292107586205
 20
464.9610212355667
 30
0.0
 40
1.8
  1

 41
0.8
  7
GREEKS
100
AcDbText
  0
TEXT
  5
31C1
330
46E2
100
AcDbEntity
  8
BEM
100
AcDbText
 10
1543.608536706594
 20
490.5526103317919
 30
0.0
 40
2.0
  1

 41
0.8
  7
GREEKS
 72
     1
 11
1543.608536706594
 21
490.5526103317919
 31
0.0
100
AcDbText
  0
TEXT
  5
31C2
330
46E2
100
AcDbEntity
  8
TEXT
100
AcDbText
 10
1853.709255427888
 20
480.2303337683849
 30
0.0
 40
2.5
  1
  
  7
GREEKS
 72
     1
 11
1855.971160189793
 21
480.2303337683849
 31
0.0
100
AcDbText
  0
TEXT
  5
31C3
330
46E2
100
AcDbEntity
  8
BEM
100
AcDbText
 10
2097.82897274037
 20
615.7892157987872
 30
0.0
 40
2.5
  1
 
 72
     4
 11
2098.959925121322
 21
615.7892157987872
 31
0.0
100
AcDbText
  0
TEXT
  5
31C4
330
46E2
100
AcDbEntity
  8
VOLL
100
AcDbText
 10
1316.781366660464
 20
462.7062384767693
 30
0.0
 40
1.8
  1

  7
GREEKS
100
AcDbText
  0
TEXT
  5
31C5
330
46E2
100
AcDbEntity
  8
TEXT
100
AcDbText
 10
1648.613634864056
 20
468.264474009995
 30
0.0
 40
2.5
  1
  
  7
GREEKS
 72
     1
 11
1650.875539625961
 21
468.264474009995
 31
0.0
100
AcDbText
  0
TEXT
  5
31C6
330
46E2
100
AcDbEntity
  8
BEM
100
AcDbText
 10
1892.733352176539
 20
603.8233560403971
 30
0.0
 40
2.5
  1
 
 72
     4
 11
1893.864304557491
 21
603.8233560403971
 31
0.0
100
AcDbText
  0
TEXT
  5
31C7
330
46E2
100
AcDbEntity
  8
BEM
100
AcDbText
 10
1482.126979740114
 20
502.8594691753551
 30
0.0
 40
2.5
  1

  7
GREEKS
100
AcDbText
  0
TEXT
  5
31C8
330
46E2
100
AcDbEntity
  8
VOLL
100
AcDbText
 10
1468.060786720392
 20
482.6762085183199
 30
0.0
 40
1.8
  1

  7
GREEKS
100
AcDbText
  0
TEXT
  5
31C9
330
46E2
100
AcDbEntity
  8
BEM
100
AcDbText
 10
1502.548851559677
 20
487.4019328415405
 30
0.0
 40
2.5
  1

 41
0.8
  7
GREEKS
100
AcDbText
  0
TEXT
  5
31CA
330
46E2
100
AcDbEntity
  8
BEM
100
AcDbText
 10
1502.548851559677
 20
482.7081642874884
 30
0.0
 40
2.5
  1

 41
0.8
  7
GREEKS
100
AcDbText
  0
TEXT
  5
31CB
330
46E2
100
AcDbEntity
  8
BEM
100
AcDbText
 10
1502.548851559677
 20
477.4703204688249
 30
0.0
 40
2.5
  1

 41
0.8
  7
GREEKS
100
AcDbText
  0
TEXT
  5
31CC
330
46E2
100
AcDbEntity
  8
BEM
100
AcDbText
 10
1502.475907082302
 20
472.9651315187273
 30
0.0
 40
1.8
  1

 41
0.8
  7
GREEKS
100
AcDbText
  0
TEXT
  5
31CD
330
46E2
100
AcDbEntity
  8
BEM
100
AcDbText
 10
1489.792336202691
 20
498.5567206149526
 30
0.0
 40
2.0
  1

 41
0.8
  7
GREEKS
 72
     1
 11
1489.792336202691
 21
498.5567206149526
 31
0.0
100
AcDbText
  0
TEXT
  5
31CE
330
46E2
100
AcDbEntity
  8
TEXT
100
AcDbText
 10
1799.893054923985
 20
488.2344440515455
 30
0.0
 40
2.5
  1
  
  7
GREEKS
 72
     1
 11
1802.15495968589
 21
488.2344440515455
 31
0.0
100
AcDbText
  0
TEXT
  5
31CF
330
46E2
100
AcDbEntity
  8
BEM
100
AcDbText
 10
2044.012772236468
 20
623.7933260819477
 30
0.0
 40
2.5
  1
 
 72
     4
 11
2045.14372461742
 21
623.7933260819477
 31
0.0
100
AcDbText
  0
TEXT
  5
31D0
330
46E2
100
AcDbEntity
  8
VOLL
100
AcDbText
 10
1245.246856072599
 20
436.6687666821191
 30
0.0
 40
1.8
  1

  7
GREEKS
100
AcDbText
  0
TEXT
  5
31D1
330
46E2
100
AcDbEntity
  8
VOLL
100
AcDbText
 10
1334.913029998272
 20
441.9608833978385
 30
0.0
 40
1.8
  1

  7
GREEKS
100
AcDbText
  0
TEXT
  5
31D2
330
46E2
100
AcDbEntity
  8
TEXT
100
AcDbText
 10
1666.745298201865
 20
447.5191189310641
 30
0.0
 40
2.5
  1
  
  7
GREEKS
 72
     1
 11
1669.00720296377
 21
447.5191189310641
 31
0.0
100
AcDbText
  0
TEXT
  5
31D3
330
46E2
100
AcDbEntity
  8
BEM
100
AcDbText
 10
1910.865015514348
 20
583.0780009614662
 30
0.0
 40
2.5
  1
 
 72
     4
 11
1911.9959678953
 21
583.0780009614662
 31
0.0
100
AcDbText
  0
TEXT
  5
31D4
330
46E2
100
AcDbEntity
  8
BEM
100
AcDbText
 10
1476.554359644197
 20
465.5975975889999
 30
0.0
 40
2.5
  1

  7
GREEKS
100
AcDbText
  0
TEXT
  5
31D5
330
46E2
100
AcDbEntity
  8
VOLL
100
AcDbText
 10
1462.488166624476
 20
445.4143369319648
 30
0.0
 40
1.8
  1

  7
GREEKS
100
AcDbText
  0
TEXT
  5
31D6
330
46E2
100
AcDbEntity
  8
BEM
100
AcDbText
 10
1496.97623146376
 20
450.1400612551853
 30
0.0
 40
2.5
  1

 41
0.8
  7
GREEKS
100
AcDbText
  0
TEXT
  5
31D7
330
46E2
100
AcDbEntity
  8
BEM
100
AcDbText
 10
1496.97623146376
 20
445.4462927011332
 30
0.0
 40
2.5
  1

 41
0.8
  7
GREEKS
100
AcDbText
  0
TEXT
  5
31D8
330
46E2
100
AcDbEntity
  8
BEM
100
AcDbText
 10
1496.97623146376
 20
440.2084488824697
 30
0.0
 40
2.5
  1

 41
0.8
  7
GREEKS
100
AcDbText
  0
TEXT
  5
31D9
330
46E2
100
AcDbEntity
  8
BEM
100
AcDbText
 10
1496.903286986386
 20
435.7032599323721
 30
0.0
 40
1.8
  1

 41
0.8
  7
GREEKS
100
AcDbText
  0
TEXT
  5
31DA
330
46E2
100
AcDbEntity
  8
BEM
100
AcDbText
 10
1484.219716106775
 20
461.2948490285973
 30
0.0
 40
2.0
  1

 41
0.8
  7
GREEKS
 72
     1
 11
1484.219716106775
 21
461.2948490285973
 31
0.0
100
AcDbText
  0
TEXT
  5
31DB
330
46E2
100
AcDbEntity
  8
TEXT
100
AcDbText
 10
1794.320434828068
 20
450.9725724651903
 30
0.0
 40
2.5
  1
  
  7
GREEKS
 72
     1
 11
1796.582339589973
 21
450.9725724651903
 31
0.0
100
AcDbText
  0
TEXT
  5
31DC
330
46E2
100
AcDbEntity
  8
BEM
100
AcDbText
 10
2038.440152140551
 20
586.5314544955926
 30
0.0
 40
2.5
  1
 
 72
     4
 11
2039.571104521503
 21
586.5314544955926
 31
0.0
100
AcDbText
  0
TEXT
  5
31DD
330
46E2
100
AcDbEntity
  8
VOLL
100
AcDbText
 10
1387.204931019761
 20
452.8658509939539
 30
0.0
 40
1.8
  1

  7
GREEKS
100
AcDbText
  0
TEXT
  5
31DE
330
46E2
100
AcDbEntity
  8
TEXT
100
AcDbText
 10
1719.037199223353
 20
458.4240865271794
 30
0.0
 40
2.5
  1
  
  7
GREEKS
 72
     1
 11
1721.299103985258
 21
458.4240865271794
 31
0.0
100
AcDbText
  0
TEXT
  5
31DF
330
46E2
100
AcDbEntity
  8
BEM
100
AcDbText
 10
1963.156916535836
 20
593.9829685575817
 30
0.0
 40
2.5
  1
 
 72
     4
 11
1964.287868916788
 21
593.9829685575817
 31
0.0
100
AcDbText
  0
TEXT
  5
31E0
330
46E2
100
AcDbEntity
  8
BEM
100
AcDbText
 10
1542.344533176557
 20
473.1992618836305
 30
0.0
 40
2.5
  1

  7
GREEKS
100
AcDbText
  0
TEXT
  5
31E1
330
46E2
100
AcDbEntity
  8
VOLL
100
AcDbText
 10
1528.278340156835
 20
453.0160012265953
 30
0.0
 40
1.8
  1

  7
GREEKS
100
AcDbText
  0
TEXT
  5
31E2
330
46E2
100
AcDbEntity
  8
BEM
100
AcDbText
 10
1562.76640499612
 20
457.741725549816
 30
0.0
 40
2.5
  1

 41
0.8
  7
GREEKS
100
AcDbText
  0
TEXT
  5
31E3
330
46E2
100
AcDbEntity
  8
BEM
100
AcDbText
 10
1562.76640499612
 20
453.0479569957639
 30
0.0
 40
2.5
  1

 41
0.8
  7
GREEKS
100
AcDbText
  0
TEXT
  5
31E4
330
46E2
100
AcDbEntity
  8
BEM
100
AcDbText
 10
1562.76640499612
 20
447.8101131771003
 30
0.0
 40
2.5
  1

 41
0.8
  7
GREEKS
100
AcDbText
  0
TEXT
  5
31E5
330
46E2
100
AcDbEntity
  8
BEM
100
AcDbText
 10
1562.693460518746
 20
443.3049242270027
 30
0.0
 40
1.8
  1

 41
0.8
  7
GREEKS
100
AcDbText
  0
TEXT
  5
31E6
330
46E2
100
AcDbEntity
  8
BEM
100
AcDbText
 10
1550.009889639134
 20
468.8965133232279
 30
0.0
 40
2.0
  1

 41
0.8
  7
GREEKS
 72
     1
 11
1550.009889639134
 21
468.8965133232279
 31
0.0
100
AcDbText
  0
TEXT
  5
31E7
330
46E2
100
AcDbEntity
  8
TEXT
100
AcDbText
 10
1860.110608360428
 20
458.5742367598209
 30
0.0
 40
2.5
  1
  
  7
GREEKS
 72
     1
 11
1862.372513122333
 21
458.5742367598209
 31
0.0
100
AcDbText
  0
TEXT
  5
31E8
330
46E2
100
AcDbEntity
  8
BEM
100
AcDbText
 10
2104.230325672911
 20
594.1331187902232
 30
0.0
 40
2.5
  1
 
 72
     4
 11
2105.361278053863
 21
594.1331187902232
 31
0.0
100
AcDbText
  0
TEXT
  5
31E9
330
46E2
100
AcDbEntity
  8
VOLL
100
AcDbText
 10
1323.182719593005
 20
441.0501414682054
 30
0.0
 40
1.8
  1

  7
GREEKS
100
AcDbText
  0
TEXT
  5
31EA
330
46E2
100
AcDbEntity
  8
TEXT
100
AcDbText
 10
1655.014987796597
 20
446.608377001431
 30
0.0
 40
2.5
  1
  
  7
GREEKS
 72
     1
 11
1657.276892558502
 21
446.608377001431
 31
0.0
100
AcDbText
  0
TEXT
  5
31EB
330
46E2
100
AcDbEntity
  8
BEM
100
AcDbText
 10
1899.13470510908
 20
582.1672590318333
 30
0.0
 40
2.5
  1
 
 72
     4
 11
1900.265657490032
 21
582.1672590318333
 31
0.0
100
AcDbText
  0
TEXT
  5
31EC
330
46E2
100
AcDbEntity
  8
BEM
100
AcDbText
 10
1488.528332672654
 20
481.2033721667911
 30
0.0
 40
2.5
  1

  7
GREEKS
100
AcDbText
  0
TEXT
  5
31ED
330
46E2
100
AcDbEntity
  8
VOLL
100
AcDbText
 10
1474.462139652933
 20
461.0201115097559
 30
0.0
 40
1.8
  1

  7
GREEKS
100
AcDbText
  0
TEXT
  5
31EE
330
46E2
100
AcDbEntity
  8
BEM
100
AcDbText
 10
1508.950204492218
 20
465.7458358329765
 30
0.0
 40
2.5
  1

 41
0.8
  7
GREEKS
100
AcDbText
  0
TEXT
  5
31EF
330
46E2
100
AcDbEntity
  8
BEM
100
AcDbText
 10
1508.950204492218
 20
461.0520672789244
 30
0.0
 40
2.5
  1

 41
0.8
  7
GREEKS
100
AcDbText
  0
TEXT
  5
31F0
330
46E2
100
AcDbEntity
  8
BEM
100
AcDbText
 10
1508.950204492218
 20
455.8142234602609
 30
0.0
 40
2.5
  1

 41
0.8
  7
GREEKS
100
AcDbText
  0
TEXT
  5
31F1
330
46E2
100
AcDbEntity
  8
BEM
100
AcDbText
 10
1508.877260014843
 20
451.3090345101633
 30
0.0
 40
1.8
  1

 41
0.8
  7
GREEKS
100
AcDbText
  0
TEXT
  5
31F2
330
46E2
100
AcDbEntity
  8
BEM
100
AcDbText
 10
1496.193689135232
 20
476.9006236063886
 30
0.0
 40
2.0
  1

 41
0.8
  7
GREEKS
 72
     1
 11
1496.193689135232
 21
476.9006236063886
 31
0.0
100
AcDbText
  0
TEXT
  5
31F3
330
46E2
100
AcDbEntity
  8
TEXT
100
AcDbText
 10
1806.294407856526
 20
466.5783470429816
 30
0.0
 40
2.5
  1
  
  7
GREEKS
 72
     1
 11
1808.556312618431
 21
466.5783470429816
 31
0.0
100
AcDbText
  0
TEXT
  5
31F4
330
46E2
100
AcDbEntity
  8
BEM
100
AcDbText
 10
2050.414125169008
 20
602.1372290733839
 30
0.0
 40
2.5
  1
 
 72
     4
 11
2051.54507754996
 21
602.1372290733839
 31
0.0
100
AcDbText
  0
TEXT
  5
31F5
330
46E2
100
AcDbEntity
  8
VOLL
100
AcDbText
 10
1601.583858448751
 20
421.459551735167
 30
0.0
 40
1.8
  1

  7
GREEKS
100
AcDbText
  0
TEXT
  5
31F6
330
46E2
100
AcDbEntity
  8
TEXT
100
AcDbText
 10
1933.416126652344
 20
427.0177872683927
 30
0.0
 40
2.5
  1
  
  7
GREEKS
 72
     1
 11
1935.678031414249
 21
427.0177872683927
 31
0.0
100
AcDbText
  0
TEXT
  5
31F7
330
46E2
100
AcDbEntity
  8
BEM
100
AcDbText
 10
2177.535843964826
 20
562.576669298795
 30
0.0
 40
2.5
  1
 
 72
     4
 11
2178.666796345778
 21
562.576669298795
 31
0.0
100
AcDbText
  0
TEXT
  5
31F8
330
46E2
100
AcDbEntity
  8
VOLL
100
AcDbText
 10
1759.118575525912
 20
427.0151073702384
 30
0.0
 40
1.8
  1

  7
GREEKS
100
AcDbText
  0
TEXT
  5
31F9
330
46E2
100
AcDbEntity
  8
BEM
100
AcDbText
 10
1793.606640365197
 20
431.740831693459
 30
0.0
 40
2.5
  1

 41
0.8
  7
GREEKS
100
AcDbText
  0
TEXT
  5
31FA
330
46E2
100
AcDbEntity
  8
BEM
100
AcDbText
 10
1793.606640365197
 20
427.0470631394068
 30
0.0
 40
2.5
  1

 41
0.8
  7
GREEKS
100
AcDbText
  0
TEXT
  5
31FB
330
46E2
100
AcDbEntity
  8
BEM
100
AcDbText
 10
1793.606640365197
 20
421.8092193207432
 30
0.0
 40
2.5
  1

 41
0.8
  7
GREEKS
100
AcDbText
  0
TEXT
  5
31FC
330
46E2
100
AcDbEntity
  8
BEM
100
AcDbText
 10
1793.533695887823
 20
417.3040303706456
 30
0.0
 40
1.8
  1

 41
0.8
  7
GREEKS
100
AcDbText
  0
TEXT
  5
31FD
330
46E2
100
AcDbEntity
  8
TEXT
100
AcDbText
 10
2090.950843729506
 20
432.5733429034638
 30
0.0
 40
2.5
  1
  
  7
GREEKS
 72
     1
 11
2093.21274849141
 21
432.5733429034638
 31
0.0
100
AcDbText
  0
TEXT
  5
31FE
330
46E2
100
AcDbEntity
  8
BEM
100
AcDbText
 10
2335.070561041987
 20
568.1322249338661
 30
0.0
 40
2.5
  1
 
 72
     4
 11
2336.20151342294
 21
568.1322249338661
 31
0.0
100
AcDbText
  0
TEXT
  5
31FF
330
46E2
100
AcDbEntity
  8
VOLL
100
AcDbText
 10
1346.068193670295
 20
487.3343315309072
 30
0.0
 40
1.8
  1

  7
GREEKS
100
AcDbText
  0
TEXT
  5
3200
330
46E2
100
AcDbEntity
  8
TEXT
100
AcDbText
 10
1677.900461873888
 20
492.8925670641327
 30
0.0
 40
2.5
  1
  
  7
GREEKS
 72
     1
 11
1680.162366635792
 21
492.8925670641327
 31
0.0
100
AcDbText
  0
TEXT
  5
3201
330
46E2
100
AcDbEntity
  8
BEM
100
AcDbText
 10
1922.02017918637
 20
628.451449094535
 30
0.0
 40
2.5
  1
 
 72
     4
 11
1923.151131567322
 21
628.451449094535
 31
0.0
100
AcDbText
  0
TEXT
  5
3202
330
46E2
100
AcDbEntity
  8
BEM
100
AcDbText
 10
1784.165069296901
 20
500.355528726285
 30
0.0
 40
2.5
  1

  7
GREEKS
100
AcDbText
  0
TEXT
  5
3203
330
46E2
100
AcDbEntity
  8
BEM
100
AcDbText
 10
1804.726855356614
 20
485.4170808739648
 30
0.0
 40
2.5
  1

 41
0.8
  7
GREEKS
100
AcDbText
  0
TEXT
  5
3204
330
46E2
100
AcDbEntity
  8
BEM
100
AcDbText
 10
1804.587525338327
 20
475.3386308092517
 30
0.0
 40
2.5
  1

 41
0.8
  7
GREEKS
100
AcDbText
  0
TEXT
  5
3205
330
46E2
100
AcDbEntity
  8
BEM
100
AcDbText
 10
1804.640785222089
 20
480.2844137455674
 30
0.0
 40
2.5
  1

 41
0.8
  7
GREEKS
100
AcDbText
  0
TEXT
  5
3206
330
46E2
100
AcDbEntity
  8
BEM
100
AcDbText
 10
1804.683303259985
 20
470.2438431696117
 30
0.0
 40
1.8
  1

 41
0.8
  7
GREEKS
100
AcDbText
  0
TEXT
  5
3207
330
46E2
100
AcDbEntity
  8
BEM
100
AcDbText
 10
1792.110988016403
 20
495.68218765678
 30
0.0
 40
2.0
  1

 41
0.8
  7
GREEKS
 72
     1
 11
1792.110988016403
 21
495.68218765678
 31
0.0
100
AcDbText
  0
TEXT
  5
3208
330
46E2
100
AcDbEntity
  8
VOLL
100
AcDbText
 10
1525.306127541107
 20
481.6455662965217
 30
0.0
 40
1.8
  1

  7
GREEKS
100
AcDbText
  0
TEXT
  5
3209
330
46E2
100
AcDbEntity
  8
TEXT
100
AcDbText
 10
1857.1383957447
 20
487.2038018297472
 30
0.0
 40
2.5
  1
  
  7
GREEKS
 72
     1
 11
1859.400300506605
 21
487.2038018297472
 31
0.0
100
AcDbText
  0
TEXT
  5
320A
330
46E2
100
AcDbEntity
  8
BEM
100
AcDbText
 10
2101.258113057182
 20
622.7626838601495
 30
0.0
 40
2.5
  1
 
 72
     4
 11
2102.389065438135
 21
622.7626838601495
 31
0.0
100
AcDbText
  0
TEXT
  5
320B
330
46E2
100
AcDbEntity
  8
BEM
100
AcDbText
 10
1639.795145919275
 20
544.5844923972954
 30
0.0
 40
2.5
  1

  7
GREEKS
100
AcDbText
  0
TEXT
  5
320C
330
46E2
100
AcDbEntity
  8
VOLL
100
AcDbText
 10
1625.728952899553
 20
524.4012317402603
 30
0.0
 40
1.8
  1

  7
GREEKS
100
AcDbText
  0
TEXT
  5
320D
330
46E2
100
AcDbEntity
  8
BEM
100
AcDbText
 10
1660.217017738838
 20
529.1269560634807
 30
0.0
 40
2.5
  1

 41
0.8
  7
GREEKS
100
AcDbText
  0
TEXT
  5
320E
330
46E2
100
AcDbEntity
  8
BEM
100
AcDbText
 10
1660.217017738838
 20
524.4331875094287
 30
0.0
 40
2.5
  1

 41
0.8
  7
GREEKS
100
AcDbText
  0
TEXT
  5
320F
330
46E2
100
AcDbEntity
  8
BEM
100
AcDbText
 10
1660.217017738838
 20
519.1953436907652
 30
0.0
 40
2.5
  1

 41
0.8
  7
GREEKS
100
AcDbText
  0
TEXT
  5
3210
330
46E2
100
AcDbEntity
  8
BEM
100
AcDbText
 10
1660.144073261463
 20
514.6901547406676
 30
0.0
 40
1.8
  1

 41
0.8
  7
GREEKS
100
AcDbText
  0
TEXT
  5
3211
330
46E2
100
AcDbEntity
  8
BEM
100
AcDbText
 10
1647.460502381852
 20
540.2817438368929
 30
0.0
 40
2.0
  1

 41
0.8
  7
GREEKS
 72
     1
 11
1647.460502381852
 21
540.2817438368929
 31
0.0
100
AcDbText
  0
TEXT
  5
3212
330
46E2
100
AcDbEntity
  8
TEXT
100
AcDbText
 10
1957.561221103146
 20
529.9594672734858
 30
0.0
 40
2.5
  1
  
  7
GREEKS
 72
     1
 11
1959.823125865051
 21
529.9594672734858
 31
0.0
100
AcDbText
  0
TEXT
  5
3213
330
46E2
100
AcDbEntity
  8
BEM
100
AcDbText
 10
2201.680938415628
 20
665.518349303888
 30
0.0
 40
2.5
  1
 
 72
     4
 11
2202.811890796581
 21
665.518349303888
 31
0.0
100
AcDbText
  0
TEXT
  5
3214
330
46E2
100
AcDbEntity
  8
VOLL
100
AcDbText
 10
1333.976745750439
 20
441.1131140015249
 30
0.0
 40
1.8
  1

  7
GREEKS
100
AcDbText
  0
TEXT
  5
3215
330
46E2
100
AcDbEntity
  8
VOLL
100
AcDbText
 10
1423.642919676112
 20
446.4052307172441
 30
0.0
 40
1.8
  1

  7
GREEKS
100
AcDbText
  0
TEXT
  5
3216
330
46E2
100
AcDbEntity
  8
TEXT
100
AcDbText
 10
1755.475187879705
 20
451.9634662504697
 30
0.0
 40
2.5
  1
  
  7
GREEKS
 72
     1
 11
1757.73709264161
 21
451.9634662504697
 31
0.0
100
AcDbText
  0
TEXT
  5
3217
330
46E2
100
AcDbEntity
  8
BEM
100
AcDbText
 10
1999.594905192186
 20
587.5223482808719
 30
0.0
 40
2.5
  1
 
 72
     4
 11
2000.725857573139
 21
587.5223482808719
 31
0.0
100
AcDbText
  0
TEXT
  5
3218
330
46E2
100
AcDbEntity
  8
BEM
100
AcDbText
 10
1565.284249322036
 20
470.0419449084056
 30
0.0
 40
2.5
  1

  7
GREEKS
100
AcDbText
  0
TEXT
  5
3219
330
46E2
100
AcDbEntity
  8
VOLL
100
AcDbText
 10
1551.218056302315
 20
449.8586842513705
 30
0.0
 40
1.8
  1

  7
GREEKS
100
AcDbText
  0
TEXT
  5
321A
330
46E2
100
AcDbEntity
  8
BEM
100
AcDbText
 10
1585.706121141599
 20
454.584408574591
 30
0.0
 40
2.5
  1

 41
0.8
  7
GREEKS
100
AcDbText
  0
TEXT
  5
321B
330
46E2
100
AcDbEntity
  8
BEM
100
AcDbText
 10
1585.706121141599
 20
449.8906400205389
 30
0.0
 40
2.5
  1

 41
0.8
  7
GREEKS
100
AcDbText
  0
TEXT
  5
321C
330
46E2
100
AcDbEntity
  8
BEM
100
AcDbText
 10
1585.706121141599
 20
444.6527962018754
 30
0.0
 40
2.5
  1

 41
0.8
  7
GREEKS
100
AcDbText
  0
TEXT
  5
321D
330
46E2
100
AcDbEntity
  8
BEM
100
AcDbText
 10
1585.633176664225
 20
440.1476072517778
 30
0.0
 40
1.8
  1

 41
0.8
  7
GREEKS
100
AcDbText
  0
TEXT
  5
321E
330
46E2
100
AcDbEntity
  8
BEM
100
AcDbText
 10
1572.949605784614
 20
465.739196348003
 30
0.0
 40
2.0
  1

 41
0.8
  7
GREEKS
 72
     1
 11
1572.949605784614
 21
465.739196348003
 31
0.0
100
AcDbText
  0
TEXT
  5
321F
330
46E2
100
AcDbEntity
  8
TEXT
100
AcDbText
 10
1883.050324505908
 20
455.4169197845959
 30
0.0
 40
2.5
  1
  
  7
GREEKS
 72
     1
 11
1885.312229267812
 21
455.4169197845959
 31
0.0
100
AcDbText
  0
TEXT
  5
3220
330
46E2
100
AcDbEntity
  8
BEM
100
AcDbText
 10
2127.17004181839
 20
590.9758018149982
 30
0.0
 40
2.5
  1
 
 72
     4
 11
2128.300994199342
 21
590.9758018149982
 31
0.0
100
AcDbText
  0
TEXT
  5
3221
330
46E2
100
AcDbEntity
  8
VOLL
100
AcDbText
 10
1310.505111553071
 20
483.0677580392451
 30
0.0
 40
1.8
  1

  7
GREEKS
100
AcDbText
  0
TEXT
  5
3222
330
46E2
100
AcDbEntity
  8
VOLL
100
AcDbText
 10
1400.171285478744
 20
488.3598747549643
 30
0.0
 40
1.8
  1

  7
GREEKS
100
AcDbText
  0
TEXT
  5
3223
330
46E2
100
AcDbEntity
  8
TEXT
100
AcDbText
 10
1732.003553682337
 20
493.9181102881899
 30
0.0
 40
2.5
  1
  
  7
GREEKS
 72
     1
 11
1734.265458444242
 21
493.9181102881899
 31
0.0
100
AcDbText
  0
TEXT
  5
3224
330
46E2
100
AcDbEntity
  8
BEM
100
AcDbText
 10
1976.123270994819
 20
629.4769923185921
 30
0.0
 40
2.5
  1
 
 72
     4
 11
1977.254223375772
 21
629.4769923185921
 31
0.0
100
AcDbText
  0
TEXT
  5
3225
330
46E2
100
AcDbEntity
  8
BEM
100
AcDbText
 10
1541.812615124669
 20
511.9965889461258
 30
0.0
 40
2.5
  1

  7
GREEKS
100
AcDbText
  0
TEXT
  5
3226
330
46E2
100
AcDbEntity
  8
VOLL
100
AcDbText
 10
1527.746422104947
 20
491.8133282890907
 30
0.0
 40
1.8
  1

  7
GREEKS
100
AcDbText
  0
TEXT
  5
3227
330
46E2
100
AcDbEntity
  8
BEM
100
AcDbText
 10
1562.234486944232
 20
496.5390526123112
 30
0.0
 40
2.5
  1

 41
0.8
  7
GREEKS
100
AcDbText
  0
TEXT
  5
3228
330
46E2
100
AcDbEntity
  8
BEM
100
AcDbText
 10
1562.234486944232
 20
491.8452840582591
 30
0.0
 40
2.5
  1

 41
0.8
  7
GREEKS
100
AcDbText
  0
TEXT
  5
3229
330
46E2
100
AcDbEntity
  8
BEM
100
AcDbText
 10
1562.234486944232
 20
486.6074402395955
 30
0.0
 40
2.5
  1

 41
0.8
  7
GREEKS
100
AcDbText
  0
TEXT
  5
322A
330
46E2
100
AcDbEntity
  8
BEM
100
AcDbText
 10
1562.161542466857
 20
482.1022512894979
 30
0.0
 40
1.8
  1

 41
0.8
  7
GREEKS
100
AcDbText
  0
TEXT
  5
322B
330
46E2
100
AcDbEntity
  8
BEM
100
AcDbText
 10
1549.477971587246
 20
507.6938403857233
 30
0.0
 40
2.0
  1

 41
0.8
  7
GREEKS
 72
     1
 11
1549.477971587246
 21
507.6938403857233
 31
0.0
100
AcDbText
  0
TEXT
  5
322C
330
46E2
100
AcDbEntity
  8
TEXT
100
AcDbText
 10
1859.57869030854
 20
497.3715638223161
 30
0.0
 40
2.5
  1
  
  7
GREEKS
 72
     1
 11
1861.840595070445
 21
497.3715638223161
 31
0.0
100
AcDbText
  0
TEXT
  5
322D
330
46E2
100
AcDbEntity
  8
BEM
100
AcDbText
 10
2103.698407621022
 20
632.9304458527184
 30
0.0
 40
2.5
  1
 
 72
     4
 11
2104.829360001975
 21
632.9304458527184
 31
0.0
100
AcDbText
  0
TEXT
  5
32F2
330
46E2
100
AcDbEntity
  8
VOLL
100
AcDbText
 10
1277.250634625997
 20
1464.977504789634
 30
0.0
 40
1.8
  1

  7
GREEKS
100
AcDbText
  0
TEXT
  5
32F3
330
46E2
100
AcDbEntity
  8
TEXT
100
AcDbText
 10
1609.08290282959
 20
1470.535740322859
 30
0.0
 40
2.5
  1
  
  7
GREEKS
 72
     1
 11
1611.344807591495
 21
1470.535740322859
 31
0.0
100
AcDbText
  0
TEXT
  5
32F4
330
46E2
100
AcDbEntity
  8
BEM
100
AcDbText
 10
1853.202620142073
 20
1606.094622353261
 30
0.0
 40
2.5
  1
 
 72
     4
 11
1854.333572523025
 21
1606.094622353261
 31
0.0
100
AcDbText
  0
TEXT
  5
32F5
330
46E2
100
AcDbEntity
  8
BEM
100
AcDbText
 10
1504.274523415809
 20
1485.316039074232
 30
0.0
 40
2.5
  1

  7
GREEKS
100
AcDbText
  0
TEXT
  5
32F6
330
46E2
100
AcDbEntity
  8
VOLL
100
AcDbText
 10
1490.208330396088
 20
1465.132778417197
 30
0.0
 40
1.8
  1

  7
GREEKS
100
AcDbText
  0
TEXT
  5
32F7
330
46E2
100
AcDbEntity
  8
BEM
100
AcDbText
 10
1524.696395235372
 20
1469.858502740417
 30
0.0
 40
2.5
  1

 41
0.8
  7
GREEKS
100
AcDbText
  0
TEXT
  5
32F8
330
46E2
100
AcDbEntity
  8
BEM
100
AcDbText
 10
1524.696395235372
 20
1465.164734186365
 30
0.0
 40
2.5
  1

 41
0.8
  7
GREEKS
100
AcDbText
  0
TEXT
  5
32F9
330
46E2
100
AcDbEntity
  8
BEM
100
AcDbText
 10
1524.696395235372
 20
1459.926890367702
 30
0.0
 40
2.5
  1

 41
0.8
  7
GREEKS
100
AcDbText
  0
TEXT
  5
32FA
330
46E2
100
AcDbEntity
  8
BEM
100
AcDbText
 10
1524.623450757998
 20
1455.421701417604
 30
0.0
 40
1.8
  1

 41
0.8
  7
GREEKS
100
AcDbText
  0
TEXT
  5
32FB
330
46E2
100
AcDbEntity
  8
BEM
100
AcDbText
 10
1511.939879878386
 20
1481.013290513829
 30
0.0
 40
2.0
  1

 41
0.8
  7
GREEKS
 72
     1
 11
1511.939879878386
 21
1481.013290513829
 31
0.0
100
AcDbText
  0
TEXT
  5
32FC
330
46E2
100
AcDbEntity
  8
TEXT
100
AcDbText
 10
1822.04059859968
 20
1470.691013950422
 30
0.0
 40
2.5
  1
  
  7
GREEKS
 72
     1
 11
1824.302503361585
 21
1470.691013950422
 31
0.0
100
AcDbText
  0
TEXT
  5
32FD
330
46E2
100
AcDbEntity
  8
BEM
100
AcDbText
 10
2066.160315912163
 20
1606.249895980825
 30
0.0
 40
2.5
  1
 
 72
     4
 11
2067.291268293115
 21
1606.249895980825
 31
0.0
100
AcDbText
  0
TEXT
  5
38D7
330
46E2
100
AcDbEntity
  8
BEM
100
AcDbText
 10
2384.391324308734
 20
721.8697622271966
 30
0.0
 40
2.5
  1

 41
0.8
  7
GREEKS
100
AcDbText
  0
TEXT
  5
3977
330
46E2
100
AcDbEntity
  8
VOLL
100
AcDbText
 10
2958.613361893359
 20
1036.303225278164
 30
0.0
 40
1.8
  1

  7
GREEKS
100
AcDbText
  0
TEXT
  5
3978
330
46E2
100
AcDbEntity
  8
VOLL
100
AcDbText
 10
3270.794564158907
 20
1006.628832853857
 30
0.0
 40
1.8
  1

  7
GREEKS
100
AcDbText
  0
TEXT
  5
3979
330
46E2
100
AcDbEntity
  8
TEXT
100
AcDbText
 10
3602.626832362501
 20
1012.187068387083
 30
0.0
 40
2.5
  1
  
  7
GREEKS
 72
     1
 11
3604.888737124405
 21
1012.187068387083
 31
0.0
100
AcDbText
  0
TEXT
  5
397A
330
46E2
100
AcDbEntity
  8
BEM
100
AcDbText
 10
3846.746549674982
 20
1147.745950417485
 30
0.0
 40
2.5
  1
 
 72
     4
 11
3847.877502055935
 21
1147.745950417485
 31
0.0
100
AcDbText
  0
TEXT
  5
397B
330
46E2
100
AcDbEntity
  8
BEM
100
AcDbText
 10
3385.283582537075
 20
1069.567758954631
 30
0.0
 40
2.5
  1

  7
GREEKS
100
AcDbText
  0
TEXT
  5
397C
330
46E2
100
AcDbEntity
  8
VOLL
100
AcDbText
 10
3371.217389517354
 20
1049.384498297596
 30
0.0
 40
1.8
  1

  7
GREEKS
100
AcDbText
  0
TEXT
  5
397D
330
46E2
100
AcDbEntity
  8
BEM
100
AcDbText
 10
3405.705454356638
 20
1054.110222620816
 30
0.0
 40
2.5
  1

 41
0.8
  7
GREEKS
100
AcDbText
  0
TEXT
  5
397E
330
46E2
100
AcDbEntity
  8
BEM
100
AcDbText
 10
3405.705454356638
 20
1049.416454066764
 30
0.0
 40
2.5
  1

 41
0.8
  7
GREEKS
100
AcDbText
  0
TEXT
  5
397F
330
46E2
100
AcDbEntity
  8
BEM
100
AcDbText
 10
3405.705454356638
 20
1044.1786102481
 30
0.0
 40
2.5
  1

 41
0.8
  7
GREEKS
100
AcDbText
  0
TEXT
  5
3980
330
46E2
100
AcDbEntity
  8
BEM
100
AcDbText
 10
3405.632509879263
 20
1039.673421298003
 30
0.0
 40
1.8
  1

 41
0.8
  7
GREEKS
100
AcDbText
  0
TEXT
  5
3981
330
46E2
100
AcDbEntity
  8
BEM
100
AcDbText
 10
3392.948938999652
 20
1065.265010394228
 30
0.0
 40
2.0
  1

 41
0.8
  7
GREEKS
 72
     1
 11
3392.948938999652
 21
1065.265010394228
 31
0.0
100
AcDbText
  0
TEXT
  5
3982
330
46E2
100
AcDbEntity
  8
TEXT
100
AcDbText
 10
3703.049657720947
 20
1054.942733830821
 30
0.0
 40
2.5
  1
  
  7
GREEKS
 72
     1
 11
3705.311562482851
 21
1054.942733830821
 31
0.0
100
AcDbText
  0
TEXT
  5
3983
330
46E2
100
AcDbEntity
  8
BEM
100
AcDbText
 10
3947.169375033428
 20
1190.501615861223
 30
0.0
 40
2.5
  1
 
 72
     4
 11
3948.300327414381
 21
1190.501615861223
 31
0.0
100
AcDbText
  0
TEXT
  5
3984
330
46E2
100
AcDbEntity
  8
VOLL
100
AcDbText
 10
2588.476312115866
 20
1410.236964525954
 30
0.0
 40
1.8
  1

  7
GREEKS
100
AcDbText
  0
TEXT
  5
3985
330
46E2
100
AcDbEntity
  8
VOLL
100
AcDbText
 10
2965.16522840489
 20
1452.567291928082
 30
0.0
 40
1.8
  1

  7
GREEKS
100
AcDbText
  0
TEXT
  5
3986
330
46E2
100
AcDbEntity
  8
VOLL
100
AcDbText
 10
3277.346430670438
 20
1422.892899503775
 30
0.0
 40
1.8
  1

  7
GREEKS
100
AcDbText
  0
TEXT
  5
3987
330
46E2
100
AcDbEntity
  8
TEXT
100
AcDbText
 10
3609.178698874032
 20
1428.451135037001
 30
0.0
 40
2.5
  1
  
  7
GREEKS
 72
     1
 11
3611.440603635936
 21
1428.451135037001
 31
0.0
100
AcDbText
  0
TEXT
  5
3988
330
46E2
100
AcDbEntity
  8
BEM
100
AcDbText
 10
3853.298416186513
 20
1564.010017067403
 30
0.0
 40
2.5
  1
 
 72
     4
 11
3854.429368567465
 21
1564.010017067403
 31
0.0
100
AcDbText
  0
TEXT
  5
3989
330
46E2
100
AcDbEntity
  8
BEM
100
AcDbText
 10
3391.835449048605
 20
1485.831825604549
 30
0.0
 40
2.5
  1

  7
GREEKS
100
AcDbText
  0
TEXT
  5
398A
330
46E2
100
AcDbEntity
  8
VOLL
100
AcDbText
 10
3377.769256028884
 20
1465.648564947514
 30
0.0
 40
1.8
  1

  7
GREEKS
100
AcDbText
  0
TEXT
  5
398B
330
46E2
100
AcDbEntity
  8
BEM
100
AcDbText
 10
3412.257320868169
 20
1470.374289270734
 30
0.0
 40
2.5
  1

 41
0.8
  7
GREEKS
100
AcDbText
  0
TEXT
  5
398C
330
46E2
100
AcDbEntity
  8
BEM
100
AcDbText
 10
3412.257320868169
 20
1465.680520716682
 30
0.0
 40
2.5
  1

 41
0.8
  7
GREEKS
100
AcDbText
  0
TEXT
  5
398D
330
46E2
100
AcDbEntity
  8
BEM
100
AcDbText
 10
3412.257320868169
 20
1460.442676898019
 30
0.0
 40
2.5
  1

 41
0.8
  7
GREEKS
100
AcDbText
  0
TEXT
  5
398E
330
46E2
100
AcDbEntity
  8
BEM
100
AcDbText
 10
3412.184376390794
 20
1455.937487947921
 30
0.0
 40
1.8
  1

 41
0.8
  7
GREEKS
100
AcDbText
  0
TEXT
  5
398F
330
46E2
100
AcDbEntity
  8
BEM
100
AcDbText
 10
3399.500805511183
 20
1481.529077044147
 30
0.0
 40
2.0
  1

 41
0.8
  7
GREEKS
 72
     1
 11
3399.500805511183
 21
1481.529077044147
 31
0.0
100
AcDbText
  0
TEXT
  5
3990
330
46E2
100
AcDbEntity
  8
TEXT
100
AcDbText
 10
3709.601524232477
 20
1471.206800480739
 30
0.0
 40
2.5
  1
  
  7
GREEKS
 72
     1
 11
3711.863428994382
 21
1471.206800480739
 31
0.0
100
AcDbText
  0
TEXT
  5
3991
330
46E2
100
AcDbEntity
  8
BEM
100
AcDbText
 10
3953.721241544959
 20
1606.765682511142
 30
0.0
 40
2.5
  1
 
 72
     4
 11
3954.852193925911
 21
1606.765682511142
 31
0.0
100
AcDbText
  0
TEXT
  5
3992
330
46E2
100
AcDbEntity
  8
VOLL
100
AcDbText
 10
2755.889993753428
 20
1804.081974702373
 30
0.0
 40
1.8
  1

  7
GREEKS
100
AcDbText
  0
TEXT
  5
3993
330
46E2
100
AcDbEntity
  8
TEXT
100
AcDbText
 10
3087.722261957021
 20
1809.640210235599
 30
0.0
 40
2.5
  1
  
  7
GREEKS
 72
     1
 11
3089.984166718926
 21
1809.640210235599
 31
0.0
100
AcDbText
  0
TEXT
  5
3994
330
46E2
100
AcDbEntity
  8
BEM
100
AcDbText
 10
3331.841979269503
 20
1945.199092266001
 30
0.0
 40
2.5
  1
 
 72
     4
 11
3332.972931650455
 21
1945.199092266001
 31
0.0
100
AcDbText
  0
TEXT
  5
3995
330
46E2
100
AcDbEntity
  8
BEM
100
AcDbText
 10
2870.379012131595
 20
1867.020900803147
 30
0.0
 40
2.5
  1

  7
GREEKS
100
AcDbText
  0
TEXT
  5
3996
330
46E2
100
AcDbEntity
  8
VOLL
100
AcDbText
 10
2856.312819111874
 20
1846.837640146112
 30
0.0
 40
1.8
  1

  7
GREEKS
100
AcDbText
  0
TEXT
  5
3997
330
46E2
100
AcDbEntity
  8
BEM
100
AcDbText
 10
2890.800883951158
 20
1851.563364469333
 30
0.0
 40
2.5
  1

 41
0.8
  7
GREEKS
100
AcDbText
  0
TEXT
  5
3998
330
46E2
100
AcDbEntity
  8
BEM
100
AcDbText
 10
2890.800883951158
 20
1846.86959591528
 30
0.0
 40
2.5
  1

 41
0.8
  7
GREEKS
100
AcDbText
  0
TEXT
  5
3999
330
46E2
100
AcDbEntity
  8
BEM
100
AcDbText
 10
2890.800883951158
 20
1841.631752096617
 30
0.0
 40
2.5
  1

 41
0.8
  7
GREEKS
100
AcDbText
  0
TEXT
  5
399A
330
46E2
100
AcDbEntity
  8
BEM
100
AcDbText
 10
2890.727939473784
 20
1837.126563146519
 30
0.0
 40
1.8
  1

 41
0.8
  7
GREEKS
100
AcDbText
  0
TEXT
  5
399B
330
46E2
100
AcDbEntity
  8
BEM
100
AcDbText
 10
2878.044368594173
 20
1862.718152242745
 30
0.0
 40
2.0
  1

 41
0.8
  7
GREEKS
 72
     1
 11
2878.044368594173
 21
1862.718152242745
 31
0.0
100
AcDbText
  0
TEXT
  5
399C
330
46E2
100
AcDbEntity
  8
TEXT
100
AcDbText
 10
3188.145087315467
 20
1852.395875679337
 30
0.0
 40
2.5
  1
  
  7
GREEKS
 72
     1
 11
3190.406992077372
 21
1852.395875679337
 31
0.0
100
AcDbText
  0
TEXT
  5
399D
330
46E2
100
AcDbEntity
  8
BEM
100
AcDbText
 10
3432.264804627949
 20
1987.95475770974
 30
0.0
 40
2.5
  1
 
 72
     4
 11
3433.395757008901
 21
1987.95475770974
 31
0.0
100
AcDbText
  0
TEXT
  5
399E
330
46E2
100
AcDbEntity
  8
VOLL
100
AcDbText
 10
3188.937838516848
 20
2072.335460228409
 30
0.0
 40
1.8
  1

  7
GREEKS
100
AcDbText
  0
TEXT
  5
399F
330
46E2
100
AcDbEntity
  8
VOLL
100
AcDbText
 10
3501.119040782397
 20
2042.661067804103
 30
0.0
 40
1.8
  1

  7
GREEKS
100
AcDbText
  0
TEXT
  5
39A0
330
46E2
100
AcDbEntity
  8
TEXT
100
AcDbText
 10
3832.95130898599
 20
2048.219303337329
 30
0.0
 40
2.5
  1
  
  7
GREEKS
 72
     1
 11
3835.213213747895
 21
2048.219303337329
 31
0.0
100
AcDbText
  0
TEXT
  5
39A1
330
46E2
100
AcDbEntity
  8
BEM
100
AcDbText
 10
4077.071026298471
 20
2183.778185367731
 30
0.0
 40
2.5
  1
 
 72
     4
 11
4078.201978679423
 21
2183.778185367731
 31
0.0
100
AcDbText
  0
TEXT
  5
39A2
330
46E2
100
AcDbEntity
  8
BEM
100
AcDbText
 10
3615.608059160564
 20
2105.599993904877
 30
0.0
 40
2.5
  1

  7
GREEKS
100
AcDbText
  0
TEXT
  5
39A3
330
46E2
100
AcDbEntity
  8
VOLL
100
AcDbText
 10
3601.541866140843
 20
2085.416733247841
 30
0.0
 40
1.8
  1

  7
GREEKS
100
AcDbText
  0
TEXT
  5
39A4
330
46E2
100
AcDbEntity
  8
BEM
100
AcDbText
 10
3636.029930980127
 20
2090.142457571062
 30
0.0
 40
2.5
  1

 41
0.8
  7
GREEKS
100
AcDbText
  0
TEXT
  5
39A5
330
46E2
100
AcDbEntity
  8
BEM
100
AcDbText
 10
3636.029930980127
 20
2085.44868901701
 30
0.0
 40
2.5
  1

 41
0.8
  7
GREEKS
100
AcDbText
  0
TEXT
  5
39A6
330
46E2
100
AcDbEntity
  8
BEM
100
AcDbText
 10
3636.029930980127
 20
2080.210845198346
 30
0.0
 40
2.5
  1

 41
0.8
  7
GREEKS
100
AcDbText
  0
TEXT
  5
39A7
330
46E2
100
AcDbEntity
  8
BEM
100
AcDbText
 10
3635.956986502753
 20
2075.705656248249
 30
0.0
 40
1.8
  1

 41
0.8
  7
GREEKS
100
AcDbText
  0
TEXT
  5
39A8
330
46E2
100
AcDbEntity
  8
BEM
100
AcDbText
 10
3623.273415623142
 20
2101.297245344474
 30
0.0
 40
2.0
  1

 41
0.8
  7
GREEKS
 72
     1
 11
3623.273415623142
 21
2101.297245344474
 31
0.0
100
AcDbText
  0
TEXT
  5
39A9
330
46E2
100
AcDbEntity
  8
TEXT
100
AcDbText
 10
3933.374134344435
 20
2090.974968781067
 30
0.0
 40
2.5
  1
  
  7
GREEKS
 72
     1
 11
3935.63603910634
 21
2090.974968781067
 31
0.0
100
AcDbText
  0
TEXT
  5
39AA
330
46E2
100
AcDbEntity
  8
BEM
100
AcDbText
 10
4177.493851656917
 20
2226.533850811469
 30
0.0
 40
2.5
  1
 
 72
     4
 11
4178.624804037869
 21
2226.533850811469
 31
0.0
100
AcDbText
  0
TEXT
  5
39AB
330
46E2
100
AcDbEntity
  8
VOLL
100
AcDbText
 10
2917.861186582201
 20
2453.896711102768
 30
0.0
 40
1.8
  1

  7
GREEKS
100
AcDbText
  0
TEXT
  5
39AC
330
46E2
100
AcDbEntity
  8
VOLL
100
AcDbText
 10
3227.284646803918
 20
2480.821422461048
 30
0.0
 40
1.8
  1

  7
GREEKS
100
AcDbText
  0
TEXT
  5
39AD
330
46E2
100
AcDbEntity
  8
VOLL
100
AcDbText
 10
3539.465849069466
 20
2451.147030036742
 30
0.0
 40
1.8
  1

  7
GREEKS
100
AcDbText
  0
TEXT
  5
39AE
330
46E2
100
AcDbEntity
  8
TEXT
100
AcDbText
 10
3871.298117273059
 20
2456.705265569967
 30
0.0
 40
2.5
  1
  
  7
GREEKS
 72
     1
 11
3873.560022034963
 21
2456.705265569967
 31
0.0
100
AcDbText
  0
TEXT
  5
39AF
330
46E2
100
AcDbEntity
  8
BEM
100
AcDbText
 10
4115.417834585541
 20
2592.264147600369
 30
0.0
 40
2.5
  1
 
 72
     4
 11
4116.548786966492
 21
2592.264147600369
 31
0.0
100
AcDbText
  0
TEXT
  5
39B0
330
46E2
100
AcDbEntity
  8
BEM
100
AcDbText
 10
3653.954867447633
 20
2514.085956137515
 30
0.0
 40
2.5
  1

  7
GREEKS
100
AcDbText
  0
TEXT
  5
39B1
330
46E2
100
AcDbEntity
  8
VOLL
100
AcDbText
 10
3639.888674427912
 20
2493.902695480481
 30
0.0
 40
1.8
  1

  7
GREEKS
100
AcDbText
  0
TEXT
  5
39B2
330
46E2
100
AcDbEntity
  8
BEM
100
AcDbText
 10
3674.376739267196
 20
2498.628419803701
 30
0.0
 40
2.5
  1

 41
0.8
  7
GREEKS
100
AcDbText
  0
TEXT
  5
39B3
330
46E2
100
AcDbEntity
  8
BEM
100
AcDbText
 10
3674.376739267196
 20
2493.934651249649
 30
0.0
 40
2.5
  1

 41
0.8
  7
GREEKS
100
AcDbText
  0
TEXT
  5
39B4
330
46E2
100
AcDbEntity
  8
BEM
100
AcDbText
 10
3674.376739267196
 20
2488.696807430985
 30
0.0
 40
2.5
  1

 41
0.8
  7
GREEKS
100
AcDbText
  0
TEXT
  5
39B5
330
46E2
100
AcDbEntity
  8
BEM
100
AcDbText
 10
3674.303794789822
 20
2484.191618480888
 30
0.0
 40
1.8
  1

 41
0.8
  7
GREEKS
100
AcDbText
  0
TEXT
  5
39B6
330
46E2
100
AcDbEntity
  8
BEM
100
AcDbText
 10
3661.62022391021
 20
2509.783207577113
 30
0.0
 40
2.0
  1

 41
0.8
  7
GREEKS
 72
     1
 11
3661.62022391021
 21
2509.783207577113
 31
0.0
100
AcDbText
  0
TEXT
  5
39B7
330
46E2
100
AcDbEntity
  8
TEXT
100
AcDbText
 10
3971.720942631505
 20
2499.460931013706
 30
0.0
 40
2.5
  1
  
  7
GREEKS
 72
     1
 11
3973.98284739341
 21
2499.460931013706
 31
0.0
100
AcDbText
  0
TEXT
  5
39B8
330
46E2
100
AcDbEntity
  8
BEM
100
AcDbText
 10
4215.840659943987
 20
2635.019813044108
 30
0.0
 40
2.5
  1
 
 72
     4
 11
4216.971612324939
 21
2635.019813044108
 31
0.0
100
AcDbText
  0
TEXT
  5
39B9
330
46E2
100
AcDbEntity
  8
VOLL
100
AcDbText
 10
2884.009185629038
 20
2849.66051664432
 30
0.0
 40
1.8
  1

  7
GREEKS
100
AcDbText
  0
TEXT
  5
39BA
330
46E2
100
AcDbEntity
  8
TEXT
100
AcDbText
 10
3215.841453832631
 20
2855.218752177545
 30
0.0
 40
2.5
  1
  
  7
GREEKS
 72
     1
 11
3218.103358594536
 21
2855.218752177545
 31
0.0
100
AcDbText
  0
TEXT
  5
39BB
330
46E2
100
AcDbEntity
  8
BEM
100
AcDbText
 10
3459.961171145113
 20
2990.777634207947
 30
0.0
 40
2.5
  1
 
 72
     4
 11
3461.092123526066
 21
2990.777634207947
 31
0.0
100
AcDbText
  0
TEXT
  5
39BC
330
46E2
100
AcDbEntity
  8
BEM
100
AcDbText
 10
3111.033074418851
 20
2869.999050928917
 30
0.0
 40
2.5
  1

  7
GREEKS
100
AcDbText
  0
TEXT
  5
39BD
330
46E2
100
AcDbEntity
  8
VOLL
100
AcDbText
 10
3096.966881399128
 20
2849.815790271883
 30
0.0
 40
1.8
  1

  7
GREEKS
100
AcDbText
  0
TEXT
  5
39BE
330
46E2
100
AcDbEntity
  8
BEM
100
AcDbText
 10
3131.454946238413
 20
2854.541514595103
 30
0.0
 40
2.5
  1

 41
0.8
  7
GREEKS
100
AcDbText
  0
TEXT
  5
39BF
330
46E2
100
AcDbEntity
  8
BEM
100
AcDbText
 10
3131.454946238413
 20
2849.847746041051
 30
0.0
 40
2.5
  1

 41
0.8
  7
GREEKS
100
AcDbText
  0
TEXT
  5
39C0
330
46E2
100
AcDbEntity
  8
BEM
100
AcDbText
 10
3131.454946238413
 20
2844.609902222387
 30
0.0
 40
2.5
  1

 41
0.8
  7
GREEKS
100
AcDbText
  0
TEXT
  5
39C1
330
46E2
100
AcDbEntity
  8
BEM
100
AcDbText
 10
3131.382001761039
 20
2840.10471327229
 30
0.0
 40
1.8
  1

 41
0.8
  7
GREEKS
100
AcDbText
  0
TEXT
  5
39C2
330
46E2
100
AcDbEntity
  8
BEM
100
AcDbText
 10
3118.698430881428
 20
2865.696302368515
 30
0.0
 40
2.0
  1

 41
0.8
  7
GREEKS
 72
     1
 11
3118.698430881428
 21
2865.696302368515
 31
0.0
100
AcDbText
  0
TEXT
  5
39C3
330
46E2
100
AcDbEntity
  8
TEXT
100
AcDbText
 10
3428.799149602722
 20
2855.374025805108
 30
0.0
 40
2.5
  1
  
  7
GREEKS
 72
     1
 11
3431.061054364626
 21
2855.374025805108
 31
0.0
100
AcDbText
  0
TEXT
  5
39C4
330
46E2
100
AcDbEntity
  8
BEM
100
AcDbText
 10
3672.918866915204
 20
2990.932907835511
 30
0.0
 40
2.5
  1
 
 72
     4
 11
3674.049819296156
 21
2990.932907835511
 31
0.0
100
AcDbText
  0
TEXT
  5
39C5
330
46E2
100
AcDbEntity
  8
VOLL
100
AcDbText
 10
2757.175530186371
 20
1181.891034252655
 30
0.0
 40
1.8
  1

  7
GREEKS
100
AcDbText
  0
TEXT
  5
39C6
330
46E2
100
AcDbEntity
  8
TEXT
100
AcDbText
 10
3089.007798389965
 20
1187.449269785881
 30
0.0
 40
2.5
  1
  
  7
GREEKS
 72
     1
 11
3091.26970315187
 21
1187.449269785881
 31
0.0
100
AcDbText
  0
TEXT
  5
39C7
330
46E2
100
AcDbEntity
  8
BEM
100
AcDbText
 10
3333.127515702447
 20
1323.008151816283
 30
0.0
 40
2.5
  1
 
 72
     4
 11
3334.258468083399
 21
1323.008151816283
 31
0.0
100
AcDbText
  0
TEXT
  5
39C8
330
46E2
100
AcDbEntity
  8
BEM
100
AcDbText
 10
2984.199418976183
 20
1202.229568537253
 30
0.0
 40
2.5
  1

  7
GREEKS
100
AcDbText
  0
TEXT
  5
39C9
330
46E2
100
AcDbEntity
  8
VOLL
100
AcDbText
 10
2970.133225956462
 20
1182.046307880218
 30
0.0
 40
1.8
  1

  7
GREEKS
100
AcDbText
  0
TEXT
  5
39CA
330
46E2
100
AcDbEntity
  8
BEM
100
AcDbText
 10
3004.621290795746
 20
1186.772032203439
 30
0.0
 40
2.5
  1

 41
0.8
  7
GREEKS
100
AcDbText
  0
TEXT
  5
39CB
330
46E2
100
AcDbEntity
  8
BEM
100
AcDbText
 10
3004.621290795746
 20
1182.078263649387
 30
0.0
 40
2.5
  1

 41
0.8
  7
GREEKS
100
AcDbText
  0
TEXT
  5
39CC
330
46E2
100
AcDbEntity
  8
BEM
100
AcDbText
 10
3004.621290795746
 20
1176.840419830723
 30
0.0
 40
2.5
  1

 41
0.8
  7
GREEKS
100
AcDbText
  0
TEXT
  5
39CD
330
46E2
100
AcDbEntity
  8
BEM
100
AcDbText
 10
3004.548346318372
 20
1172.335230880626
 30
0.0
 40
1.8
  1

 41
0.8
  7
GREEKS
100
AcDbText
  0
TEXT
  5
39CE
330
46E2
100
AcDbEntity
  8
BEM
100
AcDbText
 10
2991.864775438761
 20
1197.926819976851
 30
0.0
 40
2.0
  1

 41
0.8
  7
GREEKS
 72
     1
 11
2991.864775438761
 21
1197.926819976851
 31
0.0
100
AcDbText
  0
TEXT
  5
39CF
330
46E2
100
AcDbEntity
  8
TEXT
100
AcDbText
 10
3301.965494160055
 20
1187.604543413444
 30
0.0
 40
2.5
  1
  
  7
GREEKS
 72
     1
 11
3304.227398921959
 21
1187.604543413444
 31
0.0
100
AcDbText
  0
TEXT
  5
39D0
330
46E2
100
AcDbEntity
  8
BEM
100
AcDbText
 10
3546.085211472537
 20
1323.163425443846
 30
0.0
 40
2.5
  1
 
 72
     4
 11
3547.21616385349
 21
1323.163425443846
 31
0.0
100
AcDbText
  0
TEXT
  5
39D1
330
46E2
100
AcDbEntity
  8
VOLL
100
AcDbText
 10
2558.967000731156
 20
1028.04751918962
 30
0.0
 40
3.6
  1

  7
GREEKS
100
AcDbText
  0
TEXT
  5
3A0A
330
46E2
100
AcDbEntity
  8
VOLL
100
AcDbText
 10
3127.666356676814
 20
1181.622003530158
 30
0.0
 40
1.8
  1

  7
GREEKS
100
AcDbText
  0
TEXT
  5
3A0B
330
46E2
100
AcDbEntity
  8
VOLL
100
AcDbText
 10
3136.426303995933
 20
1220.628482988634
 30
0.0
 40
1.8
  1

  7
GREEKS
100
AcDbText
  0
TEXT
  5
3A0D
330
46E2
100
AcDbEntity
  8
VOLL
100
AcDbText
 10
3927.903443910966
 20
1141.402484532063
 30
0.0
 40
1.8
  1

  7
GREEKS
100
AcDbText
  0
TEXT
  5
3A0E
330
46E2
100
AcDbEntity
  8
VOLL
100
AcDbText
 10
3877.607084916606
 20
1256.638074938422
 30
0.0
 40
1.8
  1

  7
GREEKS
100
AcDbText
  0
TEXT
  5
3A0F
330
46E2
100
AcDbEntity
  8
VOLL
100
AcDbText
 10
4634.561360740146
 20
1274.474190140245
 30
0.0
 40
1.8
  1

  7
GREEKS
100
AcDbText
  0
TEXT
  5
3A10
330
46E2
100
AcDbEntity
  8
VOLL
100
AcDbText
 10
4550.734096198548
 20
1282.28677288557
 30
0.0
 40
1.8
  1

  7
GREEKS
100
AcDbText
  0
TEXT
  5
3A11
330
46E2
100
AcDbEntity
  8
VOLL
100
AcDbText
 10
5274.476319809147
 20
1385.598572381404
 30
0.0
 40
1.8
  1

  7
GREEKS
100
AcDbText
  0
TEXT
  5
3A12
330
46E2
100
AcDbEntity
  8
VOLL
100
AcDbText
 10
5302.261390360708
 20
1462.20617994684
 30
0.0
 40
1.8
  1

  7
GREEKS
100
AcDbText
  0
INSERT
  5
3BC1
330
46E2
100
AcDbEntity
  8
STEMPEL
100
AcDbBlockReference
  2
LOGO
 10
795.6760802813287
 20
916.9705276546521
 30
0.0
 41
2.0
 42
2.0
 43
2.0
 50
90.0
  0
TEXT
  5
3BC2
330
46E2
100
AcDbEntity
  8
TEXT
100
AcDbText
 10
766.8541631609587
 20
916.542601095182
 30
0.0
 40
3.6
  1
2011
 50
90.0
  7
GREEKS
100
AcDbText
  0
TEXT
  5
3BC3
330
46E2
100
AcDbEntity
  8
TEXT
100
AcDbText
 10
796.4705361035021
 20
915.6006777387295
 30
0.0
 40
3.6
  1
Norm.
 50
90.0
  7
GREEKS
100
AcDbText
  0
TEXT
  5
3BC4
330
46E2
100
AcDbEntity
  8
TEXT
100
AcDbText
 10
786.3107370857164
 20
915.5515086571663
 30
0.0
 40
3.6
  1
Gepr.
 50
90.0
  7
GREEKS
100
AcDbText
  0
TEXT
  5
3BC5
330
46E2
100
AcDbEntity
  8
TEXT
100
AcDbText
 10
737.5379104912913
 20
921.5163572150368
 30
0.0
 40
5.0
  1
Maßstab
 50
90.0
  7
GREEKS
100
AcDbText
  0
LINE
  5
3BC6
330
46E2
100
AcDbEntity
  8
HILF
100
AcDbLine
 10
790.0000000000004
 20
913.9999999999993
 30
0.0
 11
790.0000000000004
 21
997.9999999999991
 31
0.0
  0
LINE
  5
3BC7
330
46E2
100
AcDbEntity
  8
HILF
100
AcDbLine
 10
780.0000000000005
 20
913.9999999999993
 30
0.0
 11
780.0000000000005
 21
997.9999999999991
 31
0.0
  0
LINE
  5
3BC8
330
46E2
100
AcDbEntity
  8
HILF
100
AcDbLine
 10
770.0000000000004
 20
913.9999999999993
 30
0.0
 11
770.0000000000004
 21
997.9999999999991
 31
0.0
  0
TEXT
  5
3BC9
330
46E2
100
AcDbEntity
  8
TEXT
100
AcDbText
 10
726.4045780774095
 20
818.2031266103846
 30
0.0
 40
5.0
  1
Erstellt mit AUTOCAD 2004
 50
90.0
  7
GREEKS
100
AcDbText
  0
LINE
  5
3BCA
330
46E2
100
AcDbEntity
  8
HILF
100
AcDbLine
 10
800.0000000000005
 20
817.999999999999
 30
0.0
 11
800.0000000000005
 21
913.9999999999993
 31
0.0
  0
LINE
  5
3BCB
330
46E2
100
AcDbEntity
  8
HILF
100
AcDbLine
 10
790.0000000000004
 20
817.999999999999
 30
0.0
 11
790.0000000000004
 21
913.9999999999993
 31
0.0
  0
LINE
  5
3BCC
330
46E2
100
AcDbEntity
  8
HILF
100
AcDbLine
 10
780.0000000000005
 20
817.999999999999
 30
0.0
 11
780.0000000000005
 21
913.9999999999993
 31
0.0
  0
LINE
  5
3BCD
330
46E2
100
AcDbEntity
  8
HILF
100
AcDbLine
 10
770.0000000000004
 20
817.999999999999
 30
0.0
 11
770.0000000000004
 21
913.9999999999993
 31
0.0
  0
LINE
  5
3BCE
330
46E2
100
AcDbEntity
  8
HILF
100
AcDbLine
 10
760.0000000000004
 20
817.999999999999
 30
0.0
 11
760.0000000000004
 21
913.9999999999993
 31
0.0
  0
LINE
  5
3BCF
330
46E2
100
AcDbEntity
  8
HILF
100
AcDbLine
 10
750.0000000000004
 20
817.999999999999
 30
0.0
 11
750.0000000000004
 21
913.9999999999993
 31
0.0
  0
LINE
  5
3BD0
330
46E2
100
AcDbEntity
  8
HILF
100
AcDbLine
 10
740.0000000000004
 20
817.999999999999
 30
0.0
 11
740.0000000000004
 21
913.9999999999993
 31
0.0
  0
LINE
  5
3BD1
330
46E2
100
AcDbEntity
  8
STEMPEL
100
AcDbLine
 10
810.0000000000004
 20
913.9999999999991
 30
0.0
 11
810.0000000000004
 21
817.9999999999989
 31
0.0
  0
LINE
  5
3BD2
330
46E2
100
AcDbEntity
  8
STEMPEL
100
AcDbLine
 10
730.0000000000004
 20
817.999999999999
 30
0.0
 11
830.0000000000004
 21
817.9999999999989
 31
0.0
  0
TEXT
  5
3BD3
330
46E2
100
AcDbEntity
  8
TEXT
100
AcDbText
 10
826.3453415397284
 20
826.2664110704566
 30
0.0
 40
3.6
  1
Index
 50
180.0
  7
GREEKS
100
AcDbText
  0
LINE
  5
3BD4
330
46E2
100
AcDbEntity
  8
VOLL
100
AcDbLine
 10
730.0000000000004
 20
891.9999999999992
 30
0.0
 11
830.0000000000004
 21
891.9999999999989
 31
0.0
  0
LINE
  5
3BD5
330
46E2
100
AcDbEntity
  8
VOLL
100
AcDbLine
 10
730.0000000000004
 20
871.9999999999993
 30
0.0
 11
830.0000000000004
 21
871.9999999999988
 31
0.0
  0
LINE
  5
3BD6
330
46E2
100
AcDbEntity
  8
VOLL
100
AcDbLine
 10
730.0000000000004
 20
831.9999999999991
 30
0.0
 11
830.0000000000004
 21
831.9999999999989
 31
0.0
  0
LINE
  5
3BD7
330
46E2
100
AcDbEntity
  8
STEMPEL
100
AcDbLine
 10
730.0000000000004
 20
913.9999999999993
 30
0.0
 11
830.0000000000004
 21
913.9999999999991
 31
0.0
  0
TEXT
  5
3BD8
330
46E2
100
AcDbEntity
  8
TEXT
100
AcDbText
 10
776.3700963038209
 20
915.5836127167606
 30
0.0
 40
3.6
  1
Gez.
 50
90.0
  7
GREEKS
100
AcDbText
  0
TEXT
  5
3BD9
330
46E2
100
AcDbEntity
  8
TEXT
100
AcDbText
 10
822.3195457685509
 20
841.7646502361025
 30
0.0
 40
4.0
  1
Änderung
 50
90.0
 41
0.8
  7
GREEKS
 72
     4
 11
820.6052600542653
 21
852.5075073789595
 31
0.0
100
AcDbText
  0
TEXT
  5
3BDA
330
46E2
100
AcDbEntity
  8
TEXT
100
AcDbText
 10
822.6858368344423
 20
896.741393877531
 30
0.0
 40
4.0
  1
Name
 50
90.0
 41
0.8
  7
GREEKS
 72
     4
 11
820.6858368344423
 21
903.0652034013405
 31
0.0
100
AcDbText
  0
TEXT
  5
3BDB
330
46E2
100
AcDbEntity
  8
TEXT
100
AcDbText
 10
821.9408496440419
 20
878.4224784084136
 30
0.0
 40
4.0
  1
Tag
 50
90.0
 41
0.8
  7
GREEKS
 72
     4
 11
820.6075163107083
 21
882.1558117417469
 31
0.0
100
AcDbText
  0
LINE
  5
3BDC
330
46E2
100
AcDbEntity
  8
HILF
100
AcDbLine
 10
825.1060174197172
 20
1002.773680109694
 30
0.0
 11
825.1060174197172
 21
1172.858883932672
 31
0.0
  0
TEXT
  5
3BDD
330
46E2
100
AcDbEntity
  8
TEXT
 62
     1
100
AcDbText
 10
752.9813625823644
 20
1114.904439484235
 30
0.0
 40
7.0
  1
58057125W
 50
90.0
 41
0.8
  7
GREEKS
 72
     1
 11
752.9813625823644
 21
1138.371106150902
 31
0.0
100
AcDbText
  0
TEXT
  5
3BDE
330
46E2
100
AcDbEntity
  8
TEXT
100
AcDbText
 10
787.9258382212142
 20
1105.2400861497
 30
0.0
 40
5.0
  1
ersetzt durch:
 50
90.0
  7
GREEKS
100
AcDbText
  0
TEXT
  5
3BDF
330
46E2
100
AcDbEntity
  8
TEXT
100
AcDbText
 10
766.8188176290004
 20
1104.723861629699
 30
0.0
 40
5.0
  1
Ersatz für:
 50
90.0
  7
GREEKS
100
AcDbText
  0
TEXT
  5
3BE0
330
46E2
100
AcDbEntity
  8
TEXT
100
AcDbText
 10
737.6867965462865
 20
1104.178754957633
 30
0.0
 40
5.0
  1
Zeichnungs Nr.
 50
90.0
  7
GREEKS
100
AcDbText
  0
LINE
  5
3BE1
330
46E2
100
AcDbEntity
  8
HILF
100
AcDbLine
 10
756.2201636304421
 20
1104.723861629699
 30
0.0
 11
756.2201636304421
 21
1172.858883932672
 31
0.0
  0
TEXT
  5
3BE2
330
46E2
100
AcDbEntity
  8
TEXT
100
AcDbText
 10
788.1591534980097
 20
1002.862987254256
 30
0.0
 40
5.0
  1
EDV-Art.Nr.58057.125X
 50
90.0
 41
0.8
  7
GREEKS
100
AcDbText
  0
TEXT
  5
3BE3
330
46E2
100
AcDbEntity
  8
TEXT
100
AcDbText
 10
778.6322720157131
 20
1002.862987254256
 30
0.0
 40
5.0
  1
Reinigungsöffnung versenkt
 50
90.0
 41
0.8
  7
GREEKS
100
AcDbText
  0
TEXT
  5
3BE4
330
46E2
100
AcDbEntity
  8
TEXT
100
AcDbText
 10
797.8049542698649
 20
1002.971340053455
 30
0.0
 40
3.6
  1
58057125W.DWG
 50
90.0
  7
GREEKS
100
AcDbText
  0
TEXT
  5
3BE5
330
46E2
100
AcDbEntity
  8
TEXT
100
AcDbText
 10
767.7034887269591
 20
1002.862987254256
 30
0.0
 40
5.0
  1
mit Reinigungsöffnung
 50
90.0
 41
0.8
  7
GREEKS
100
AcDbText
  0
TEXT
  5
3BE6
330
46E2
100
AcDbEntity
  8
TEXT
100
AcDbText
 10
809.1543942980697
 20
1002.742238391135
 30
0.0
 40
5.0
  1
Bauvorhaben
 50
90.0
  7
GREEKS
100
AcDbText
  0
TEXT
  5
3BE7
330
46E2
100
AcDbEntity
  8
TEXT
100
AcDbText
 10
737.4510671988223
 20
1002.8779403809
 30
0.0
 40
5.0
  1
Benennung
 50
90.0
  7
GREEKS
100
AcDbText
  0
LINE
  5
3BE8
330
46E2
100
AcDbEntity
  8
HILF
100
AcDbLine
 10
790.0000000000004
 20
1002.773680109694
 30
0.0
 11
790.0000000000004
 21
1094.62978425148
 31
0.0
  0
LINE
  5
3BE9
330
46E2
100
AcDbEntity
  8
HILF
100
AcDbLine
 10
780.0000000000005
 20
1002.773680109694
 30
0.0
 11
780.0000000000005
 21
1094.62978425148
 31
0.0
  0
LINE
  5
3BEA
330
46E2
100
AcDbEntity
  8
HILF
100
AcDbLine
 10
770.0000000000004
 20
1002.773680109694
 30
0.0
 11
770.0000000000004
 21
1094.62978425148
 31
0.0
  0
LINE
  5
3BEB
330
46E2
100
AcDbEntity
  8
HILF
100
AcDbLine
 10
755.9624175243588
 20
1002.773680109694
 30
0.0
 11
755.9624175243588
 21
1094.62978425148
 31
0.0
  0
TEXT
  5
3BEC
330
46E2
100
AcDbEntity
  8
TEXT
 62
     1
100
AcDbText
 10
753.0058791601472
 20
1002.979117340994
 30
0.0
 40
7.0
  1
Verbundrohr DN 125
 50
90.0
 41
0.8
  7
GREEKS
100
AcDbText
  0
LINE
  5
3BED
330
46E2
100
AcDbEntity
  8
VOLL
100
AcDbLine
 10
730.0000000000004
 20
957.9999999999992
 30
0.0
 11
800.0000000000005
 21
957.9999999999991
 31
0.0
  0
LINE
  5
3BEE
330
46E2
100
AcDbEntity
  8
VOLL
100
AcDbLine
 10
760.0000000000004
 20
931.9999999999993
 30
0.0
 11
800.0000000000005
 21
931.9999999999993
 31
0.0
  0
LINE
  5
3BEF
330
46E2
100
AcDbEntity
  8
STEMPEL
100
AcDbLine
 10
730.0000000000004
 20
997.9999999999991
 30
0.0
 11
830.0000000000004
 21
997.9999999999991
 31
0.0
  0
TEXT
  5
3BF0
330
46E2
100
AcDbEntity
  8
TEXT
100
AcDbText
 10
745.3975008577726
 20
977.5416764323635
 30
0.0
 40
4.0
  1

 50
90.0
 41
0.8
  7
GREEKS
 72
     1
 11
745.3975008577726
 21
977.5416764323635
 31
0.0
100
AcDbText
  0
TEXT
  5
3BF1
330
46E2
100
AcDbEntity
  8
TEXT
100
AcDbText
 10
776.4974674124914
 20
971.9293289049163
 30
0.0
 40
3.6
  1
Koeh
 50
90.0
  7
GREEKS
 72
     1
 11
776.4974674124914
 21
977.8436146192021
 31
0.0
100
AcDbText
  0
TEXT
  5
3BF2
330
46E2
100
AcDbEntity
  8
TEXT
100
AcDbText
 10
766.690389080848
 20
970.4626584226287
 30
0.0
 40
3.6
  1
Name
 50
90.0
  7
GREEKS
100
AcDbText
  0
TEXT
  5
3BF3
330
46E2
100
AcDbEntity
  8
TEXT
100
AcDbText
 10
737.5815831565183
 20
965.9646614905589
 30
0.0
 40
5.0
  1
zul.Abw.
 50
90.0
 41
0.8
  7
GREEKS
100
AcDbText
  0
TEXT
  5
3BF4
330
46E2
100
AcDbEntity
  8
TEXT
 62
     1
100
AcDbText
 10
753.7758949562681
 20
926.806431036444
 30
0.0
 40
7.0
  1
1:2
 50
90.0
  7
GREEKS
100
AcDbText
  0
TEXT
  5
3BF5
330
46E2
100
AcDbEntity
  8
TEXT
100
AcDbText
 10
776.5944676464055
 20
936.8729456249027
 30
0.0
 40
3.6
  1
03.02.
 50
90.0
  7
GREEKS
 72
     1
 11
776.5944676464055
 21
944.7586599106172
 31
0.0
100
AcDbText
  0
TEXT
  5
3BF6
330
46E2
100
AcDbEntity
  8
TEXT
100
AcDbText
 10
766.6811949877009
 20
940.3311673153641
 30
0.0
 40
3.6
  1
Tag
 50
90.0
  7
GREEKS
100
AcDbText
  0
LINE
  5
3BF7
330
46E2
100
AcDbEntity
  8
STEMPEL
100
AcDbLine
 10
730.0000000000004
 20
1099.999999999999
 30
0.0
 11
800.0000000000005
 21
1099.999999999999
 31
0.0
  0
LINE
  5
3BF8
330
46E2
100
AcDbEntity
  8
STEMPEL
100
AcDbLine
 10
760.0000000000004
 20
1177.999999999999
 30
0.0
 11
760.0000000000004
 21
913.9999999999993
 31
0.0
  0
LINE
  5
3BF9
330
46E2
100
AcDbEntity
  8
STEMPEL
100
AcDbLine
 10
800.0000000000005
 20
1177.999999999999
 30
0.0
 11
800.0000000000005
 21
913.9999999999991
 31
0.0
  0
LINE
  5
3BFA
330
46E2
100
AcDbEntity
  8
VOLL
100
AcDbLine
 10
780.0000000000005
 20
1099.999999999999
 30
0.0
 11
780.0000000000005
 21
1177.999999999999
 31
0.0
  0
LINE
  5
3C6F
330
46E2
100
AcDbEntity
  8
VERDECKT
100
AcDbLine
 10
142.3980956166027
 20
1037.304373223836
 30
0.0
 11
142.3980956166027
 21
522.3043732238363
 31
0.0
  0
LINE
  5
3C70
330
46E2
100
AcDbEntity
  8
VERDECKT
100
AcDbLine
 10
305.3980956166027
 20
1037.304373223836
 30
0.0
 11
305.3980956166026
 21
522.3043732238362
 31
0.0
  0
LINE
  5
3C73
330
46E2
100
AcDbEntity
  8
VERDECKT
100
AcDbLine
 10
146.3980956166026
 20
1021.304373223838
 30
0.0
 11
146.3980956166027
 21
1032.304373223837
 31
0.0
  0
ARC
  5
3C7F
330
46E2
100
AcDbEntity
  8
SCHRAFF
100
AcDbCircle
 39
0.2
 10
187.3980956166027
 20
211.6985802129419
 30
0.0
 40
1.927216110177163
100
AcDbArc
 50
89.99999999999747
 51
149.2943881903334
  0
INSERT
  5
3CC0
330
46E2
100
AcDbEntity
  8
SCHRAFF
100
AcDbBlockReference
  2
*X3
 10
0.0
 20
0.0
 30
0.0
1001
ACAD
1000
HATCH
1002
{
1070
    19
1000
_U
1040
0.2
1040
0.7853981633974483
1070
     0
1000
R14_HATCH_DATA
1000
3CC0
1011
1.0
1021
0.0
1031
0.0
1011
0.0
1021
1.0
1031
0.0
1011
0.0
1021
0.0
1031
1.0
1040
0.0
1010
0.0
1020
0.0
1030
1.0
1000
_U
1070
     0
1070
     0
1071
        1
1071
        7
1070
     1
1070
     1
1071
        3
1040
187.3980956166028
1040
213.6257963231191
1040
0.2646520409388475
1040
185.7410708446046
1040
212.6826690505531
1040
0.0057182008699106
1040
187.3980956166028
1040
211.8288334039954
1040
0.0
1071
        0
1070
     0
1070
     0
1040
0.7853981633974483
1040
0.2
1070
     0
1070
     1
1040
0.7853981633974483
1040
0.0
1040
0.0
1040
-0.1414213562373095
1040
0.1414213562373095
1070
     0
1040
0.0211719054628802
1071
        1
1040
186.9523163116228
1040
212.5071987323654
1040
0.0
1002
}
  0
LINE
  5
3CC2
330
46E2
100
AcDbEntity
  8
STEMPEL
100
AcDbLine
 10
260.3980956166028
 20
216.6985802129422
 30
0.0
 11
260.3980956166028
 21
226.4748737009044
 31
0.0
  0
ARC
  5
3CC3
330
46E2
100
AcDbEntity
  8
SCHRAFF
100
AcDbCircle
 39
0.2
 10
260.3980956166028
 20
211.6985802129424
 30
0.0
 40
1.86529497250442
100
AcDbArc
 50
30.7990024159969
 51
90.00000000000175
  0
INSERT
  5
3CD9
330
46E2
100
AcDbEntity
  8
SCHRAFF
100
AcDbBlockReference
  2
*X2
 10
0.0
 20
0.0
 30
0.0
1001
ACAD
1000
HATCH
1002
{
1070
    19
1000
_U
1040
0.2
1040
0.7853981633974483
1070
     0
1000
R14_HATCH_DATA
1000
3CD9
1011
1.0
1021
0.0
1031
0.0
1011
0.0
1021
1.0
1031
0.0
1011
0.0
1021
0.0
1031
1.0
1040
0.0
1010
0.0
1020
0.0
1030
1.0
1000
_U
1070
     0
1070
     0
1071
        1
1071
        7
1070
     1
1070
     1
1071
        3
1040
262.0003258232448
1040
212.6536632980059
1040
0.2642160534170011
1040
260.3980956166028
1040
213.5638751854468
1040
0.0
1040
260.3980956166028
1040
211.8288334039954
1040
0.0055280162923998
1071
        0
1070
     0
1070
     0
1040
0.7853981633974483
1040
0.2
1070
     0
1070
     1
1040
0.7853981633974483
1040
0.0
1040
0.0
1040
-0.1414213562373095
1040
0.1414213562373095
1070
     0
1040
0.0265228795604903
1071
        1
1040
261.0109784866609
1040
212.5293801738535
1040
0.0
1002
}
  0
LINE
  5
3DAA
330
46E2
100
AcDbEntity
  8
VERDECKT
100
AcDbLine
 10
150.3980956166027
 20
1023.701995779372
 30
0.0
 11
150.3980956166027
 21
1004.595373223836
 31
0.0
  0
ARC
  5
3DAB
330
46E2
100
AcDbEntity
  8
VERDECKT
100
AcDbCircle
 10
177.8980956166027
 20
1023.701995779372
 30
0.0
 40
27.5
100
AcDbArc
 50
155.0000000000032
 51
180.0
  0
LINE
  5
3DAC
330
46E2
100
AcDbEntity
  8
VERDECKT
100
AcDbLine
 10
153.898095616603
 20
1037.304373223836
 30
0.0
 11
152.9746314730948
 21
1035.323997977241
 31
0.0
  0
ARC
  5
3DAD
330
46E2
100
AcDbEntity
  8
VERDECKT
100
AcDbCircle
 10
134.3980956166027
 20
984.3043732238363
 30
0.0
 40
20.5
100
AcDbArc
 50
0.0
 51
25.0071583365491
  0
LINE
  5
3DAE
330
46E2
100
AcDbEntity
  8
VERDECKT
100
AcDbLine
 10
154.8980956166027
 20
984.3043732238363
 30
0.0
 11
154.8980956166027
 21
970.7730926465076
 31
0.0
  0
ARC
  5
3DAF
330
46E2
100
AcDbEntity
  8
VERDECKT
100
AcDbCircle
 10
170.3980956166027
 20
970.7730926465076
 30
0.0
 40
15.5
100
AcDbArc
 50
179.9999999999999
 51
214.7719440319483
  0
ARC
  5
3DB0
330
46E2
100
AcDbEntity
  8
VERDECKT
100
AcDbCircle
 10
147.3980956166027
 20
954.8043732238364
 30
0.0
 40
12.5
100
AcDbArc
 50
0.0
 51
34.77194403194834
  0
LINE
  5
3DB1
330
46E2
100
AcDbEntity
  8
VERDECKT
100
AcDbLine
 10
159.8980956166027
 20
954.8043732238364
 30
0.0
 11
159.8980956166028
 21
472.4135255811059
 31
0.0
  0
ARC
  5
3DB2
330
46E2
100
AcDbEntity
  8
VERDECKT
100
AcDbCircle
 10
177.8980956166027
 20
1004.595373223836
 30
0.0
 40
27.4997362596921
100
AcDbArc
 50
180.0
 51
205.0071583365492
  0
LINE
  5
3DB3
330
46E2
100
AcDbEntity
  8
VERDECKT
100
AcDbLine
 10
287.8980956166027
 20
954.8043732238364
 30
0.0
 11
287.8980956166028
 21
472.4135255811069
 31
0.0
  0
ARC
  5
3DB6
330
46E2
100
AcDbEntity
  8
VERDECKT
100
AcDbCircle
 10
277.3980956166028
 20
970.7730926465076
 30
0.0
 40
15.5
100
AcDbArc
 50
325.2280559680517
 51
0.0000000000001018
  0
ARC
  5
3DB7
330
46E2
100
AcDbEntity
  8
VERDECKT
100
AcDbCircle
 10
300.3980956166028
 20
954.8043732238364
 30
0.0
 40
12.5
100
AcDbArc
 50
145.2280559680516
 51
180.0
  0
LINE
  5
3DB8
330
46E2
100
AcDbEntity
  8
VERDECKT
100
AcDbLine
 10
292.8980956166028
 20
984.3043732238363
 30
0.0
 11
292.8980956166028
 21
970.7730926465076
 31
0.0
  0
ARC
  5
3DB9
330
46E2
100
AcDbEntity
  8
VERDECKT
100
AcDbCircle
 10
269.8980956166028
 20
1023.701995779372
 30
0.0
 40
27.5
100
AcDbArc
 50
0.0
 51
29.64548080340993
  0
LINE
  5
3DBA
330
46E2
100
AcDbEntity
  8
VERDECKT
100
AcDbLine
 10
297.3980956166028
 20
1023.701995779372
 30
0.0
 11
297.3980956166028
 21
1004.595373223836
 31
0.0
  0
ARC
  5
3DBB
330
46E2
100
AcDbEntity
  8
VERDECKT
100
AcDbCircle
 10
269.8980956166028
 20
1004.595373223836
 30
0.0
 40
27.4997362596921
100
AcDbArc
 50
334.992841663454
 51
0.0
  0
ARC
  5
3DBC
330
46E2
100
AcDbEntity
  8
VERDECKT
100
AcDbCircle
 10
313.3980956166028
 20
984.3043732238363
 30
0.0
 40
20.5
100
AcDbArc
 50
154.9928416634541
 51
180.0
  0
LINE
  5
3DBD
330
46E2
100
AcDbEntity
  8
VERDECKT
100
AcDbLine
 10
294.3907709464174
 20
1036.247827569484
 30
0.0
 11
294.8215597601107
 21
1035.323997977241
 31
0.0
  0
DIMENSION
  5
3E15
330
46E2
100
AcDbEntity
  8
BEM
100
AcDbDimension
  2
*D8
 10
636.408096518878
 20
1049.765283037866
 30
0.0
 11
552.408096518878
 21
1056.265283037866
 31
0.0
 70
    32
  1
%%c<>
 71
     5
 42
168.0000000000001
  3
STANDARD
100
AcDbAlignedDimension
 13
468.4080965188779
 23
1037.304373223836
 33
0.0
 14
636.408096518878
 24
1037.304373223836
 34
0.0
100
AcDbRotatedDimension
1001
ACAD
1000
DSTYLE
1002
{
1070
    40
1040
2.0
1070
    41
1040
3.5
1070
    42
1040
1.0
1070
    43
1040
8.0
1070
    44
1040
1.0
1070
    73
1070
     0
1070
    74
1070
     0
1070
    77
1070
     1
1070
    78
1070
     8
1070
    79
1070
     2
1070
   140
1040
3.5
1070
   141
1040
1.5
1070
   147
1040
1.5
1070
   172
1070
     1
1070
   178
1070
     1
1070
   179
1070
     2
1070
   279
1070
     0
1002
}
  0
TEXT
  5
4148
330
46E2
100
AcDbEntity
  8
TEXT
 62
     1
100
AcDbText
 10
763.0237878375567
 20
568.0191446782487
 30
0.0
 40
7.0
  1
Außenrohr: P235 TR1 EN10217-1 feuerverzinkt
 50
90.0
 41
0.8
100
AcDbText
  0
TEXT
  5
414A
330
46E2
100
AcDbEntity
  8
TEXT
100
AcDbText
 10
753.6270145852549
 20
962.8972601194488
 30
0.0
 40
4.0
  1
DIN EN1123-2
 50
90.0
 41
0.7
  7
GREEKS
 72
     1
 11
753.6270145852549
 21
977.7639267861154
 31
0.0
100
AcDbText
  0
POINT
  5
45EC
330
46E2
100
AcDbEntity
  8
SCHRAFF
100
AcDbPoint
 10
260.3980956166028
 20
216.0916677177279
 30
0.0
  0
TEXT
  5
474D
330
46E2
100
AcDbEntity
  8
TEXT
 62
     1
100
AcDbText
 10
778.4399611860857
 20
572.1396942665278
 30
0.0
 40
7.0
  1
Innenrohr: E195 EN10305 feuerverzinkt
 50
90.0
 41
0.8
100
AcDbText
  0
TEXT
  5
474E
330
46E2
100
AcDbEntity
  8
TEXT
 62
     1
100
AcDbText
 10
791.976112988183
 20
621.2939135313122
 30
0.0
 40
7.0
  1
und innenbeschichtet
 50
90.0
 41
0.8
100
AcDbText
  0
TEXT
  5
474F
330
46E2
100
AcDbEntity
  8
TEXT
 62
     1
100
AcDbText
 10
807.3922863367119
 20
568.7746489747178
 30
0.0
 40
7.0
  1
Dämmung: 2 K-PU-Schaum
 50
90.0
 41
0.8
100
AcDbText
  0
LINE
  5
4818
102
{ACAD_REACTORS
330
4A37
102
}
330
46E2
100
AcDbEntity
  8
STEMPEL
100
AcDbLine
 39
0.2
 10
485.9080965188777
 20
472.3043732238362
 30
0.0
 11
486.7829831541368
 21
462.3043732238364
 31
0.0
  0
LINE
  5
4819
102
{ACAD_REACTORS
330
4A37
102
}
330
46E2
100
AcDbEntity
  8
STEMPEL
100
AcDbLine
 39
0.2
 10
488.4080965188778
 20
472.4135255811057
 30
0.0
 11
489.2925327479952
 21
462.3043732238364
 31
0.0
  0
LINE
  5
4824
102
{ACAD_REACTORS
330
4A37
102
}
330
46E2
100
AcDbEntity
  8
STEMPEL
100
AcDbLine
 39
0.2
 10
616.4080965188779
 20
472.4135255811086
 30
0.0
 11
615.5236602897603
 21
462.3043732238364
 31
0.0
  0
LINE
  5
4825
102
{ACAD_REACTORS
330
4A37
102
}
330
46E2
100
AcDbEntity
  8
STEMPEL
100
AcDbLine
 39
0.2
 10
618.9080965188777
 20
472.304373223836
 30
0.0
 11
618.0332098836186
 21
462.3043732238364
 31
0.0
  0
LINE
  5
483D
330
46E2
100
AcDbEntity
  8
STEMPEL
100
AcDbLine
 39
0.2
 10
290.3980956166027
 20
472.3043732238353
 30
0.0
 11
289.5232089813436
 21
462.3043732238365
 31
0.0
  0
LINE
  5
483E
330
46E2
100
AcDbEntity
  8
VERDECKT
100
AcDbLine
 39
0.2
 10
287.8980956166028
 20
472.4135255811069
 30
0.0
 11
287.0136593874853
 21
462.3043732238365
 31
0.0
  0
LINE
  5
483F
330
46E2
100
AcDbEntity
  8
VERDECKT
100
AcDbLine
 39
0.2
 10
159.8980956166028
 20
472.4135255811059
 30
0.0
 11
160.7825318457202
 21
462.3043732238365
 31
0.0
  0
LINE
  5
4840
330
46E2
100
AcDbEntity
  8
STEMPEL
100
AcDbLine
 39
0.2
 10
157.3980956166027
 20
472.3043732238353
 30
0.0
 11
158.2729822518618
 21
462.3043732238365
 31
0.0
  0
LINE
  5
4841
330
46E2
100
AcDbEntity
  8
STEMPEL
  6
Continuous
100
AcDbLine
 10
289.5232089813436
 20
462.3043732238365
 30
0.0
 11
158.2729822518618
 21
462.3043732238365
 31
0.0
  0
LINE
  5
4842
330
46E2
100
AcDbEntity
  8
HILF
  6
Continuous
100
AcDbLine
 10
287.8885460227444
 20
472.3043732238364
 30
0.0
 11
223.8980956166025
 21
472.3043732238364
 31
0.0
  0
LINE
  5
4843
330
46E2
100
AcDbEntity
  8
HILF
  6
Continuous
100
AcDbLine
 10
159.907645210461
 20
472.3043732238364
 30
0.0
 11
287.8885460227444
 21
472.3043732238365
 31
0.0
  0
LINE
  5
4850
330
46E2
100
AcDbEntity
  8
STEMPEL
100
AcDbLine
 10
286.3980956166027
 20
228.5759466325407
 30
0.0
 11
284.5379765689837
 21
230.2462631081479
 31
0.0
  0
HATCH
  5
485F
330
46E2
100
AcDbEntity
  8
SCHRAFF
100
AcDbHatch
 10
0.0
 20
0.0
 30
0.0
210
0.0
220
0.0
230
1.0
  2
_USER
 70
     0
 71
     0
 91
        2
 92
        7
 72
     1
 73
     1
 93
        7
 10
286.3980956166027
 20
228.5759466325407
 42
0.0
 10
284.5379765689838
 20
230.2462631081479
 42
-0.0939615441240669
 10
260.3980956166028
 20
211.8288334039955
 42
0.0
 10
260.3980956166028
 20
211.6985802129424
 42
0.0
 10
260.1368869871775
 20
211.6985802129424
 42
-0.1157075023876892
 10
223.8980956166028
 20
203.1985802129422
 42
0.0
 10
223.8980956166028
 20
200.6985802129421
 42
0.2129093919439571
 97
        0
 92
        7
 72
     1
 73
     1
 93
        7
 10
187.659304246029
 20
211.6985802129419
 42
0.0
 10
187.3980956166028
 20
211.698580212942
 42
0.0
 10
187.3980956166028
 20
211.8288334039954
 42
-0.0939615441240672
 10
163.2582146642219
 20
230.2462631081479
 42
0.0
 10
161.3980956166028
 20
228.5759466325407
 42
0.2129093919439572
 10
223.8980956166028
 20
200.6985802129421
 42
0.0
 10
223.8980956166028
 20
203.1985802129422
 42
-0.115707502387686
 97
        0
 75
     0
 76
     0
 52
45.0
 41
2.0
 77
     0
 78
     1
 53
45.0
 43
0.0
 44
0.0
 45
-1.414213562373094
 46
1.414213562373095
 79
     0
 47
0.4425279623572873
 98
        2
 10
237.2723422439867
 20
202.7640749206257
 10
210.259045382124
 20
203.2066021958076
  0
HATCH
  5
4870
330
46E2
100
AcDbEntity
  8
SCHRAFF
100
AcDbHatch
 10
0.0
 20
0.0
 30
0.0
210
0.0
220
0.0
230
1.0
  2
_USER
 70
     0
 71
     0
 91
        4
 92
        7
 72
     1
 73
     1
 93
        4
 10
307.8980956166028
 20
284.6985802129422
 42
0.0
 10
305.3980956166028
 20
284.6985802129422
 42
-0.1849899174356032
 10
284.5379765689837
 20
230.2462631081479
 42
0.0
 10
286.3980956166028
 20
228.5759466325407
 42
0.1849899174356032
 97
        0
 92
        7
 72
     1
 73
     1
 93
        4
 10
223.8980956166028
 20
368.6985802129421
 42
0.0
 10
223.8980956166028
 20
366.1985802129422
 42
-0.4142135623730951
 10
305.3980956166028
 20
284.6985802129422
 42
0.0
 10
307.8980956166028
 20
284.6985802129422
 42
0.4142135623730951
 97
        0
 92
        7
 72
     1
 73
     1
 93
        4
 10
223.8980956166028
 20
368.6985802129421
 42
0.4142135623730951
 10
139.8980956166028
 20
284.6985802129422
 42
0.0
 10
142.3980956166028
 20
284.6985802129422
 42
-0.4142135623730951
 10
223.8980956166028
 20
366.1985802129422
 42
0.0
 97
        0
 92
        7
 72
     1
 73
     1
 93
        4
 10
142.3980956166028
 20
284.6985802129422
 42
0.0
 10
139.8980956166028
 20
284.6985802129422
 42
0.1849899174356032
 10
161.3980956166028
 20
228.5759466325407
 42
0.0
 10
163.2582146642219
 20
230.2462631081479
 42
-0.1849899174356032
 97
        0
 75
     0
 76
     0
 52
135.0
 41
2.0
 77
     0
 78
     1
 53
135.0
 43
0.0
 44
0.0
 45
-1.414213562373095
 46
-1.414213562373094
 79
     0
 47
0.4425279623572873
 98
        4
 10
296.6130305223296
 20
245.6892869682883
 10
305.0270103274452
 20
303.660452337142
 10
218.2301844371687
 20
366.9419507781813
 10
142.9472180487364
 20
266.9306307970287
  0
HATCH
  5
488A
330
46E2
100
AcDbEntity
  8
SCHRAFF
100
AcDbHatch
 10
0.0
 20
0.0
 30
0.0
210
0.0
220
0.0
230
1.0
  2
_USER
 70
     0
 71
     0
 91
        4
 92
        7
 72
     1
 73
     1
 93
        5
 10
223.8980956166028
 20
351.1985802129422
 42
0.0
 10
223.8980956166028
 20
348.6985802129421
 42
-0.4142135623730951
 10
287.8980956166028
 20
284.6985802129422
 42
0.0
 10
290.3980956166028
 20
284.6985802129422
 42
0.0013326945720768
 10
290.3971507481536
 20
285.0530750802819
 42
0.4126530749819612
 97
        0
 92
        7
 72
     1
 73
     1
 93
        8
 10
290.3980956166028
 20
284.6985802129422
 42
0.0
 10
287.8980956166028
 20
284.6985802129422
 42
-0.2424795021070886
 10
261.0449487634562
 20
232.5822555028659
 42
0.2424795021070777
 10
257.8980956166028
 20
226.4748737009044
 42
0.0
 10
257.8980956166028
 20
216.6985802129422
 42
0.0
 10
260.3980956166028
 20
216.6985802129421
 42
0.0
 10
260.3980956166028
 20
226.4748737009044
 42
-0.2424795021070867
 10
262.4959977145048
 20
230.5464615688791
 42
0.2424795021070874
 97
        0
 92
        7
 72
     1
 73
     1
 93
        8
 10
189.8980956166027
 20
226.4748737009044
 42
0.2424795021070794
 10
186.7512424697493
 20
232.582255502866
 42
-0.2424795021070883
 10
159.8980956166028
 20
284.6985802129422
 42
0.0
 10
157.3980956166027
 20
284.6985802129422
 42
0.2424795021070886
 10
185.3001935187004
 20
230.5464615688786
 42
-0.2424795021071071
 10
187.3980956166027
 20
226.4748737009037
 42
0.0
 10
187.3980956166027
 20
216.6985802129422
 42
0.0
 10
189.8980956166027
 20
216.6985802129422
 42
0.0
 97
        0
 92
        7
 72
     1
 73
     1
 93
        4
 10
223.8980956166028
 20
348.6985802129421
 42
0.0
 10
223.8980956166028
 20
351.1985802129422
 42
0.414213562373095
 10
157.3980956166028
 20
284.6985802129422
 42
0.0
 10
159.8980956166028
 20
284.6985802129422
 42
-0.4142135623730951
 97
        0
 75
     0
 76
     0
 52
135.0
 41
2.0
 77
     0
 78
     1
 53
135.0
 43
0.0
 44
0.0
 45
-1.414213562373095
 46
-1.414213562373094
 79
     0
 47
0.4425279623572873
 98
        4
 10
280.6707579660088
 20
316.9362907876048
 10
286.8705284670014
 20
266.9306307970287
 10
188.5598375211129
 20
220.9077220530912
 10
178.8173354657847
 20
332.4247684989782
  0
HATCH
  5
4895
330
46E2
100
AcDbEntity
  8
SCHRAFF
100
AcDbHatch
 10
0.0
 20
0.0
 30
0.0
210
0.0
220
0.0
230
1.0
  2
_USER
 70
     0
 71
     0
 91
        2
 92
        7
 72
     1
 73
     1
 93
        5
 10
260.3980956166028
 20
213.6985802129422
 42
0.0
 10
223.8980956166028
 20
213.698580212942
 42
0.0
 10
223.8980956166028
 20
211.6985802129422
 42
0.0
 10
260.1368869871775
 20
211.6985802129424
 42
0.0008953481641743
 10
260.3980956166028
 20
211.8288334039955
 42
0.0
 97
        0
 92
        7
 72
     1
 73
     1
 93
        5
 10
223.8980956166029
 20
213.6985802129421
 42
0.0
 10
187.3980956166028
 20
213.698580212942
 42
0.0
 10
187.3980956166028
 20
211.8288334039954
 42
0.0008953481641771
 10
187.659304246029
 20
211.6985802129419
 42
0.0
 10
223.8980956166028
 20
211.6985802129422
 42
0.0
 97
        0
 75
     0
 76
     0
 52
135.0
 41
2.0
 77
     0
 78
     1
 53
135.0
 43
0.0
 44
0.0
 45
-1.414213562373095
 46
-1.414213562373094
 79
     0
 47
0.120689446100943
 98
        2
 10
243.975345161608
 20
212.9221024543508
 10
216.5594612556897
 20
212.197964552689
  0
HATCH
  5
489E
330
46E2
100
AcDbEntity
  8
SCHRAFF
100
AcDbHatch
 10
0.0
 20
0.0
 30
0.0
210
0.0
220
0.0
230
1.0
  2
NET
 70
     0
 71
     1
 91
        2
 92
        7
 72
     0
 73
     1
 93
        4
 10
263.8980956166029
 20
213.6985802129423
 10
263.8980956166029
 20
216.6985802129422
 10
223.8980956166028
 20
216.6985802129422
 10
223.8980956166028
 20
213.6985802129421
 97
        4
330
AD2
330
B59
330
AD1
330
AD6
 92
        7
 72
     0
 73
     1
 93
        4
 10
183.8980956166027
 20
216.6985802129421
 10
183.8980956166027
 20
213.6985802129419
 10
223.8980956166028
 20
213.698580212942
 10
223.8980956166029
 20
216.6985802129422
 97
        4
330
AD2
330
AD3
330
AD1
330
B59
 75
     0
 76
     1
 52
45.0
 41
10.0
 77
     0
 78
     2
 53
45.0
 43
0.0
 44
0.0
 45
-0.8838834764831842
 46
0.8838834764831844
 79
     0
 53
135.0
 43
0.0
 44
0.0
 45
-0.8838834764831844
 46
-0.8838834764831842
 79
     0
 47
0.120689446100943
 98
        2
 10
241.559850666109
 20
214.9738221815587
 10
220.4242557807484
 20
215.4565807826661
  0
ARC
  5
492B
102
{ACAD_REACTORS
330
4D45
330
4DCC
102
}
330
46E2
100
AcDbEntity
  8
STEMPEL
100
AcDbCircle
 39
0.2
 10
223.8980956166028
 20
284.6985802129422
 30
0.0
 40
66.5
100
AcDbArc
 50
305.4800591032825
 51
234.5199408967175
  0
CIRCLE
  5
492C
330
46E2
100
AcDbEntity
  8
STEMPEL
100
AcDbCircle
 39
0.2
 10
223.8980956166028
 20
284.6985802129422
 30
0.0
 40
64.0
  0
CIRCLE
  5
4938
102
{ACAD_REACTORS
330
4D45
330
4DCC
102
}
330
46E2
100
AcDbEntity
  8
STEMPEL
100
AcDbCircle
 39
0.2
 10
223.8980956166028
 20
284.6985802129422
 30
0.0
 40
81.5
  0
CIRCLE
  5
4939
330
46E2
100
AcDbEntity
  8
STEMPEL
100
AcDbCircle
 39
0.2
 10
223.8980956166028
 20
284.6985802129422
 30
0.0
 40
84.0
  0
HATCH
  5
4A37
330
46E2
100
AcDbEntity
  8
SCHRAFF
100
AcDbHatch
 10
0.0
 20
0.0
 30
0.0
210
0.0
220
0.0
230
1.0
  2
_USER
 70
     0
 71
     1
 91
        3
 92
        7
 72
     1
 73
     1
 93
       10
 10
616.4080965188779
 20
472.4135255811102
 42
0.0
 10
615.5236602897603
 20
462.3043732238363
 42
0.0
 10
618.0332098836186
 20
462.3043732238363
 42
0.0
 10
618.9080965188777
 20
472.3043732238362
 42
0.0
 10
618.9080965188777
 20
784.8043732238363
 42
-0.4142135623730951
 10
619.9080965188777
 20
785.8043732238363
 42
0.0
 10
620.4080965188779
 20
785.8043732238363
 42
0.0
 10
620.4080965188779
 20
788.3043732238363
 42
0.0
 10
619.408096518878
 20
788.3043732238363
 42
0.4142135623730951
 10
616.4080965188779
 20
785.3043732238363
 42
0.0
 97
       10
330
AFF
330
AF8
330
B18
330
AF9
330
AFE
330
A89
330
4824
330
BC7
330
4825
330
17EE
 92
        7
 72
     1
 73
     1
 93
       24
 10
485.9080965188777
 20
472.3043732238354
 42
0.0
 10
486.7829831541369
 20
462.3043732238364
 42
0.0
 10
489.2925327479952
 20
462.3043732238364
 42
0.0
 10
488.4080965188776
 20
472.4135255811066
 42
0.0
 10
488.4080965188778
 20
840.880097384521
 42
0.0
 10
488.4080965188779
 20
954.8043732238364
 42
0.1528962216020378
 10
486.1759536617351
 20
961.9332658232432
 42
-0.1528962216020405
 10
483.4080965188779
 20
970.7730926465076
 42
0.0
 10
483.4080965188779
 20
984.3043732238363
 42
0.1105209126116347
 10
481.4529138230002
 20
993.0416354470231
 42
-0.1088253511824809
 10
478.9080965188779
 20
1004.595373223836
 42
0.0
 10
478.9080965188779
 20
1023.701995779372
 42
-0.1095178116832414
 10
481.4846323753699
 20
1035.323997977241
 42
0.0
 10
482.408096518878
 20
1037.304373223836
 42
0.0
 10
479.6496517214716
 20
1037.304373223836
 42
0.0
 10
479.2188629077783
 20
1036.380543631593
 42
0.10951781168324
 10
476.408096518878
 20
1023.701995779372
 42
0.0
 10
476.4080965188779
 20
1004.595373223836
 42
0.0
 10
476.4083602591859
 20
1004.595373223836
 42
0.1095494205537672
 10
479.2206861498657
 20
991.9135400330864
 42
-0.1095494205537663
 10
480.908096518878
 20
984.3043732238365
 42
0.0
 10
480.908096518878
 20
970.7730926465076
 42
0.1528962216020389
 10
484.1223822331635
 20
960.5074873033618
 42
-0.1528962216020346
 10
485.908096518878
 20
954.8043732238365
 42
0.0
 97
       24
330
A55
330
A57
330
A56
330
A32
330
A34
330
A33
330
A31
330
A37
330
A35
330
AA0
330
A36
330
A38
330
A2C
330
A2F
330
A2E
330
A2D
330
A30
330
A58
330
A59
330
17E7
330
4818
330
BC7
330
4819
330
A85
 92
        7
 72
     1
 73
     1
 93
       25
 10
616.4080965188779
 20
859.3043732238363
 42
0.4142135623730951
 10
619.408096518878
 20
856.3043732238364
 42
0.0
 10
620.4080965188778
 20
856.3043732238364
 42
0.0
 10
620.4080965188779
 20
858.8043732238363
 42
0.0
 10
619.9080965188779
 20
858.8043732238363
 42
-0.4142135623730951
 10
618.908096518878
 20
859.8043732238364
 42
0.0
 10
618.908096518878
 20
954.8043732238364
 42
-0.1528962216020387
 10
620.6938108045922
 20
960.5074873033618
 42
0.1528962216020395
 10
623.9080965188779
 20
970.7730926465076
 42
0.0
 10
623.9080965188777
 20
984.3043732238363
 42
-0.1095494205537379
 10
625.5955068878891
 20
991.9135400330844
 42
0.1095494205537856
 10
628.4078327785699
 20
1004.595373223836
 42
0.0
 10
628.4080965188778
 20
1004.595373223836
 42
0.0
 10
628.4080965188778
 20
1023.701995779372
 42
0.1095178116832425
 10
625.5973301299773
 20
1036.380543631593
 42
0.0
 10
625.1665413162839
 20
1037.304373223836
 42
0.0
 10
622.4080965188777
 20
1037.304373223836
 42
0.0
 10
623.3315606623857
 20
1035.323997977241
 42
-0.109517811683239
 10
625.9080965188777
 20
1023.701995779372
 42
0.0
 10
625.9080965188777
 20
1004.595373223836
 42
-0.1102736034490343
 10
623.2967335361812
 20
992.8989743155865
 42
0.1085781327854881
 10
621.4080965188777
 20
984.3043732238363
 42
0.0
 10
621.4080965188777
 20
970.7730926465076
 42
-0.1528962216020373
 10
618.6402393760208
 20
961.9332658232432
 42
0.1528962216020345
 10
616.4080965188779
 20
954.804373223836
 42
0.0
 97
       25
330
A5D
330
A5E
330
A3C
330
A3D
330
A3A
330
A42
330
A40
330
A43
330
A46
330
AA0
330
A45
330
A44
330
A3F
330
A41
330
A39
330
A3B
330
A5C
330
A5F
330
A5A
330
AFD
330
AFA
330
B18
330
AF7
330
B03
330
A5B
 75
     0
 76
     0
 52
45.0
 41
2.0
 77
     0
 78
     1
 53
45.0
 43
0.0
 44
0.0
 45
-1.414213562373094
 46
1.414213562373095
 79
     0
 47
1.183180032396072
 98
        3
 10
617.124997929578
 20
651.363988032092
 10
486.8831403254771
 20
667.9285063837523
 10
617.124997929578
 20
901.0149740127513
  0
HATCH
  5
4A5F
330
46E2
100
AcDbEntity
  8
SCHRAFF
100
AcDbHatch
 10
0.0
 20
0.0
 30
0.0
210
0.0
220
0.0
230
1.0
  2
_USER
 70
     0
 71
     1
 91
        3
 92
        7
 72
     0
 73
     1
 93
        5
 10
633.9080965188777
 20
912.3043732238361
 10
633.9080965188777
 20
892.3043732238362
 10
636.4080965188774
 20
892.3043732238362
 10
636.4080965188774
 20
1037.304373223836
 10
633.9080965188779
 20
1037.304373223836
 97
        5
330
AA0
330
A7A
330
B2A
330
B0B
330
A8B
 92
        7
 72
     0
 73
     1
 93
        4
 10
633.9080965188778
 20
522.3043732238364
 10
636.4080965188779
 20
522.3043732238363
 10
636.4080965188776
 20
752.3043732238364
 10
633.9080965188777
 20
752.3043732238363
 97
        4
330
B0C
330
B29
330
17F1
330
A8B
 92
        7
 72
     0
 73
     1
 93
        4
 10
470.9080965188778
 20
1037.304373223836
 10
468.4080965188775
 20
1037.304373223836
 10
468.408096518878
 20
522.3043732238361
 10
470.9080965188779
 20
522.3043732238364
 97
        4
330
AA0
330
A87
330
17E2
330
A88
 75
     0
 76
     0
 52
135.0
 41
2.0
 77
     0
 78
     1
 53
135.0
 43
0.0
 44
0.0
 45
-1.414213562373095
 46
-1.414213562373094
 79
     0
 47
1.183180032396072
 98
        3
 10
634.8852520239061
 20
958.9907965421954
 10
634.8852520239061
 20
614.685404964046
 10
470.306905472491
 20
644.2649063674853
  0
HATCH
  5
4A6C
330
46E2
100
AcDbEntity
  8
SCHRAFF
100
AcDbHatch
 10
0.0
 20
0.0
 30
0.0
210
0.0
220
0.0
230
1.0
  2
_USER
 70
     0
 71
     1
 91
        3
 92
        7
 72
     0
 73
     1
 93
        4
 10
633.9080965188776
 20
880.554373223836
 10
636.4080965188774
 20
883.3043732238358
 10
636.4080965188774
 20
892.3043732238364
 10
633.9080965188777
 20
892.304373223836
 97
        4
330
B0B
330
B2A
330
B0F
330
A8B
 92
        7
 72
     0
 73
     1
 93
        4
 10
633.9080965188777
 20
770.5543732238362
 10
636.4080965188775
 20
773.3043732238358
 10
636.4080965188775
 20
871.304373223837
 10
633.9080965188777
 20
874.0543732238366
 97
        4
330
B10
330
B29
330
B15
330
A8B
 92
        7
 72
     0
 73
     1
 93
        4
 10
636.4080965188777
 20
761.3043732238369
 10
633.9080965188778
 20
764.0543732238366
 10
633.9080965188778
 20
752.3043732238363
 10
636.4080965188776
 20
752.3043732238363
 97
        4
330
B14
330
B29
330
B0C
330
A8B
 75
     0
 76
     0
 52
45.0
 41
2.0
 77
     0
 78
     1
 53
45.0
 43
0.0
 44
0.0
 45
-1.414213562373094
 46
1.414213562373095
 79
     0
 47
0.3470350893247832
 98
        3
 10
635.00994195983
 20
887.2597557191093
 10
635.00994195983
 20
851.8621772069641
 10
635.7045061612634
 20
756.4275258947086
  0
HATCH
  5
4A71
330
46E2
100
AcDbEntity
  8
SCHRAFF
100
AcDbHatch
 10
0.0
 20
0.0
 30
0.0
210
0.0
220
0.0
230
1.0
  2
_USER
 70
     0
 71
     1
 91
        1
 92
        7
 72
     0
 73
     1
 93
        4
 10
625.4080965188797
 20
867.3043732238362
 10
623.4080965188799
 20
867.3043732238365
 10
623.4080965188779
 20
777.3043732238364
 10
625.4080965188777
 20
777.3043732238363
 97
        4
330
AF1
330
B22
330
AF5
330
B06
 75
     0
 76
     0
 52
135.0
 41
2.0
 77
     0
 78
     1
 53
135.0
 43
0.0
 44
0.0
 45
-1.414213562373095
 46
-1.414213562373094
 79
     0
 47
0.3470350893247832
 98
        1
 10
624.2442486263253
 20
854.9854919817262
  0
HATCH
  5
4A82
330
46E2
100
AcDbEntity
  8
SCHRAFF
100
AcDbHatch
 10
0.0
 20
0.0
 30
0.0
210
0.0
220
0.0
230
1.0
  2
_USER
 70
     0
 71
     1
 91
        4
 92
        7
 72
     0
 73
     1
 93
        4
 10
633.9080965188777
 20
912.3043732238363
 10
625.9080965188781
 20
912.3043732238363
 10
625.9080965188779
 20
880.5543732238364
 10
633.9080965188777
 20
880.5543732238364
 97
        4
330
AEF
330
B09
330
B0D
330
B2A
 92
        7
 72
     0
 73
     1
 93
        4
 10
633.9080965188777
 20
874.0543732238364
 10
625.9080965188779
 20
874.0543732238363
 10
625.9080965188779
 20
872.3043732238364
 10
633.9080965188777
 20
872.3043732238361
 97
        4
330
B0E
330
B27
330
AF6
330
B29
 92
        7
 72
     0
 73
     1
 93
        4
 10
633.9080965188777
 20
772.3043732238363
 10
625.9080965188778
 20
772.3043732238362
 10
625.9080965188778
 20
770.5543732238363
 10
633.9080965188777
 20
770.5543732238362
 97
        4
330
AF2
330
B0A
330
B11
330
B29
 92
        7
 72
     0
 73
     1
 93
        4
 10
633.9080965188776
 20
764.0543732238362
 10
625.9080965188779
 20
764.0543732238362
 10
625.9080965188778
 20
732.3043732238363
 10
633.9080965188777
 20
732.3043732238363
 97
        4
330
B12
330
B0A
330
AF3
330
B29
 75
     0
 76
     0
 52
135.0
 41
1.0
 77
     0
 78
     1
 53
135.0
 43
0.0
 44
0.0
 45
-0.7071067811865476
 46
-0.7071067811865475
 79
     0
 47
0.5551192448900264
 98
        4
 10
629.4802937384802
 20
901.1080210451787
 10
630.0358052701258
 20
872.7969407047453
 10
628.9247822068337
 20
771.2101176428973
 10
629.4802937384802
 20
750.6707037577917
  0
HATCH
  5
4A87
330
46E2
100
AcDbEntity
  8
SCHRAFF
100
AcDbHatch
 10
0.0
 20
0.0
 30
0.0
210
0.0
220
0.0
230
1.0
  2
NET
 70
     0
 71
     1
 91
        1
 92
        7
 72
     0
 73
     1
 93
        4
 10
623.4080965188797
 20
862.3043732238359
 10
620.4080965188779
 20
862.3043732238361
 10
620.4080965188779
 20
782.3043732238363
 10
623.408096518878
 20
782.3043732238363
 97
        4
330
B07
330
B18
330
B08
330
B22
 75
     0
 76
     1
 52
45.0
 41
15.0
 77
     0
 78
     2
 53
45.0
 43
0.0
 44
0.0
 45
-1.325825214724776
 46
1.325825214724776
 79
     0
 53
135.0
 43
0.0
 44
0.0
 45
-1.325825214724776
 46
-1.325825214724776
 79
     0
 47
0.2425914807987976
 98
        1
 10
621.2602482474485
 20
842.8784180389984
  0
HATCH
  5
4AFD
330
46E2
100
AcDbEntity
  8
SCHRAFF
100
AcDbHatch
 10
0.0
 20
0.0
 30
0.0
210
0.0
220
0.0
230
1.0
  2
NET
 70
     0
 71
     1
 91
        2
 92
        7
 72
     1
 73
     1
 93
        7
 10
628.4080965188778
 20
1023.701995779372
 42
0.0
 10
628.4080965188778
 20
1021.304373223836
 42
0.0
 10
631.5580965188778
 20
1021.304373223836
 42
0.0
 10
633.9080965188779
 20
1023.654373223836
 42
0.0
 10
633.9080965188778
 20
1037.304373223836
 42
0.0
 10
625.1665413162842
 20
1037.304373223836
 42
0.0
 10
625.5973301299773
 20
1036.380543631593
 42
-0.1095178116832425
 97
        7
330
AA0
330
A46
330
A43
330
A40
330
182E
330
182F
330
A7A
 92
        7
 72
     1
 73
     1
 93
        7
 10
479.2188629077783
 20
1036.380543631593
 42
0.0
 10
479.6496517214716
 20
1037.304373223836
 42
0.0
 10
470.9080965188779
 20
1037.304373223836
 42
0.0
 10
470.9080965188779
 20
1023.654373223838
 42
0.0
 10
473.258096518878
 20
1021.304373223837
 42
0.0
 10
476.4080965188779
 20
1021.304373223837
 42
0.0
 10
476.408096518878
 20
1023.701995779372
 42
-0.109517811683242
 97
        7
330
A36
330
AA0
330
A88
330
1826
330
1822
330
A2C
330
A38
 75
     0
 76
     1
 52
45.0
 41
15.0
 77
     0
 78
     2
 53
45.0
 43
0.0
 44
0.0
 45
-1.325825214724776
 46
1.325825214724776
 79
     0
 53
135.0
 43
0.0
 44
0.0
 45
-1.325825214724776
 46
-1.325825214724776
 79
     0
 47
0.3256732878539216
 98
        2
 10
630.0848966456324
 20
1033.114324781085
 10
475.6065773230284
 20
1033.765670605342
  0
LINE
  5
4AFE
330
46E2
100
AcDbEntity
  8
HILF
100
AcDbLine
 39
0.2
 10
619.2406461399997
 20
988.2013840425413
 30
0.0
 11
485.575546897756
 21
988.2013840425413
 31
0.0
  0
LINE
  5
4AFF
330
46E2
100
AcDbEntity
  8
HILF
100
AcDbLine
 39
0.2
 10
617.7432741082269
 20
965.3945639045028
 30
0.0
 11
487.0729189295288
 21
965.3945639045032
 31
0.0
  0
LINE
  5
4B00
330
46E2
100
AcDbEntity
  8
HILF
100
AcDbLine
 39
0.2
 10
614.2087282136947
 20
957.7924447471724
 30
0.0
 11
490.6074648240611
 21
957.7924447471719
 31
0.0
  0
TEXT
  5
4B28
330
46E2
100
AcDbEntity
  8
TEXT
 62
     1
100
AcDbText
 10
527.0185691361333
 20
845.9625075967675
 30
0.0
 40
7.0
  1
DN125
 50
90.0
 41
0.8
 72
     1
 11
527.0185691361333
 21
858.3625075967674
 31
0.0
100
AcDbText
  0
LINE
  5
4B31
330
46E2
100
AcDbEntity
  8
VERDECKT
100
AcDbLine
 39
0.2
 10
285.6987273114197
 20
957.7924447471724
 30
0.0
 11
162.0974639217862
 21
957.7924447471719
 31
0.0
  0
LINE
  5
4B32
330
46E2
100
AcDbEntity
  8
VERDECKT
100
AcDbLine
 39
0.2
 10
289.2332732059519
 20
965.3945639045028
 30
0.0
 11
158.5629180272539
 21
965.3945639045032
 31
0.0
  0
LINE
  5
4B33
330
46E2
100
AcDbEntity
  8
VERDECKT
100
AcDbLine
 39
0.2
 10
290.7306452377247
 20
988.2013840425413
 30
0.0
 11
157.065545995481
 21
988.2013840425413
 31
0.0
  0
ARC
  5
4B8A
330
46E2
100
AcDbEntity
  8
HILF
100
AcDbCircle
 39
0.2
 10
665.8262591340275
 20
822.3043732238362
 30
0.0
 40
59.77126149309067
100
AcDbArc
 50
146.7190960708987
 51
213.2809039291011
  0
LINE
  5
4BA2
102
{ACAD_REACTORS
330
4BC1
102
}
330
46E2
100
AcDbEntity
  8
STEMPEL
100
AcDbLine
 10
636.4080965188779
 20
520.3043732238352
 30
0.0
 11
618.9080965188773
 21
520.3043732238353
 31
0.0
  0
LINE
  5
4BA3
102
{ACAD_REACTORS
330
4BC1
102
}
330
46E2
100
AcDbEntity
  8
STEMPEL
100
AcDbLine
 10
628.4080965188778
 20
520.3043732238352
 30
0.0
 11
626.2645029794285
 21
528.3043732238363
 31
0.0
  0
LINE
  5
4BA4
102
{ACAD_REACTORS
330
4BC1
102
}
330
46E2
100
AcDbEntity
  8
STEMPEL
100
AcDbLine
 10
485.9080965188772
 20
520.3043732238361
 30
0.0
 11
468.408096518878
 21
520.3043732238363
 31
0.0
  0
LINE
  5
4BA5
102
{ACAD_REACTORS
330
4BC1
102
}
330
46E2
100
AcDbEntity
  8
STEMPEL
100
AcDbLine
 10
476.4080965188774
 20
520.3043732238363
 30
0.0
 11
478.5516900583266
 21
528.3043732238363
 31
0.0
  0
LINE
  5
4BA6
330
46E2
100
AcDbEntity
  8
VERDECKT
100
AcDbLine
 10
299.8980956166025
 20
520.3043732238353
 30
0.0
 11
297.7545020771533
 21
528.3043732238365
 31
0.0
  0
LINE
  5
4BA8
330
46E2
100
AcDbEntity
  8
VERDECKT
100
AcDbLine
 10
297.7545020771536
 20
528.3043732238365
 30
0.0
 11
290.3980956166027
 21
528.3043732238365
 31
0.0
  0
LINE
  5
4BA9
330
46E2
100
AcDbEntity
  8
VERDECKT
100
AcDbLine
 10
147.8980956166023
 20
520.3043732238365
 30
0.0
 11
150.0416891560513
 21
528.3043732238365
 31
0.0
  0
LINE
  5
4BAA
330
46E2
100
AcDbEntity
  8
STEMPEL
100
AcDbLine
 10
307.8980956166026
 20
520.3043732238344
 30
0.0
 11
139.8980956166027
 21
520.3043732238365
 31
0.0
  0
LINE
  5
4BAB
330
46E2
100
AcDbEntity
  8
VERDECKT
100
AcDbLine
 10
150.0416891560513
 20
528.3043732238365
 30
0.0
 11
157.3980956166025
 21
528.3043732238365
 31
0.0
  0
HATCH
  5
4BC1
330
46E2
100
AcDbEntity
  8
SCHRAFF
100
AcDbHatch
 10
0.0
 20
0.0
 30
0.0
210
0.0
220
0.0
230
1.0
  2
NET
 70
     0
 71
     1
 91
        2
 92
        7
 72
     0
 73
     1
 93
        9
 10
618.9080965188779
 20
538.3043732238364
 10
618.908096518878
 20
528.3043732238363
 10
626.2645029794283
 20
528.3043732238363
 10
628.4080965188779
 20
520.3043732238353
 10
636.4080965188779
 20
520.3043732238353
 10
636.4080965188779
 20
522.3043732238364
 10
633.9080965188777
 20
522.3043732238364
 10
633.9080965188777
 20
535.9543732238362
 10
631.5580965188776
 20
538.3043732238363
 97
        9
330
17F3
330
1802
330
17EE
330
17EA
330
4BA3
330
4BA2
330
A8B
330
17F1
330
B29
 92
        7
 72
     0
 73
     1
 93
        9
 10
473.2580965188778
 20
538.3043732238364
 10
470.9080965188777
 20
535.9543732238364
 10
470.9080965188777
 20
522.3043732238363
 10
468.408096518878
 20
522.3043732238362
 10
468.4080965188779
 20
520.3043732238363
 10
476.4080965188774
 20
520.3043732238363
 10
478.5516900583265
 20
528.3043732238363
 10
485.9080965188776
 20
528.3043732238363
 10
485.9080965188776
 20
538.3043732238363
 97
        9
330
17E1
330
17E4
330
A88
330
17E2
330
A87
330
4BA4
330
4BA5
330
17E5
330
17E7
 75
     0
 76
     1
 52
45.0
 41
20.0
 77
     0
 78
     2
 53
45.0
 43
0.0
 44
0.0
 45
-1.767766952966368
 46
1.767766952966368
 79
     0
 53
135.0
 43
0.0
 44
0.0
 45
-1.767766952966368
 46
-1.767766952966368
 79
     0
 47
0.2578146335328997
 98
        2
 10
625.9655270007515
 20
535.006477100178
 10
481.5022362817426
 20
534.2330325781554
  0
LINE
  5
4BCE
102
{ACAD_REACTORS
330
4C4A
102
}
330
46E2
100
AcDbEntity
  8
STEMPEL
100
AcDbLine
 10
470.9080965188779
 20
832.3043732238362
 30
0.0
 11
485.908096518878
 21
832.3043732238362
 31
0.0
  0
LINE
  5
4BCF
102
{ACAD_REACTORS
330
4C4A
102
}
330
46E2
100
AcDbEntity
  8
STEMPEL
100
AcDbLine
 10
470.9080965188779
 20
812.3043732238361
 30
0.0
 11
485.908096518878
 21
812.3043732238363
 31
0.0
  0
HATCH
  5
4C4A
330
46E2
100
AcDbEntity
  8
SCHRAFF
100
AcDbHatch
 10
0.0
 20
0.0
 30
0.0
210
0.0
220
0.0
230
1.0
  2
_USER
 70
     0
 71
     1
 91
        2
 92
        7
 72
     0
 73
     1
 93
        4
 10
485.9080965188779
 20
822.3043732238362
 10
485.9080965188779
 20
832.304373223836
 10
470.9080965188778
 20
832.304373223836
 10
470.9080965188777
 20
822.3043732238361
 97
        4
330
4BCE
330
A88
330
AF4
330
17E7
 92
        7
 72
     0
 73
     1
 93
        4
 10
470.9080965188779
 20
822.3043732238362
 10
470.9080965188777
 20
812.3043732238361
 10
485.908096518878
 20
812.3043732238365
 10
485.908096518878
 20
822.3043732238361
 97
        4
330
AF4
330
A88
330
4BCF
330
17E7
 75
     0
 76
     0
 52
45.0
 41
1.0
 77
     0
 78
     1
 53
45.0
 43
0.0
 44
0.0
 45
-0.7071067811865475
 46
0.7071067811865476
 79
     0
 47
0.2684379597233255
 98
        2
 10
477.5369971996387
 20
823.4307433334242
 10
476.1940800150641
 20
820.4779254905655
  0
HATCH
  5
4CFD
330
46E2
100
AcDbEntity
  8
SCHRAFF
100
AcDbHatch
 10
0.0
 20
0.0
 30
0.0
210
0.0
220
0.0
230
1.0
  2
HONEY
 70
     0
 71
     0
 91
        6
 92
        7
 72
     1
 73
     1
 93
       25
 10
618.908096518878
 20
859.8043732238364
 42
0.4142135623730951
 10
619.9080965188779
 20
858.8043732238363
 42
0.0
 10
620.4080965188778
 20
858.8043732238363
 42
0.0
 10
620.4080965188779
 20
862.3043732238359
 42
0.0
 10
623.4080965188797
 20
862.3043732238361
 42
0.0
 10
623.4080965188799
 20
867.3043732238365
 42
0.0
 10
625.4080965188798
 20
867.3043732238365
 42
0.0
 10
625.4080965188798
 20
862.3043732238363
 42
0.0
 10
633.9080965188778
 20
862.3043732238363
 42
0.0
 10
633.9080965188777
 20
872.3043732238361
 42
0.0
 10
625.9080965188779
 20
872.3043732238362
 42
0.0
 10
625.9080965188779
 20
874.0543732238363
 42
0.0
 10
625.9080965188779
 20
880.5543732238364
 42
0.0
 10
625.9080965188781
 20
912.3043732238363
 42
0.0
 10
633.9080965188778
 20
912.3043732238361
 42
0.0
 10
633.9080965188781
 20
1023.654373223836
 42
0.0
 10
631.5580965188778
 20
1021.304373223836
 42
0.0
 10
628.4080965188778
 20
1021.304373223836
 42
0.0
 10
628.4080965188778
 20
1004.595373223836
 42
0.0
 10
628.4078327785699
 20
1004.595373223836
 42
-0.109549420553738
 10
625.5955068878915
 20
991.9135400330896
 42
0.1095494205538204
 10
623.9080965188777
 20
984.3043732238362
 42
0.0
 10
623.9080965188779
 20
970.7730926465076
 42
-0.152896221602039
 10
620.6938108045923
 20
960.5074873033618
 42
0.1528962216020425
 10
618.908096518878
 20
954.8043732238362
 42
0.0
 97
        0
 92
        7
 72
     1
 73
     1
 93
       12
 10
485.908096518878
 20
954.8043732238364
 42
0.1528962216020328
 10
484.1223822331638
 20
960.5074873033615
 42
-0.1528962216020431
 10
480.908096518878
 20
970.7730926465076
 42
0.0
 10
480.908096518878
 20
984.3043732238363
 42
0.1095494205537679
 10
479.2206861498657
 20
991.9135400330864
 42
-0.1095494205537672
 10
476.4083602591859
 20
1004.595373223836
 42
0.0
 10
476.4080965188778
 20
1004.595373223836
 42
0.0
 10
476.408096518878
 20
1021.304373223837
 42
0.0
 10
473.258096518878
 20
1021.304373223837
 42
0.0
 10
470.9080965188779
 20
1023.654373223838
 42
0.0
 10
470.9080965188779
 20
832.3043732238362
 42
0.0
 10
485.9080965188779
 20
832.304373223836
 42
0.0
 97
        0
 92
        7
 72
     0
 73
     1
 93
        5
 10
470.9080965188777
 20
535.9543732238363
 10
473.2580965188777
 20
538.3043732238363
 10
485.9080965188777
 20
538.3043732238363
 10
485.908096518878
 20
812.3043732238363
 10
470.9080965188778
 20
812.3043732238361
 97
        0
 92
        7
 72
     1
 73
     1
 93
       16
 10
618.9080965188777
 20
538.3043732238363
 42
0.0
 10
631.5580965188776
 20
538.3043732238363
 42
0.0
 10
633.9080965188777
 20
535.9543732238363
 42
0.0
 10
633.9080965188778
 20
732.3043732238365
 42
0.0
 10
625.9080965188778
 20
732.3043732238363
 42
0.0
 10
625.9080965188779
 20
772.3043732238364
 42
0.0
 10
633.9080965188777
 20
772.3043732238364
 42
0.0
 10
633.9080965188776
 20
782.3043732238362
 42
0.0
 10
625.4080965188778
 20
782.3043732238362
 42
0.0
 10
625.4080965188776
 20
777.3043732238362
 42
0.0
 10
623.4080965188779
 20
777.3043732238363
 42
0.0
 10
623.408096518878
 20
782.3043732238363
 42
0.0
 10
620.4080965188779
 20
782.3043732238363
 42
0.0
 10
620.4080965188778
 20
785.8043732238363
 42
0.0
 10
619.9080965188779
 20
785.8043732238363
 42
0.4142135623731617
 10
618.9080965188777
 20
784.8043732238363
 42
0.0
 97
        0
 92
        7
 72
     0
 73
     1
 93
        4
 10
633.9080965188777
 20
822.3043732238364
 10
625.4080965188787
 20
822.3043732238366
 10
625.4080965188777
 20
782.3043732238362
 10
633.9080965188778
 20
782.3043732238363
 97
        0
 92
        7
 72
     0
 73
     1
 93
        4
 10
625.4080965188787
 20
822.3043732238362
 10
633.9080965188777
 20
822.3043732238362
 10
633.9080965188777
 20
862.3043732238361
 10
625.4080965188798
 20
862.3043732238361
 97
        0
 75
     0
 76
     1
 52
0.0
 41
30.0
 77
     0
 78
     3
 53
0.0
 43
0.0
 44
0.0
 45
5.625
 46
3.247595249999999
 79
     2
 49
3.75
 49
-7.5
 53
120.0
 43
0.0
 44
0.0
 45
-5.624999987709673
 46
3.247595271287468
 79
     2
 49
3.75
 49
-7.5
 53
60.0
 43
0.0
 44
0.0
 45
0.0000000122903263
 46
6.495190521287468
 79
     2
 49
-7.5
 49
3.75
 47
0.9225502150209967
 98
        6
 10
624.3759068228009
 20
939.4310572021391
 10
478.5341316215308
 20
934.8183061812569
 10
475.7649843761355
 20
780.7524185524112
 10
624.3759068228009
 20
687.5748461649004
 10
629.9142013135915
 20
806.5838266236042
 10
628.991155128524
 20
837.9505317999141
  0
TEXT
  5
4CFE
330
46E2
100
AcDbEntity
  8
TEXT
 62
     1
100
AcDbText
 10
777.1322376702828
 20
1138.371106150902
 30
0.0
 40
7.0
  1

 50
90.0
 41
0.8
  7
GREEKS
 72
     1
 11
777.1322376702828
 21
1138.371106150902
 31
0.0
100
AcDbText
  0
LINE
  5
4D3B
102
{ACAD_REACTORS
330
4D45
102
}
330
46E2
100
AcDbEntity
  8
STEMPEL
100
AcDbLine
 10
224.8980956166028
 20
366.143346772863
 30
0.0
 11
224.8980956166028
 21
351.1910609908467
 31
0.0
  0
LINE
  5
4D3C
102
{ACAD_REACTORS
330
4D45
330
4DCC
102
}
330
46E2
100
AcDbEntity
  8
STEMPEL
100
AcDbLine
 10
222.8980956166028
 20
366.143346772863
 30
0.0
 11
222.8980956166028
 21
351.1910609908467
 31
0.0
  0
HATCH
  5
4D45
330
46E2
100
AcDbEntity
  8
SCHRAFF
100
AcDbHatch
 10
0.0
 20
0.0
 30
0.0
210
0.0
220
0.0
230
1.0
  2
_USER
 70
     0
 71
     1
 91
        2
 92
        7
 72
     1
 73
     1
 93
        4
 10
224.8980956166028
 20
366.1924450126926
 42
0.0030675712586948
 10
223.8980956166028
 20
366.1985802129422
 42
0.0
 10
223.8980956166028
 20
351.1985802129422
 42
-0.0037595579083689
 10
224.8980956166028
 20
351.1910609908466
 42
0.0
 97
        4
330
4938
330
B59
330
492B
330
4D3B
 92
        7
 72
     1
 73
     1
 93
        4
 10
223.8980956166028
 20
366.1985802129422
 42
0.0030675712586946
 10
222.8980956166028
 20
366.1924450126926
 42
0.0
 10
222.8980956166028
 20
351.1910609908466
 42
-0.0037595579083688
 10
223.8980956166028
 20
351.1985802129422
 42
0.0
 97
        4
330
4938
330
4D3C
330
492B
330
B59
 75
     0
 76
     0
 52
45.0
 41
1.0
 77
     0
 78
     1
 53
45.0
 43
0.0
 44
0.0
 45
-0.7071067811865475
 46
0.7071067811865476
 79
     0
 47
0.1171966152698447
 98
        2
 10
224.4394982628823
 20
363.4745078670212
 10
223.6186746199446
 20
363.3573116305015
  0
HATCH
  5
4DCC
330
46E2
100
AcDbEntity
  8
SCHRAFF
100
AcDbHatch
 10
0.0
 20
0.0
 30
0.0
210
0.0
220
0.0
230
1.0
  2
HONEY
 70
     0
 71
     1
 91
        3
 92
        7
 72
     1
 73
     1
 93
        4
 10
222.8980956166028
 20
366.1924450126926
 42
0.4106242397930822
 10
142.3980956166028
 20
284.6985802129422
 42
0.0
 10
157.3980956166028
 20
284.6985802129422
 42
-0.409815814740629
 10
222.8980956166028
 20
351.1910609908466
 42
0.0
 97
        4
330
4938
330
AC9
330
492B
330
4D3C
 92
        7
 72
     1
 73
     1
 93
        8
 10
157.3980956166028
 20
284.6985802129422
 42
0.0
 10
142.3980956166028
 20
284.6985802129422
 42
0.2707308004383744
 10
183.8824736671694
 20
213.6985802129419
 42
0.0
 10
183.8980956166027
 20
213.6985802129419
 42
0.0
 10
183.8980956166027
 20
216.6985802129422
 42
0.0
 10
187.3980956166027
 20
216.6985802129421
 42
0.0
 10
187.3980956166027
 20
226.4748737009044
 42
0.2424795021070733
 10
185.3001935187003
 20
230.5464615688786
 42
-0.2424795021070884
 97
        8
330
AC9
330
4938
330
AD1
330
AD3
330
AD2
330
ACF
330
AD9
330
492B
 92
        7
 72
     1
 73
     1
 93
        4
 10
216.3980956166028
 20
211.6985802129422
 42
0.0
 10
187.659304246029
 20
211.698580212942
 42
0.0756321702879406
 10
211.0080374797951
 20
204.2243830984029
 42
-0.4249239061177785
 10
216.3980956166028
 20
207.5444059518482
 42
0.0
 97
        4
330
AD4
330
4938
330
B63
330
AEB
 75
     0
 76
     1
 52
0.0
 41
25.0
 77
     0
 78
     3
 53
0.0
 43
0.0
 44
0.0
 45
4.6875
 46
2.706329374999999
 79
     2
 49
3.125
 49
-6.25
 53
120.0
 43
0.0
 44
0.0
 45
-4.687499989758061
 46
2.706329392739557
 79
     2
 49
3.125
 49
-6.25
 53
60.0
 43
0.0
 44
0.0
 45
0.0000000102419385
 46
5.412658767739556
 79
     2
 49
-6.25
 49
3.125
 47
0.5446729869857467
 98
        3
 10
194.9446581170068
 20
353.3849501983195
 10
170.4210482915577
 20
236.2802568196557
 10
207.4789486853524
 20
209.0466088861931
  0
HATCH
  5
4DCD
330
46E2
100
AcDbEntity
  8
SCHRAFF
100
AcDbHatch
 10
0.0
 20
0.0
 30
0.0
210
0.0
220
0.0
230
1.0
  2
HONEY
 70
     0
 71
     0
 91
        3
 92
        7
 72
     1
 73
     1
 93
        4
 10
224.8980956166028
 20
366.1924450126926
 42
-0.4106242397930822
 10
305.3980956166028
 20
284.6985802129422
 42
0.0
 10
290.3980956166028
 20
284.6985802129422
 42
0.409815814740629
 10
224.8980956166028
 20
351.1910609908466
 42
0.0
 97
        0
 92
        7
 72
     1
 73
     1
 93
        8
 10
290.3980956166027
 20
284.6985802129422
 42
0.0
 10
305.3980956166028
 20
284.6985802129422
 42
-0.2707308004383744
 10
263.9137175660362
 20
213.6985802129419
 42
0.0
 10
263.8980956166029
 20
213.6985802129419
 42
0.0
 10
263.8980956166029
 20
216.6985802129422
 42
0.0
 10
260.3980956166028
 20
216.6985802129421
 42
0.0
 10
260.3980956166028
 20
226.4748737009044
 42
-0.2424795021070733
 10
262.4959977145053
 20
230.5464615688786
 42
0.2424795021070884
 97
        0
 92
        7
 72
     1
 73
     1
 93
        4
 10
231.3980956166028
 20
211.6985802129422
 42
0.0
 10
260.1368869871766
 20
211.698580212942
 42
-0.0756321702879406
 10
236.7881537534105
 20
204.2243830984029
 42
0.4249239061177785
 10
231.3980956166028
 20
207.5444059518482
 42
0.0
 97
        0
 75
     0
 76
     1
 52
0.0
 41
25.0
 77
     0
 78
     3
 53
180.0
 43
447.7961912332055
 44
0.0
 45
-4.6875
 46
2.706329374999999
 79
     2
 49
3.125
 49
-6.25
 53
60.0
 43
447.7961912332055
 44
0.0
 45
4.687499989758061
 46
2.706329392739557
 79
     2
 49
3.124999999999999
 49
-6.249999999999999
 53
120.0
 43
447.7961912332055
 44
0.0
 45
-0.0000000102419385
 46
5.412658767739556
 79
     2
 49
-6.25
 49
3.125
 47
0.5446729869857467
 98
        3
 10
252.8515331161988
 20
353.3849501983195
 10
277.3751429416478
 20
236.2802568196557
 10
240.3172425478532
 20
209.0466088861931
  0
CIRCLE
  5
4DE8
330
46E2
100
AcDbEntity
  8
VERDECKT
100
AcDbCircle
 39
0.2
 10
223.8980956166028
 20
822.3043732238362
 30
0.0
 40
45.0
  0
ENDSEC
  0
SECTION
  2
OBJECTS
  0
DICTIONARY
  5
46CE
330
0
100
AcDbDictionary
281
     1
  3
ACAD_COLOR
350
46DD
  3
ACAD_GROUP
350
46CF
  3
ACAD_LAYOUT
350
46DB
  3
ACAD_MATERIAL
350
46DC
  3
ACAD_MLINESTYLE
350
46D8
  3
ACAD_PLOTSETTINGS
350
46DA
  3
ACAD_PLOTSTYLENAME
350
46D0
  3
AcDbVariableDictionary
350
472A
  0
DICTIONARY
  5
46DD
102
{ACAD_REACTORS
330
46CE
102
}
330
46CE
100
AcDbDictionary
281
     1
  0
DICTIONARY
  5
46CF
102
{ACAD_REACTORS
330
46CE
102
}
330
46CE
100
AcDbDictionary
281
     1
  0
DICTIONARY
  5
46DB
102
{ACAD_REACTORS
330
46CE
102
}
330
46CE
100
AcDbDictionary
281
     1
  3
Layout1
350
46E1
  3
Model
350
46E5
  0
DICTIONARY
  5
46DC
102
{ACAD_REACTORS
330
46CE
102
}
330
46CE
100
AcDbDictionary
281
     1
  0
DICTIONARY
  5
46D8
102
{ACAD_REACTORS
330
46CE
102
}
330
46CE
100
AcDbDictionary
281
     1
  3
Standard
350
46D9
  0
DICTIONARY
  5
46DA
102
{ACAD_REACTORS
330
46CE
102
}
330
46CE
100
AcDbDictionary
281
     1
  0
ACDBDICTIONARYWDFLT
  5
46D0
102
{ACAD_REACTORS
330
46CE
102
}
330
46CE
100
AcDbDictionary
281
     1
  3
Normal
350
46D1
100
AcDbDictionaryWithDefault
340
46D1
  0
DICTIONARY
  5
472A
102
{ACAD_REACTORS
330
46CE
102
}
330
46CE
100
AcDbDictionary
281
     1
  3
DIMASSOC
350
472C
  3
HIDETEXT
350
472B
  3
PROJECTNAME
350
472D
  0
LAYOUT
  5
46E1
102
{ACAD_REACTORS
330
46DB
102
}
330
46DB
100
AcDbPlotSettings
  1

  2
RICOH Aficio 2027 PCL 6
  4

  6

 40
0.0
 41
0.0
 42
0.0
 43
0.0
 44
0.0
 45
0.0
 46
0.0
 47
0.0
 48
0.0
 49
0.0
140
0.0
141
0.0
142
1.0
143
1.0
 70
   688
 72
     0
 73
     0
 74
     5
  7
monochrome1.ctb
 75
    16
147
1.0
 76
     0
 77
     2
 78
   300
148
0.0
149
0.0
100
AcDbLayout
  1
Layout1
 70
     0
 71
     1
 10
0.0
 20
0.0
 11
12.0
 21
9.0
 12
0.0
 22
0.0
 32
0.0
 14
1.000000000000000E+20
 24
1.000000000000000E+20
 34
1.000000000000000E+20
 15
-1.000000000000000E+20
 25
-1.000000000000000E+20
 35
-1.000000000000000E+20
146
0.0
 13
0.0
 23
0.0
 33
0.0
 16
1.0
 26
0.0
 36
0.0
 17
0.0
 27
1.0
 37
0.0
 76
     0
330
46DE
  0
LAYOUT
  5
46E5
102
{ACAD_REACTORS
330
46DB
102
}
330
46DB
100
AcDbPlotSettings
  1

  2
RICOH Aficio 2027 PCL 6
  4
A4
  6

 40
5.027083396911621
 41
5.027085304260253
 42
5.027084350585937
 43
5.027069091796875
 44
209.9733276367187
 45
296.9259948730469
 46
0.0
 47
0.0
 48
0.0
 49
0.0
140
0.0
141
0.0
142
1.0
143
4.201698328791795
 70
 11952
 72
     1
 73
     0
 74
     2
  7
monochrome1.ctb
 75
     0
147
0.2379989998681204
 76
     0
 77
     2
 78
   300
148
0.0
149
0.0
100
AcDbLayout
  1
Model
 70
     1
 71
     0
 10
0.0
 20
0.0
 11
12.0
 21
9.0
 12
0.0
 22
0.0
 32
0.0
 14
0.0
 24
0.0
 34
0.0
 15
0.0
 25
0.0
 35
0.0
146
0.0
 13
0.0
 23
0.0
 33
0.0
 16
1.0
 26
0.0
 36
0.0
 17
0.0
 27
1.0
 37
0.0
 76
     0
330
46E2
  0
MLINESTYLE
  5
46D9
102
{ACAD_REACTORS
330
46D8
102
}
330
46D8
100
AcDbMlineStyle
  2
STANDARD
 70
     0
  3

 62
   256
 51
90.0
 52
90.0
 71
     2
 49
0.5
 62
   256
  6
BYLAYER
 49
-0.5
 62
   256
  6
BYLAYER
  0
ACDBPLACEHOLDER
  5
46D1
102
{ACAD_REACTORS
330
46D0
102
}
330
46D0
  0
DICTIONARYVAR
  5
472C
102
{ACAD_REACTORS
330
472A
102
}
330
472A
100
DictionaryVariables
280
     0
  1
2
  0
DICTIONARYVAR
  5
472B
102
{ACAD_REACTORS
330
472A
102
}
330
472A
100
DictionaryVariables
280
     0
  1
1
  0
DICTIONARYVAR
  5
472D
102
{ACAD_REACTORS
330
472A
102
}
330
472A
100
DictionaryVariables
280
     0
  1

  0
ENDSEC
  0
EOF
