  0
SECTION
  2
HEADER
  9
$ACADVER
  1
AC1018
  9
$ACADMAINTVER
 70
     2
  9
$DWGCODEPAGE
  3
ANSI_1252
  9
$INSBASE
 10
0.0
 20
0.0
 30
0.0
  9
$EXTMIN
 10
-0.0064082024694017
 20
-0.0090630292066862
 30
-0.0015258207003583
  9
$EXTMAX
 10
210.006409180358
 20
297.0090644122208
 30
0.0000000349246037
  9
$LIMMIN
 10
0.0
 20
0.0
  9
$LIMMAX
 10
210.0
 20
297.0
  9
$ORTHOMODE
 70
     0
  9
$REGENMODE
 70
     1
  9
$FILLMODE
 70
     1
  9
$QTEXTMODE
 70
     0
  9
$MIRRTEXT
 70
     1
  9
$LTSCALE
 40
10.0
  9
$ATTMODE
 70
     1
  9
$TEXTSIZE
 40
3.5
  9
$TRACEWID
 40
0.5
  9
$TEXTSTYLE
  7
STANDARD
  9
$CLAYER
  8
SCHRAFF
  9
$CELTYPE
  6
ByLayer
  9
$CECOLOR
 62
   256
  9
$CELTSCALE
 40
1.0
  9
$DISPSILH
 70
     0
  9
$DIMSCALE
 40
1.0
  9
$DIMASZ
 40
3.5
  9
$DIMEXO
 40
1.0
  9
$DIMDLI
 40
7.0
  9
$DIMRND
 40
0.0
  9
$DIMDLE
 40
0.0
  9
$DIMEXE
 40
1.0
  9
$DIMTP
 40
0.0
  9
$DIMTM
 40
0.0
  9
$DIMTXT
 40
3.5
  9
$DIMCEN
 40
1.5
  9
$DIMTSZ
 40
0.0
  9
$DIMTOL
 70
     0
  9
$DIMLIM
 70
     0
  9
$DIMTIH
 70
     0
  9
$DIMTOH
 70
     0
  9
$DIMSE1
 70
     0
  9
$DIMSE2
 70
     0
  9
$DIMTAD
 70
     1
  9
$DIMZIN
 70
     8
  9
$DIMBLK
  1

  9
$DIMASO
 70
     1
  9
$DIMSHO
 70
     0
  9
$DIMPOST
  1

  9
$DIMAPOST
  1

  9
$DIMALT
 70
     0
  9
$DIMALTD
 70
     2
  9
$DIMALTF
 40
25.4
  9
$DIMLFAC
 40
1.0
  9
$DIMTOFL
 70
     1
  9
$DIMTVP
 40
0.0
  9
$DIMTIX
 70
     0
  9
$DIMSOXD
 70
     0
  9
$DIMSAH
 70
     0
  9
$DIMBLK1
  1

  9
$DIMBLK2
  1

  9
$DIMSTYLE
  2
Standard
  9
$DIMCLRD
 70
     0
  9
$DIMCLRE
 70
     0
  9
$DIMCLRT
 70
     1
  9
$DIMTFAC
 40
0.5142857142857144
  9
$DIMGAP
 40
1.5
  9
$DIMJUST
 70
     0
  9
$DIMSD1
 70
     0
  9
$DIMSD2
 70
     0
  9
$DIMTOLJ
 70
     1
  9
$DIMTZIN
 70
     8
  9
$DIMALTZ
 70
     8
  9
$DIMALTTZ
 70
     8
  9
$DIMUPT
 70
     0
  9
$DIMDEC
 70
     2
  9
$DIMTDEC
 70
     2
  9
$DIMALTU
 70
     2
  9
$DIMALTTD
 70
     2
  9
$DIMTXSTY
  7
STANDARD
  9
$DIMAUNIT
 70
     0
  9
$DIMADEC
 70
     2
  9
$DIMALTRND
 40
0.0
  9
$DIMAZIN
 70
     2
  9
$DIMDSEP
 70
    46
  9
$DIMATFIT
 70
     3
  9
$DIMFRAC
 70
     0
  9
$DIMLDRBLK
  1

  9
$DIMLUNIT
 70
     2
  9
$DIMLWD
 70
    -2
  9
$DIMLWE
 70
    -2
  9
$DIMTMOVE
 70
     0
  9
$LUNITS
 70
     2
  9
$LUPREC
 70
     2
  9
$SKETCHINC
 40
1.0
  9
$FILLETRAD
 40
0.0
  9
$AUNITS
 70
     0
  9
$AUPREC
 70
     0
  9
$MENU
  1
ACAD
  9
$ELEVATION
 40
0.0
  9
$PELEVATION
 40
0.0
  9
$THICKNESS
 40
0.0
  9
$LIMCHECK
 70
     0
  9
$CHAMFERA
 40
0.0
  9
$CHAMFERB
 40
0.0
  9
$CHAMFERC
 40
0.0
  9
$CHAMFERD
 40
0.0
  9
$SKPOLY
 70
     0
  9
$TDCREATE
 40
2455397.823042361
  9
$TDUCREATE
 40
2455397.781375695
  9
$TDUPDATE
 40
2455532.564191713
  9
$TDUUPDATE
 40
2455532.522525047
  9
$TDINDWG
 40
0.0672996644
  9
$TDUSRTIMER
 40
0.0672996644
  9
$USRTIMER
 70
     1
  9
$ANGBASE
 50
0.0
  9
$ANGDIR
 70
     0
  9
$PDMODE
 70
     0
  9
$PDSIZE
 40
0.0
  9
$PLINEWID
 40
0.0
  9
$SPLFRAME
 70
     0
  9
$SPLINETYPE
 70
     6
  9
$SPLINESEGS
 70
     8
  9
$HANDSEED
  5
12E4
  9
$SURFTAB1
 70
     6
  9
$SURFTAB2
 70
     6
  9
$SURFTYPE
 70
     6
  9
$SURFU
 70
     6
  9
$SURFV
 70
     6
  9
$UCSBASE
  2

  9
$UCSNAME
  2

  9
$UCSORG
 10
0.0
 20
0.0
 30
0.0
  9
$UCSXDIR
 10
1.0
 20
0.0
 30
0.0
  9
$UCSYDIR
 10
0.0
 20
1.0
 30
0.0
  9
$UCSORTHOREF
  2

  9
$UCSORTHOVIEW
 70
     0
  9
$UCSORGTOP
 10
0.0
 20
0.0
 30
0.0
  9
$UCSORGBOTTOM
 10
0.0
 20
0.0
 30
0.0
  9
$UCSORGLEFT
 10
0.0
 20
0.0
 30
0.0
  9
$UCSORGRIGHT
 10
0.0
 20
0.0
 30
0.0
  9
$UCSORGFRONT
 10
0.0
 20
0.0
 30
0.0
  9
$UCSORGBACK
 10
0.0
 20
0.0
 30
0.0
  9
$PUCSBASE
  2

  9
$PUCSNAME
  2

  9
$PUCSORG
 10
0.0
 20
0.0
 30
0.0
  9
$PUCSXDIR
 10
1.0
 20
0.0
 30
0.0
  9
$PUCSYDIR
 10
0.0
 20
1.0
 30
0.0
  9
$PUCSORTHOREF
  2

  9
$PUCSORTHOVIEW
 70
     0
  9
$PUCSORGTOP
 10
0.0
 20
0.0
 30
0.0
  9
$PUCSORGBOTTOM
 10
0.0
 20
0.0
 30
0.0
  9
$PUCSORGLEFT
 10
0.0
 20
0.0
 30
0.0
  9
$PUCSORGRIGHT
 10
0.0
 20
0.0
 30
0.0
  9
$PUCSORGFRONT
 10
0.0
 20
0.0
 30
0.0
  9
$PUCSORGBACK
 10
0.0
 20
0.0
 30
0.0
  9
$USERI1
 70
     0
  9
$USERI2
 70
     0
  9
$USERI3
 70
     0
  9
$USERI4
 70
     0
  9
$USERI5
 70
     0
  9
$USERR1
 40
0.0
  9
$USERR2
 40
0.0
  9
$USERR3
 40
0.0
  9
$USERR4
 40
0.0
  9
$USERR5
 40
0.0
  9
$WORLDVIEW
 70
     1
  9
$SHADEDGE
 70
     3
  9
$SHADEDIF
 70
    70
  9
$TILEMODE
 70
     1
  9
$MAXACTVP
 70
    16
  9
$PINSBASE
 10
0.0
 20
0.0
 30
0.0
  9
$PLIMCHECK
 70
     0
  9
$PEXTMIN
 10
1.000000000000000E+20
 20
1.000000000000000E+20
 30
1.000000000000000E+20
  9
$PEXTMAX
 10
-1.000000000000000E+20
 20
-1.000000000000000E+20
 30
-1.000000000000000E+20
  9
$PLIMMIN
 10
0.0
 20
0.0
  9
$PLIMMAX
 10
12.0
 20
9.0
  9
$UNITMODE
 70
     0
  9
$VISRETAIN
 70
     0
  9
$PLINEGEN
 70
     0
  9
$PSLTSCALE
 70
     0
  9
$TREEDEPTH
 70
  3020
  9
$CMLSTYLE
  2
Standard
  9
$CMLJUST
 70
     0
  9
$CMLSCALE
 40
1.0
  9
$PROXYGRAPHICS
 70
     1
  9
$MEASUREMENT
 70
     0
  9
$CELWEIGHT
370
    -1
  9
$ENDCAPS
280
     0
  9
$JOINSTYLE
280
     0
  9
$LWDISPLAY
290
     0
  9
$INSUNITS
 70
     0
  9
$HYPERLINKBASE
  1

  9
$STYLESHEET
  1
monochrome 1.ctb
  9
$XEDIT
290
     1
  9
$CEPSNTYPE
380
     0
  9
$PSTYLEMODE
290
     1
  9
$FINGERPRINTGUID
  2
{D68B0D02-A558-11D7-B632-000102183313}
  9
$VERSIONGUID
  2
{41B5E0A0-3A4E-4406-8C4A-9690DE247F5C}
  9
$EXTNAMES
290
     1
  9
$PSVPSCALE
 40
0.0
  9
$OLESTARTUP
290
     0
  9
$SORTENTS
280
   127
  9
$INDEXCTL
280
     0
  9
$HIDETEXT
280
     0
  9
$XCLIPFRAME
290
     0
  9
$HALOGAP
280
     0
  9
$OBSCOLOR
 70
   257
  9
$OBSLTYPE
280
     0
  9
$INTERSECTIONDISPLAY
280
     0
  9
$INTERSECTIONCOLOR
 70
   257
  9
$DIMASSOC
280
     1
  9
$PROJECTNAME
  1

  0
ENDSEC
  0
SECTION
  2
CLASSES
  0
CLASS
  1
ACDBDICTIONARYWDFLT
  2
AcDbDictionaryWithDefault
  3
ObjectDBX Classes
 90
        0
 91
        1
280
     0
281
     0
  0
CLASS
  1
DICTIONARYVAR
  2
AcDbDictionaryVar
  3
ObjectDBX Classes
 90
        0
 91
        2
280
     0
281
     0
  0
ENDSEC
  0
SECTION
  2
TABLES
  0
TABLE
  2
VPORT
  5
8
330
0
100
AcDbSymbolTable
 70
     2
  0
VPORT
  5
12E3
330
8
100
AcDbSymbolTableRecord
100
AcDbViewportTableRecord
  2
*Active
 70
     0
 10
0.0
 20
0.0
 11
1.0
 21
1.0
 12
105.0000004889443
 22
148.500000691507
 13
0.0
 23
0.0
 14
1.0
 24
1.0
 15
10.0
 25
10.0
 16
0.0
 26
0.0
 36
1.0
 17
0.0
 27
0.0
 37
0.0
 40
299.4166587532021
 41
1.336927223719676
 42
50.0
 43
0.0
 44
0.0
 50
0.0
 51
0.0
 71
     0
 72
  1500
 73
     1
 74
     0
 75
     0
 76
     0
 77
     0
 78
     0
281
     0
 65
     1
110
0.0
120
0.0
130
0.0
111
1.0
121
0.0
131
0.0
112
0.0
122
1.0
132
0.0
 79
     0
146
0.0
  0
ENDTAB
  0
TABLE
  2
LTYPE
  5
5
330
0
100
AcDbSymbolTable
 70
     3
  0
LTYPE
  5
13
330
5
100
AcDbSymbolTableRecord
100
AcDbLinetypeTableRecord
  2
ByBlock
 70
     0
  3

 72
    65
 73
     0
 40
0.0
  0
LTYPE
  5
14
330
5
100
AcDbSymbolTableRecord
100
AcDbLinetypeTableRecord
  2
ByLayer
 70
     0
  3

 72
    65
 73
     0
 40
0.0
  0
LTYPE
  5
15
330
5
100
AcDbSymbolTableRecord
100
AcDbLinetypeTableRecord
  2
Continuous
 70
     0
  3
Solid line
 72
    65
 73
     0
 40
0.0
  0
LTYPE
  5
25
330
5
100
AcDbSymbolTableRecord
100
AcDbLinetypeTableRecord
  2
STRICHPUNKT
 70
     0
  3
__ . __ . __ . __ . __ . __ . __ . __ . __ . __
 72
    65
 73
     4
 40
1.0
 49
0.5
 74
     0
 49
-0.25
 74
     0
 49
0.0
 74
     0
 49
-0.25
 74
     0
  0
LTYPE
  5
32
330
5
100
AcDbSymbolTableRecord
100
AcDbLinetypeTableRecord
  2
AUSGEZOGEN
 70
     0
  3
Ausgezogene Linie
 72
    65
 73
     0
 40
0.0
  0
ENDTAB
  0
TABLE
  2
LAYER
  5
2
330
0
100
AcDbSymbolTable
 70
     9
  0
LAYER
  5
10
330
2
100
AcDbSymbolTableRecord
100
AcDbLayerTableRecord
  2
0
 70
     0
 62
     7
  6
Continuous
370
    -3
390
F
  0
LAYER
  5
2A
330
2
100
AcDbSymbolTableRecord
100
AcDbLayerTableRecord
  2
VOLL
 70
     0
 62
     1
  6
Continuous
370
    -3
390
F
  0
LAYER
  5
2B
330
2
100
AcDbSymbolTableRecord
100
AcDbLayerTableRecord
  2
HILF
 70
     0
 62
     2
  6
Continuous
370
    -3
390
F
  0
LAYER
  5
2C
330
2
100
AcDbSymbolTableRecord
100
AcDbLayerTableRecord
  2
MITTEL
 70
     0
 62
     2
  6
STRICHPUNKT
370
    -3
390
F
  0
LAYER
  5
2F
330
2
100
AcDbSymbolTableRecord
100
AcDbLayerTableRecord
  2
BEM
 70
     0
 62
     7
  6
Continuous
370
    -3
390
F
  0
LAYER
  5
30
330
2
100
AcDbSymbolTableRecord
100
AcDbLayerTableRecord
  2
STEMPEL
 70
     0
 62
     3
  6
Continuous
370
    -3
390
F
  0
LAYER
  5
31
330
2
100
AcDbSymbolTableRecord
100
AcDbLayerTableRecord
  2
TEXT
 70
     0
 62
     7
  6
Continuous
370
    -3
390
F
  0
LAYER
  5
19D
330
2
100
AcDbSymbolTableRecord
100
AcDbLayerTableRecord
  2
DEFPOINTS
 70
     0
 62
     7
  6
AUSGEZOGEN
290
     0
370
    -3
390
F
  0
LAYER
  5
36A
330
2
100
AcDbSymbolTableRecord
100
AcDbLayerTableRecord
  2
SCHRAFF
 70
     0
 62
     7
  6
Continuous
370
    -3
390
F
  0
ENDTAB
  0
TABLE
  2
STYLE
  5
3
330
0
100
AcDbSymbolTable
 70
     2
  0
STYLE
  5
11
330
3
100
AcDbSymbolTableRecord
100
AcDbTextStyleTableRecord
  2
STANDARD
 70
     0
 40
0.0
 41
0.8
 50
0.0
 71
     0
 42
3.5
  3
simplex.shx
  4

  0
STYLE
  5
24
330
3
100
AcDbSymbolTableRecord
100
AcDbTextStyleTableRecord
  2
GREEKS
 70
     0
 40
0.0
 41
0.8
 50
0.0
 71
     0
 42
2.5
  3
SIMPLEX.shx
  4

  0
ENDTAB
  0
TABLE
  2
VIEW
  5
6
330
0
100
AcDbSymbolTable
 70
     0
  0
ENDTAB
  0
TABLE
  2
UCS
  5
7
330
0
100
AcDbSymbolTable
 70
     0
  0
ENDTAB
  0
TABLE
  2
APPID
  5
9
330
0
100
AcDbSymbolTable
 70
     1
  0
APPID
  5
12
330
9
100
AcDbSymbolTableRecord
100
AcDbRegAppTableRecord
  2
ACAD
 70
     0
  0
ENDTAB
  0
TABLE
  2
DIMSTYLE
  5
A
330
0
100
AcDbSymbolTable
 70
     1
100
AcDbDimStyleTable
 71
     1
340
9D
  0
DIMSTYLE
105
9D
102
{ACAD_REACTORS
330
1180
330
11FF
102
}
330
A
100
AcDbSymbolTableRecord
100
AcDbDimStyleTableRecord
  2
Standard
 70
     0
340
11
  0
ENDTAB
  0
TABLE
  2
BLOCK_RECORD
  5
1
330
0
100
AcDbSymbolTable
 70
     3
  0
BLOCK_RECORD
  5
1E
102
{ACAD_XDICTIONARY
360
A0
102
}
330
1
100
AcDbSymbolTableRecord
100
AcDbBlockTableRecord
  2
*Model_Space
340
21
  0
BLOCK_RECORD
  5
1A
102
{ACAD_XDICTIONARY
360
A2
102
}
330
1
100
AcDbSymbolTableRecord
100
AcDbBlockTableRecord
  2
*Paper_Space
340
1D
  0
BLOCK_RECORD
  5
22
330
1
100
AcDbSymbolTableRecord
100
AcDbBlockTableRecord
  2
LOGO
340
0
102
{BLKREFS
331
9B
102
}
  0
BLOCK_RECORD
  5
1190
330
1
100
AcDbSymbolTableRecord
100
AcDbBlockTableRecord
  2
*D1
340
0
  0
BLOCK_RECORD
  5
1200
330
1
100
AcDbSymbolTableRecord
100
AcDbBlockTableRecord
  2
*D2
340
0
  0
ENDTAB
  0
ENDSEC
  0
SECTION
  2
BLOCKS
  0
BLOCK
  5
35
330
1E
100
AcDbEntity
  8
0
100
AcDbBlockBegin
  2
*Model_Space
 70
     0
 10
0.0
 20
0.0
 30
0.0
  3
*Model_Space
  1

  0
ENDBLK
  5
36
330
1E
100
AcDbEntity
  8
0
100
AcDbBlockEnd
  0
BLOCK
  5
33
330
1A
100
AcDbEntity
 67
     1
  8
0
100
AcDbBlockBegin
  2
*Paper_Space
 70
     0
 10
0.0
 20
0.0
 30
0.0
  3
*Paper_Space
  1

  0
ENDBLK
  5
34
330
1A
100
AcDbEntity
 67
     1
  8
0
100
AcDbBlockEnd
  0
BLOCK
  5
37
330
22
100
AcDbEntity
  8
0
100
AcDbBlockBegin
  2
LOGO
 70
     0
 10
0.0
 20
0.0
 30
0.0
  3
LOGO
  1

  0
ARC
  5
38
330
22
100
AcDbEntity
  8
0
100
AcDbCircle
 10
11.59973089678112
 20
-9.271599258481501
 30
0.0
 40
4.5
100
AcDbArc
 50
270.0
 51
231.0575587310159
  0
LINE
  5
39
330
22
100
AcDbEntity
  8
0
100
AcDbLine
 10
3.599730896781125
 20
-4.771599258481529
 30
0.0
 11
3.599730896781153
 21
-11.77159925848133
 31
0.0
  0
LINE
  5
3A
330
22
100
AcDbEntity
  8
0
100
AcDbLine
 10
2.599730896781125
 20
-4.771599258481529
 30
0.0
 11
2.599730896781153
 21
-11.77159925848133
 31
0.0
  0
CIRCLE
  5
3B
330
22
100
AcDbEntity
  8
0
100
AcDbCircle
 10
11.59973089678112
 20
-9.271599258481501
 30
0.0
 40
3.5
  0
ARC
  5
3C
330
22
100
AcDbEntity
  8
0
100
AcDbCircle
 10
31.59973089678115
 20
-9.271599258481472
 30
0.0
 40
4.5
100
AcDbArc
 50
270.0
 51
231.0575587310182
  0
LINE
  5
3D
330
22
100
AcDbEntity
  8
0
100
AcDbLine
 10
17.59973089678112
 20
-4.771599258481472
 30
0.0
 11
17.59973089678115
 21
-13.77159925848147
 31
0.0
  0
ARC
  5
3E
330
22
100
AcDbEntity
  8
0
100
AcDbCircle
 10
22.59973089678116
 20
-7.271599258481472
 30
0.0
 40
2.5
100
AcDbArc
 50
293.1161887722295
 51
90.0
  0
CIRCLE
  5
3F
330
22
100
AcDbEntity
  8
0
100
AcDbCircle
 10
31.59973089678115
 20
-9.271599258481472
 30
0.0
 40
3.5
  0
ARC
  5
40
330
22
100
AcDbEntity
  8
0
100
AcDbCircle
 10
4.599730896781153
 20
-11.77159925848133
 30
0.0
 40
1.0
100
AcDbArc
 50
180.0
 51
270.0
  0
ARC
  5
41
330
22
100
AcDbEntity
  8
0
100
AcDbCircle
 10
4.599730896781153
 20
-11.77159925848133
 30
0.0
 40
2.0
100
AcDbArc
 50
179.9999999999992
 51
270.0
  0
LINE
  5
42
330
22
100
AcDbEntity
  8
0
100
AcDbLine
 10
11.59973089678115
 20
-13.77159925848144
 30
0.0
 11
4.599730896781153
 21
-13.77159925848147
 31
0.0
  0
LINE
  5
43
330
22
100
AcDbEntity
  8
0
100
AcDbLine
 10
8.771303772034769
 20
-12.77159925848136
 30
0.0
 11
4.599730896781153
 21
-12.77159925848133
 31
0.0
  0
LINE
  5
44
330
22
100
AcDbEntity
  8
0
100
AcDbLine
 10
31.59973089678115
 20
-13.77159925848147
 30
0.0
 11
23.6715276665056
 21
-13.77159925848144
 31
0.0
  0
LINE
  5
45
330
22
100
AcDbEntity
  8
0
100
AcDbLine
 10
23.56565672307022
 20
-9.51278021337896
 30
0.0
 11
24.4388546544846
 21
-12.77159925848144
 31
0.0
  0
LINE
  5
46
330
22
100
AcDbEntity
  8
0
100
AcDbLine
 10
22.59973089678116
 20
-9.771599258481472
 30
0.0
 11
18.59973089678112
 21
-9.771599258481472
 31
0.0
  0
LINE
  5
47
330
22
100
AcDbEntity
  8
0
100
AcDbLine
 10
18.59973089678115
 20
-13.77159925848144
 30
0.0
 11
17.59973089678115
 21
-13.77159925848144
 31
0.0
  0
LINE
  5
48
330
22
100
AcDbEntity
  8
0
100
AcDbLine
 10
18.59973089678115
 20
-9.771599258481472
 30
0.0
 11
18.59973089678115
 21
-13.77159925848144
 31
0.0
  0
LINE
  5
49
330
22
100
AcDbEntity
  8
0
100
AcDbLine
 10
22.59973089678116
 20
-9.771599258481472
 30
0.0
 11
23.67152766650562
 21
-13.77159925848147
 31
0.0
  0
ARC
  5
4A
330
22
100
AcDbEntity
  8
0
100
AcDbCircle
 10
22.59973089678116
 20
-7.271599258481472
 30
0.0
 40
2.5
100
AcDbArc
 50
270.0
 51
270.0000000000007
  0
LINE
  5
4B
330
22
100
AcDbEntity
  8
0
100
AcDbLine
 10
28.77130377203494
 20
-12.77159925848147
 30
0.0
 11
24.43885465448463
 21
-12.77159925848144
 31
0.0
  0
LINE
  5
4C
330
22
100
AcDbEntity
  8
0
100
AcDbLine
 10
3.599730896781125
 20
-4.771599258481472
 30
0.0
 11
2.599730896781125
 21
-4.771599258481472
 31
0.0
  0
LINE
  5
4D
330
22
100
AcDbEntity
  8
0
100
AcDbLine
 10
22.59973089678116
 20
-8.771599258481472
 30
0.0
 11
18.59973089678115
 21
-8.771599258481472
 31
0.0
  0
LINE
  5
4E
330
22
100
AcDbEntity
  8
0
100
AcDbLine
 10
22.59973089678116
 20
-5.771599258481472
 30
0.0
 11
18.59973089678115
 21
-5.771599258481472
 31
0.0
  0
LINE
  5
4F
330
22
100
AcDbEntity
  8
0
100
AcDbLine
 10
22.59973089678116
 20
-4.771599258481472
 30
0.0
 11
17.59973089678115
 21
-4.771599258481472
 31
0.0
  0
LINE
  5
50
330
22
100
AcDbEntity
  8
0
100
AcDbLine
 10
18.59973089678115
 20
-5.771599258481472
 30
0.0
 11
18.59973089678115
 21
-8.771599258481472
 31
0.0
  0
ARC
  5
51
330
22
100
AcDbEntity
  8
0
100
AcDbCircle
 10
22.59973089678116
 20
-7.271599258481472
 30
0.0
 40
1.5
100
AcDbArc
 50
270.0
 51
90.0
  0
ENDBLK
  5
52
330
22
100
AcDbEntity
  8
0
100
AcDbBlockEnd
  0
BLOCK
  5
119A
330
1190
100
AcDbEntity
  8
0
100
AcDbBlockBegin
  2
*D1
 70
     1
 10
0.0
 20
0.0
 30
0.0
  3
*D1
  1

  0
LINE
  5
12D0
330
1190
100
AcDbEntity
  8
BEM
 62
     0
370
    -2
100
AcDbLine
 10
46.96314949857082
 20
267.9412494145142
 30
0.0
 11
46.96314949857082
 21
276.2036560144578
 31
0.0
  0
LINE
  5
12D1
330
1190
100
AcDbEntity
  8
BEM
 62
     0
370
    -2
100
AcDbLine
 10
179.9631494985709
 20
267.9412494145142
 30
0.0
 11
179.9631494985709
 21
276.2036560144578
 31
0.0
  0
LINE
  5
12D2
330
1190
100
AcDbEntity
  8
BEM
 62
     0
370
    -2
100
AcDbLine
 10
50.46314949857083
 20
275.2036560144578
 30
0.0
 11
176.4631494985709
 21
275.2036560144578
 31
0.0
  0
SOLID
  5
12D3
330
1190
100
AcDbEntity
  8
BEM
 62
     0
100
AcDbTrace
 10
50.46314949857083
 20
275.7869893477911
 30
0.0
 11
50.46314949857083
 21
274.6203226811245
 31
0.0
 12
46.96314949857082
 22
275.2036560144578
 32
0.0
 13
46.96314949857082
 23
275.2036560144578
 33
0.0
  0
SOLID
  5
12D4
330
1190
100
AcDbEntity
  8
BEM
 62
     0
100
AcDbTrace
 10
176.4631494985709
 20
275.7869893477911
 30
0.0
 11
176.4631494985709
 21
274.6203226811245
 31
0.0
 12
179.9631494985709
 22
275.2036560144578
 32
0.0
 13
179.9631494985709
 23
275.2036560144578
 33
0.0
  0
MTEXT
  5
12D5
330
1190
100
AcDbEntity
  8
BEM
 62
     1
100
AcDbMText
 10
113.4631494985709
 20
278.4536560144578
 30
0.0
 40
3.5
 41
0.0
 71
     5
 72
     1
  1
\A1;%%c133
 73
     1
 44
1.0
  0
POINT
  5
12D6
330
1190
100
AcDbEntity
  8
DEFPOINTS
 62
     0
100
AcDbPoint
 10
46.96314949857082
 20
266.9412494145142
 30
0.0
  0
POINT
  5
12D7
330
1190
100
AcDbEntity
  8
DEFPOINTS
 62
     0
100
AcDbPoint
 10
179.9631494985709
 20
266.9412494145142
 30
0.0
  0
POINT
  5
12D8
330
1190
100
AcDbEntity
  8
DEFPOINTS
 62
     0
100
AcDbPoint
 10
179.9631494985709
 20
275.2036560144578
 30
0.0
  0
ENDBLK
  5
119B
330
1190
100
AcDbEntity
  8
0
100
AcDbBlockEnd
  0
BLOCK
  5
120A
330
1200
100
AcDbEntity
  8
0
100
AcDbBlockBegin
  2
*D2
 70
     1
 10
0.0
 20
0.0
 30
0.0
  3
*D2
  1

  0
LINE
  5
123B
330
1200
100
AcDbEntity
  8
BEM
 62
     0
370
    -2
100
AcDbLine
 10
45.96314949857094
 20
86.94124941451425
 30
0.0
 11
34.81783777139159
 21
86.94124941451425
 31
0.0
  0
LINE
  5
123C
330
1200
100
AcDbEntity
  8
BEM
 62
     0
370
    -2
100
AcDbLine
 10
45.96314949857094
 20
266.9412494145142
 30
0.0
 11
34.81783777139162
 21
266.9412494145142
 31
0.0
  0
LINE
  5
123D
330
1200
100
AcDbEntity
  8
BEM
 62
     0
370
    -2
100
AcDbLine
 10
35.81783777139159
 20
90.44124941451427
 30
0.0
 11
35.81783777139162
 21
263.4412494145142
 31
0.0
  0
SOLID
  5
123E
330
1200
100
AcDbEntity
  8
BEM
 62
     0
100
AcDbTrace
 10
35.23450443805825
 20
90.44124941451427
 30
0.0
 11
36.40117110472492
 21
90.44124941451427
 31
0.0
 12
35.81783777139159
 22
86.94124941451425
 32
0.0
 13
35.81783777139159
 23
86.94124941451425
 33
0.0
  0
SOLID
  5
123F
330
1200
100
AcDbEntity
  8
BEM
 62
     0
100
AcDbTrace
 10
35.23450443805829
 20
263.4412494145142
 30
0.0
 11
36.40117110472496
 21
263.4412494145142
 31
0.0
 12
35.81783777139162
 22
266.9412494145142
 32
0.0
 13
35.81783777139162
 23
266.9412494145142
 33
0.0
  0
MTEXT
  5
1240
330
1200
100
AcDbEntity
  8
BEM
 62
     1
100
AcDbMText
 10
32.56783777139158
 20
176.9412494145142
 30
0.0
 40
3.5
 41
0.0
 71
     5
 72
     1
  1
\A1;180
 11
0.0000000000000001
 21
1.0
 31
0.0
 73
     1
 44
1.0
  0
POINT
  5
1241
330
1200
100
AcDbEntity
  8
DEFPOINTS
 62
     0
100
AcDbPoint
 10
46.96314949857094
 20
86.94124941451425
 30
0.0
  0
POINT
  5
1242
330
1200
100
AcDbEntity
  8
DEFPOINTS
 62
     0
100
AcDbPoint
 10
46.96314949857094
 20
266.9412494145142
 30
0.0
  0
POINT
  5
1243
330
1200
100
AcDbEntity
  8
DEFPOINTS
 62
     0
100
AcDbPoint
 10
35.81783777139162
 20
266.9412494145142
 30
0.0
  0
ENDBLK
  5
120B
330
1200
100
AcDbEntity
  8
0
100
AcDbBlockEnd
  0
ENDSEC
  0
SECTION
  2
ENTITIES
  0
LINE
  5
57
330
1E
100
AcDbEntity
  8
STEMPEL
100
AcDbLine
 10
205.0
 20
55.00000000000003
 30
0.0
 11
19.99999999999998
 21
55.0
 31
0.0
  0
LINE
  5
58
330
1E
100
AcDbEntity
  8
STEMPEL
100
AcDbLine
 10
68.00000000000006
 20
54.99999999999997
 30
0.0
 11
68.0
 21
4.999999999999985
 31
0.0
  0
LINE
  5
59
330
1E
100
AcDbEntity
  8
STEMPEL
100
AcDbLine
 10
110.0
 20
55.00000000000003
 30
0.0
 11
110.0
 21
4.999999999999985
 31
0.0
  0
LINE
  5
5A
330
1E
100
AcDbEntity
  8
STEMPEL
100
AcDbLine
 10
166.0
 20
54.99999999999989
 30
0.0
 11
166.0
 21
20.0
 31
0.0
  0
LINE
  5
5B
330
1E
100
AcDbEntity
  8
STEMPEL
100
AcDbLine
 10
67.99999999999994
 20
14.99999999999998
 30
0.0
 11
19.99999999999998
 21
14.99999999999998
 31
0.0
  0
LINE
  5
5C
330
1E
100
AcDbEntity
  8
STEMPEL
100
AcDbLine
 10
205.0
 20
20.0
 30
0.0
 11
68.00000000000006
 21
19.99999999999998
 31
0.0
  0
LINE
  5
5D
330
1E
100
AcDbEntity
  8
STEMPEL
100
AcDbLine
 10
205.0
 20
40.0
 30
0.0
 11
68.00000000000006
 21
39.99999999999997
 31
0.0
  0
LINE
  5
5E
330
1E
100
AcDbEntity
  8
VOLL
100
AcDbLine
 10
27.00000000000005
 20
55.00000000000003
 30
0.0
 11
26.99999999999999
 21
4.999999999999985
 31
0.0
  0
LINE
  5
5F
330
1E
100
AcDbEntity
  8
VOLL
100
AcDbLine
 10
47.00000000000005
 20
54.99999999999997
 30
0.0
 11
47.0
 21
4.999999999999985
 31
0.0
  0
LINE
  5
60
330
1E
100
AcDbEntity
  8
VOLL
100
AcDbLine
 10
57.00000000000006
 20
54.99999999999997
 30
0.0
 11
57.0
 21
4.999999999999985
 31
0.0
  0
LINE
  5
61
330
1E
100
AcDbEntity
  8
VOLL
100
AcDbLine
 10
77.00000000000006
 20
39.99999999999997
 30
0.0
 11
77.00000000000006
 21
19.99999999999998
 31
0.0
  0
LINE
  5
62
330
1E
100
AcDbEntity
  8
VOLL
100
AcDbLine
 10
90.00000000000005
 20
54.99999999999992
 30
0.0
 11
90.0
 21
19.99999999999998
 31
0.0
  0
LINE
  5
63
330
1E
100
AcDbEntity
  8
HILF
100
AcDbLine
 10
20.00000000000004
 20
50.00000000000003
 30
0.0
 11
68.00000000000006
 21
50.00000000000003
 31
0.0
  0
LINE
  5
64
330
1E
100
AcDbEntity
  8
HILF
100
AcDbLine
 10
20.00000000000004
 20
45.00000000000002
 30
0.0
 11
68.00000000000006
 21
45.00000000000002
 31
0.0
  0
LINE
  5
65
330
1E
100
AcDbEntity
  8
HILF
100
AcDbLine
 10
20.00000000000004
 20
39.99999999999997
 30
0.0
 11
68.00000000000006
 21
39.99999999999997
 31
0.0
  0
LINE
  5
66
330
1E
100
AcDbEntity
  8
HILF
100
AcDbLine
 10
20.00000000000004
 20
34.99999999999997
 30
0.0
 11
68.00000000000006
 21
34.99999999999997
 31
0.0
  0
LINE
  5
67
330
1E
100
AcDbEntity
  8
HILF
100
AcDbLine
 10
20.00000000000004
 20
29.99999999999999
 30
0.0
 11
68.00000000000006
 21
29.99999999999999
 31
0.0
  0
LINE
  5
68
330
1E
100
AcDbEntity
  8
HILF
100
AcDbLine
 10
20.00000000000004
 20
24.99999999999999
 30
0.0
 11
68.00000000000006
 21
24.99999999999999
 31
0.0
  0
LINE
  5
69
330
1E
100
AcDbEntity
  8
HILF
100
AcDbLine
 10
20.00000000000004
 20
19.99999999999998
 30
0.0
 11
68.00000000000006
 21
19.99999999999998
 31
0.0
  0
LINE
  5
6A
330
1E
100
AcDbEntity
  8
HILF
100
AcDbLine
 10
68.00000000000006
 20
34.99999999999997
 30
0.0
 11
110.0
 21
34.99999999999997
 31
0.0
  0
LINE
  5
6B
330
1E
100
AcDbEntity
  8
HILF
100
AcDbLine
 10
68.00000000000006
 20
29.99999999999999
 30
0.0
 11
110.0
 21
29.99999999999999
 31
0.0
  0
LINE
  5
6C
330
1E
100
AcDbEntity
  8
HILF
100
AcDbLine
 10
68.00000000000006
 20
24.99999999999999
 30
0.0
 11
110.0
 21
24.99999999999999
 31
0.0
  0
LINE
  5
6D
330
1E
100
AcDbEntity
  8
HILF
100
AcDbLine
 10
112.3868400548474
 20
42.01879123782069
 30
0.0
 11
162.4176958278155
 21
42.01879123782069
 31
0.0
  0
LINE
  5
6E
330
1E
100
AcDbEntity
  8
HILF
100
AcDbLine
 10
112.3868400548474
 20
34.99999999999997
 30
0.0
 11
162.4176958278155
 21
34.99999999999997
 31
0.0
  0
LINE
  5
6F
330
1E
100
AcDbEntity
  8
HILF
100
AcDbLine
 10
112.3868400548474
 20
29.99999999999999
 30
0.0
 11
162.4176958278155
 21
29.99999999999999
 31
0.0
  0
LINE
  5
70
330
1E
100
AcDbEntity
  8
HILF
100
AcDbLine
 10
112.3868400548474
 20
24.99999999999999
 30
0.0
 11
162.4176958278155
 21
24.99999999999999
 31
0.0
  0
LINE
  5
71
330
1E
100
AcDbEntity
  8
VOLL
100
AcDbLine
 10
166.0
 20
30.0
 30
0.0
 11
205.0
 21
30.0
 31
0.0
  0
LINE
  5
72
330
1E
100
AcDbEntity
  8
HILF
100
AcDbLine
 10
168.3619308148496
 20
41.88991818477913
 30
0.0
 11
202.4294419663364
 21
41.88991818477913
 31
0.0
  0
LINE
  5
73
330
1E
100
AcDbEntity
  8
HILF
100
AcDbLine
 10
111.7454849644942
 20
7.446991290141568
 30
0.0
 11
202.4294419663364
 21
7.446991290141568
 31
0.0
  0
TEXT
  5
74
330
1E
100
AcDbEntity
  8
TEXT
100
AcDbText
 10
31.9308298981591
 20
9.336909474920659
 30
0.0
 40
2.0
  1
Änderung
 41
0.8
  7
GREEKS
 72
     1
 11
37.30225846958767
 21
9.336909474920659
 31
0.0
100
AcDbText
  0
TEXT
  5
75
330
1E
100
AcDbEntity
  8
TEXT
100
AcDbText
 10
71.75817860751886
 20
51.23104475435443
 30
0.0
 40
2.5
  1
Maßstab
 41
0.8
  7
GREEKS
100
AcDbText
  0
TEXT
  5
76
330
1E
100
AcDbEntity
  8
TEXT
100
AcDbText
 10
92.14294773670257
 20
51.20920842174095
 30
0.0
 40
2.5
  1
Zul. Abw.
 41
0.8
  7
GREEKS
100
AcDbText
  0
TEXT
  5
77
330
1E
100
AcDbEntity
  8
TEXT
100
AcDbText
 10
112.4389701904505
 20
51.27446640058898
 30
0.0
 40
2.5
  1
Benennung
 41
0.8
  7
GREEKS
100
AcDbText
  0
TEXT
  5
78
330
1E
100
AcDbEntity
  8
TEXT
100
AcDbText
 10
168.089377478817
 20
51.15660172685682
 30
0.0
 40
2.5
  1
Zeichnungs Nr.
 41
0.8
  7
GREEKS
100
AcDbText
  0
TEXT
  5
79
330
1E
100
AcDbEntity
  8
TEXT
100
AcDbText
 10
112.371119195568
 20
15.42280285096528
 30
0.0
 40
2.5
  1
Bauvorhaben
 41
0.8
  7
GREEKS
100
AcDbText
  0
TEXT
  5
7A
330
1E
100
AcDbEntity
  8
TEXT
100
AcDbText
 10
168.3619308148496
 20
36.59059118549985
 30
0.0
 40
2.5
  1
Ersatz für:
 41
0.8
  7
GREEKS
100
AcDbText
  0
TEXT
  5
7B
330
1E
100
AcDbEntity
  8
TEXT
100
AcDbText
 10
24.13320553522878
 20
6.827329230135958
 30
0.0
 40
2.0
  1
Index
 50
90.0
 41
0.8
  7
GREEKS
100
AcDbText
  0
TEXT
  5
7C
330
1E
100
AcDbEntity
  8
TEXT
100
AcDbText
 10
50.04673380377405
 20
9.33578134669905
 30
0.0
 40
2.0
  1
Tag
 41
0.8
  7
GREEKS
 72
     1
 11
51.91340047044072
 21
9.33578134669905
 31
0.0
100
AcDbText
  0
TEXT
  5
7D
330
1E
100
AcDbEntity
  8
TEXT
100
AcDbText
 10
59.50613721932963
 20
9.29662108483204
 30
0.0
 40
2.0
  1
Name
 41
0.8
  7
GREEKS
 72
     1
 11
62.66804198123439
 21
9.29662108483204
 31
0.0
100
AcDbText
  0
TEXT
  5
7E
330
1E
100
AcDbEntity
  8
TEXT
100
AcDbText
 10
81.16558365768254
 20
36.65940250614963
 30
0.0
 40
2.0
  1
Tag
 41
0.8
  7
GREEKS
100
AcDbText
  0
TEXT
  5
7F
330
1E
100
AcDbEntity
  8
TEXT
100
AcDbText
 10
96.23132921131475
 20
36.65480545957612
 30
0.0
 40
2.0
  1
Name
 41
0.8
  7
GREEKS
100
AcDbText
  0
TEXT
  5
80
330
1E
100
AcDbEntity
  8
TEXT
100
AcDbText
 10
68.79180635838077
 20
31.81495184808982
 30
0.0
 40
2.0
  1
Gez.
 41
0.8
  7
GREEKS
100
AcDbText
  0
TEXT
  5
81
330
1E
100
AcDbEntity
  8
TEXT
100
AcDbText
 10
68.77575432858361
 20
26.84463145714189
 30
0.0
 40
2.0
  1
Gepr.
 41
0.8
  7
GREEKS
100
AcDbText
  0
TEXT
  5
82
330
1E
100
AcDbEntity
  8
TEXT
100
AcDbText
 10
68.80033886936519
 20
21.76473194824904
 30
0.0
 40
2.0
  1
Norm.
 41
0.8
  7
GREEKS
100
AcDbText
  0
LINE
  5
83
330
1E
100
AcDbEntity
  8
STEMPEL
100
AcDbLine
 10
24.99999999999995
 20
5.0
 30
0.0
 11
205.0
 21
5.0
 31
0.0
  0
TEXT
  5
84
330
1E
100
AcDbEntity
  8
TEXT
100
AcDbText
 10
168.6200430748503
 20
26.03708088939301
 30
0.0
 40
2.5
  1
ersetzt durch:
 41
0.8
  7
GREEKS
100
AcDbText
  0
LINE
  5
85
330
1E
100
AcDbEntity
  8
STEMPEL
100
AcDbLine
 10
205.0
 20
5.0
 30
0.0
 11
19.99999999999994
 21
5.0
 31
0.0
  0
LINE
  5
86
330
1E
100
AcDbEntity
  8
STEMPEL
100
AcDbLine
 10
205.0
 20
5.0
 30
0.0
 11
205.0
 21
292.0
 31
0.0
  0
LINE
  5
87
330
1E
100
AcDbEntity
  8
STEMPEL
100
AcDbLine
 10
20.0
 20
5.0
 30
0.0
 11
19.99999999999994
 21
292.0
 31
0.0
  0
LINE
  5
88
330
1E
100
AcDbEntity
  8
STEMPEL
100
AcDbLine
 10
205.0
 20
292.0
 30
0.0
 11
19.99999999999994
 21
292.0
 31
0.0
  0
LINE
  5
89
330
1E
100
AcDbEntity
  8
HILF
100
AcDbLine
 10
0.0
 20
0.0
 30
0.0
 11
-0.0000000000000568
 21
297.0
 31
0.0
  0
LINE
  5
8A
330
1E
100
AcDbEntity
  8
HILF
100
AcDbLine
 10
210.0
 20
297.0000000000001
 30
0.0
 11
0.0
 21
297.0
 31
0.0
  0
LINE
  5
8B
330
1E
100
AcDbEntity
  8
HILF
100
AcDbLine
 10
210.0
 20
0.0
 30
0.0
 11
0.0
 21
0.0
 31
0.0
  0
LINE
  5
8C
330
1E
100
AcDbEntity
  8
HILF
100
AcDbLine
 10
15.54383567856928
 20
148.5
 30
0.0
 11
0.0000000000000568
 21
148.5
 31
0.0
  0
TEXT
  5
8D
330
1E
100
AcDbEntity
  8
TEXT
100
AcDbText
 10
69.31105491105199
 20
36.57012735575833
 30
0.0
 40
2.0
  1
2007
 41
0.8
  7
GREEKS
100
AcDbText
  0
LINE
  5
8E
330
1E
100
AcDbEntity
  8
HILF
100
AcDbLine
 10
210.0
 20
-0.0000000000000568
 30
0.0
 11
210.0
 21
297.0
 31
0.0
  0
TEXT
  5
8F
330
1E
100
AcDbEntity
  8
VOLL
100
AcDbText
 10
78.07675471698113
 20
31.02594776470585
 30
0.0
 40
1.8
  1

  7
GREEKS
100
AcDbText
  0
TEXT
  5
90
330
1E
100
AcDbEntity
  8
TEXT
100
AcDbText
 10
20.92754975488837
 20
55.83599999999997
 30
0.0
 40
2.5
  1
Erstellt mit AUTOCAD 2004
 41
0.8
  7
GREEKS
100
AcDbText
  0
TEXT
  5
91
330
1E
100
AcDbEntity
  8
TEXT
100
AcDbText
 10
97.21080242906285
 20
31.54481959861755
 30
0.0
 40
2.0
  1
Koeh
 41
0.8
  7
GREEKS
 72
     1
 11
99.83937385763429
 21
31.54481959861755
 31
0.0
100
AcDbText
  0
TEXT
  5
92
330
1E
100
AcDbEntity
  8
TEXT
 62
     1
100
AcDbText
 10
173.8063641317322
 20
44.07450714456979
 30
0.0
 40
3.5
  1
58056100W
 41
0.8
  7
GREEKS
 72
     1
 11
185.5396974650655
 21
44.07450714456979
 31
0.0
100
AcDbText
  0
TEXT
  5
93
330
1E
100
AcDbEntity
  8
TEXT
 62
     1
100
AcDbText
 10
75.25031532409435
 20
44.07450714456979
 30
0.0
 40
3.5
  1
1:1
 41
0.8
  7
GREEKS
100
AcDbText
  0
TEXT
  5
94
330
1E
100
AcDbEntity
  8
TEXT
100
AcDbText
 10
80.50426045887993
 20
31.55382520412866
 30
0.0
 40
2.0
  1
01.10.
 41
0.8
  7
GREEKS
 72
     1
 11
83.70426045887993
 21
31.55382520412866
 31
0.0
100
AcDbText
  0
TEXT
  5
95
330
1E
100
AcDbEntity
  8
TEXT
 62
     1
100
AcDbText
 10
113.4467865528701
 20
43.70874394626889
 30
0.0
 40
3.5
  1
Verbundrohr DN100
 41
0.8
  7
GREEKS
100
AcDbText
  0
TEXT
  5
98
330
1E
100
AcDbEntity
  8
TEXT
100
AcDbText
 10
112.5648195562657
 20
25.82005971521079
 30
0.0
 40
2.5
  1
EDV-Art.Nr. 58056.100X
 41
0.8
  7
GREEKS
100
AcDbText
  0
TEXT
  5
99
330
1E
100
AcDbEntity
  8
TEXT
100
AcDbText
 10
112.4918750788913
 20
21.31487076511316
 30
0.0
 40
2.0
  1
58056100w.DWG
 41
0.8
  7
GREEKS
100
AcDbText
  0
TEXT
  5
9A
330
1E
100
AcDbEntity
  8
TEXT
100
AcDbText
 10
91.31306610404202
 20
45.38181920511511
 30
0.0
 40
2.0
  1
DIN EN1123-2
 41
0.8
  7
GREEKS
 72
     1
 11
99.80830419928011
 21
45.38181920511511
 31
0.0
100
AcDbText
  0
INSERT
  5
9B
330
1E
100
AcDbEntity
  8
STEMPEL
100
AcDbBlockReference
  2
LOGO
 10
70.4977742728897
 20
22.51052638224161
 30
0.0
  0
TEXT
  5
118
330
1E
100
AcDbEntity
  8
BEM
100
AcDbText
 10
208.6511461928583
 20
5.083950539994247
 30
0.0
 40
2.0
  1
Diese Zeichnung ist urheberrechtlich geschützt und bleibt unser Eigentum. Sie darf weder ganz noch teilweise verfielfältigt und nicht an Dritte weitergegeben werden.
 50
90.0
 41
0.8
  7
GREEKS
100
AcDbText
  0
TEXT
  5
6CB
330
1E
100
AcDbEntity
  8
TEXT
 62
     1
100
AcDbText
 10
122.515064557629
 20
64.87110898645312
 30
0.0
 40
3.5
  1
und innenbeschichtet
 41
0.8
  7
GREEKS
100
AcDbText
  0
TEXT
  5
6CC
330
1E
100
AcDbEntity
  8
TEXT
 62
     1
100
AcDbText
 10
97.01338013227838
 20
58.57369129376209
 30
0.0
 40
3.5
  1
Dämmung: 2 K-PU-Schaum
 41
0.8
  7
GREEKS
100
AcDbText
  0
TEXT
  5
6CD
330
1E
100
AcDbEntity
  8
TEXT
 62
     1
100
AcDbText
 10
98.68780011962213
 20
70.505635906066
 30
0.0
 40
3.5
  1
Innenrohr: E195 EN10305 feuerverzinkt
 41
0.8
  7
GREEKS
100
AcDbText
  0
TEXT
  5
6CE
330
1E
100
AcDbEntity
  8
TEXT
 62
     1
100
AcDbText
 10
96.80169143419011
 20
76.18216992424351
 30
0.0
 40
3.5
  1
Außenrohr: E195 EN10305 feuerverzinkt
 41
0.8
  7
GREEKS
100
AcDbText
  0
TEXT
  5
6CF
330
1E
100
AcDbEntity
  8
TEXT
100
AcDbText
 10
112.5648195562657
 20
35.82005971521077
 30
0.0
 40
2.5
  1
Doppelmuffen
 41
0.8
  7
GREEKS
100
AcDbText
  0
LINE
  5
FC0
330
1E
100
AcDbEntity
  8
MITTEL
100
AcDbLine
 10
113.4631494985709
 20
271.9412494145142
 30
0.0
 11
113.463149498571
 21
81.94124941451427
 31
0.0
  0
LINE
  5
FC3
102
{ACAD_REACTORS
330
1126
330
12AD
330
12BA
102
}
330
1E
100
AcDbEntity
  8
STEMPEL
  6
Continuous
100
AcDbLine
 10
179.9631494985709
 20
86.94124941451425
 30
0.0
 11
46.96314949857094
 21
86.94124941451427
 31
0.0
  0
LINE
  5
FE0
102
{ACAD_REACTORS
330
1116
330
12AD
330
12BA
102
}
330
1E
100
AcDbEntity
  8
STEMPEL
  6
Continuous
100
AcDbLine
 10
179.9631494985709
 20
266.9412494145142
 30
0.0
 11
46.96314949857094
 21
266.9412494145142
 31
0.0
  0
TEXT
  5
FFE
330
1E
100
AcDbEntity
  8
TEXT
 62
     1
100
AcDbText
 10
108.2431235230186
 20
236.176651632204
 30
0.0
 40
3.5
  1
DN100
 50
90.0
  7
GREEKS
100
AcDbText
  0
LINE
  5
106E
330
1E
100
AcDbEntity
  8
HILF
100
AcDbLine
 10
66.09518920904685
 20
193.856096017744
 30
0.0
 11
160.831109788095
 21
193.856096017744
 31
0.0
  0
LINE
  5
106F
330
1E
100
AcDbEntity
  8
HILF
100
AcDbLine
 10
163.7735494823778
 20
200.0352474314345
 30
0.0
 11
63.15274951476396
 21
200.0352474314345
 31
0.0
  0
LINE
  5
1070
330
1E
100
AcDbEntity
  8
HILF
100
AcDbLine
 10
62.12455089364914
 20
222.7154678467881
 30
0.0
 11
164.8017481034927
 21
222.7154678467881
 31
0.0
  0
LINE
  5
1074
102
{ACAD_REACTORS
330
12AD
102
}
330
1E
100
AcDbEntity
  8
STEMPEL
100
AcDbLine
 10
162.4631494985709
 20
190.907256894646
 30
0.0
 11
162.4631494985709
 21
162.9752419343824
 31
0.0
  0
LINE
  5
1075
102
{ACAD_REACTORS
330
1148
330
12AD
102
}
330
1E
100
AcDbEntity
  8
STEMPEL
100
AcDbLine
 10
164.4631494985709
 20
190.9072568946461
 30
0.0
 11
164.4631494985709
 21
162.9752419343824
 31
0.0
  0
LINE
  5
1076
102
{ACAD_REACTORS
330
12AD
102
}
330
1E
100
AcDbEntity
  8
STEMPEL
100
AcDbLine
 10
166.4631494985709
 20
219.4410488838327
 30
0.0
 11
166.4631494985709
 21
203.8687382914618
 31
0.0
  0
LINE
  5
1077
102
{ACAD_REACTORS
330
1148
330
12AD
102
}
330
1E
100
AcDbEntity
  8
STEMPEL
100
AcDbLine
 10
168.4631494985709
 20
219.4412494145142
 30
0.0
 11
168.4631494985709
 21
203.8687382914617
 31
0.0
  0
LINE
  5
1078
102
{ACAD_REACTORS
330
12AD
102
}
330
1E
100
AcDbEntity
  8
STEMPEL
100
AcDbLine
 10
170.4631494985709
 20
254.3364979519432
 30
0.0
 11
170.4631494985709
 21
236.1742494145142
 31
0.0
  0
LINE
  5
1079
102
{ACAD_REACTORS
330
1116
330
1148
330
12AD
102
}
330
1E
100
AcDbEntity
  8
STEMPEL
100
AcDbLine
 10
172.4631494985709
 20
254.3364979519432
 30
0.0
 11
172.4631494985709
 21
236.1744499451958
 31
0.0
  0
LINE
  5
107A
102
{ACAD_REACTORS
330
12AD
102
}
330
1E
100
AcDbEntity
  8
STEMPEL
100
AcDbLine
 10
166.9631494985709
 20
266.9412494145142
 30
0.0
 11
168.3082286004138
 21
264.0567179719793
 31
0.0
  0
LINE
  5
107B
102
{ACAD_REACTORS
330
1116
330
12AD
102
}
330
1E
100
AcDbEntity
  8
STEMPEL
100
AcDbLine
 10
169.1699053364959
 20
266.9412494145142
 30
0.0
 11
170.1208441744872
 21
264.9019544954602
 31
0.0
  0
ARC
  5
107C
102
{ACAD_REACTORS
330
1148
330
12AD
102
}
330
1E
100
AcDbEntity
  8
STEMPEL
100
AcDbCircle
 10
172.4631494985709
 20
190.9072568946461
 30
0.0
 40
8.0
100
AcDbArc
 50
145.6988472432089
 51
180.0
  0
ARC
  5
107D
102
{ACAD_REACTORS
330
12AD
102
}
330
1E
100
AcDbEntity
  8
STEMPEL
100
AcDbCircle
 10
172.4631494985709
 20
190.9072568946461
 30
0.0
 40
10.0
100
AcDbArc
 50
145.6988472432089
 51
180.0
  0
ARC
  5
107E
102
{ACAD_REACTORS
330
12AD
102
}
330
1E
100
AcDbEntity
  8
STEMPEL
100
AcDbCircle
 10
153.4631494985709
 20
203.8687382914618
 30
0.0
 40
13.0
100
AcDbArc
 50
325.698847243209
 51
0.0
  0
ARC
  5
107F
102
{ACAD_REACTORS
330
1148
330
12AD
102
}
330
1E
100
AcDbEntity
  8
STEMPEL
100
AcDbCircle
 10
153.4631494985709
 20
203.8687382914617
 30
0.0
 40
15.0
100
AcDbArc
 50
325.698847243209
 51
0.0
  0
ARC
  5
1080
102
{ACAD_REACTORS
330
1148
330
12AD
102
}
330
1E
100
AcDbEntity
  8
STEMPEL
100
AcDbCircle
 10
180.4631494985709
 20
219.4412494145142
 30
0.0
 40
12.0
100
AcDbArc
 50
153.1119523822761
 51
180.0
  0
ARC
  5
1081
102
{ACAD_REACTORS
330
12AD
102
}
330
1E
100
AcDbEntity
  8
STEMPEL
100
AcDbCircle
 10
180.4631494985709
 20
219.4410488838327
 30
0.0
 40
14.0
100
AcDbArc
 50
153.1119523822761
 51
180.0
  0
ARC
  5
1082
102
{ACAD_REACTORS
330
12AD
102
}
330
1E
100
AcDbEntity
  8
STEMPEL
100
AcDbCircle
 10
147.4631494985709
 20
236.1742494145142
 30
0.0
 40
23.0
100
AcDbArc
 50
333.111952382276
 51
0.0
  0
ARC
  5
1083
102
{ACAD_REACTORS
330
1148
330
12AD
102
}
330
1E
100
AcDbEntity
  8
STEMPEL
100
AcDbCircle
 10
147.4631494985709
 20
236.1744499451958
 30
0.0
 40
25.0
100
AcDbArc
 50
333.111952382276
 51
0.0
  0
ARC
  5
1084
102
{ACAD_REACTORS
330
1116
330
12AD
102
}
330
1E
100
AcDbEntity
  8
STEMPEL
100
AcDbCircle
 10
147.4631494985709
 20
254.3364979519432
 30
0.0
 40
25.0
100
AcDbArc
 50
0.0
 51
24.99999999999861
  0
ARC
  5
1085
102
{ACAD_REACTORS
330
12AD
102
}
330
1E
100
AcDbEntity
  8
STEMPEL
100
AcDbCircle
 10
147.4631494985709
 20
254.3364979519432
 30
0.0
 40
23.0
100
AcDbArc
 50
0.0
 51
25.00000000000078
  0
ARC
  5
1086
102
{ACAD_REACTORS
330
12AD
102
}
330
1E
100
AcDbEntity
  8
STEMPEL
100
AcDbCircle
 10
79.46314949857094
 20
254.3364979519432
 30
0.0
 40
23.0
100
AcDbArc
 50
154.9999999999992
 51
180.0
  0
ARC
  5
1087
102
{ACAD_REACTORS
330
1116
330
12AD
102
}
330
1E
100
AcDbEntity
  8
STEMPEL
100
AcDbCircle
 10
79.46314949857094
 20
254.3364979519432
 30
0.0
 40
25.0
100
AcDbArc
 50
155.0000000000013
 51
180.0
  0
ARC
  5
1088
102
{ACAD_REACTORS
330
1148
330
12AD
102
}
330
1E
100
AcDbEntity
  8
STEMPEL
100
AcDbCircle
 10
79.46314949857094
 20
236.1744499451958
 30
0.0
 40
25.0
100
AcDbArc
 50
180.0
 51
206.8880476177239
  0
ARC
  5
1089
102
{ACAD_REACTORS
330
12AD
102
}
330
1E
100
AcDbEntity
  8
STEMPEL
100
AcDbCircle
 10
79.46314949857094
 20
236.1742494145142
 30
0.0
 40
23.0
100
AcDbArc
 50
180.0
 51
206.8880476177239
  0
ARC
  5
108A
102
{ACAD_REACTORS
330
12AD
102
}
330
1E
100
AcDbEntity
  8
STEMPEL
100
AcDbCircle
 10
46.46314949857088
 20
219.4410488838327
 30
0.0
 40
14.0
100
AcDbArc
 50
0.0
 51
26.88804761772389
  0
ARC
  5
108B
102
{ACAD_REACTORS
330
1148
330
12AD
102
}
330
1E
100
AcDbEntity
  8
STEMPEL
100
AcDbCircle
 10
46.46314949857094
 20
219.4412494145142
 30
0.0
 40
12.0
100
AcDbArc
 50
0.0
 51
26.88804761772389
  0
ARC
  5
108C
102
{ACAD_REACTORS
330
1148
330
12AD
102
}
330
1E
100
AcDbEntity
  8
STEMPEL
100
AcDbCircle
 10
73.46314949857094
 20
203.8687382914617
 30
0.0
 40
15.0
100
AcDbArc
 50
180.0
 51
214.3011527567911
  0
ARC
  5
108D
102
{ACAD_REACTORS
330
12AD
102
}
330
1E
100
AcDbEntity
  8
STEMPEL
100
AcDbCircle
 10
73.46314949857094
 20
203.8687382914618
 30
0.0
 40
13.0
100
AcDbArc
 50
180.0
 51
214.3011527567911
  0
ARC
  5
108E
102
{ACAD_REACTORS
330
12AD
102
}
330
1E
100
AcDbEntity
  8
STEMPEL
100
AcDbCircle
 10
54.46314949857094
 20
190.9072568946461
 30
0.0
 40
10.0
100
AcDbArc
 50
0.0
 51
34.30115275679106
  0
ARC
  5
108F
102
{ACAD_REACTORS
330
1148
330
12AD
102
}
330
1E
100
AcDbEntity
  8
STEMPEL
100
AcDbCircle
 10
54.46314949857089
 20
190.9072568946461
 30
0.0
 40
8.0
100
AcDbArc
 50
0.0
 51
34.30115275679106
  0
LINE
  5
1090
102
{ACAD_REACTORS
330
1116
330
12AD
102
}
330
1E
100
AcDbEntity
  8
STEMPEL
100
AcDbLine
 10
57.75639366064592
 20
266.9412494145142
 30
0.0
 11
56.8054548226545
 21
264.9019544954602
 31
0.0
  0
LINE
  5
1091
102
{ACAD_REACTORS
330
12AD
102
}
330
1E
100
AcDbEntity
  8
STEMPEL
100
AcDbLine
 10
59.96314949857094
 20
266.9412494145142
 30
0.0
 11
58.618070396728
 21
264.0567179719793
 31
0.0
  0
LINE
  5
1092
102
{ACAD_REACTORS
330
1116
330
1148
330
12AD
102
}
330
1E
100
AcDbEntity
  8
STEMPEL
100
AcDbLine
 10
54.46314949857094
 20
254.3364979519432
 30
0.0
 11
54.46314949857094
 21
236.1744499451958
 31
0.0
  0
LINE
  5
1093
102
{ACAD_REACTORS
330
12AD
102
}
330
1E
100
AcDbEntity
  8
STEMPEL
100
AcDbLine
 10
56.46314949857094
 20
254.3364979519432
 30
0.0
 11
56.46314949857094
 21
236.1742494145142
 31
0.0
  0
LINE
  5
1094
102
{ACAD_REACTORS
330
1148
330
12AD
102
}
330
1E
100
AcDbEntity
  8
STEMPEL
100
AcDbLine
 10
58.46314949857094
 20
219.4412494145142
 30
0.0
 11
58.46314949857094
 21
203.8687382914617
 31
0.0
  0
LINE
  5
1095
102
{ACAD_REACTORS
330
12AD
102
}
330
1E
100
AcDbEntity
  8
STEMPEL
100
AcDbLine
 10
60.46314949857094
 20
219.4410488838327
 30
0.0
 11
60.46314949857094
 21
203.8687382914618
 31
0.0
  0
LINE
  5
1096
102
{ACAD_REACTORS
330
1148
330
12AD
102
}
330
1E
100
AcDbEntity
  8
STEMPEL
100
AcDbLine
 10
62.46314949857094
 20
190.9072568946461
 30
0.0
 11
62.46314949857094
 21
162.9752419343824
 31
0.0
  0
LINE
  5
1097
102
{ACAD_REACTORS
330
12AD
102
}
330
1E
100
AcDbEntity
  8
STEMPEL
100
AcDbLine
 10
64.46314949857094
 20
190.907256894646
 30
0.0
 11
64.46314949857094
 21
162.9752419343824
 31
0.0
  0
LINE
  5
10C1
102
{ACAD_REACTORS
330
12AD
102
}
330
1E
100
AcDbEntity
  8
STEMPEL
100
AcDbLine
 10
60.46314949857094
 20
134.4414499451958
 30
0.0
 11
60.46314949857094
 21
150.0137605375667
 31
0.0
  0
LINE
  5
10C2
102
{ACAD_REACTORS
330
1148
330
12AD
102
}
330
1E
100
AcDbEntity
  8
STEMPEL
100
AcDbLine
 10
58.46314949857094
 20
134.4412494145143
 30
0.0
 11
58.46314949857094
 21
150.0137605375668
 31
0.0
  0
LINE
  5
10C3
102
{ACAD_REACTORS
330
12AD
102
}
330
1E
100
AcDbEntity
  8
STEMPEL
100
AcDbLine
 10
56.46314949857094
 20
99.54600087708536
 30
0.0
 11
56.46314949857094
 21
117.7082494145143
 31
0.0
  0
LINE
  5
10C4
102
{ACAD_REACTORS
330
1126
330
1148
330
12AD
102
}
330
1E
100
AcDbEntity
  8
STEMPEL
100
AcDbLine
 10
54.46314949857094
 20
99.54600087708536
 30
0.0
 11
54.46314949857094
 21
117.7080488838327
 31
0.0
  0
LINE
  5
10C5
102
{ACAD_REACTORS
330
12AD
102
}
330
1E
100
AcDbEntity
  8
STEMPEL
100
AcDbLine
 10
59.96314949857094
 20
86.94124941451429
 30
0.0
 11
58.618070396728
 21
89.8257808570492
 31
0.0
  0
LINE
  5
10C6
102
{ACAD_REACTORS
330
1126
330
12AD
102
}
330
1E
100
AcDbEntity
  8
STEMPEL
100
AcDbLine
 10
57.75639366064592
 20
86.94124941451429
 30
0.0
 11
56.8054548226545
 21
88.98054433356827
 31
0.0
  0
ARC
  5
10C7
102
{ACAD_REACTORS
330
1148
330
12AD
102
}
330
1E
100
AcDbEntity
  8
STEMPEL
100
AcDbCircle
 10
54.46314949857089
 20
162.9752419343824
 30
0.0
 40
8.0
100
AcDbArc
 50
325.698847243209
 51
0.0
  0
ARC
  5
10C8
102
{ACAD_REACTORS
330
12AD
102
}
330
1E
100
AcDbEntity
  8
STEMPEL
100
AcDbCircle
 10
54.46314949857094
 20
162.9752419343824
 30
0.0
 40
10.0
100
AcDbArc
 50
325.698847243209
 51
0.0
  0
ARC
  5
10C9
102
{ACAD_REACTORS
330
12AD
102
}
330
1E
100
AcDbEntity
  8
STEMPEL
100
AcDbCircle
 10
73.46314949857094
 20
150.0137605375667
 30
0.0
 40
13.0
100
AcDbArc
 50
145.6988472432089
 51
180.0
  0
ARC
  5
10CA
102
{ACAD_REACTORS
330
1148
330
12AD
102
}
330
1E
100
AcDbEntity
  8
STEMPEL
100
AcDbCircle
 10
73.46314949857094
 20
150.0137605375668
 30
0.0
 40
15.0
100
AcDbArc
 50
145.6988472432089
 51
180.0
  0
ARC
  5
10CB
102
{ACAD_REACTORS
330
1148
330
12AD
102
}
330
1E
100
AcDbEntity
  8
STEMPEL
100
AcDbCircle
 10
46.46314949857094
 20
134.4412494145143
 30
0.0
 40
12.0
100
AcDbArc
 50
333.111952382276
 51
0.0
  0
ARC
  5
10CC
102
{ACAD_REACTORS
330
12AD
102
}
330
1E
100
AcDbEntity
  8
STEMPEL
100
AcDbCircle
 10
46.46314949857088
 20
134.4414499451958
 30
0.0
 40
14.0
100
AcDbArc
 50
333.111952382276
 51
0.0
  0
ARC
  5
10CD
102
{ACAD_REACTORS
330
12AD
102
}
330
1E
100
AcDbEntity
  8
STEMPEL
100
AcDbCircle
 10
79.46314949857094
 20
117.7082494145143
 30
0.0
 40
23.0
100
AcDbArc
 50
153.1119523822761
 51
180.0
  0
ARC
  5
10CE
102
{ACAD_REACTORS
330
1148
330
12AD
102
}
330
1E
100
AcDbEntity
  8
STEMPEL
100
AcDbCircle
 10
79.46314949857094
 20
117.7080488838327
 30
0.0
 40
25.0
100
AcDbArc
 50
153.1119523822761
 51
180.0
  0
ARC
  5
10CF
102
{ACAD_REACTORS
330
1126
330
12AD
102
}
330
1E
100
AcDbEntity
  8
STEMPEL
100
AcDbCircle
 10
79.46314949857094
 20
99.54600087708536
 30
0.0
 40
25.0
100
AcDbArc
 50
180.0
 51
204.9999999999986
  0
ARC
  5
10D0
102
{ACAD_REACTORS
330
12AD
102
}
330
1E
100
AcDbEntity
  8
STEMPEL
100
AcDbCircle
 10
79.46314949857094
 20
99.54600087708536
 30
0.0
 40
23.0
100
AcDbArc
 50
180.0
 51
205.0000000000008
  0
ARC
  5
10D1
102
{ACAD_REACTORS
330
12AD
102
}
330
1E
100
AcDbEntity
  8
STEMPEL
100
AcDbCircle
 10
147.4631494985709
 20
99.54600087708536
 30
0.0
 40
23.0
100
AcDbArc
 50
334.9999999999992
 51
0.0
  0
ARC
  5
10D2
102
{ACAD_REACTORS
330
1126
330
12AD
102
}
330
1E
100
AcDbEntity
  8
STEMPEL
100
AcDbCircle
 10
147.4631494985709
 20
99.54600087708536
 30
0.0
 40
25.0
100
AcDbArc
 50
335.0000000000014
 51
0.0
  0
ARC
  5
10D3
102
{ACAD_REACTORS
330
1148
330
12AD
102
}
330
1E
100
AcDbEntity
  8
STEMPEL
100
AcDbCircle
 10
147.4631494985709
 20
117.7080488838327
 30
0.0
 40
25.0
100
AcDbArc
 50
0.0
 51
26.88804761772393
  0
ARC
  5
10D4
102
{ACAD_REACTORS
330
12AD
102
}
330
1E
100
AcDbEntity
  8
STEMPEL
100
AcDbCircle
 10
147.4631494985709
 20
117.7082494145143
 30
0.0
 40
23.0
100
AcDbArc
 50
0.0
 51
26.88804761772393
  0
ARC
  5
10D5
102
{ACAD_REACTORS
330
12AD
102
}
330
1E
100
AcDbEntity
  8
STEMPEL
100
AcDbCircle
 10
180.4631494985709
 20
134.4414499451958
 30
0.0
 40
14.0
100
AcDbArc
 50
180.0
 51
206.8880476177239
  0
ARC
  5
10D6
102
{ACAD_REACTORS
330
1148
330
12AD
102
}
330
1E
100
AcDbEntity
  8
STEMPEL
100
AcDbCircle
 10
180.4631494985709
 20
134.4412494145143
 30
0.0
 40
12.0
100
AcDbArc
 50
180.0
 51
206.8880476177239
  0
ARC
  5
10D7
102
{ACAD_REACTORS
330
1148
330
12AD
102
}
330
1E
100
AcDbEntity
  8
STEMPEL
100
AcDbCircle
 10
153.4631494985709
 20
150.0137605375668
 30
0.0
 40
15.0
100
AcDbArc
 50
0.0
 51
34.30115275679105
  0
ARC
  5
10D8
102
{ACAD_REACTORS
330
12AD
102
}
330
1E
100
AcDbEntity
  8
STEMPEL
100
AcDbCircle
 10
153.4631494985709
 20
150.0137605375667
 30
0.0
 40
13.0
100
AcDbArc
 50
0.0
 51
34.30115275679105
  0
ARC
  5
10D9
102
{ACAD_REACTORS
330
12AD
102
}
330
1E
100
AcDbEntity
  8
STEMPEL
100
AcDbCircle
 10
172.4631494985709
 20
162.9752419343824
 30
0.0
 40
10.0
100
AcDbArc
 50
180.0
 51
214.3011527567911
  0
ARC
  5
10DA
102
{ACAD_REACTORS
330
1148
330
12AD
102
}
330
1E
100
AcDbEntity
  8
STEMPEL
100
AcDbCircle
 10
172.4631494985709
 20
162.9752419343824
 30
0.0
 40
8.0
100
AcDbArc
 50
180.0
 51
214.3011527567911
  0
LINE
  5
10DB
102
{ACAD_REACTORS
330
1126
330
12AD
102
}
330
1E
100
AcDbEntity
  8
STEMPEL
100
AcDbLine
 10
169.1699053364959
 20
86.94124941451429
 30
0.0
 11
170.1208441744872
 21
88.98054433356827
 31
0.0
  0
LINE
  5
10DC
102
{ACAD_REACTORS
330
12AD
102
}
330
1E
100
AcDbEntity
  8
STEMPEL
100
AcDbLine
 10
166.9631494985709
 20
86.94124941451429
 30
0.0
 11
168.3082286004138
 21
89.8257808570492
 31
0.0
  0
LINE
  5
10DD
102
{ACAD_REACTORS
330
1126
330
1148
330
12AD
102
}
330
1E
100
AcDbEntity
  8
STEMPEL
100
AcDbLine
 10
172.4631494985709
 20
99.54600087708536
 30
0.0
 11
172.4631494985709
 21
117.7080488838327
 31
0.0
  0
LINE
  5
10DE
102
{ACAD_REACTORS
330
12AD
102
}
330
1E
100
AcDbEntity
  8
STEMPEL
100
AcDbLine
 10
170.4631494985709
 20
99.54600087708536
 30
0.0
 11
170.4631494985709
 21
117.7082494145143
 31
0.0
  0
LINE
  5
10DF
102
{ACAD_REACTORS
330
1148
330
12AD
102
}
330
1E
100
AcDbEntity
  8
STEMPEL
100
AcDbLine
 10
168.4631494985709
 20
134.4412494145143
 30
0.0
 11
168.4631494985709
 21
150.0137605375668
 31
0.0
  0
LINE
  5
10E0
102
{ACAD_REACTORS
330
12AD
102
}
330
1E
100
AcDbEntity
  8
STEMPEL
100
AcDbLine
 10
166.4631494985709
 20
134.4414499451958
 30
0.0
 11
166.4631494985709
 21
150.0137605375667
 31
0.0
  0
LINE
  5
10E3
330
1E
100
AcDbEntity
  8
HILF
100
AcDbLine
 10
62.12455089364914
 20
131.1670309822404
 30
0.0
 11
164.8017481034927
 21
131.1670309822404
 31
0.0
  0
LINE
  5
10E4
330
1E
100
AcDbEntity
  8
HILF
100
AcDbLine
 10
163.7735494823778
 20
153.847251397594
 30
0.0
 11
63.15274951476396
 21
153.847251397594
 31
0.0
  0
LINE
  5
10E5
330
1E
100
AcDbEntity
  8
HILF
100
AcDbLine
 10
66.09518920904685
 20
160.0264028112845
 30
0.0
 11
160.831109788095
 21
160.0264028112845
 31
0.0
  0
LINE
  5
10E6
102
{ACAD_REACTORS
330
12BA
102
}
330
1E
100
AcDbEntity
  8
STEMPEL
100
AcDbLine
 10
179.9631494985709
 20
266.9412494145142
 30
0.0
 11
179.9631494985709
 21
86.94124941451425
 31
0.0
  0
LINE
  5
10E7
102
{ACAD_REACTORS
330
1116
330
1126
330
1148
330
12BA
102
}
330
1E
100
AcDbEntity
  8
STEMPEL
100
AcDbLine
 10
177.4631494985709
 20
266.9412494145142
 30
0.0
 11
177.4631494985709
 21
86.94124941451425
 31
0.0
  0
LINE
  5
10E8
102
{ACAD_REACTORS
330
1116
330
1148
102
}
330
1E
100
AcDbEntity
  8
STEMPEL
100
AcDbLine
 10
177.4631494985709
 20
252.9412494145142
 30
0.0
 11
172.4631494985709
 21
252.9412494145143
 31
0.0
  0
LINE
  5
10E9
102
{ACAD_REACTORS
330
12BA
102
}
330
1E
100
AcDbEntity
  8
STEMPEL
100
AcDbLine
 10
46.96314949857094
 20
266.9412494145142
 30
0.0
 11
46.96314949857094
 21
86.94124941451425
 31
0.0
  0
LINE
  5
10EA
102
{ACAD_REACTORS
330
1116
330
1126
330
1148
330
12BA
102
}
330
1E
100
AcDbEntity
  8
STEMPEL
100
AcDbLine
 10
49.46314949857094
 20
266.9412494145142
 30
0.0
 11
49.46314949857094
 21
86.94124941451425
 31
0.0
  0
LINE
  5
10EB
102
{ACAD_REACTORS
330
1116
330
1148
102
}
330
1E
100
AcDbEntity
  8
STEMPEL
100
AcDbLine
 10
54.463149498571
 20
252.9412494145143
 30
0.0
 11
49.46314949857094
 21
252.9412494145143
 31
0.0
  0
HATCH
  5
1116
330
1E
100
AcDbEntity
  8
SCHRAFF
100
AcDbHatch
 10
0.0
 20
0.0
 30
0.0
210
0.0
220
0.0
230
1.0
  2
NET
 70
     0
 71
     1
 91
        2
 92
        7
 72
     1
 73
     1
 93
        6
 10
172.4631494985709
 20
254.3364979519434
 42
0.0
 10
172.4631494985708
 20
252.9412494145142
 42
0.0
 10
177.4631494985709
 20
252.9412494145142
 42
0.0
 10
177.463149498571
 20
266.9412494145142
 42
0.0
 10
169.169905336496
 20
266.9412494145141
 42
0.0
 10
170.1208441744872
 20
264.9019544954602
 42
-0.109517811683235
 97
        6
330
FE0
330
107B
330
1084
330
1079
330
10E8
330
10E7
 92
        7
 72
     1
 73
     1
 93
        6
 10
56.8054548226545
 20
264.9019544954602
 42
0.0
 10
57.75639366064591
 20
266.9412494145142
 42
0.0
 10
49.46314949857094
 20
266.9412494145142
 42
0.0
 10
49.46314949857093
 20
252.9412494145143
 42
0.0
 10
54.46314949857093
 20
252.9412494145142
 42
0.0
 10
54.46314949857094
 20
254.3364979519432
 42
-0.1095178116832367
 97
        6
330
1090
330
FE0
330
10EA
330
10EB
330
1092
330
1087
 75
     0
 76
     1
 52
45.0
 41
20.0
 77
     0
 78
     2
 53
45.0
 43
-222.5872543390674
 44
-1.774707676047
 45
-1.767766952966368
 46
1.767766952966368
 79
     0
 53
135.0
 43
-222.5872543390674
 44
-1.774707676047
 45
-1.767766952966368
 46
-1.767766952966368
 79
     0
 47
0.5915689765753021
 98
        2
 10
173.7508977500897
 20
258.2360502493859
 10
52.39348431378335
 20
260.0107572256245
  0
LINE
  5
1117
102
{ACAD_REACTORS
330
1126
330
1148
102
}
330
1E
100
AcDbEntity
  8
STEMPEL
100
AcDbLine
 10
54.463149498571
 20
100.9412494145142
 30
0.0
 11
49.46314949857094
 21
100.9412494145142
 31
0.0
  0
LINE
  5
1118
102
{ACAD_REACTORS
330
1126
330
1148
102
}
330
1E
100
AcDbEntity
  8
STEMPEL
100
AcDbLine
 10
177.4631494985709
 20
100.9412494145142
 30
0.0
 11
172.4631494985709
 21
100.9412494145142
 31
0.0
  0
HATCH
  5
1126
330
1E
100
AcDbEntity
  8
SCHRAFF
100
AcDbHatch
 10
0.0
 20
0.0
 30
0.0
210
0.0
220
0.0
230
1.0
  2
NET
 70
     0
 71
     1
 91
        2
 92
        7
 72
     1
 73
     1
 93
        6
 10
170.1208441744872
 20
88.98054433356827
 42
0.0
 10
169.1699053364959
 20
86.94124941451425
 42
0.0
 10
177.4631494985709
 20
86.94124941451425
 42
0.0
 10
177.4631494985709
 20
100.9412494145142
 42
0.0
 10
172.4631494985709
 20
100.9412494145142
 42
0.0
 10
172.4631494985709
 20
99.54600087708536
 42
-0.109517811683237
 97
        6
330
1118
330
10DD
330
10D2
330
10DB
330
FC3
330
10E7
 92
        7
 72
     1
 73
     1
 93
        6
 10
49.46314949857093
 20
86.94124941451425
 42
0.0
 10
57.75639366064593
 20
86.94124941451425
 42
0.0
 10
56.8054548226545
 20
88.98054433356827
 42
-0.1095178116832367
 10
54.46314949857094
 20
99.54600087708534
 42
0.0
 10
54.46314949857093
 20
100.9412494145142
 42
0.0
 10
49.46314949857094
 20
100.9412494145142
 42
0.0
 97
        6
330
10C4
330
1117
330
10EA
330
FC3
330
10C6
330
10CF
 75
     0
 76
     1
 52
45.0
 41
20.0
 77
     0
 78
     2
 53
45.0
 43
-222.5872543390674
 44
-1.774707676047
 45
-1.767766952966368
 46
1.767766952966368
 79
     0
 53
135.0
 43
-222.5872543390674
 44
-1.774707676047
 45
-1.767766952966368
 46
-1.767766952966368
 79
     0
 47
0.4110705694988506
 98
        2
 10
172.7189985533796
 20
90.04355658347412
 10
51.77877400675152
 20
93.33212117252674
  0
HATCH
  5
1148
330
1E
100
AcDbEntity
  8
SCHRAFF
100
AcDbHatch
 10
0.0
 20
0.0
 30
0.0
210
0.0
220
0.0
230
1.0
  2
HONEY
 70
     0
 71
     1
 91
        2
 92
        7
 72
     1
 73
     1
 93
       16
 10
165.8544538463971
 20
195.4155982500603
 42
0.1507946423587083
 10
164.4631494985709
 20
190.907256894646
 42
0.0
 10
164.4631494985709
 20
162.9752419343824
 42
0.1507946423587032
 10
165.854453846397
 20
158.4669005789683
 42
-0.1507946423587035
 10
168.4631494985709
 20
150.0137605375668
 42
0.0
 10
168.4631494985709
 20
134.4412494145143
 42
0.1178625008509374
 10
169.7604467958682
 20
129.0142654586175
 42
-0.1178625008509355
 10
172.4631494985709
 20
117.7080488838327
 42
0.0
 10
172.4631494985709
 20
100.9412494145142
 42
0.0
 10
177.4631494985709
 20
100.9412494145142
 42
0.0
 10
177.4631494985709
 20
252.9412494145141
 42
0.0
 10
172.4631494985709
 20
252.9412494145143
 42
0.0
 10
172.4631494985709
 20
236.1744499451958
 42
-0.1178625008509351
 10
169.7604467958682
 20
224.8682333704111
 42
0.1178625008509393
 10
168.4631494985709
 20
219.4412494145142
 42
0.0
 10
168.4631494985709
 20
203.8687382914617
 42
-0.1507946423587016
 97
       16
330
10E8
330
1079
330
1083
330
1080
330
1077
330
107F
330
107C
330
1075
330
10DA
330
10D7
330
10DF
330
10D6
330
10D3
330
10DD
330
1118
330
10E7
 92
        7
 72
     1
 73
     1
 93
       16
 10
62.46314949857094
 20
190.9072568946461
 42
0.150794642358702
 10
61.07184515074486
 20
195.4155982500602
 42
-0.1507946423587041
 10
58.46314949857094
 20
203.8687382914617
 42
0.0
 10
58.46314949857094
 20
219.4412494145142
 42
0.1178625008509362
 10
57.16585220127365
 20
224.868233370411
 42
-0.1178625008509362
 10
54.46314949857094
 20
236.1744499451958
 42
0.0
 10
54.46314949857093
 20
252.9412494145142
 42
0.0
 10
49.46314949857094
 20
252.9412494145142
 42
0.0
 10
49.46314949857093
 20
100.9412494145142
 42
0.0
 10
54.46314949857093
 20
100.9412494145142
 42
0.0
 10
54.46314949857094
 20
117.7080488838327
 42
-0.117862500850935
 10
57.16585220127361
 20
129.0142654586174
 42
0.1178625008509371
 10
58.46314949857094
 20
134.4412494145142
 42
0.0
 10
58.46314949857094
 20
150.0137605375668
 42
-0.1507946423587017
 10
61.07184515074478
 20
158.4669005789682
 42
0.1507946423587064
 10
62.46314949857094
 20
162.9752419343824
 42
0.0
 97
       16
330
108F
330
108C
330
1094
330
108B
330
1088
330
1092
330
10EB
330
10EA
330
1117
330
10C4
330
10CE
330
10CB
330
10C2
330
10CA
330
10C7
330
1096
 75
     0
 76
     1
 52
0.0
 41
25.0
 77
     0
 78
     3
 53
0.0
 43
-222.5872543390674
 44
-1.774707676047
 45
4.6875
 46
2.706329374999999
 79
     2
 49
3.125
 49
-6.25
 53
120.0
 43
-222.5872543390674
 44
-1.774707676047
 45
-4.687499989758061
 46
2.706329392739557
 79
     2
 49
3.124999999999999
 49
-6.249999999999998
 53
60.0
 43
-222.5872543390674
 44
-1.774707676047
 45
0.0000000102419385
 46
5.412658767739556
 79
     2
 49
-6.25
 49
3.125
 47
0.4110705694988506
 98
        2
 10
172.3076375020009
 20
198.5661873224021
 10
56.71510931762782
 20
186.2340701134548
  0
DIMENSION
  5
1180
330
1E
100
AcDbEntity
  8
BEM
100
AcDbDimension
  2
*D1
 10
179.9631494985709
 20
275.2036560144578
 30
0.0
 11
113.4631494985709
 21
278.4536560144578
 31
0.0
 70
    32
  1
%%c<>
 71
     5
 42
133.0000000000001
  3
Standard
100
AcDbAlignedDimension
 13
46.96314949857082
 23
266.9412494145142
 33
0.0
 14
179.9631494985709
 24
266.9412494145142
 34
0.0
100
AcDbRotatedDimension
1001
ACAD
1000
DSTYLE
1002
{
1070
    41
1040
3.5
1070
    42
1040
1.0
1070
    43
1040
7.0
1070
    44
1040
1.0
1070
    73
1070
     0
1070
    74
1070
     0
1070
    77
1070
     1
1070
    78
1070
     8
1070
    79
1070
     2
1070
   140
1040
3.5
1070
   141
1040
1.5
1070
   146
1040
0.5142857142857144
1070
   147
1040
1.5
1070
   172
1070
     1
1070
   178
1070
     1
1070
   179
1070
     2
1070
   271
1070
     2
1070
   272
1070
     2
1070
   284
1070
     8
1070
   285
1070
     8
1070
   286
1070
     8
1002
}
  0
DIMENSION
  5
11FF
330
1E
100
AcDbEntity
  8
BEM
100
AcDbDimension
  2
*D2
 10
35.81783777139162
 20
266.9412494145142
 30
0.0
 11
32.56783777139158
 21
176.9412494145142
 31
0.0
 70
    32
 71
     5
 42
179.9999999999999
  3
Standard
100
AcDbAlignedDimension
 13
46.96314949857094
 23
86.94124941451425
 33
0.0
 14
46.96314949857094
 24
266.9412494145142
 34
0.0
 50
90.0
100
AcDbRotatedDimension
1001
ACAD
1000
DSTYLE
1002
{
1070
    41
1040
3.5
1070
    42
1040
1.0
1070
    43
1040
7.0
1070
    44
1040
1.0
1070
    73
1070
     0
1070
    74
1070
     0
1070
    77
1070
     1
1070
    78
1070
     8
1070
    79
1070
     2
1070
   140
1040
3.5
1070
   141
1040
1.5
1070
   146
1040
0.5142857142857144
1070
   147
1040
1.5
1070
   172
1070
     1
1070
   178
1070
     1
1070
   179
1070
     2
1070
   271
1070
     2
1070
   272
1070
     2
1070
   284
1070
     8
1070
   285
1070
     8
1070
   286
1070
     8
1002
}
  0
HATCH
  5
12AD
330
1E
100
AcDbEntity
  8
SCHRAFF
100
AcDbHatch
 10
0.0
 20
0.0
 30
0.0
210
0.0
220
0.0
230
1.0
  2
_USER
 70
     0
 71
     1
 91
        2
 92
        7
 72
     1
 73
     1
 93
       36
 10
164.4631494985709
 20
190.9072568946461
 42
-0.1507946423587017
 10
165.854453846397
 20
195.4155982500602
 42
0.1507946423587041
 10
168.4631494985709
 20
203.8687382914617
 42
0.0
 10
168.4631494985709
 20
219.4412494145142
 42
-0.1178625008509347
 10
169.7604467958681
 20
224.8682333704109
 42
0.1178625008509368
 10
172.4631494985709
 20
236.1744499451958
 42
0.0
 10
172.4631494985709
 20
254.3364979519432
 42
0.1095178116832373
 10
170.1208441744872
 20
264.9019544954602
 42
0.0
 10
169.1699053364959
 20
266.9412494145142
 42
0.0
 10
166.9631494985709
 20
266.9412494145142
 42
0.0
 10
168.3082286004138
 20
264.0567179719793
 42
-0.1095178116832432
 10
170.4631494985709
 20
254.3364979519431
 42
0.0
 10
170.4631494985709
 20
236.1742494145142
 42
-0.1178625008509353
 10
167.9766630120844
 20
225.7725301657122
 42
0.1178625008509344
 10
166.4631494985709
 20
219.4410488838328
 42
0.0
 10
166.4631494985709
 20
203.8687382914618
 42
-0.1507946423587016
 10
164.2022799333536
 20
196.5426835889139
 42
0.150794642358707
 10
162.4631494985709
 20
190.9072568946461
 42
0.0
 10
162.4631494985709
 20
162.9752419343824
 42
0.1507946423587043
 10
164.2022799333535
 20
157.3398152401147
 42
-0.1507946423587037
 10
166.4631494985709
 20
150.0137605375667
 42
0.0
 10
166.4631494985709
 20
134.4414499451958
 42
0.117862500850935
 10
167.9766630120844
 20
128.1099686633163
 42
-0.1178625008509353
 10
170.4631494985709
 20
117.7082494145143
 42
0.0
 10
170.4631494985709
 20
99.54600087708536
 42
-0.1095178116832422
 10
168.3082286004138
 20
89.8257808570492
 42
0.0
 10
166.9631494985709
 20
86.94124941451425
 42
0.0
 10
169.1699053364959
 20
86.94124941451425
 42
0.0
 10
170.1208441744872
 20
88.98054433356827
 42
0.1095178116832373
 10
172.4631494985709
 20
99.5460008770854
 42
0.0
 10
172.4631494985709
 20
117.7080488838327
 42
0.1178625008509361
 10
169.7604467958682
 20
129.0142654586175
 42
-0.1178625008509361
 10
168.4631494985709
 20
134.4412494145143
 42
0.0
 10
168.4631494985709
 20
150.0137605375668
 42
0.1507946423587035
 10
165.854453846397
 20
158.4669005789683
 42
-0.1507946423587032
 10
164.4631494985709
 20
162.9752419343824
 42
0.0
 97
       36
330
107C
330
107F
330
1077
330
1080
330
1083
330
1079
330
1084
330
107B
330
FE0
330
107A
330
1085
330
1078
330
1082
330
1081
330
1076
330
107E
330
107D
330
1074
330
10D9
330
10D8
330
10E0
330
10D5
330
10D4
330
10DE
330
10D1
330
10DC
330
FC3
330
10DB
330
10D2
330
10DD
330
10D3
330
10D6
330
10DF
330
10D7
330
10DA
330
1075
 92
        7
 72
     1
 73
     1
 93
       36
 10
64.46314949857094
 20
190.907256894646
 42
0.1507946423587051
 10
62.72401906378832
 20
196.5426835889138
 42
-0.1507946423587038
 10
60.46314949857094
 20
203.8687382914618
 42
0.0
 10
60.46314949857094
 20
219.4410488838327
 42
0.117862500850934
 10
58.94963598505743
 20
225.7725301657121
 42
-0.117862500850936
 10
56.46314949857094
 20
236.1742494145142
 42
0.0
 10
56.46314949857094
 20
254.3364979519432
 42
-0.1095178116832421
 10
58.618070396728
 20
264.0567179719793
 42
0.0
 10
59.96314949857095
 20
266.9412494145142
 42
0.0
 10
57.75639366064592
 20
266.9412494145142
 42
0.0
 10
56.8054548226545
 20
264.9019544954602
 42
0.1095178116832367
 10
54.46314949857094
 20
254.3364979519432
 42
0.0
 10
54.46314949857094
 20
236.1744499451958
 42
0.1178625008509362
 10
57.16585220127365
 20
224.868233370411
 42
-0.117862500850935
 10
58.46314949857094
 20
219.4412494145143
 42
0.0
 10
58.46314949857094
 20
203.8687382914617
 42
0.1507946423587029
 10
61.07184515074482
 20
195.4155982500602
 42
-0.1507946423587033
 10
62.46314949857094
 20
190.9072568946461
 42
0.0
 10
62.46314949857094
 20
162.9752419343824
 42
-0.1507946423587021
 10
61.07184515074484
 20
158.4669005789683
 42
0.1507946423587039
 10
58.46314949857094
 20
150.0137605375668
 42
0.0
 10
58.46314949857094
 20
134.4412494145143
 42
-0.1178625008509351
 10
57.16585220127366
 20
129.0142654586176
 42
0.1178625008509368
 10
54.46314949857094
 20
117.7080488838327
 42
0.0
 10
54.46314949857094
 20
99.54600087708536
 42
0.1095178116832369
 10
56.8054548226545
 20
88.98054433356827
 42
0.0
 10
57.75639366064593
 20
86.94124941451425
 42
0.0
 10
59.96314949857096
 20
86.94124941451425
 42
0.0
 10
58.618070396728
 20
89.8257808570492
 42
-0.1095178116832416
 10
56.46314949857094
 20
99.54600087708531
 42
0.0
 10
56.46314949857094
 20
117.7082494145143
 42
-0.117862500850935
 10
58.94963598505739
 20
128.1099686633163
 42
0.1178625008509348
 10
60.46314949857094
 20
134.4414499451958
 42
0.0
 10
60.46314949857094
 20
150.0137605375667
 42
-0.1507946423587017
 10
62.72401906378827
 20
157.3398152401146
 42
0.1507946423587061
 10
64.46314949857094
 20
162.9752419343824
 42
0.0
 97
       36
330
108E
330
108D
330
1095
330
108A
330
1089
330
1093
330
1086
330
1091
330
FE0
330
1090
330
1087
330
1092
330
1088
330
108B
330
1094
330
108C
330
108F
330
1096
330
10C7
330
10CA
330
10C2
330
10CB
330
10CE
330
10C4
330
10CF
330
10C6
330
FC3
330
10C5
330
10D0
330
10C3
330
10CD
330
10CC
330
10C1
330
10C9
330
10C8
330
1097
 75
     0
 76
     0
 52
45.0
 41
2.0
 77
     0
 78
     1
 53
45.0
 43
0.0
 44
0.0
 45
-1.414213562373094
 46
1.414213562373095
 79
     0
 47
0.4075770518290897
 98
        2
 10
163.7174604295053
 20
182.0762028928499
 10
63.38259146672794
 20
180.8534718517013
  0
HATCH
  5
12BA
330
1E
100
AcDbEntity
  8
SCHRAFF
100
AcDbHatch
 10
0.0
 20
0.0
 30
0.0
210
0.0
220
0.0
230
1.0
  2
_USER
 70
     0
 71
     1
 91
        2
 92
        7
 72
     0
 73
     1
 93
        4
 10
179.9631494985709
 20
266.9412494145141
 10
177.4631494985709
 20
266.9412494145141
 10
177.4631494985709
 20
86.94124941451423
 10
179.9631494985709
 20
86.94124941451429
 97
        4
330
FE0
330
10E7
330
FC3
330
10E6
 92
        7
 72
     0
 73
     1
 93
        4
 10
49.46314949857094
 20
266.9412494145142
 10
46.96314949857095
 20
266.9412494145142
 10
46.96314949857094
 20
86.94124941451425
 10
49.46314949857095
 20
86.94124941451425
 97
        4
330
FE0
330
10E9
330
FC3
330
10EA
 75
     0
 76
     0
 52
135.0
 41
2.0
 77
     0
 78
     1
 53
135.0
 43
0.0
 44
0.0
 45
-1.414213562373095
 46
-1.414213562373094
 79
     0
 47
0.4075770518290897
 98
        2
 10
178.8084766160088
 20
191.8580519218462
 10
48.29157393305877
 20
197.1565535666952
  0
ENDSEC
  0
SECTION
  2
OBJECTS
  0
DICTIONARY
  5
C
330
0
100
AcDbDictionary
281
     1
  3
ACAD_COLOR
350
DF
  3
ACAD_GROUP
350
D
  3
ACAD_LAYOUT
350
19
  3
ACAD_MATERIAL
350
DE
  3
ACAD_MLINESTYLE
350
16
  3
ACAD_PLOTSETTINGS
350
18
  3
ACAD_PLOTSTYLENAME
350
E
  3
AcDbVariableDictionary
350
EA
  0
DICTIONARY
  5
A0
330
1E
100
AcDbDictionary
280
     1
281
     1
  3
ACAD_LAYOUTSELFREF
360
D4
  0
DICTIONARY
  5
A2
330
1A
100
AcDbDictionary
280
     1
281
     1
  3
ACAD_LAYOUTSELFREF
360
D3
  0
DICTIONARY
  5
DF
102
{ACAD_REACTORS
330
C
102
}
330
C
100
AcDbDictionary
281
     1
  0
DICTIONARY
  5
D
102
{ACAD_REACTORS
330
C
102
}
330
C
100
AcDbDictionary
281
     1
  0
DICTIONARY
  5
19
102
{ACAD_REACTORS
330
C
102
}
330
C
100
AcDbDictionary
281
     1
  3
Layout1
350
1D
  3
Model
350
21
  0
DICTIONARY
  5
DE
102
{ACAD_REACTORS
330
C
102
}
330
C
100
AcDbDictionary
281
     1
  0
DICTIONARY
  5
16
102
{ACAD_REACTORS
330
C
102
}
330
C
100
AcDbDictionary
281
     1
  3
Standard
350
17
  0
DICTIONARY
  5
18
102
{ACAD_REACTORS
330
C
102
}
330
C
100
AcDbDictionary
281
     1
  0
ACDBDICTIONARYWDFLT
  5
E
102
{ACAD_REACTORS
330
C
102
}
330
C
100
AcDbDictionary
281
     1
  3
Normal
350
F
100
AcDbDictionaryWithDefault
340
F
  0
DICTIONARY
  5
EA
102
{ACAD_REACTORS
330
C
102
}
330
C
100
AcDbDictionary
281
     1
  3
DIMASSOC
350
EB
  3
PROJECTNAME
350
EC
  0
XRECORD
  5
D4
102
{ACAD_REACTORS
330
A0
102
}
330
A0
100
AcDbXrecord
280
     1
340
1E
  0
XRECORD
  5
D3
102
{ACAD_REACTORS
330
A2
102
}
330
A2
100
AcDbXrecord
280
     1
340
1A
  0
LAYOUT
  5
1D
102
{ACAD_REACTORS
330
19
102
}
330
19
100
AcDbPlotSettings
  1

  2
\\NT_WORK01\HP LaserJet 5000 PCL 6
  4

  6

 40
0.0
 41
0.0
 42
0.0
 43
0.0
 44
0.0
 45
0.0
 46
0.0
 47
0.0
 48
0.0
 49
0.0
140
0.0
141
0.0
142
1.0
143
1.0
 70
   688
 72
     0
 73
     0
 74
     5
  7

 75
    16
147
1.0
 76
     0
 77
     2
 78
   300
148
0.0
149
0.0
100
AcDbLayout
  1
Layout1
 70
     0
 71
     1
 10
0.0
 20
0.0
 11
12.0
 21
9.0
 12
0.0
 22
0.0
 32
0.0
 14
1.000000000000000E+20
 24
1.000000000000000E+20
 34
1.000000000000000E+20
 15
-1.000000000000000E+20
 25
-1.000000000000000E+20
 35
-1.000000000000000E+20
146
0.0
 13
0.0
 23
0.0
 33
0.0
 16
1.0
 26
0.0
 36
0.0
 17
0.0
 27
1.0
 37
0.0
 76
     0
330
1A
  0
LAYOUT
  5
21
102
{ACAD_REACTORS
330
19
102
}
330
19
100
AcDbPlotSettings
  1

  2
none_device
  4
Letter_(8.50_x_11.00_Inches)
  6

 40
6.349999904632568
 41
6.349999904632568
 42
6.350006103515625
 43
6.350006103515625
 44
215.8999938964844
 45
279.3999938964844
 46
0.0
 47
0.0
 48
0.0
 49
0.0
140
0.0
141
0.0
142
1.0
143
1.0
 70
 11952
 72
     0
 73
     1
 74
     0
  7

 75
     0
147
1.0
 76
     0
 77
     2
 78
   300
148
-749.7820602958161
149
-2290.668953617082
100
AcDbLayout
  1
Model
 70
     1
 71
     0
 10
0.0
 20
0.0
 11
12.0
 21
9.0
 12
0.0
 22
0.0
 32
0.0
 14
0.0
 24
0.0
 34
0.0
 15
0.0
 25
0.0
 35
0.0
146
0.0
 13
0.0
 23
0.0
 33
0.0
 16
1.0
 26
0.0
 36
0.0
 17
0.0
 27
1.0
 37
0.0
 76
     0
330
1E
  0
MLINESTYLE
  5
17
102
{ACAD_REACTORS
330
16
102
}
330
16
100
AcDbMlineStyle
  2
STANDARD
 70
     0
  3

 62
   256
 51
90.0
 52
90.0
 71
     2
 49
0.5
 62
   256
  6
BYLAYER
 49
-0.5
 62
   256
  6
BYLAYER
  0
ACDBPLACEHOLDER
  5
F
102
{ACAD_REACTORS
330
E
102
}
330
E
  0
DICTIONARYVAR
  5
EB
102
{ACAD_REACTORS
330
EA
102
}
330
EA
100
DictionaryVariables
280
     0
  1
1
  0
DICTIONARYVAR
  5
EC
102
{ACAD_REACTORS
330
EA
102
}
330
EA
100
DictionaryVariables
280
     0
  1

  0
ENDSEC
  0
EOF
