  0
SECTION
  2
HEADER
  9
$ACADVER
  1
AC1018
  9
$ACADMAINTVER
 70
   104
  9
$DWGCODEPAGE
  3
ANSI_1252
  9
$LASTSAVEDBY
  1
w.koehlhoff
  9
$INSBASE
 10
214.18963059078
 20
83.98788932831553
 30
0.0
  9
$EXTMIN
 10
-0.0063978361730506
 20
-0.0090483683015918
 30
-0.0000000000000053
  9
$EXTMAX
 10
420.0064129945078
 20
594.0090698065177
 30
0.0000000000000099
  9
$LIMMIN
 10
0.0
 20
0.0
  9
$LIMMAX
 10
420.0
 20
594.0
  9
$ORTHOMODE
 70
     1
  9
$REGENMODE
 70
     1
  9
$FILLMODE
 70
     1
  9
$QTEXTMODE
 70
     0
  9
$MIRRTEXT
 70
     1
  9
$LTSCALE
 40
20.0
  9
$ATTMODE
 70
     1
  9
$TEXTSIZE
 40
3.5
  9
$TRACEWID
 40
1.0
  9
$TEXTSTYLE
  7
STANDARD
  9
$CLAYER
  8
SCHRAFF
  9
$CELTYPE
  6
ByLayer
  9
$CECOLOR
 62
   256
  9
$CELTSCALE
 40
1.0
  9
$DISPSILH
 70
     0
  9
$DIMSCALE
 40
2.0
  9
$DIMASZ
 40
3.5
  9
$DIMEXO
 40
1.0
  9
$DIMDLI
 40
7.0
  9
$DIMRND
 40
0.0
  9
$DIMDLE
 40
0.0
  9
$DIMEXE
 40
1.0
  9
$DIMTP
 40
0.4
  9
$DIMTM
 40
0.0
  9
$DIMTXT
 40
3.5
  9
$DIMCEN
 40
1.5
  9
$DIMTSZ
 40
0.0
  9
$DIMTOL
 70
     0
  9
$DIMLIM
 70
     0
  9
$DIMTIH
 70
     0
  9
$DIMTOH
 70
     0
  9
$DIMSE1
 70
     0
  9
$DIMSE2
 70
     0
  9
$DIMTAD
 70
     1
  9
$DIMZIN
 70
     8
  9
$DIMBLK
  1

  9
$DIMASO
 70
     1
  9
$DIMSHO
 70
     0
  9
$DIMPOST
  1

  9
$DIMAPOST
  1

  9
$DIMALT
 70
     0
  9
$DIMALTD
 70
     2
  9
$DIMALTF
 40
25.4
  9
$DIMLFAC
 40
1.0
  9
$DIMTOFL
 70
     1
  9
$DIMTVP
 40
0.5714285714285714
  9
$DIMTIX
 70
     0
  9
$DIMSOXD
 70
     0
  9
$DIMSAH
 70
     0
  9
$DIMBLK1
  1

  9
$DIMBLK2
  1

  9
$DIMSTYLE
  2
Standard
  9
$DIMCLRD
 70
     0
  9
$DIMCLRE
 70
     0
  9
$DIMCLRT
 70
     1
  9
$DIMTFAC
 40
0.5
  9
$DIMGAP
 40
1.5
  9
$DIMJUST
 70
     0
  9
$DIMSD1
 70
     0
  9
$DIMSD2
 70
     0
  9
$DIMTOLJ
 70
     1
  9
$DIMTZIN
 70
     8
  9
$DIMALTZ
 70
     8
  9
$DIMALTTZ
 70
     8
  9
$DIMUPT
 70
     0
  9
$DIMDEC
 70
     2
  9
$DIMTDEC
 70
     2
  9
$DIMALTU
 70
     2
  9
$DIMALTTD
 70
     2
  9
$DIMTXSTY
  7
STANDARD
  9
$DIMAUNIT
 70
     0
  9
$DIMADEC
 70
     2
  9
$DIMALTRND
 40
0.0
  9
$DIMAZIN
 70
     2
  9
$DIMDSEP
 70
    46
  9
$DIMATFIT
 70
     3
  9
$DIMFRAC
 70
     0
  9
$DIMLDRBLK
  1

  9
$DIMLUNIT
 70
     2
  9
$DIMLWD
 70
    -2
  9
$DIMLWE
 70
    -2
  9
$DIMTMOVE
 70
     0
  9
$LUNITS
 70
     2
  9
$LUPREC
 70
     2
  9
$SKETCHINC
 40
1.0
  9
$FILLETRAD
 40
8.0
  9
$AUNITS
 70
     0
  9
$AUPREC
 70
     0
  9
$MENU
  1
ACAD
  9
$ELEVATION
 40
0.0
  9
$PELEVATION
 40
0.0
  9
$THICKNESS
 40
0.0
  9
$LIMCHECK
 70
     0
  9
$CHAMFERA
 40
0.0
  9
$CHAMFERB
 40
0.0
  9
$CHAMFERC
 40
0.0
  9
$CHAMFERD
 40
0.0
  9
$SKPOLY
 70
     0
  9
$TDCREATE
 40
2451302.343576042
  9
$TDUCREATE
 40
2451302.260242709
  9
$TDUPDATE
 40
2456440.607371690
  9
$TDUUPDATE
 40
2456440.524038356
  9
$TDINDWG
 40
0.1144953704
  9
$TDUSRTIMER
 40
0.1144953704
  9
$USRTIMER
 70
     1
  9
$ANGBASE
 50
0.0
  9
$ANGDIR
 70
     0
  9
$PDMODE
 70
     0
  9
$PDSIZE
 40
0.0
  9
$PLINEWID
 40
0.0
  9
$SPLFRAME
 70
     0
  9
$SPLINETYPE
 70
     6
  9
$SPLINESEGS
 70
     8
  9
$HANDSEED
  5
F24
  9
$SURFTAB1
 70
     6
  9
$SURFTAB2
 70
     6
  9
$SURFTYPE
 70
     6
  9
$SURFU
 70
     6
  9
$SURFV
 70
     6
  9
$UCSBASE
  2

  9
$UCSNAME
  2

  9
$UCSORG
 10
0.0
 20
0.0
 30
0.0
  9
$UCSXDIR
 10
1.0
 20
0.0
 30
0.0
  9
$UCSYDIR
 10
0.0
 20
1.0
 30
0.0
  9
$UCSORTHOREF
  2

  9
$UCSORTHOVIEW
 70
     0
  9
$UCSORGTOP
 10
0.0
 20
0.0
 30
0.0
  9
$UCSORGBOTTOM
 10
0.0
 20
0.0
 30
0.0
  9
$UCSORGLEFT
 10
0.0
 20
0.0
 30
0.0
  9
$UCSORGRIGHT
 10
0.0
 20
0.0
 30
0.0
  9
$UCSORGFRONT
 10
0.0
 20
0.0
 30
0.0
  9
$UCSORGBACK
 10
0.0
 20
0.0
 30
0.0
  9
$PUCSBASE
  2

  9
$PUCSNAME
  2

  9
$PUCSORG
 10
0.0
 20
0.0
 30
0.0
  9
$PUCSXDIR
 10
1.0
 20
0.0
 30
0.0
  9
$PUCSYDIR
 10
0.0
 20
1.0
 30
0.0
  9
$PUCSORTHOREF
  2

  9
$PUCSORTHOVIEW
 70
     0
  9
$PUCSORGTOP
 10
0.0
 20
0.0
 30
0.0
  9
$PUCSORGBOTTOM
 10
0.0
 20
0.0
 30
0.0
  9
$PUCSORGLEFT
 10
0.0
 20
0.0
 30
0.0
  9
$PUCSORGRIGHT
 10
0.0
 20
0.0
 30
0.0
  9
$PUCSORGFRONT
 10
0.0
 20
0.0
 30
0.0
  9
$PUCSORGBACK
 10
0.0
 20
0.0
 30
0.0
  9
$USERI1
 70
     0
  9
$USERI2
 70
     0
  9
$USERI3
 70
     0
  9
$USERI4
 70
     0
  9
$USERI5
 70
     0
  9
$USERR1
 40
0.0
  9
$USERR2
 40
0.0
  9
$USERR3
 40
0.0
  9
$USERR4
 40
0.0
  9
$USERR5
 40
0.0
  9
$WORLDVIEW
 70
     1
  9
$SHADEDGE
 70
     3
  9
$SHADEDIF
 70
    70
  9
$TILEMODE
 70
     1
  9
$MAXACTVP
 70
    16
  9
$PINSBASE
 10
0.0
 20
0.0
 30
0.0
  9
$PLIMCHECK
 70
     0
  9
$PEXTMIN
 10
1.000000000000000E+20
 20
1.000000000000000E+20
 30
1.000000000000000E+20
  9
$PEXTMAX
 10
-1.000000000000000E+20
 20
-1.000000000000000E+20
 30
-1.000000000000000E+20
  9
$PLIMMIN
 10
0.0
 20
0.0
  9
$PLIMMAX
 10
12.0
 20
9.0
  9
$UNITMODE
 70
     0
  9
$VISRETAIN
 70
     0
  9
$PLINEGEN
 70
     0
  9
$PSLTSCALE
 70
     0
  9
$TREEDEPTH
 70
  3020
  9
$CMLSTYLE
  2
Standard
  9
$CMLJUST
 70
     0
  9
$CMLSCALE
 40
1.0
  9
$PROXYGRAPHICS
 70
     1
  9
$MEASUREMENT
 70
     0
  9
$CELWEIGHT
370
    -1
  9
$ENDCAPS
280
     0
  9
$JOINSTYLE
280
     0
  9
$LWDISPLAY
290
     0
  9
$INSUNITS
 70
     0
  9
$HYPERLINKBASE
  1

  9
$STYLESHEET
  1
monochrome1.ctb
  9
$XEDIT
290
     1
  9
$CEPSNTYPE
380
     0
  9
$PSTYLEMODE
290
     1
  9
$FINGERPRINTGUID
  2
{20CE268D-DD25-468F-A7A1-9FAEDB806B08}
  9
$VERSIONGUID
  2
{58348492-A672-41B5-99B2-9E73E69A73FF}
  9
$EXTNAMES
290
     1
  9
$PSVPSCALE
 40
0.0
  9
$OLESTARTUP
290
     0
  9
$SORTENTS
280
   127
  9
$INDEXCTL
280
     0
  9
$HIDETEXT
280
     1
  9
$XCLIPFRAME
290
     0
  9
$HALOGAP
280
     0
  9
$OBSCOLOR
 70
   257
  9
$OBSLTYPE
280
     0
  9
$INTERSECTIONDISPLAY
280
     0
  9
$INTERSECTIONCOLOR
 70
   257
  9
$DIMASSOC
280
     2
  9
$PROJECTNAME
  1

  0
ENDSEC
  0
SECTION
  2
CLASSES
  0
CLASS
  1
ACDBDICTIONARYWDFLT
  2
AcDbDictionaryWithDefault
  3
ObjectDBX Classes
 90
        0
 91
        1
280
     0
281
     0
  0
CLASS
  1
DIMASSOC
  2
AcDbDimAssoc
  3
"AcDbDimAssoc|Product Desc:     AcDim ARX App For Dimension|Company:          Autodesk, Inc.|WEB Address:      www.autodesk.com"
 90
        0
 91
        7
280
     0
281
     0
  0
CLASS
  1
DICTIONARYVAR
  2
AcDbDictionaryVar
  3
ObjectDBX Classes
 90
        0
 91
       11
280
     0
281
     0
  0
CLASS
  1
MATERIAL
  2
AcDbMaterial
  3
ObjectDBX Classes
 90
     1153
 91
        3
280
     0
281
     0
  0
CLASS
  1
VISUALSTYLE
  2
AcDbVisualStyle
  3
ObjectDBX Classes
 90
     4095
 91
       24
280
     0
281
     0
  0
CLASS
  1
TABLESTYLE
  2
AcDbTableStyle
  3
ObjectDBX Classes
 90
     4095
 91
        1
280
     0
281
     0
  0
CLASS
  1
SCALE
  2
AcDbScale
  3
ObjectDBX Classes
 90
     1153
 91
       17
280
     0
281
     0
  0
CLASS
  1
MLEADERSTYLE
  2
AcDbMLeaderStyle
  3
ACDB_MLEADERSTYLE_CLASS
 90
     4095
 91
        1
280
     0
281
     0
  0
CLASS
  1
ACDBSECTIONVIEWSTYLE
  2
AcDbSectionViewStyle
  3
ObjectDBX Classes
 90
     1025
 91
        1
280
     0
281
     0
  0
CLASS
  1
ACDBDETAILVIEWSTYLE
  2
AcDbDetailViewStyle
  3
ObjectDBX Classes
 90
     1025
 91
        1
280
     0
281
     0
  0
CLASS
  1
SORTENTSTABLE
  2
AcDbSortentsTable
  3
ObjectDBX Classes
 90
        0
 91
        1
280
     0
281
     0
  0
CLASS
  1
CELLSTYLEMAP
  2
AcDbCellStyleMap
  3
ObjectDBX Classes
 90
     1152
 91
        3
280
     0
281
     0
  0
ENDSEC
  0
SECTION
  2
TABLES
  0
TABLE
  2
VPORT
  5
8
102
{ACAD_XDICTIONARY
360
E37
102
}
330
0
100
AcDbSymbolTable
 70
     1
  0
VPORT
  5
D41
330
8
100
AcDbSymbolTableRecord
100
AcDbViewportTableRecord
  2
*Active
 70
     0
 10
0.0
 20
0.0
 11
1.0
 21
1.0
 12
210.0000075791673
 22
297.0000107191081
 13
0.0
 23
0.0
 14
2.5
 24
2.5
 15
10.0
 25
10.0
 16
0.0
 26
0.0
 36
1.0
 17
0.0
 27
0.0
 37
0.0
 40
598.0272393323548
 41
1.699324324324324
 42
50.0
 43
0.0
 44
0.0
 50
0.0
 51
0.0
 71
     0
 72
   500
 73
     1
 74
     0
 75
     0
 76
     0
 77
     0
 78
     0
281
     0
 65
     1
110
0.0
120
0.0
130
0.0
111
1.0
121
0.0
131
0.0
112
0.0
122
1.0
132
0.0
 79
     0
146
0.0
1001
ACAD_NAV_VCDISPLAY
1070
     3
  0
ENDTAB
  0
TABLE
  2
LTYPE
  5
5
330
0
100
AcDbSymbolTable
 70
     4
  0
LTYPE
  5
13
330
5
100
AcDbSymbolTableRecord
100
AcDbLinetypeTableRecord
  2
ByBlock
 70
     0
  3

 72
    65
 73
     0
 40
0.0
  0
LTYPE
  5
14
330
5
100
AcDbSymbolTableRecord
100
AcDbLinetypeTableRecord
  2
ByLayer
 70
     0
  3

 72
    65
 73
     0
 40
0.0
  0
LTYPE
  5
15
330
5
100
AcDbSymbolTableRecord
100
AcDbLinetypeTableRecord
  2
Continuous
 70
     0
  3
Solid line
 72
    65
 73
     0
 40
0.0
  0
LTYPE
  5
51
330
5
100
AcDbSymbolTableRecord
100
AcDbLinetypeTableRecord
  2
STRICHPUNKT
 70
     0
  3
__ . __ . __ . __ . __ . __ . __ . __ . __ . __
 72
    65
 73
     4
 40
1.0
 49
0.5
 74
     0
 49
-0.25
 74
     0
 49
0.0
 74
     0
 49
-0.25
 74
     0
  0
LTYPE
  5
D92
330
5
100
AcDbSymbolTableRecord
100
AcDbLinetypeTableRecord
  2
PHANTOM2
 70
     0
  3
Phantom (.5x) ___ _ _ ___ _ _ ___ _ _ ___ _ _
 72
    65
 73
     6
 40
1.25
 49
0.625
 74
     0
 49
-0.125
 74
     0
 49
0.125
 74
     0
 49
-0.125
 74
     0
 49
0.125
 74
     0
 49
-0.125
 74
     0
  0
ENDTAB
  0
TABLE
  2
LAYER
  5
2
330
0
100
AcDbSymbolTable
 70
     9
  0
LAYER
  5
10
102
{ACAD_XDICTIONARY
360
E24
102
}
330
2
100
AcDbSymbolTableRecord
100
AcDbLayerTableRecord
  2
0
 70
     0
 62
     7
  6
Continuous
370
    -3
390
F
  0
LAYER
  5
54
102
{ACAD_XDICTIONARY
360
E26
102
}
330
2
100
AcDbSymbolTableRecord
100
AcDbLayerTableRecord
  2
VOLL
 70
     0
 62
     1
  6
Continuous
370
    -3
390
F
  0
LAYER
  5
55
102
{ACAD_XDICTIONARY
360
E28
102
}
330
2
100
AcDbSymbolTableRecord
100
AcDbLayerTableRecord
  2
MITTEL
 70
     0
 62
     2
  6
STRICHPUNKT
370
    -3
390
F
  0
LAYER
  5
56
102
{ACAD_XDICTIONARY
360
E2A
102
}
330
2
100
AcDbSymbolTableRecord
100
AcDbLayerTableRecord
  2
BEM
 70
     0
 62
     7
  6
Continuous
370
    -3
390
F
  0
LAYER
  5
57
102
{ACAD_XDICTIONARY
360
E2C
102
}
330
2
100
AcDbSymbolTableRecord
100
AcDbLayerTableRecord
  2
HILF
 70
     0
 62
     2
  6
Continuous
370
    -3
390
F
  0
LAYER
  5
58
102
{ACAD_XDICTIONARY
360
E2E
102
}
330
2
100
AcDbSymbolTableRecord
100
AcDbLayerTableRecord
  2
SCHRAFF
 70
     0
 62
     7
  6
Continuous
370
    -3
390
F
  0
LAYER
  5
59
102
{ACAD_XDICTIONARY
360
E30
102
}
330
2
100
AcDbSymbolTableRecord
100
AcDbLayerTableRecord
  2
STEMPEL
 70
     0
 62
     3
  6
Continuous
370
    -3
390
F
  0
LAYER
  5
5A
102
{ACAD_XDICTIONARY
360
E32
102
}
330
2
100
AcDbSymbolTableRecord
100
AcDbLayerTableRecord
  2
TEXT
 70
     0
 62
     7
  6
Continuous
370
    -3
390
F
  0
LAYER
  5
5B
330
2
100
AcDbSymbolTableRecord
100
AcDbLayerTableRecord
  2
DEFPOINTS
 70
     0
 62
     7
  6
Continuous
290
     0
370
    -3
390
F
  0
ENDTAB
  0
TABLE
  2
STYLE
  5
3
330
0
100
AcDbSymbolTable
 70
     3
  0
STYLE
  5
11
330
3
100
AcDbSymbolTableRecord
100
AcDbTextStyleTableRecord
  2
STANDARD
 70
     0
 40
0.0
 41
0.8
 50
0.0
 71
     0
 42
3.5
  3
simplex.shx
  4

  0
STYLE
  5
50
330
3
100
AcDbSymbolTableRecord
100
AcDbTextStyleTableRecord
  2
GREEKS
 70
     0
 40
0.0
 41
0.8
 50
0.0
 71
     0
 42
1.8
  3
SIMPLEX.shx
  4

  0
ENDTAB
  0
TABLE
  2
VIEW
  5
6
330
0
100
AcDbSymbolTable
 70
     0
  0
ENDTAB
  0
TABLE
  2
UCS
  5
7
330
0
100
AcDbSymbolTable
 70
     0
  0
ENDTAB
  0
TABLE
  2
APPID
  5
9
330
0
100
AcDbSymbolTable
 70
     6
  0
APPID
  5
12
330
9
100
AcDbSymbolTableRecord
100
AcDbRegAppTableRecord
  2
ACAD
 70
     0
  0
APPID
  5
DA7
330
9
100
AcDbSymbolTableRecord
100
AcDbRegAppTableRecord
  2
ACAD_EXEMPT_FROM_CAD_STANDARDS
 70
     0
  0
APPID
  5
DA8
330
9
100
AcDbSymbolTableRecord
100
AcDbRegAppTableRecord
  2
ACAD_NAV_VCDISPLAY
 70
     0
  0
APPID
  5
DA9
330
9
100
AcDbSymbolTableRecord
100
AcDbRegAppTableRecord
  2
ACAD_MLEADERVER
 70
     0
  0
APPID
  5
DD3
330
9
100
AcDbSymbolTableRecord
100
AcDbRegAppTableRecord
  2
GradientColor1ACI
 70
     0
  0
APPID
  5
DD4
330
9
100
AcDbSymbolTableRecord
100
AcDbRegAppTableRecord
  2
GradientColor2ACI
 70
     0
  0
ENDTAB
  0
TABLE
  2
DIMSTYLE
  5
A
330
0
100
AcDbSymbolTable
 70
     2
100
AcDbDimStyleTable
 71
     1
340
5AE
  0
DIMSTYLE
105
5AE
102
{ACAD_REACTORS
330
5AC
330
894
330
8AC
330
984
330
9D7
102
}
330
A
100
AcDbSymbolTableRecord
100
AcDbDimStyleTableRecord
  2
Standard
 70
     0
340
11
  0
ENDTAB
  0
TABLE
  2
BLOCK_RECORD
  5
1
330
0
100
AcDbSymbolTable
 70
    12
  0
BLOCK_RECORD
  5
20
102
{ACAD_XDICTIONARY
360
D99
102
}
330
1
100
AcDbSymbolTableRecord
100
AcDbBlockTableRecord
  2
*Model_Space
340
23
  0
BLOCK_RECORD
  5
1C
330
1
100
AcDbSymbolTableRecord
100
AcDbBlockTableRecord
  2
*Paper_Space
340
1F
  0
BLOCK_RECORD
  5
24
330
1
100
AcDbSymbolTableRecord
100
AcDbBlockTableRecord
  2
LOGO
340
0
102
{BLKREFS
331
4A3
102
}
  0
BLOCK_RECORD
  5
5AF
330
1
100
AcDbSymbolTableRecord
100
AcDbBlockTableRecord
  2
*D1
340
0
  0
BLOCK_RECORD
  5
895
330
1
100
AcDbSymbolTableRecord
100
AcDbBlockTableRecord
  2
*D4
340
0
  0
BLOCK_RECORD
  5
8AD
330
1
100
AcDbSymbolTableRecord
100
AcDbBlockTableRecord
  2
*D5
340
0
  0
BLOCK_RECORD
  5
985
330
1
100
AcDbSymbolTableRecord
100
AcDbBlockTableRecord
  2
*D7
340
0
  0
BLOCK_RECORD
  5
9D8
330
1
100
AcDbSymbolTableRecord
100
AcDbBlockTableRecord
  2
*D9
340
0
  0
ENDTAB
  0
ENDSEC
  0
SECTION
  2
BLOCKS
  0
BLOCK
  5
5F
330
20
100
AcDbEntity
  8
0
100
AcDbBlockBegin
  2
*Model_Space
 70
     0
 10
0.0
 20
0.0
 30
0.0
  3
*Model_Space
  1

  0
ENDBLK
  5
60
330
20
100
AcDbEntity
  8
0
100
AcDbBlockEnd
  0
BLOCK
  5
5D
330
1C
100
AcDbEntity
 67
     1
  8
0
100
AcDbBlockBegin
  2
*Paper_Space
 70
     0
 10
0.0
 20
0.0
 30
0.0
  3
*Paper_Space
  1

  0
ENDBLK
  5
5E
330
1C
100
AcDbEntity
 67
     1
  8
0
100
AcDbBlockEnd
  0
BLOCK
  5
61
330
24
100
AcDbEntity
  8
0
100
AcDbBlockBegin
  2
LOGO
 70
     0
 10
0.0
 20
0.0
 30
0.0
  3
LOGO
  1

  0
ARC
  5
62
330
24
100
AcDbEntity
  8
0
100
AcDbCircle
 10
11.59973089678112
 20
-9.271599258481501
 30
0.0
 40
4.5
100
AcDbArc
 50
270.0
 51
231.0575587310159
  0
LINE
  5
63
330
24
100
AcDbEntity
  8
0
100
AcDbLine
 10
3.599730896781125
 20
-4.771599258481529
 30
0.0
 11
3.599730896781153
 21
-11.77159925848133
 31
0.0
  0
LINE
  5
64
330
24
100
AcDbEntity
  8
0
100
AcDbLine
 10
2.599730896781125
 20
-4.771599258481529
 30
0.0
 11
2.599730896781153
 21
-11.77159925848133
 31
0.0
  0
CIRCLE
  5
65
330
24
100
AcDbEntity
  8
0
100
AcDbCircle
 10
11.59973089678112
 20
-9.271599258481501
 30
0.0
 40
3.5
  0
ARC
  5
66
330
24
100
AcDbEntity
  8
0
100
AcDbCircle
 10
31.59973089678115
 20
-9.271599258481472
 30
0.0
 40
4.5
100
AcDbArc
 50
270.0
 51
231.0575587310182
  0
LINE
  5
67
330
24
100
AcDbEntity
  8
0
100
AcDbLine
 10
17.59973089678112
 20
-4.771599258481472
 30
0.0
 11
17.59973089678115
 21
-13.77159925848147
 31
0.0
  0
ARC
  5
68
330
24
100
AcDbEntity
  8
0
100
AcDbCircle
 10
22.59973089678116
 20
-7.271599258481472
 30
0.0
 40
2.5
100
AcDbArc
 50
293.1161887722295
 51
90.0
  0
CIRCLE
  5
69
330
24
100
AcDbEntity
  8
0
100
AcDbCircle
 10
31.59973089678115
 20
-9.271599258481472
 30
0.0
 40
3.5
  0
ARC
  5
6A
330
24
100
AcDbEntity
  8
0
100
AcDbCircle
 10
4.599730896781153
 20
-11.77159925848133
 30
0.0
 40
1.0
100
AcDbArc
 50
180.0
 51
270.0
  0
ARC
  5
6B
330
24
100
AcDbEntity
  8
0
100
AcDbCircle
 10
4.599730896781153
 20
-11.77159925848133
 30
0.0
 40
2.0
100
AcDbArc
 50
179.9999999999992
 51
270.0
  0
LINE
  5
6C
330
24
100
AcDbEntity
  8
0
100
AcDbLine
 10
11.59973089678115
 20
-13.77159925848144
 30
0.0
 11
4.599730896781153
 21
-13.77159925848147
 31
0.0
  0
LINE
  5
6D
330
24
100
AcDbEntity
  8
0
100
AcDbLine
 10
8.771303772034769
 20
-12.77159925848136
 30
0.0
 11
4.599730896781153
 21
-12.77159925848133
 31
0.0
  0
LINE
  5
6E
330
24
100
AcDbEntity
  8
0
100
AcDbLine
 10
31.59973089678115
 20
-13.77159925848147
 30
0.0
 11
23.6715276665056
 21
-13.77159925848144
 31
0.0
  0
LINE
  5
6F
330
24
100
AcDbEntity
  8
0
100
AcDbLine
 10
23.56565672307022
 20
-9.51278021337896
 30
0.0
 11
24.4388546544846
 21
-12.77159925848144
 31
0.0
  0
LINE
  5
70
330
24
100
AcDbEntity
  8
0
100
AcDbLine
 10
22.59973089678116
 20
-9.771599258481472
 30
0.0
 11
18.59973089678112
 21
-9.771599258481472
 31
0.0
  0
LINE
  5
71
330
24
100
AcDbEntity
  8
0
100
AcDbLine
 10
18.59973089678115
 20
-13.77159925848144
 30
0.0
 11
17.59973089678115
 21
-13.77159925848144
 31
0.0
  0
LINE
  5
72
330
24
100
AcDbEntity
  8
0
100
AcDbLine
 10
18.59973089678115
 20
-9.771599258481472
 30
0.0
 11
18.59973089678115
 21
-13.77159925848144
 31
0.0
  0
LINE
  5
73
330
24
100
AcDbEntity
  8
0
100
AcDbLine
 10
22.59973089678116
 20
-9.771599258481472
 30
0.0
 11
23.67152766650562
 21
-13.77159925848147
 31
0.0
  0
ARC
  5
74
330
24
100
AcDbEntity
  8
0
100
AcDbCircle
 10
22.59973089678116
 20
-7.271599258481472
 30
0.0
 40
2.5
100
AcDbArc
 50
270.0
 51
270.0000000000007
  0
LINE
  5
75
330
24
100
AcDbEntity
  8
0
100
AcDbLine
 10
28.77130377203494
 20
-12.77159925848147
 30
0.0
 11
24.43885465448463
 21
-12.77159925848144
 31
0.0
  0
LINE
  5
76
330
24
100
AcDbEntity
  8
0
100
AcDbLine
 10
3.599730896781125
 20
-4.771599258481472
 30
0.0
 11
2.599730896781125
 21
-4.771599258481472
 31
0.0
  0
LINE
  5
77
330
24
100
AcDbEntity
  8
0
100
AcDbLine
 10
22.59973089678116
 20
-8.771599258481472
 30
0.0
 11
18.59973089678115
 21
-8.771599258481472
 31
0.0
  0
LINE
  5
78
330
24
100
AcDbEntity
  8
0
100
AcDbLine
 10
22.59973089678116
 20
-5.771599258481472
 30
0.0
 11
18.59973089678115
 21
-5.771599258481472
 31
0.0
  0
LINE
  5
79
330
24
100
AcDbEntity
  8
0
100
AcDbLine
 10
22.59973089678116
 20
-4.771599258481472
 30
0.0
 11
17.59973089678115
 21
-4.771599258481472
 31
0.0
  0
LINE
  5
7A
330
24
100
AcDbEntity
  8
0
100
AcDbLine
 10
18.59973089678115
 20
-5.771599258481472
 30
0.0
 11
18.59973089678115
 21
-8.771599258481472
 31
0.0
  0
ARC
  5
7B
330
24
100
AcDbEntity
  8
0
100
AcDbCircle
 10
22.59973089678116
 20
-7.271599258481472
 30
0.0
 40
1.5
100
AcDbArc
 50
270.0
 51
90.0
  0
ENDBLK
  5
7C
330
24
100
AcDbEntity
  8
0
100
AcDbBlockEnd
  0
BLOCK
  5
5B9
330
5AF
100
AcDbEntity
  8
0
100
AcDbBlockBegin
  2
*D1
 70
     1
 10
0.0
 20
0.0
 30
0.0
  3
*D1
  1

  0
LINE
  5
C32
330
5AF
100
AcDbEntity
  8
BEM
 62
     0
440
 16777216
370
    -2
100
AcDbLine
 10
208.7879544462456
 20
214.4013404559773
 30
0.0
 11
208.7879544462456
 21
185.7723858012576
 31
0.0
  0
LINE
  5
C33
330
5AF
100
AcDbEntity
  8
BEM
 62
     0
440
 16777216
370
    -2
100
AcDbLine
 10
250.7879544462456
 20
214.4013404559771
 30
0.0
 11
250.7879544462456
 21
185.7723858012576
 31
0.0
  0
LINE
  5
C34
330
5AF
100
AcDbEntity
  8
BEM
 62
     0
440
 16777216
370
    -2
100
AcDbLine
 10
215.7879544462457
 20
187.7723858012576
 30
0.0
 11
243.7879544462457
 21
187.7723858012576
 31
0.0
  0
SOLID
  5
C35
330
5AF
100
AcDbEntity
  8
BEM
 62
     0
440
 16777216
100
AcDbTrace
 10
215.7879544462457
 20
188.9390524679243
 30
0.0
 11
215.7879544462457
 21
186.6057191345909
 31
0.0
 12
208.7879544462456
 22
187.7723858012576
 32
0.0
 13
208.7879544462456
 23
187.7723858012576
 33
0.0
  0
SOLID
  5
C36
330
5AF
100
AcDbEntity
  8
BEM
 62
     0
440
 16777216
100
AcDbTrace
 10
243.7879544462457
 20
188.9390524679243
 30
0.0
 11
243.7879544462457
 21
186.6057191345909
 31
0.0
 12
250.7879544462456
 22
187.7723858012576
 32
0.0
 13
250.7879544462456
 23
187.7723858012576
 33
0.0
  0
MTEXT
  5
C37
330
5AF
100
AcDbEntity
  8
BEM
 62
     1
440
 16777216
100
AcDbMText
 10
229.7879544462456
 20
194.2723858012576
 30
0.0
 40
7.0
 41
0.0
 71
     5
 72
     1
  1
\A1;%%c42
 73
     1
 44
1.0
  0
POINT
  5
C38
330
5AF
100
AcDbEntity
  8
DEFPOINTS
 62
     0
440
 16777216
100
AcDbPoint
 10
208.7879544462456
 20
216.4013404559773
 30
0.0
  0
POINT
  5
C39
330
5AF
100
AcDbEntity
  8
DEFPOINTS
 62
     0
440
 16777216
100
AcDbPoint
 10
250.7879544462456
 20
216.4013404559771
 30
0.0
  0
POINT
  5
C3A
330
5AF
100
AcDbEntity
  8
DEFPOINTS
 62
     0
440
 16777216
100
AcDbPoint
 10
250.7879544462456
 20
187.7723858012576
 30
0.0
  0
ENDBLK
  5
5BA
330
5AF
100
AcDbEntity
  8
0
100
AcDbBlockEnd
  0
BLOCK
  5
89F
330
895
100
AcDbEntity
  8
0
100
AcDbBlockBegin
  2
*D4
 70
     1
 10
0.0
 20
0.0
 30
0.0
  3
*D4
  1

  0
LINE
  5
E95
330
895
100
AcDbEntity
  8
BEM
 62
     0
440
 16777216
370
    -2
100
AcDbLine
 10
183.2879544462457
 20
234.4668318703402
 30
0.0
 11
157.5285277947821
 21
234.4668318703402
 31
0.0
  0
LINE
  5
E96
330
895
100
AcDbEntity
  8
BEM
 62
     0
440
 16777216
370
    -2
100
AcDbLine
 10
208.900375090927
 20
209.4668318703403
 30
0.0
 11
157.5285277947821
 21
209.4668318703404
 31
0.0
  0
LINE
  5
E97
330
895
100
AcDbEntity
  8
BEM
 62
     0
440
 16777216
370
    -2
100
AcDbLine
 10
159.5285277947821
 20
227.4668318703402
 30
0.0
 11
159.5285277947821
 21
216.4668318703403
 31
0.0
  0
SOLID
  5
E98
330
895
100
AcDbEntity
  8
BEM
 62
     0
440
 16777216
100
AcDbTrace
 10
158.3618611281154
 20
227.4668318703402
 30
0.0
 11
160.6951944614487
 21
227.4668318703402
 31
0.0
 12
159.5285277947821
 22
234.4668318703402
 32
0.0
 13
159.5285277947821
 23
234.4668318703402
 33
0.0
  0
SOLID
  5
E99
330
895
100
AcDbEntity
  8
BEM
 62
     0
440
 16777216
100
AcDbTrace
 10
158.3618611281154
 20
216.4668318703403
 30
0.0
 11
160.6951944614487
 21
216.4668318703403
 31
0.0
 12
159.5285277947821
 22
209.4668318703404
 32
0.0
 13
159.5285277947821
 23
209.4668318703404
 33
0.0
  0
MTEXT
  5
E9A
330
895
100
AcDbEntity
  8
BEM
 62
     1
440
 16777216
100
AcDbMText
 10
153.028527794782
 20
221.9668318703403
 30
0.0
 40
7.0
 41
0.0
 71
     5
 72
     1
  1
\A1;25
 11
0.0000000000000001
 21
1.0
 31
0.0
 73
     1
 44
1.0
  0
POINT
  5
E9B
330
895
100
AcDbEntity
  8
DEFPOINTS
 62
     0
440
 16777216
100
AcDbPoint
 10
185.2879544462457
 20
234.4668318703402
 30
0.0
  0
POINT
  5
E9C
330
895
100
AcDbEntity
  8
DEFPOINTS
 62
     0
440
 16777216
100
AcDbPoint
 10
210.900375090927
 20
209.4668318703403
 30
0.0
  0
POINT
  5
E9D
330
895
100
AcDbEntity
  8
DEFPOINTS
 62
     0
440
 16777216
100
AcDbPoint
 10
159.5285277947821
 20
209.4668318703404
 30
0.0
  0
ENDBLK
  5
8A0
330
895
100
AcDbEntity
  8
0
100
AcDbBlockEnd
  0
BLOCK
  5
8B7
330
8AD
100
AcDbEntity
  8
0
100
AcDbBlockBegin
  2
*D5
 70
     1
 10
0.0
 20
0.0
 30
0.0
  3
*D5
  1

  0
LINE
  5
E9E
330
8AD
100
AcDbEntity
  8
BEM
 62
     0
440
 16777216
370
    -2
100
AcDbLine
 10
176.7879544462455
 20
514.4668318703402
 30
0.0
 11
141.8249250869942
 21
514.4668318703402
 31
0.0
  0
LINE
  5
E9F
330
8AD
100
AcDbEntity
  8
BEM
 62
     0
440
 16777216
370
    -2
100
AcDbLine
 10
207.394645334612
 20
209.4668318703404
 30
0.0
 11
141.8249250869941
 21
209.4668318703404
 31
0.0
  0
LINE
  5
EA0
330
8AD
100
AcDbEntity
  8
BEM
 62
     0
440
 16777216
370
    -2
100
AcDbLine
 10
143.8249250869942
 20
507.4668318703401
 30
0.0
 11
143.8249250869941
 21
216.4668318703404
 31
0.0
  0
SOLID
  5
EA1
330
8AD
100
AcDbEntity
  8
BEM
 62
     0
440
 16777216
100
AcDbTrace
 10
142.6582584203275
 20
507.4668318703401
 30
0.0
 11
144.9915917536608
 21
507.4668318703401
 31
0.0
 12
143.8249250869942
 22
514.4668318703402
 32
0.0
 13
143.8249250869942
 23
514.4668318703402
 33
0.0
  0
SOLID
  5
EA2
330
8AD
100
AcDbEntity
  8
BEM
 62
     0
440
 16777216
100
AcDbTrace
 10
142.6582584203275
 20
216.4668318703404
 30
0.0
 11
144.9915917536608
 21
216.4668318703404
 31
0.0
 12
143.8249250869941
 22
209.4668318703404
 32
0.0
 13
143.8249250869941
 23
209.4668318703404
 33
0.0
  0
MTEXT
  5
EA3
330
8AD
100
AcDbEntity
  8
BEM
 62
     1
440
 16777216
100
AcDbMText
 10
137.3249250869941
 20
361.9668318703403
 30
0.0
 40
7.0
 41
0.0
 71
     5
 72
     1
  1
\A1;305
 11
0.0000000000000001
 21
1.0
 31
0.0
 73
     1
 44
1.0
  0
POINT
  5
EA4
330
8AD
100
AcDbEntity
  8
DEFPOINTS
 62
     0
440
 16777216
100
AcDbPoint
 10
178.7879544462455
 20
514.4668318703402
 30
0.0
  0
POINT
  5
EA5
330
8AD
100
AcDbEntity
  8
DEFPOINTS
 62
     0
440
 16777216
100
AcDbPoint
 10
209.394645334612
 20
209.4668318703404
 30
0.0
  0
POINT
  5
EA6
330
8AD
100
AcDbEntity
  8
DEFPOINTS
 62
     0
440
 16777216
100
AcDbPoint
 10
143.8249250869941
 20
209.4668318703404
 30
0.0
  0
ENDBLK
  5
8B8
330
8AD
100
AcDbEntity
  8
0
100
AcDbBlockEnd
  0
BLOCK
  5
98F
330
985
100
AcDbEntity
  8
0
100
AcDbBlockBegin
  2
*D7
 70
     1
 10
0.0
 20
0.0
 30
0.0
  3
*D7
  1

  0
LINE
  5
E7A
330
985
100
AcDbEntity
  8
BEM
 62
     0
440
 16777216
370
    -2
100
AcDbLine
 10
280.7879544462454
 20
516.4668318703402
 30
0.0
 11
280.7879544462454
 21
528.8859060114348
 31
0.0
  0
LINE
  5
E7B
330
985
100
AcDbEntity
  8
BEM
 62
     0
440
 16777216
370
    -2
100
AcDbLine
 10
178.7879544462454
 20
516.4668318703402
 30
0.0
 11
178.7879544462454
 21
528.8859060114348
 31
0.0
  0
LINE
  5
E7C
330
985
100
AcDbEntity
  8
BEM
 62
     0
440
 16777216
370
    -2
100
AcDbLine
 10
273.7879544462454
 20
526.8859060114348
 30
0.0
 11
185.7879544462455
 21
526.8859060114348
 31
0.0
  0
SOLID
  5
E7D
330
985
100
AcDbEntity
  8
BEM
 62
     0
440
 16777216
100
AcDbTrace
 10
273.7879544462454
 20
528.0525726781014
 30
0.0
 11
273.7879544462454
 21
525.7192393447682
 31
0.0
 12
280.7879544462454
 22
526.8859060114348
 32
0.0
 13
280.7879544462454
 23
526.8859060114348
 33
0.0
  0
SOLID
  5
E7E
330
985
100
AcDbEntity
  8
BEM
 62
     0
440
 16777216
100
AcDbTrace
 10
185.7879544462455
 20
528.0525726781014
 30
0.0
 11
185.7879544462455
 21
525.7192393447682
 31
0.0
 12
178.7879544462454
 22
526.8859060114348
 32
0.0
 13
178.7879544462454
 23
526.8859060114348
 33
0.0
  0
MTEXT
  5
E7F
330
985
100
AcDbEntity
  8
BEM
 62
     1
440
 16777216
100
AcDbMText
 10
229.7879544462454
 20
533.3859060114348
 30
0.0
 40
7.0
 41
0.0
 71
     5
 72
     1
  1
\A1;%%c102
 73
     1
 44
1.0
  0
POINT
  5
E80
330
985
100
AcDbEntity
  8
DEFPOINTS
 62
     0
440
 16777216
100
AcDbPoint
 10
280.7879544462454
 20
514.4668318703402
 30
0.0
  0
POINT
  5
E81
330
985
100
AcDbEntity
  8
DEFPOINTS
 62
     0
440
 16777216
100
AcDbPoint
 10
178.7879544462454
 20
514.4668318703402
 30
0.0
  0
POINT
  5
E82
330
985
100
AcDbEntity
  8
DEFPOINTS
 62
     0
440
 16777216
100
AcDbPoint
 10
178.7879544462454
 20
526.8859060114348
 30
0.0
  0
ENDBLK
  5
990
330
985
100
AcDbEntity
  8
0
100
AcDbBlockEnd
  0
BLOCK
  5
9E2
330
9D8
100
AcDbEntity
  8
0
100
AcDbBlockBegin
  2
*D9
 70
     1
 10
0.0
 20
0.0
 30
0.0
  3
*D9
  1

  0
LINE
  5
CFA
330
9D8
100
AcDbEntity
  8
BEM
 62
     0
440
 16777216
370
    -2
100
AcDbLine
 10
185.2879544462457
 20
230.4668318703401
 30
0.0
 11
185.2879544462457
 21
169.374294183551
 31
0.0
  0
LINE
  5
CFB
330
9D8
100
AcDbEntity
  8
BEM
 62
     0
440
 16777216
370
    -2
100
AcDbLine
 10
274.2879544462455
 20
230.4668318703402
 30
0.0
 11
274.2879544462455
 21
169.374294183551
 31
0.0
  0
LINE
  5
CFC
330
9D8
100
AcDbEntity
  8
BEM
 62
     0
440
 16777216
370
    -2
100
AcDbLine
 10
192.2879544462457
 20
171.374294183551
 30
0.0
 11
267.2879544462455
 21
171.374294183551
 31
0.0
  0
SOLID
  5
CFD
330
9D8
100
AcDbEntity
  8
BEM
 62
     0
440
 16777216
100
AcDbTrace
 10
192.2879544462457
 20
172.5409608502176
 30
0.0
 11
192.2879544462457
 21
170.2076275168843
 31
0.0
 12
185.2879544462457
 22
171.374294183551
 32
0.0
 13
185.2879544462457
 23
171.374294183551
 33
0.0
  0
SOLID
  5
CFE
330
9D8
100
AcDbEntity
  8
BEM
 62
     0
440
 16777216
100
AcDbTrace
 10
267.2879544462455
 20
172.5409608502176
 30
0.0
 11
267.2879544462455
 21
170.2076275168843
 31
0.0
 12
274.2879544462455
 22
171.374294183551
 32
0.0
 13
274.2879544462455
 23
171.374294183551
 33
0.0
  0
MTEXT
  5
CFF
330
9D8
100
AcDbEntity
  8
BEM
 62
     1
440
 16777216
100
AcDbMText
 10
229.7879544462456
 20
177.874294183551
 30
0.0
 40
7.0
 41
0.0
 71
     5
 72
     1
  1
\A1;%%c89
 73
     1
 44
1.0
  0
POINT
  5
D00
330
9D8
100
AcDbEntity
  8
DEFPOINTS
 62
     0
440
 16777216
100
AcDbPoint
 10
185.2879544462457
 20
232.4668318703401
 30
0.0
  0
POINT
  5
D01
330
9D8
100
AcDbEntity
  8
DEFPOINTS
 62
     0
440
 16777216
100
AcDbPoint
 10
274.2879544462455
 20
232.4668318703402
 30
0.0
  0
POINT
  5
D02
330
9D8
100
AcDbEntity
  8
DEFPOINTS
 62
     0
440
 16777216
100
AcDbPoint
 10
274.2879544462455
 20
171.374294183551
 30
0.0
  0
ENDBLK
  5
9E3
330
9D8
100
AcDbEntity
  8
0
100
AcDbBlockEnd
  0
ENDSEC
  0
SECTION
  2
ENTITIES
  0
TEXT
  5
467
330
20
100
AcDbEntity
  8
TEXT
 62
     1
100
AcDbText
 10
234.9791173409949
 20
86.99412083985322
 30
0.0
 40
7.0
  1
LORO-Verbundrohr
 41
0.8
  7
GREEKS
100
AcDbText
  0
LINE
  5
468
330
20
100
AcDbEntity
  8
STEMPEL
100
AcDbLine
 10
410.0
 20
110.0
 30
0.0
 11
49.99999999999989
 21
110.0
 31
0.0
  0
LINE
  5
469
330
20
100
AcDbEntity
  8
STEMPEL
100
AcDbLine
 10
50.00000000000063
 20
584.0
 30
0.0
 11
49.99999999999971
 21
10.0
 31
0.0
  0
LINE
  5
46A
330
20
100
AcDbEntity
  8
STEMPEL
100
AcDbLine
 10
146.0
 20
109.9999999999999
 30
0.0
 11
145.9999999999998
 21
9.999999999999886
 31
0.0
  0
LINE
  5
46B
330
20
100
AcDbEntity
  8
STEMPEL
100
AcDbLine
 10
229.9999999999998
 20
110.0
 30
0.0
 11
229.9999999999998
 21
10.0
 31
0.0
  0
LINE
  5
46C
330
20
100
AcDbEntity
  8
STEMPEL
100
AcDbLine
 10
332.0
 20
109.9999999999996
 30
0.0
 11
332.0
 21
40.0
 31
0.0
  0
LINE
  5
46D
330
20
100
AcDbEntity
  8
STEMPEL
100
AcDbLine
 10
145.9999999999998
 20
30.0
 30
0.0
 11
49.99999999999977
 21
30.0
 31
0.0
  0
LINE
  5
46E
330
20
100
AcDbEntity
  8
STEMPEL
100
AcDbLine
 10
410.0
 20
40.0
 30
0.0
 11
145.9999999999998
 21
40.0
 31
0.0
  0
LINE
  5
46F
330
20
100
AcDbEntity
  8
STEMPEL
100
AcDbLine
 10
410.0
 20
80.0
 30
0.0
 11
146.0
 21
80.0
 31
0.0
  0
LINE
  5
470
330
20
100
AcDbEntity
  8
VOLL
100
AcDbLine
 10
63.99999999999988
 20
110.0
 30
0.0
 11
63.99999999999977
 21
10.0
 31
0.0
  0
LINE
  5
471
330
20
100
AcDbEntity
  8
VOLL
100
AcDbLine
 10
104.0
 20
109.9999999999999
 30
0.0
 11
103.9999999999998
 21
9.999999999999943
 31
0.0
  0
LINE
  5
472
330
20
100
AcDbEntity
  8
VOLL
100
AcDbLine
 10
124.0
 20
109.9999999999999
 30
0.0
 11
123.9999999999997
 21
9.999999999999886
 31
0.0
  0
LINE
  5
473
330
20
100
AcDbEntity
  8
VOLL
100
AcDbLine
 10
164.0
 20
80.0
 30
0.0
 11
164.0
 21
40.0
 31
0.0
  0
LINE
  5
474
330
20
100
AcDbEntity
  8
VOLL
100
AcDbLine
 10
190.0
 20
109.9999999999998
 30
0.0
 11
189.9999999999997
 21
40.0
 31
0.0
  0
LINE
  5
475
330
20
100
AcDbEntity
  8
HILF
100
AcDbLine
 10
49.99999999999989
 20
100.0
 30
0.0
 11
146.0
 21
100.0
 31
0.0
  0
LINE
  5
476
330
20
100
AcDbEntity
  8
HILF
100
AcDbLine
 10
49.99999999999989
 20
90.0
 30
0.0
 11
146.0
 21
90.0
 31
0.0
  0
LINE
  5
477
330
20
100
AcDbEntity
  8
HILF
100
AcDbLine
 10
49.99999999999989
 20
80.0
 30
0.0
 11
146.0
 21
80.0
 31
0.0
  0
LINE
  5
478
330
20
100
AcDbEntity
  8
HILF
100
AcDbLine
 10
49.99999999999989
 20
70.0
 30
0.0
 11
146.0
 21
70.0
 31
0.0
  0
LINE
  5
479
330
20
100
AcDbEntity
  8
HILF
100
AcDbLine
 10
49.99999999999989
 20
60.0
 30
0.0
 11
146.0
 21
60.0
 31
0.0
  0
LINE
  5
47A
330
20
100
AcDbEntity
  8
HILF
100
AcDbLine
 10
49.99999999999989
 20
50.0
 30
0.0
 11
146.0
 21
50.0
 31
0.0
  0
LINE
  5
47B
330
20
100
AcDbEntity
  8
HILF
100
AcDbLine
 10
49.99999999999989
 20
40.0
 30
0.0
 11
146.0
 21
40.0
 31
0.0
  0
LINE
  5
47C
330
20
100
AcDbEntity
  8
HILF
100
AcDbLine
 10
146.0
 20
70.0
 30
0.0
 11
229.9999999999998
 21
70.0
 31
0.0
  0
LINE
  5
47D
330
20
100
AcDbEntity
  8
HILF
100
AcDbLine
 10
146.0
 20
60.0
 30
0.0
 11
229.9999999999998
 21
60.0
 31
0.0
  0
LINE
  5
47E
330
20
100
AcDbEntity
  8
HILF
100
AcDbLine
 10
146.0
 20
50.0
 30
0.0
 11
229.9999999999998
 21
50.0
 31
0.0
  0
LINE
  5
47F
330
20
100
AcDbEntity
  8
HILF
100
AcDbLine
 10
234.7736801096946
 20
84.03758247564132
 30
0.0
 11
326.629784251481
 21
84.03758247564132
 31
0.0
  0
LINE
  5
480
330
20
100
AcDbEntity
  8
HILF
100
AcDbLine
 10
234.7736801096946
 20
70.0
 30
0.0
 11
326.629784251481
 21
70.0
 31
0.0
  0
LINE
  5
481
330
20
100
AcDbEntity
  8
HILF
100
AcDbLine
 10
234.7736801096946
 20
60.0
 30
0.0
 11
326.629784251481
 21
60.0
 31
0.0
  0
LINE
  5
482
330
20
100
AcDbEntity
  8
HILF
100
AcDbLine
 10
234.7736801096946
 20
50.0
 30
0.0
 11
326.629784251481
 21
50.0
 31
0.0
  0
LINE
  5
483
330
20
100
AcDbEntity
  8
VOLL
100
AcDbLine
 10
332.0
 20
60.0
 30
0.0
 11
410.0
 21
60.0
 31
0.0
  0
LINE
  5
484
330
20
100
AcDbEntity
  8
HILF
100
AcDbLine
 10
336.7238616296993
 20
83.77983636955821
 30
0.0
 11
404.8588839326728
 21
83.77983636955821
 31
0.0
  0
LINE
  5
485
330
20
100
AcDbEntity
  8
HILF
100
AcDbLine
 10
234.7736801096946
 20
14.89398258028302
 30
0.0
 11
404.8588839326728
 21
14.89398258028302
 31
0.0
  0
TEXT
  5
486
330
20
100
AcDbEntity
  8
TEXT
100
AcDbText
 10
72.20704928957393
 20
18.67381894984129
 30
0.0
 40
4.0
  1
Änderung
 41
0.8
  7
GREEKS
 72
     1
 11
82.94990643243108
 21
18.67381894984129
 31
0.0
100
AcDbText
  0
TEXT
  5
487
330
20
100
AcDbEntity
  8
TEXT
100
AcDbText
 10
153.5163572150375
 20
102.4620895087088
 30
0.0
 40
5.0
  1
Maßstab
 41
0.8
  7
GREEKS
100
AcDbText
  0
TEXT
  5
488
330
20
100
AcDbEntity
  8
TEXT
100
AcDbText
 10
197.9646614905596
 20
102.4184168434818
 30
0.0
 40
5.0
  1
zul.Abw.
 41
0.8
  7
GREEKS
100
AcDbText
  0
TEXT
  5
489
330
20
100
AcDbEntity
  8
TEXT
100
AcDbText
 10
234.8779403809008
 20
102.5489328011779
 30
0.0
 40
5.0
  1
Benennung
 41
0.8
  7
GREEKS
100
AcDbText
  0
TEXT
  5
48A
330
20
100
AcDbEntity
  8
TEXT
100
AcDbText
 10
336.178754957634
 20
102.3132034537135
 30
0.0
 40
5.0
  1
Zeichnungs Nr.
 41
0.8
  7
GREEKS
100
AcDbText
  0
TEXT
  5
48B
330
20
100
AcDbEntity
  8
TEXT
100
AcDbText
 10
234.7422383911357
 20
30.84560570193054
 30
0.0
 40
5.0
  1
Bauvorhaben
 41
0.8
  7
GREEKS
100
AcDbText
  0
TEXT
  5
48C
330
20
100
AcDbEntity
  8
TEXT
100
AcDbText
 10
336.7238616296993
 20
73.18118237099963
 30
0.0
 40
5.0
  1
Ersatz für:
 41
0.8
  7
GREEKS
100
AcDbText
  0
TEXT
  5
48D
330
20
100
AcDbEntity
  8
TEXT
100
AcDbText
 10
58.26641107045737
 20
13.65465846027189
 30
0.0
 40
4.0
  1
Index
 50
90.0
 41
0.8
  7
GREEKS
100
AcDbText
  0
TEXT
  5
48E
330
20
100
AcDbEntity
  8
TEXT
100
AcDbText
 10
110.3048905663554
 20
18.67156269339807
 30
0.0
 40
4.0
  1
Tag
 41
0.8
  7
GREEKS
 72
     1
 11
114.0382238996888
 21
18.67156269339807
 31
0.0
100
AcDbText
  0
TEXT
  5
48F
330
20
100
AcDbEntity
  8
TEXT
100
AcDbText
 10
128.8103701168421
 20
18.59324216966405
 30
0.0
 40
4.0
  1
Name
 41
0.8
  7
GREEKS
 72
     1
 11
135.1341796406516
 21
18.59324216966405
 31
0.0
100
AcDbText
  0
TEXT
  5
490
330
20
100
AcDbEntity
  8
TEXT
100
AcDbText
 10
172.3311673153648
 20
73.31880501229921
 30
0.0
 40
4.0
  1
Tag
 41
0.8
  7
GREEKS
100
AcDbText
  0
TEXT
  5
491
330
20
100
AcDbEntity
  8
TEXT
100
AcDbText
 10
202.4626584226294
 20
73.30961091915219
 30
0.0
 40
4.0
  1
Name
 41
0.8
  7
GREEKS
100
AcDbText
  0
TEXT
  5
492
330
20
100
AcDbEntity
  8
TEXT
100
AcDbText
 10
147.5836127167613
 20
63.62990369617961
 30
0.0
 40
4.0
  1
Gez.
 41
0.8
  7
GREEKS
100
AcDbText
  0
TEXT
  5
493
330
20
100
AcDbEntity
  8
TEXT
100
AcDbText
 10
147.551508657167
 20
53.68926291428374
 30
0.0
 40
4.0
  1
Gepr.
 41
0.8
  7
GREEKS
100
AcDbText
  0
TEXT
  5
494
330
20
100
AcDbEntity
  8
TEXT
100
AcDbText
 10
147.6006777387301
 20
43.52946389649804
 30
0.0
 40
4.0
  1
Norm.
 41
0.8
  7
GREEKS
100
AcDbText
  0
TEXT
  5
495
330
20
100
AcDbEntity
  8
TEXT
100
AcDbText
 10
337.2400861497006
 20
52.07416177878599
 30
0.0
 40
5.0
  1
ersetzt durch:
 41
0.8
  7
GREEKS
100
AcDbText
  0
LINE
  5
496
330
20
100
AcDbEntity
  8
HILF
100
AcDbLine
 10
0.0
 20
0.0
 30
0.0
 11
420.0
 21
0.0
 31
0.0
  0
LINE
  5
497
330
20
100
AcDbEntity
  8
HILF
100
AcDbLine
 10
420.0
 20
0.0
 30
0.0
 11
420.0
 21
594.0
 31
0.0
  0
LINE
  5
498
330
20
100
AcDbEntity
  8
HILF
100
AcDbLine
 10
420.0
 20
594.0
 30
0.0
 11
0.0
 21
594.0
 31
0.0
  0
LINE
  5
499
330
20
100
AcDbEntity
  8
STEMPEL
100
AcDbLine
 10
410.0
 20
584.0
 30
0.0
 11
50.00000000000063
 21
584.0
 31
0.0
  0
LINE
  5
49A
330
20
100
AcDbEntity
  8
STEMPEL
100
AcDbLine
 10
49.99999999999971
 20
10.0
 30
0.0
 11
410.0
 21
10.0
 31
0.0
  0
LINE
  5
49B
330
20
100
AcDbEntity
  8
STEMPEL
100
AcDbLine
 10
410.0
 20
10.0
 30
0.0
 11
410.0
 21
584.0
 31
0.0
  0
TEXT
  5
49C
330
20
100
AcDbEntity
  8
TEXT
100
AcDbText
 10
149.7708855373455
 20
73.14583683904146
 30
0.0
 40
4.0
  1
2013
 41
0.8
  7
GREEKS
100
AcDbText
  0
TEXT
  5
49D
330
20
100
AcDbEntity
  8
TEXT
 62
     1
100
AcDbText
 10
158.8064310364448
 20
86.22410504373215
 30
0.0
 40
7.0
  1
1:2
 41
0.8
  7
GREEKS
100
AcDbText
  0
TEXT
  5
49E
330
20
100
AcDbEntity
  8
TEXT
100
AcDbText
 10
234.862987254257
 20
72.29651127304094
 30
0.0
 40
5.0
  1
Anschlußstück DN 70/40
 41
0.8
  7
GREEKS
100
AcDbText
  0
TEXT
  5
49F
330
20
100
AcDbEntity
  8
TEXT
100
AcDbText
 10
235.162303158329
 20
52.75131145345461
 30
0.0
 40
5.0
  1
EDV-Art.Nr. 58043.CA0X
 41
0.8
  7
GREEKS
100
AcDbText
  0
TEXT
  5
4A1
330
20
100
AcDbEntity
  8
TEXT
 62
     1
100
AcDbText
 10
345.971106150903
 20
87.01863741763572
 30
0.0
 40
7.0
  1
58043CA0W
 41
0.8
  7
GREEKS
 72
     1
 11
370.371106150903
 21
87.01863741763572
 31
0.0
100
AcDbText
  0
TEXT
  5
4A2
330
20
100
AcDbEntity
  8
TEXT
100
AcDbText
 10
234.9713400534563
 20
42.1950457301354
 30
0.0
 40
4.0
  1
58043CA0W.DWG
 41
0.8
  7
GREEKS
100
AcDbText
  0
INSERT
  5
4A3
330
20
100
AcDbEntity
  8
STEMPEL
100
AcDbBlockReference
  2
LOGO
 10
148.9705276546528
 20
44.32391971867144
 30
0.0
 41
2.0
 42
2.0
 43
2.0
  0
TEXT
  5
4A4
330
20
100
AcDbEntity
  8
TEXT
100
AcDbText
 10
169.0638327560039
 20
63.66472427925334
 30
0.0
 40
4.0
  1
27.05.
 41
0.8
  7
GREEKS
 72
     1
 11
176.0733565655278
 21
63.66472427925334
 31
0.0
100
AcDbText
  0
TEXT
  5
4A5
330
20
100
AcDbEntity
  8
TEXT
100
AcDbText
 10
204.2889439602947
 20
63.65553018610632
 30
0.0
 40
4.0
  1
Koeh
 41
0.8
  7
GREEKS
 72
     1
 11
209.5460868174375
 21
63.65553018610632
 31
0.0
100
AcDbText
  0
TEXT
  5
4A6
330
20
100
AcDbEntity
  8
VOLL
100
AcDbText
 10
624.2181993280528
 20
153.5301393177705
 30
0.0
 40
1.8
  1

  7
GREEKS
100
AcDbText
  0
TEXT
  5
4A7
330
20
100
AcDbEntity
  8
VOLL
100
AcDbText
 10
713.8843732537259
 20
158.8222560334898
 30
0.0
 40
1.8
  1

  7
GREEKS
100
AcDbText
  0
TEXT
  5
4A8
330
20
100
AcDbEntity
  8
TEXT
100
AcDbText
 10
1045.716641457319
 20
164.3804915667154
 30
0.0
 40
2.5
  1
  
  7
GREEKS
 72
     1
 11
1047.978546219224
 21
164.3804915667154
 31
0.0
100
AcDbText
  0
TEXT
  5
4A9
330
20
100
AcDbEntity
  8
BEM
100
AcDbText
 10
1289.836358769801
 20
299.9393735971176
 30
0.0
 40
2.5
  1
 
 72
     4
 11
1290.967311150753
 21
299.9393735971176
 31
0.0
100
AcDbText
  0
TEXT
  5
4AB
330
20
100
AcDbEntity
  8
BEM
100
AcDbText
 10
855.5257028996505
 20
182.4589702246512
 30
0.0
 40
2.5
  1

  7
GREEKS
100
AcDbText
  0
TEXT
  5
4AC
330
20
100
AcDbEntity
  8
VOLL
100
AcDbText
 10
841.459509879929
 20
162.2757095676161
 30
0.0
 40
1.8
  1

  7
GREEKS
100
AcDbText
  0
TEXT
  5
4AD
330
20
100
AcDbEntity
  8
BEM
100
AcDbText
 10
875.9475747192137
 20
167.0014338908367
 30
0.0
 40
2.5
  1

 41
0.8
  7
GREEKS
100
AcDbText
  0
TEXT
  5
4AE
330
20
100
AcDbEntity
  8
BEM
100
AcDbText
 10
875.9475747192137
 20
162.3076653367846
 30
0.0
 40
2.5
  1

 41
0.8
  7
GREEKS
100
AcDbText
  0
TEXT
  5
4AF
330
20
100
AcDbEntity
  8
BEM
100
AcDbText
 10
875.9475747192137
 20
157.0698215181211
 30
0.0
 40
2.5
  1

 41
0.8
  7
GREEKS
100
AcDbText
  0
TEXT
  5
4B0
330
20
100
AcDbEntity
  8
BEM
100
AcDbText
 10
875.8746302418392
 20
152.5646325680234
 30
0.0
 40
1.8
  1

 41
0.8
  7
GREEKS
100
AcDbText
  0
TEXT
  5
4B1
330
20
100
AcDbEntity
  8
BEM
100
AcDbText
 10
863.1910593622281
 20
178.1562216642487
 30
0.0
 40
2.0
  1

 41
0.8
  7
GREEKS
 72
     1
 11
863.1910593622281
 21
178.1562216642487
 31
0.0
100
AcDbText
  0
TEXT
  5
4B2
330
20
100
AcDbEntity
  8
TEXT
100
AcDbText
 10
1173.291778083522
 20
167.8339451008417
 30
0.0
 40
2.5
  1
  
  7
GREEKS
 72
     1
 11
1175.553682845426
 21
167.8339451008417
 31
0.0
100
AcDbText
  0
TEXT
  5
4B3
330
20
100
AcDbEntity
  8
BEM
100
AcDbText
 10
1417.411495396004
 20
303.3928271312439
 30
0.0
 40
2.5
  1
 
 72
     4
 11
1418.542447776956
 21
303.3928271312439
 31
0.0
100
AcDbText
  0
TEXT
  5
4B4
330
20
100
AcDbEntity
  8
VOLL
100
AcDbText
 10
766.1762742752141
 20
169.7272236296053
 30
0.0
 40
1.8
  1

  7
GREEKS
100
AcDbText
  0
TEXT
  5
4B5
330
20
100
AcDbEntity
  8
TEXT
100
AcDbText
 10
1098.008542478807
 20
175.2854591628308
 30
0.0
 40
2.5
  1
  
  7
GREEKS
 72
     1
 11
1100.270447240712
 21
175.2854591628308
 31
0.0
100
AcDbText
  0
TEXT
  5
4B6
330
20
100
AcDbEntity
  8
BEM
100
AcDbText
 10
1342.128259791289
 20
310.8443411932331
 30
0.0
 40
2.5
  1
 
 72
     4
 11
1343.259212172241
 21
310.8443411932331
 31
0.0
100
AcDbText
  0
TEXT
  5
4B7
330
20
100
AcDbEntity
  8
BEM
100
AcDbText
 10
921.31587643201
 20
190.0606345192818
 30
0.0
 40
2.5
  1

  7
GREEKS
100
AcDbText
  0
TEXT
  5
4B8
330
20
100
AcDbEntity
  8
VOLL
100
AcDbText
 10
907.2496834122887
 20
169.8773738622467
 30
0.0
 40
1.8
  1

  7
GREEKS
100
AcDbText
  0
TEXT
  5
4B9
330
20
100
AcDbEntity
  8
BEM
100
AcDbText
 10
941.7377482515732
 20
174.6030981854673
 30
0.0
 40
2.5
  1

 41
0.8
  7
GREEKS
100
AcDbText
  0
TEXT
  5
4BA
330
20
100
AcDbEntity
  8
BEM
100
AcDbText
 10
941.7377482515732
 20
169.9093296314152
 30
0.0
 40
2.5
  1

 41
0.8
  7
GREEKS
100
AcDbText
  0
TEXT
  5
4BB
330
20
100
AcDbEntity
  8
BEM
100
AcDbText
 10
941.7377482515732
 20
164.6714858127516
 30
0.0
 40
2.5
  1

 41
0.8
  7
GREEKS
100
AcDbText
  0
TEXT
  5
4BC
330
20
100
AcDbEntity
  8
BEM
100
AcDbText
 10
941.6648037741989
 20
160.166296862654
 30
0.0
 40
1.8
  1

 41
0.8
  7
GREEKS
100
AcDbText
  0
TEXT
  5
4BD
330
20
100
AcDbEntity
  8
BEM
100
AcDbText
 10
928.9812328945878
 20
185.7578859588793
 30
0.0
 40
2.0
  1

 41
0.8
  7
GREEKS
 72
     1
 11
928.9812328945878
 21
185.7578859588793
 31
0.0
100
AcDbText
  0
TEXT
  5
4BE
330
20
100
AcDbEntity
  8
TEXT
100
AcDbText
 10
1239.081951615881
 20
175.4356093954723
 30
0.0
 40
2.5
  1
  
  7
GREEKS
 72
     1
 11
1241.343856377786
 21
175.4356093954723
 31
0.0
100
AcDbText
  0
TEXT
  5
4BF
330
20
100
AcDbEntity
  8
BEM
100
AcDbText
 10
1483.201668928364
 20
310.9944914258745
 30
0.0
 40
2.5
  1
 
 72
     4
 11
1484.332621309316
 21
310.9944914258745
 31
0.0
100
AcDbText
  0
TEXT
  5
4C0
330
20
100
AcDbEntity
  8
VOLL
100
AcDbText
 10
702.1540628484578
 20
157.9115141038568
 30
0.0
 40
1.8
  1

  7
GREEKS
100
AcDbText
  0
TEXT
  5
4C1
330
20
100
AcDbEntity
  8
TEXT
100
AcDbText
 10
1033.98633105205
 20
163.4697496370823
 30
0.0
 40
2.5
  1
  
  7
GREEKS
 72
     1
 11
1036.248235813955
 21
163.4697496370823
 31
0.0
100
AcDbText
  0
TEXT
  5
4C2
330
20
100
AcDbEntity
  8
BEM
100
AcDbText
 10
1278.106048364533
 20
299.0286316674846
 30
0.0
 40
2.5
  1
 
 72
     4
 11
1279.237000745485
 21
299.0286316674846
 31
0.0
100
AcDbText
  0
TEXT
  5
4C3
330
20
100
AcDbEntity
  8
BEM
100
AcDbText
 10
867.4996759281077
 20
198.0647448024424
 30
0.0
 40
2.5
  1

  7
GREEKS
100
AcDbText
  0
TEXT
  5
4C4
330
20
100
AcDbEntity
  8
VOLL
100
AcDbText
 10
853.4334829083862
 20
177.8814841454073
 30
0.0
 40
1.8
  1

  7
GREEKS
100
AcDbText
  0
TEXT
  5
4C5
330
20
100
AcDbEntity
  8
BEM
100
AcDbText
 10
887.9215477476709
 20
182.6072084686279
 30
0.0
 40
2.5
  1

 41
0.8
  7
GREEKS
100
AcDbText
  0
TEXT
  5
4C6
330
20
100
AcDbEntity
  8
BEM
100
AcDbText
 10
887.9215477476709
 20
177.9134399145758
 30
0.0
 40
2.5
  1

 41
0.8
  7
GREEKS
100
AcDbText
  0
TEXT
  5
4C7
330
20
100
AcDbEntity
  8
BEM
100
AcDbText
 10
887.9215477476709
 20
172.6755960959122
 30
0.0
 40
2.5
  1

 41
0.8
  7
GREEKS
100
AcDbText
  0
TEXT
  5
4C8
330
20
100
AcDbEntity
  8
BEM
100
AcDbText
 10
887.8486032702964
 20
168.1704071458146
 30
0.0
 40
1.8
  1

 41
0.8
  7
GREEKS
100
AcDbText
  0
TEXT
  5
4C9
330
20
100
AcDbEntity
  8
BEM
100
AcDbText
 10
875.1650323906853
 20
193.7619962420399
 30
0.0
 40
2.0
  1

 41
0.8
  7
GREEKS
 72
     1
 11
875.1650323906853
 21
193.7619962420399
 31
0.0
100
AcDbText
  0
TEXT
  5
4CA
330
20
100
AcDbEntity
  8
TEXT
100
AcDbText
 10
1185.265751111979
 20
183.4397196786328
 30
0.0
 40
2.5
  1
  
  7
GREEKS
 72
     1
 11
1187.527655873884
 21
183.4397196786328
 31
0.0
100
AcDbText
  0
TEXT
  5
4CB
330
20
100
AcDbEntity
  8
BEM
100
AcDbText
 10
1429.385468424461
 20
318.9986017090352
 30
0.0
 40
2.5
  1
 
 72
     4
 11
1430.516420805413
 21
318.9986017090352
 31
0.0
100
AcDbText
  0
TEXT
  5
4CC
330
20
100
AcDbEntity
  8
VOLL
100
AcDbText
 10
1029.735639101569
 20
163.0299574813593
 30
0.0
 40
1.8
  1

  7
GREEKS
100
AcDbText
  0
TEXT
  5
4CD
330
20
100
AcDbEntity
  8
VOLL
100
AcDbText
 10
1119.401813027242
 20
168.3220741970786
 30
0.0
 40
1.8
  1

  7
GREEKS
100
AcDbText
  0
TEXT
  5
4CE
330
20
100
AcDbEntity
  8
TEXT
100
AcDbText
 10
1451.234081230835
 20
173.8803097303042
 30
0.0
 40
2.5
  1
  
  7
GREEKS
 72
     1
 11
1453.49598599274
 21
173.8803097303042
 31
0.0
100
AcDbText
  0
TEXT
  5
4CF
330
20
100
AcDbEntity
  8
BEM
100
AcDbText
 10
1695.353798543317
 20
309.4391917607064
 30
0.0
 40
2.5
  1
 
 72
     4
 11
1696.484750924269
 21
309.4391917607064
 31
0.0
100
AcDbText
  0
TEXT
  5
4D0
330
20
100
AcDbEntity
  8
BEM
100
AcDbText
 10
1261.043142673166
 20
191.95878838824
 30
0.0
 40
2.5
  1

  7
GREEKS
100
AcDbText
  0
TEXT
  5
4D1
330
20
100
AcDbEntity
  8
VOLL
100
AcDbText
 10
1246.976949653445
 20
171.7755277312049
 30
0.0
 40
1.8
  1

  7
GREEKS
100
AcDbText
  0
TEXT
  5
4D2
330
20
100
AcDbEntity
  8
BEM
100
AcDbText
 10
1281.46501449273
 20
176.5012520544255
 30
0.0
 40
2.5
  1

 41
0.8
  7
GREEKS
100
AcDbText
  0
TEXT
  5
4D3
330
20
100
AcDbEntity
  8
BEM
100
AcDbText
 10
1281.46501449273
 20
171.8074835003733
 30
0.0
 40
2.5
  1

 41
0.8
  7
GREEKS
100
AcDbText
  0
TEXT
  5
4D4
330
20
100
AcDbEntity
  8
BEM
100
AcDbText
 10
1281.46501449273
 20
166.5696396817098
 30
0.0
 40
2.5
  1

 41
0.8
  7
GREEKS
100
AcDbText
  0
TEXT
  5
4D5
330
20
100
AcDbEntity
  8
BEM
100
AcDbText
 10
1281.392070015355
 20
162.0644507316122
 30
0.0
 40
1.8
  1

 41
0.8
  7
GREEKS
100
AcDbText
  0
TEXT
  5
4D6
330
20
100
AcDbEntity
  8
BEM
100
AcDbText
 10
1268.708499135744
 20
187.6560398278375
 30
0.0
 40
2.0
  1

 41
0.8
  7
GREEKS
 72
     1
 11
1268.708499135744
 21
187.6560398278375
 31
0.0
100
AcDbText
  0
TEXT
  5
4D7
330
20
100
AcDbEntity
  8
TEXT
100
AcDbText
 10
1578.809217857038
 20
177.3337632644304
 30
0.0
 40
2.5
  1
  
  7
GREEKS
 72
     1
 11
1581.071122618943
 21
177.3337632644304
 31
0.0
100
AcDbText
  0
TEXT
  5
4D8
330
20
100
AcDbEntity
  8
BEM
100
AcDbText
 10
1822.928935169521
 20
312.8926452948327
 30
0.0
 40
2.5
  1
 
 72
     4
 11
1824.059887550473
 21
312.8926452948327
 31
0.0
100
AcDbText
  0
TEXT
  5
4D9
330
20
100
AcDbEntity
  8
VOLL
100
AcDbText
 10
1037.648953793352
 20
140.0808845888587
 30
0.0
 40
1.8
  1

  7
GREEKS
100
AcDbText
  0
TEXT
  5
4DA
330
20
100
AcDbEntity
  8
VOLL
100
AcDbText
 10
1127.315127719025
 20
145.3730013045781
 30
0.0
 40
1.8
  1

  7
GREEKS
100
AcDbText
  0
TEXT
  5
4DB
330
20
100
AcDbEntity
  8
TEXT
100
AcDbText
 10
1459.147395922618
 20
150.9312368378036
 30
0.0
 40
2.5
  1
  
  7
GREEKS
 72
     1
 11
1461.409300684523
 21
150.9312368378036
 31
0.0
100
AcDbText
  0
TEXT
  5
4DC
330
20
100
AcDbEntity
  8
BEM
100
AcDbText
 10
1703.2671132351
 20
286.4901188682059
 30
0.0
 40
2.5
  1
 
 72
     4
 11
1704.398065616053
 21
286.4901188682059
 31
0.0
100
AcDbText
  0
TEXT
  5
4DD
330
20
100
AcDbEntity
  8
BEM
100
AcDbText
 10
1268.95645736495
 20
169.0097154957395
 30
0.0
 40
2.5
  1

  7
GREEKS
100
AcDbText
  0
TEXT
  5
4DE
330
20
100
AcDbEntity
  8
VOLL
100
AcDbText
 10
1254.890264345229
 20
148.8264548387044
 30
0.0
 40
1.8
  1

  7
GREEKS
100
AcDbText
  0
TEXT
  5
4DF
330
20
100
AcDbEntity
  8
BEM
100
AcDbText
 10
1289.378329184513
 20
153.552179161925
 30
0.0
 40
2.5
  1

 41
0.8
  7
GREEKS
100
AcDbText
  0
TEXT
  5
4E0
330
20
100
AcDbEntity
  8
BEM
100
AcDbText
 10
1289.378329184513
 20
148.8584106078728
 30
0.0
 40
2.5
  1

 41
0.8
  7
GREEKS
100
AcDbText
  0
TEXT
  5
4E1
330
20
100
AcDbEntity
  8
BEM
100
AcDbText
 10
1289.378329184513
 20
143.6205667892093
 30
0.0
 40
2.5
  1

 41
0.8
  7
GREEKS
100
AcDbText
  0
TEXT
  5
4E2
330
20
100
AcDbEntity
  8
BEM
100
AcDbText
 10
1289.305384707138
 20
139.1153778391117
 30
0.0
 40
1.8
  1

 41
0.8
  7
GREEKS
100
AcDbText
  0
TEXT
  5
4E3
330
20
100
AcDbEntity
  8
BEM
100
AcDbText
 10
1276.621813827527
 20
164.706966935337
 30
0.0
 40
2.0
  1

 41
0.8
  7
GREEKS
 72
     1
 11
1276.621813827527
 21
164.706966935337
 31
0.0
100
AcDbText
  0
TEXT
  5
4E4
330
20
100
AcDbEntity
  8
TEXT
100
AcDbText
 10
1586.722532548821
 20
154.3846903719299
 30
0.0
 40
2.5
  1
  
  7
GREEKS
 72
     1
 11
1588.984437310726
 21
154.3846903719299
 31
0.0
100
AcDbText
  0
TEXT
  5
4E5
330
20
100
AcDbEntity
  8
BEM
100
AcDbText
 10
1830.842249861303
 20
289.9435724023322
 30
0.0
 40
2.5
  1
 
 72
     4
 11
1831.973202242256
 21
289.9435724023322
 31
0.0
100
AcDbText
  0
TEXT
  5
4E6
330
20
100
AcDbEntity
  8
VOLL
100
AcDbText
 10
1179.607028740513
 20
156.2779689006935
 30
0.0
 40
1.8
  1

  7
GREEKS
100
AcDbText
  0
TEXT
  5
4E7
330
20
100
AcDbEntity
  8
TEXT
100
AcDbText
 10
1511.439296944107
 20
161.8362044339191
 30
0.0
 40
2.5
  1
  
  7
GREEKS
 72
     1
 11
1513.701201706011
 21
161.8362044339191
 31
0.0
100
AcDbText
  0
TEXT
  5
4E8
330
20
100
AcDbEntity
  8
BEM
100
AcDbText
 10
1755.559014256589
 20
297.3950864643213
 30
0.0
 40
2.5
  1
 
 72
     4
 11
1756.689966637541
 21
297.3950864643213
 31
0.0
100
AcDbText
  0
TEXT
  5
4E9
330
20
100
AcDbEntity
  8
BEM
100
AcDbText
 10
1334.74663089731
 20
176.6113797903701
 30
0.0
 40
2.5
  1

  7
GREEKS
100
AcDbText
  0
TEXT
  5
4EA
330
20
100
AcDbEntity
  8
VOLL
100
AcDbText
 10
1320.680437877588
 20
156.428119133335
 30
0.0
 40
1.8
  1

  7
GREEKS
100
AcDbText
  0
TEXT
  5
4EB
330
20
100
AcDbEntity
  8
BEM
100
AcDbText
 10
1355.168502716873
 20
161.1538434565556
 30
0.0
 40
2.5
  1

 41
0.8
  7
GREEKS
100
AcDbText
  0
TEXT
  5
4EC
330
20
100
AcDbEntity
  8
BEM
100
AcDbText
 10
1355.168502716873
 20
156.4600749025034
 30
0.0
 40
2.5
  1

 41
0.8
  7
GREEKS
100
AcDbText
  0
TEXT
  5
4ED
330
20
100
AcDbEntity
  8
BEM
100
AcDbText
 10
1355.168502716873
 20
151.2222310838399
 30
0.0
 40
2.5
  1

 41
0.8
  7
GREEKS
100
AcDbText
  0
TEXT
  5
4EE
330
20
100
AcDbEntity
  8
BEM
100
AcDbText
 10
1355.095558239498
 20
146.7170421337423
 30
0.0
 40
1.8
  1

 41
0.8
  7
GREEKS
100
AcDbText
  0
TEXT
  5
4EF
330
20
100
AcDbEntity
  8
BEM
100
AcDbText
 10
1342.411987359887
 20
172.3086312299676
 30
0.0
 40
2.0
  1

 41
0.8
  7
GREEKS
 72
     1
 11
1342.411987359887
 21
172.3086312299676
 31
0.0
100
AcDbText
  0
TEXT
  5
4F0
330
20
100
AcDbEntity
  8
TEXT
100
AcDbText
 10
1652.512706081181
 20
161.9863546665605
 30
0.0
 40
2.5
  1
  
  7
GREEKS
 72
     1
 11
1654.774610843086
 21
161.9863546665605
 31
0.0
100
AcDbText
  0
TEXT
  5
4F1
330
20
100
AcDbEntity
  8
BEM
100
AcDbText
 10
1896.632423393663
 20
297.5452366969627
 30
0.0
 40
2.5
  1
 
 72
     4
 11
1897.763375774616
 21
297.5452366969627
 31
0.0
100
AcDbText
  0
TEXT
  5
4F2
330
20
100
AcDbEntity
  8
VOLL
100
AcDbText
 10
810.2241690536295
 20
350.9401983804995
 30
0.0
 40
1.8
  1

  7
GREEKS
100
AcDbText
  0
TEXT
  5
4F3
330
20
100
AcDbEntity
  8
VOLL
100
AcDbText
 10
899.8903429793026
 20
356.2323150962188
 30
0.0
 40
1.8
  1

  7
GREEKS
100
AcDbText
  0
TEXT
  5
4F4
330
20
100
AcDbEntity
  8
TEXT
100
AcDbText
 10
1231.722611182896
 20
361.7905506294444
 30
0.0
 40
2.5
  1
  
  7
GREEKS
 72
     1
 11
1233.9845159448
 21
361.7905506294444
 31
0.0
100
AcDbText
  0
TEXT
  5
4F5
330
20
100
AcDbEntity
  8
BEM
100
AcDbText
 10
1475.842328495378
 20
497.3494326598465
 30
0.0
 40
2.5
  1
 
 72
     4
 11
1476.97328087633
 21
497.3494326598465
 31
0.0
100
AcDbText
  0
TEXT
  5
4F6
330
20
100
AcDbEntity
  8
BEM
100
AcDbText
 10
1041.531672625227
 20
379.8690292873802
 30
0.0
 40
2.5
  1

  7
GREEKS
100
AcDbText
  0
TEXT
  5
4F7
330
20
100
AcDbEntity
  8
VOLL
100
AcDbText
 10
1027.465479605506
 20
359.6857686303451
 30
0.0
 40
1.8
  1

  7
GREEKS
100
AcDbText
  0
TEXT
  5
4F8
330
20
100
AcDbEntity
  8
BEM
100
AcDbText
 10
1061.95354444479
 20
364.4114929535656
 30
0.0
 40
2.5
  1

 41
0.8
  7
GREEKS
100
AcDbText
  0
TEXT
  5
4F9
330
20
100
AcDbEntity
  8
BEM
100
AcDbText
 10
1061.95354444479
 20
359.7177243995135
 30
0.0
 40
2.5
  1

 41
0.8
  7
GREEKS
100
AcDbText
  0
TEXT
  5
4FA
330
20
100
AcDbEntity
  8
BEM
100
AcDbText
 10
1061.95354444479
 20
354.47988058085
 30
0.0
 40
2.5
  1

 41
0.8
  7
GREEKS
100
AcDbText
  0
TEXT
  5
4FB
330
20
100
AcDbEntity
  8
BEM
100
AcDbText
 10
1061.880599967416
 20
349.9746916307524
 30
0.0
 40
1.8
  1

 41
0.8
  7
GREEKS
100
AcDbText
  0
TEXT
  5
4FC
330
20
100
AcDbEntity
  8
BEM
100
AcDbText
 10
1049.197029087805
 20
375.5662807269776
 30
0.0
 40
2.0
  1

 41
0.8
  7
GREEKS
 72
     1
 11
1049.197029087805
 21
375.5662807269776
 31
0.0
100
AcDbText
  0
TEXT
  5
4FD
330
20
100
AcDbEntity
  8
TEXT
100
AcDbText
 10
1359.297747809099
 20
365.2440041635706
 30
0.0
 40
2.5
  1
  
  7
GREEKS
 72
     1
 11
1361.559652571003
 21
365.2440041635706
 31
0.0
100
AcDbText
  0
TEXT
  5
4FE
330
20
100
AcDbEntity
  8
BEM
100
AcDbText
 10
1603.41746512158
 20
500.8028861939727
 30
0.0
 40
2.5
  1
 
 72
     4
 11
1604.548417502533
 21
500.8028861939727
 31
0.0
100
AcDbText
  0
TEXT
  5
4FF
330
20
100
AcDbEntity
  8
VOLL
100
AcDbText
 10
952.1822440007909
 20
367.1372826923342
 30
0.0
 40
1.8
  1

  7
GREEKS
100
AcDbText
  0
TEXT
  5
500
330
20
100
AcDbEntity
  8
TEXT
100
AcDbText
 10
1284.014512204384
 20
372.6955182255597
 30
0.0
 40
2.5
  1
  
  7
GREEKS
 72
     1
 11
1286.276416966289
 21
372.6955182255597
 31
0.0
100
AcDbText
  0
TEXT
  5
501
330
20
100
AcDbEntity
  8
BEM
100
AcDbText
 10
1528.134229516866
 20
508.2544002559619
 30
0.0
 40
2.5
  1
 
 72
     4
 11
1529.265181897818
 21
508.2544002559619
 31
0.0
100
AcDbText
  0
TEXT
  5
502
330
20
100
AcDbEntity
  8
BEM
100
AcDbText
 10
1107.321846157587
 20
387.4706935820108
 30
0.0
 40
2.5
  1

  7
GREEKS
100
AcDbText
  0
TEXT
  5
503
330
20
100
AcDbEntity
  8
VOLL
100
AcDbText
 10
1093.255653137865
 20
367.2874329249756
 30
0.0
 40
1.8
  1

  7
GREEKS
100
AcDbText
  0
TEXT
  5
504
330
20
100
AcDbEntity
  8
BEM
100
AcDbText
 10
1127.74371797715
 20
372.0131572481963
 30
0.0
 40
2.5
  1

 41
0.8
  7
GREEKS
100
AcDbText
  0
TEXT
  5
505
330
20
100
AcDbEntity
  8
BEM
100
AcDbText
 10
1127.74371797715
 20
367.3193886941441
 30
0.0
 40
2.5
  1

 41
0.8
  7
GREEKS
100
AcDbText
  0
TEXT
  5
506
330
20
100
AcDbEntity
  8
BEM
100
AcDbText
 10
1127.74371797715
 20
362.0815448754806
 30
0.0
 40
2.5
  1

 41
0.8
  7
GREEKS
100
AcDbText
  0
TEXT
  5
507
330
20
100
AcDbEntity
  8
BEM
100
AcDbText
 10
1127.670773499775
 20
357.576355925383
 30
0.0
 40
1.8
  1

 41
0.8
  7
GREEKS
100
AcDbText
  0
TEXT
  5
508
330
20
100
AcDbEntity
  8
BEM
100
AcDbText
 10
1114.987202620164
 20
383.1679450216082
 30
0.0
 40
2.0
  1

 41
0.8
  7
GREEKS
 72
     1
 11
1114.987202620164
 21
383.1679450216082
 31
0.0
100
AcDbText
  0
TEXT
  5
509
330
20
100
AcDbEntity
  8
TEXT
100
AcDbText
 10
1425.087921341458
 20
372.8456684582012
 30
0.0
 40
2.5
  1
  
  7
GREEKS
 72
     1
 11
1427.349826103363
 21
372.8456684582012
 31
0.0
100
AcDbText
  0
TEXT
  5
50A
330
20
100
AcDbEntity
  8
BEM
100
AcDbText
 10
1669.20763865394
 20
508.4045504886034
 30
0.0
 40
2.5
  1
 
 72
     4
 11
1670.338591034893
 21
508.4045504886034
 31
0.0
100
AcDbText
  0
TEXT
  5
50B
330
20
100
AcDbEntity
  8
VOLL
100
AcDbText
 10
888.1600325740345
 20
355.3215731665857
 30
0.0
 40
1.8
  1

  7
GREEKS
100
AcDbText
  0
TEXT
  5
50C
330
20
100
AcDbEntity
  8
TEXT
100
AcDbText
 10
1219.992300777627
 20
360.8798086998112
 30
0.0
 40
2.5
  1
  
  7
GREEKS
 72
     1
 11
1222.254205539532
 21
360.8798086998112
 31
0.0
100
AcDbText
  0
TEXT
  5
50D
330
20
100
AcDbEntity
  8
BEM
100
AcDbText
 10
1464.112018090109
 20
496.4386907302134
 30
0.0
 40
2.5
  1
 
 72
     4
 11
1465.242970471062
 21
496.4386907302134
 31
0.0
100
AcDbText
  0
TEXT
  5
50E
330
20
100
AcDbEntity
  8
BEM
100
AcDbText
 10
1053.505645653684
 20
395.4748038651714
 30
0.0
 40
2.5
  1

  7
GREEKS
100
AcDbText
  0
TEXT
  5
50F
330
20
100
AcDbEntity
  8
VOLL
100
AcDbText
 10
1039.439452633963
 20
375.2915432081362
 30
0.0
 40
1.8
  1

  7
GREEKS
100
AcDbText
  0
TEXT
  5
510
330
20
100
AcDbEntity
  8
BEM
100
AcDbText
 10
1073.927517473247
 20
380.0172675313568
 30
0.0
 40
2.5
  1

 41
0.8
  7
GREEKS
100
AcDbText
  0
TEXT
  5
511
330
20
100
AcDbEntity
  8
BEM
100
AcDbText
 10
1073.927517473247
 20
375.3234989773047
 30
0.0
 40
2.5
  1

 41
0.8
  7
GREEKS
100
AcDbText
  0
TEXT
  5
512
330
20
100
AcDbEntity
  8
BEM
100
AcDbText
 10
1073.927517473247
 20
370.0856551586412
 30
0.0
 40
2.5
  1

 41
0.8
  7
GREEKS
100
AcDbText
  0
TEXT
  5
513
330
20
100
AcDbEntity
  8
BEM
100
AcDbText
 10
1073.854572995873
 20
365.5804662085436
 30
0.0
 40
1.8
  1

 41
0.8
  7
GREEKS
100
AcDbText
  0
TEXT
  5
514
330
20
100
AcDbEntity
  8
BEM
100
AcDbText
 10
1061.171002116262
 20
391.1720553047689
 30
0.0
 40
2.0
  1

 41
0.8
  7
GREEKS
 72
     1
 11
1061.171002116262
 21
391.1720553047689
 31
0.0
100
AcDbText
  0
TEXT
  5
515
330
20
100
AcDbEntity
  8
TEXT
100
AcDbText
 10
1371.271720837556
 20
380.8497787413618
 30
0.0
 40
2.5
  1
  
  7
GREEKS
 72
     1
 11
1373.533625599461
 21
380.8497787413618
 31
0.0
100
AcDbText
  0
TEXT
  5
516
330
20
100
AcDbEntity
  8
BEM
100
AcDbText
 10
1615.391438150038
 20
516.408660771764
 30
0.0
 40
2.5
  1
 
 72
     4
 11
1616.52239053099
 21
516.408660771764
 31
0.0
100
AcDbText
  0
TEXT
  5
517
330
20
100
AcDbEntity
  8
VOLL
100
AcDbText
 10
816.6255219861703
 20
329.2841013719355
 30
0.0
 40
1.8
  1

  7
GREEKS
100
AcDbText
  0
TEXT
  5
518
330
20
100
AcDbEntity
  8
VOLL
100
AcDbText
 10
906.2916959118433
 20
334.5762180876548
 30
0.0
 40
1.8
  1

  7
GREEKS
100
AcDbText
  0
TEXT
  5
519
330
20
100
AcDbEntity
  8
TEXT
100
AcDbText
 10
1238.123964115436
 20
340.1344536208804
 30
0.0
 40
2.5
  1
  
  7
GREEKS
 72
     1
 11
1240.385868877341
 21
340.1344536208804
 31
0.0
100
AcDbText
  0
TEXT
  5
51A
330
20
100
AcDbEntity
  8
BEM
100
AcDbText
 10
1482.243681427918
 20
475.6933356512825
 30
0.0
 40
2.5
  1
 
 72
     4
 11
1483.37463380887
 21
475.6933356512825
 31
0.0
100
AcDbText
  0
TEXT
  5
51B
330
20
100
AcDbEntity
  8
BEM
100
AcDbText
 10
1047.933025557768
 20
358.2129322788162
 30
0.0
 40
2.5
  1

  7
GREEKS
100
AcDbText
  0
TEXT
  5
51C
330
20
100
AcDbEntity
  8
VOLL
100
AcDbText
 10
1033.866832538046
 20
338.0296716217811
 30
0.0
 40
1.8
  1

  7
GREEKS
100
AcDbText
  0
TEXT
  5
51D
330
20
100
AcDbEntity
  8
BEM
100
AcDbText
 10
1068.354897377331
 20
342.7553959450017
 30
0.0
 40
2.5
  1

 41
0.8
  7
GREEKS
100
AcDbText
  0
TEXT
  5
51E
330
20
100
AcDbEntity
  8
BEM
100
AcDbText
 10
1068.354897377331
 20
338.0616273909496
 30
0.0
 40
2.5
  1

 41
0.8
  7
GREEKS
100
AcDbText
  0
TEXT
  5
51F
330
20
100
AcDbEntity
  8
BEM
100
AcDbText
 10
1068.354897377331
 20
332.8237835722861
 30
0.0
 40
2.5
  1

 41
0.8
  7
GREEKS
100
AcDbText
  0
TEXT
  5
520
330
20
100
AcDbEntity
  8
BEM
100
AcDbText
 10
1068.281952899956
 20
328.3185946221884
 30
0.0
 40
1.8
  1

 41
0.8
  7
GREEKS
100
AcDbText
  0
TEXT
  5
521
330
20
100
AcDbEntity
  8
BEM
100
AcDbText
 10
1055.598382020345
 20
353.9101837184137
 30
0.0
 40
2.0
  1

 41
0.8
  7
GREEKS
 72
     1
 11
1055.598382020345
 21
353.9101837184137
 31
0.0
100
AcDbText
  0
TEXT
  5
522
330
20
100
AcDbEntity
  8
TEXT
100
AcDbText
 10
1365.699100741639
 20
343.5879071550066
 30
0.0
 40
2.5
  1
  
  7
GREEKS
 72
     1
 11
1367.961005503544
 21
343.5879071550066
 31
0.0
100
AcDbText
  0
TEXT
  5
523
330
20
100
AcDbEntity
  8
BEM
100
AcDbText
 10
1609.818818054121
 20
479.1467891854089
 30
0.0
 40
2.5
  1
 
 72
     4
 11
1610.949770435073
 21
479.1467891854089
 31
0.0
100
AcDbText
  0
TEXT
  5
524
330
20
100
AcDbEntity
  8
VOLL
100
AcDbText
 10
958.5835969333315
 20
345.4811856837702
 30
0.0
 40
1.8
  1

  7
GREEKS
100
AcDbText
  0
TEXT
  5
525
330
20
100
AcDbEntity
  8
TEXT
100
AcDbText
 10
1290.415865136924
 20
351.0394212169958
 30
0.0
 40
2.5
  1
  
  7
GREEKS
 72
     1
 11
1292.677769898829
 21
351.0394212169958
 31
0.0
100
AcDbText
  0
TEXT
  5
526
330
20
100
AcDbEntity
  8
BEM
100
AcDbText
 10
1534.535582449406
 20
486.5983032473979
 30
0.0
 40
2.5
  1
 
 72
     4
 11
1535.666534830359
 21
486.5983032473979
 31
0.0
100
AcDbText
  0
TEXT
  5
527
330
20
100
AcDbEntity
  8
BEM
100
AcDbText
 10
1113.723199090127
 20
365.8145965734468
 30
0.0
 40
2.5
  1

  7
GREEKS
100
AcDbText
  0
TEXT
  5
528
330
20
100
AcDbEntity
  8
VOLL
100
AcDbText
 10
1099.657006070406
 20
345.6313359164117
 30
0.0
 40
1.8
  1

  7
GREEKS
100
AcDbText
  0
TEXT
  5
529
330
20
100
AcDbEntity
  8
BEM
100
AcDbText
 10
1134.14507090969
 20
350.3570602396323
 30
0.0
 40
2.5
  1

 41
0.8
  7
GREEKS
100
AcDbText
  0
TEXT
  5
52A
330
20
100
AcDbEntity
  8
BEM
100
AcDbText
 10
1134.14507090969
 20
345.6632916855801
 30
0.0
 40
2.5
  1

 41
0.8
  7
GREEKS
100
AcDbText
  0
TEXT
  5
52B
330
20
100
AcDbEntity
  8
BEM
100
AcDbText
 10
1134.14507090969
 20
340.4254478669166
 30
0.0
 40
2.5
  1

 41
0.8
  7
GREEKS
100
AcDbText
  0
TEXT
  5
52C
330
20
100
AcDbEntity
  8
BEM
100
AcDbText
 10
1134.072126432316
 20
335.920258916819
 30
0.0
 40
1.8
  1

 41
0.8
  7
GREEKS
100
AcDbText
  0
TEXT
  5
52D
330
20
100
AcDbEntity
  8
BEM
100
AcDbText
 10
1121.388555552705
 20
361.5118480130443
 30
0.0
 40
2.0
  1

 41
0.8
  7
GREEKS
 72
     1
 11
1121.388555552705
 21
361.5118480130443
 31
0.0
100
AcDbText
  0
TEXT
  5
52E
330
20
100
AcDbEntity
  8
TEXT
100
AcDbText
 10
1431.489274273999
 20
351.1895714496372
 30
0.0
 40
2.5
  1
  
  7
GREEKS
 72
     1
 11
1433.751179035904
 21
351.1895714496372
 31
0.0
100
AcDbText
  0
TEXT
  5
52F
330
20
100
AcDbEntity
  8
BEM
100
AcDbText
 10
1675.608991586481
 20
486.7484534800395
 30
0.0
 40
2.5
  1
 
 72
     4
 11
1676.739943967433
 21
486.7484534800395
 31
0.0
100
AcDbText
  0
TEXT
  5
530
330
20
100
AcDbEntity
  8
VOLL
100
AcDbText
 10
894.5613855065753
 20
333.6654761580217
 30
0.0
 40
1.8
  1

  7
GREEKS
100
AcDbText
  0
TEXT
  5
531
330
20
100
AcDbEntity
  8
TEXT
100
AcDbText
 10
1226.393653710168
 20
339.2237116912473
 30
0.0
 40
2.5
  1
  
  7
GREEKS
 72
     1
 11
1228.655558472073
 21
339.2237116912473
 31
0.0
100
AcDbText
  0
TEXT
  5
532
330
20
100
AcDbEntity
  8
BEM
100
AcDbText
 10
1470.51337102265
 20
474.7825937216495
 30
0.0
 40
2.5
  1
 
 72
     4
 11
1471.644323403602
 21
474.7825937216495
 31
0.0
100
AcDbText
  0
TEXT
  5
533
330
20
100
AcDbEntity
  8
BEM
100
AcDbText
 10
1059.906998586225
 20
373.8187068566074
 30
0.0
 40
2.5
  1

  7
GREEKS
100
AcDbText
  0
TEXT
  5
534
330
20
100
AcDbEntity
  8
VOLL
100
AcDbText
 10
1045.840805566503
 20
353.6354461995723
 30
0.0
 40
1.8
  1

  7
GREEKS
100
AcDbText
  0
TEXT
  5
535
330
20
100
AcDbEntity
  8
BEM
100
AcDbText
 10
1080.328870405788
 20
358.3611705227929
 30
0.0
 40
2.5
  1

 41
0.8
  7
GREEKS
100
AcDbText
  0
TEXT
  5
536
330
20
100
AcDbEntity
  8
BEM
100
AcDbText
 10
1080.328870405788
 20
353.6674019687408
 30
0.0
 40
2.5
  1

 41
0.8
  7
GREEKS
100
AcDbText
  0
TEXT
  5
537
330
20
100
AcDbEntity
  8
BEM
100
AcDbText
 10
1080.328870405788
 20
348.4295581500772
 30
0.0
 40
2.5
  1

 41
0.8
  7
GREEKS
100
AcDbText
  0
TEXT
  5
538
330
20
100
AcDbEntity
  8
BEM
100
AcDbText
 10
1080.255925928414
 20
343.9243691999796
 30
0.0
 40
1.8
  1

 41
0.8
  7
GREEKS
100
AcDbText
  0
TEXT
  5
539
330
20
100
AcDbEntity
  8
BEM
100
AcDbText
 10
1067.572355048802
 20
369.5159582962049
 30
0.0
 40
2.0
  1

 41
0.8
  7
GREEKS
 72
     1
 11
1067.572355048802
 21
369.5159582962049
 31
0.0
100
AcDbText
  0
TEXT
  5
53A
330
20
100
AcDbEntity
  8
TEXT
100
AcDbText
 10
1377.673073770096
 20
359.1936817327979
 30
0.0
 40
2.5
  1
  
  7
GREEKS
 72
     1
 11
1379.934978532001
 21
359.1936817327979
 31
0.0
100
AcDbText
  0
TEXT
  5
53B
330
20
100
AcDbEntity
  8
BEM
100
AcDbText
 10
1621.792791082579
 20
494.7525637632001
 30
0.0
 40
2.5
  1
 
 72
     4
 11
1622.923743463531
 21
494.7525637632001
 31
0.0
100
AcDbText
  0
TEXT
  5
53C
330
20
100
AcDbEntity
  8
VOLL
100
AcDbText
 10
1172.962524362321
 20
314.0748864249834
 30
0.0
 40
1.8
  1

  7
GREEKS
100
AcDbText
  0
TEXT
  5
53D
330
20
100
AcDbEntity
  8
TEXT
100
AcDbText
 10
1504.794792565914
 20
319.633121958209
 30
0.0
 40
2.5
  1
  
  7
GREEKS
 72
     1
 11
1507.056697327819
 21
319.633121958209
 31
0.0
100
AcDbText
  0
TEXT
  5
53E
330
20
100
AcDbEntity
  8
BEM
100
AcDbText
 10
1748.914509878397
 20
455.1920039886112
 30
0.0
 40
2.5
  1
 
 72
     4
 11
1750.045462259349
 21
455.1920039886112
 31
0.0
100
AcDbText
  0
TEXT
  5
53F
330
20
100
AcDbEntity
  8
VOLL
100
AcDbText
 10
1330.497241439483
 20
319.6304420600546
 30
0.0
 40
1.8
  1

  7
GREEKS
100
AcDbText
  0
TEXT
  5
540
330
20
100
AcDbEntity
  8
BEM
100
AcDbText
 10
1364.985306278768
 20
324.3561663832752
 30
0.0
 40
2.5
  1

 41
0.8
  7
GREEKS
100
AcDbText
  0
TEXT
  5
541
330
20
100
AcDbEntity
  8
BEM
100
AcDbText
 10
1364.985306278768
 20
319.6623978292231
 30
0.0
 40
2.5
  1

 41
0.8
  7
GREEKS
100
AcDbText
  0
TEXT
  5
542
330
20
100
AcDbEntity
  8
BEM
100
AcDbText
 10
1364.985306278768
 20
314.4245540105596
 30
0.0
 40
2.5
  1

 41
0.8
  7
GREEKS
100
AcDbText
  0
TEXT
  5
543
330
20
100
AcDbEntity
  8
BEM
100
AcDbText
 10
1364.912361801393
 20
309.919365060462
 30
0.0
 40
1.8
  1

 41
0.8
  7
GREEKS
100
AcDbText
  0
TEXT
  5
544
330
20
100
AcDbEntity
  8
TEXT
100
AcDbText
 10
1662.329509643076
 20
325.1886775932801
 30
0.0
 40
2.5
  1
  
  7
GREEKS
 72
     1
 11
1664.591414404981
 21
325.1886775932801
 31
0.0
100
AcDbText
  0
TEXT
  5
545
330
20
100
AcDbEntity
  8
BEM
100
AcDbText
 10
1906.449226955558
 20
460.7475596236824
 30
0.0
 40
2.5
  1
 
 72
     4
 11
1907.580179336511
 21
460.7475596236824
 31
0.0
100
AcDbText
  0
LINE
  5
546
102
{ACAD_REACTORS
330
7AC
330
DE6
330
E1E
102
}
330
20
100
AcDbEntity
  8
STEMPEL
100
AcDbLine
 10
187.6879544462455
 20
503.9179094632215
 30
0.0
 11
187.6879544462455
 21
494.9051119185338
 31
0.0
  0
LINE
  5
547
102
{ACAD_REACTORS
330
7AC
330
99B
330
DD5
330
DE6
102
}
330
20
100
AcDbEntity
  8
STEMPEL
100
AcDbLine
 10
280.7879544462455
 20
514.4668318703403
 30
0.0
 11
178.7879544462454
 21
514.4668318703402
 31
0.0
  0
ARC
  5
548
102
{ACAD_REACTORS
330
7AC
330
DE6
102
}
330
20
100
AcDbEntity
  8
STEMPEL
100
AcDbCircle
 10
212.6879544462455
 20
503.9179094632215
 30
0.0
 40
25.0
100
AcDbArc
 50
155.0418036876845
 51
180.0
  0
LINE
  5
54A
330
20
100
AcDbEntity
  8
HILF
100
AcDbLine
 10
263.2822312143062
 20
456.2372628126606
 30
0.0
 11
196.2936776781847
 21
456.2372628126606
 31
0.0
  0
LINE
  5
54D
102
{ACAD_REACTORS
330
7AC
330
E1E
102
}
330
20
100
AcDbEntity
  8
STEMPEL
100
AcDbLine
 10
190.1879544462455
 20
481.4668318703402
 30
0.0
 11
190.1879544462455
 21
464.8555582877572
 31
0.0
  0
ARC
  5
54E
102
{ACAD_REACTORS
330
7AC
330
E1E
102
}
330
20
100
AcDbEntity
  8
STEMPEL
100
AcDbCircle
 10
178.1879544462455
 20
481.4668318703402
 30
0.0
 40
12.0
100
AcDbArc
 50
0.0
 51
21.18315439303543
  0
ARC
  5
54F
102
{ACAD_REACTORS
330
7AC
330
E1E
102
}
330
20
100
AcDbEntity
  8
STEMPEL
100
AcDbCircle
 10
212.6879544462455
 20
494.83683187034
 30
0.0
 40
25.00009324312574
100
AcDbArc
 50
179.8435140456417
 51
201.1831543930354
  0
ARC
  5
550
102
{ACAD_REACTORS
330
7AC
330
E1E
102
}
330
20
100
AcDbEntity
  8
STEMPEL
100
AcDbCircle
 10
202.1879544462455
 20
464.8555582877572
 30
0.0
 40
12.0
100
AcDbArc
 50
180.0
 51
212.3280641221628
  0
ARC
  5
551
102
{ACAD_REACTORS
330
7AC
330
E1E
102
}
330
20
100
AcDbEntity
  8
STEMPEL
100
AcDbCircle
 10
185.2879544462454
 20
454.1602322057715
 30
0.0
 40
8.0
100
AcDbArc
 50
0.0
 51
32.32806412216284
  0
ARC
  5
552
102
{ACAD_REACTORS
330
7AC
102
}
330
20
100
AcDbEntity
  8
STEMPEL
100
AcDbCircle
 10
212.6879544462455
 20
503.9179094632215
 30
0.0
 40
23.4
100
AcDbArc
 50
153.2044220687676
 51
180.0
  0
LINE
  5
553
102
{ACAD_REACTORS
330
7AC
102
}
330
20
100
AcDbEntity
  8
STEMPEL
100
AcDbLine
 10
189.2879544462454
 20
503.9179094632215
 30
0.0
 11
189.2879544462454
 21
494.9028908362606
 31
0.0
  0
ARC
  5
554
102
{ACAD_REACTORS
330
7AC
102
}
330
20
100
AcDbEntity
  8
STEMPEL
100
AcDbCircle
 10
212.6879544462455
 20
494.83683187034
 30
0.0
 40
23.40009324312573
100
AcDbArc
 50
179.8382525687313
 51
201.1831543930354
  0
ARC
  5
555
102
{ACAD_REACTORS
330
7AC
102
}
330
20
100
AcDbEntity
  8
STEMPEL
100
AcDbCircle
 10
178.1879544462455
 20
481.4668318703402
 30
0.0
 40
13.6
100
AcDbArc
 50
0.0
 51
21.18315439303557
  0
LINE
  5
556
102
{ACAD_REACTORS
330
7AC
102
}
330
20
100
AcDbEntity
  8
STEMPEL
100
AcDbLine
 10
191.7879544462455
 20
481.4668318703402
 30
0.0
 11
191.7879544462455
 21
464.8555582877572
 31
0.0
  0
ARC
  5
557
102
{ACAD_REACTORS
330
7AC
102
}
330
20
100
AcDbEntity
  8
STEMPEL
100
AcDbCircle
 10
202.1879544462455
 20
464.8555582877572
 30
0.0
 40
10.4
100
AcDbArc
 50
180.0
 51
212.3280641221628
  0
ARC
  5
558
102
{ACAD_REACTORS
330
7AC
102
}
330
20
100
AcDbEntity
  8
STEMPEL
100
AcDbCircle
 10
185.2879544462454
 20
454.1602322057715
 30
0.0
 40
9.599999999999999
100
AcDbArc
 50
0.0
 51
32.32806412216266
  0
ARC
  5
55A
102
{ACAD_REACTORS
330
7AC
330
E1E
102
}
330
20
100
AcDbEntity
  8
STEMPEL
100
AcDbCircle
 10
246.8879544462457
 20
494.83683187034
 30
0.0
 40
25.00009324312574
100
AcDbArc
 50
338.8168456069645
 51
0.1564859543701224
  0
ARC
  5
55B
102
{ACAD_REACTORS
330
7AC
330
DE6
102
}
330
20
100
AcDbEntity
  8
STEMPEL
100
AcDbCircle
 10
246.8879544462457
 20
503.9179094632215
 30
0.0
 40
25.0
100
AcDbArc
 50
0.0
 51
24.95819631231538
  0
LINE
  5
55C
102
{ACAD_REACTORS
330
7AC
330
DE6
330
E1E
102
}
330
20
100
AcDbEntity
  8
STEMPEL
100
AcDbLine
 10
271.8879544462457
 20
503.9179094632215
 30
0.0
 11
271.8879544462457
 21
494.905111918539
 31
0.0
  0
LINE
  5
55D
102
{ACAD_REACTORS
330
7AC
102
}
330
20
100
AcDbEntity
  8
STEMPEL
100
AcDbLine
 10
267.7879544462455
 20
481.4668318703402
 30
0.0
 11
267.7879544462455
 21
464.8555582877572
 31
0.0
  0
LINE
  5
55E
102
{ACAD_REACTORS
330
7AC
330
E1E
102
}
330
20
100
AcDbEntity
  8
STEMPEL
100
AcDbLine
 10
269.3879544462455
 20
481.4668318703402
 30
0.0
 11
269.3879544462455
 21
464.8555582877572
 31
0.0
  0
ARC
  5
55F
102
{ACAD_REACTORS
330
7AC
102
}
330
20
100
AcDbEntity
  8
STEMPEL
100
AcDbCircle
 10
246.8879544462457
 20
503.9179094632215
 30
0.0
 40
23.4
100
AcDbArc
 50
0.0
 51
26.79557793123232
  0
ARC
  5
560
102
{ACAD_REACTORS
330
7AC
102
}
330
20
100
AcDbEntity
  8
STEMPEL
100
AcDbCircle
 10
246.8879544462457
 20
494.83683187034
 30
0.0
 40
23.40009324312573
100
AcDbArc
 50
338.8168456069645
 51
0.1617474313041451
  0
LINE
  5
561
102
{ACAD_REACTORS
330
7AC
102
}
330
20
100
AcDbEntity
  8
STEMPEL
100
AcDbLine
 10
270.2879544462456
 20
503.9179094632215
 30
0.0
 11
270.2879544462456
 21
494.9028908362751
 31
0.0
  0
ARC
  5
562
102
{ACAD_REACTORS
330
7AC
102
}
330
20
100
AcDbEntity
  8
STEMPEL
100
AcDbCircle
 10
281.3879544462455
 20
481.4668318703402
 30
0.0
 40
13.6
100
AcDbArc
 50
158.8168456069645
 51
179.9999999999999
  0
ARC
  5
563
102
{ACAD_REACTORS
330
7AC
330
E1E
102
}
330
20
100
AcDbEntity
  8
STEMPEL
100
AcDbCircle
 10
281.3879544462455
 20
481.4668318703402
 30
0.0
 40
12.0
100
AcDbArc
 50
158.8168456069644
 51
179.9999999999999
  0
ARC
  5
564
102
{ACAD_REACTORS
330
7AC
102
}
330
20
100
AcDbEntity
  8
STEMPEL
100
AcDbCircle
 10
274.2879544462456
 20
454.1602322057715
 30
0.0
 40
9.599999999999999
100
AcDbArc
 50
147.6719358778371
 51
180.0
  0
ARC
  5
565
102
{ACAD_REACTORS
330
7AC
330
E1E
102
}
330
20
100
AcDbEntity
  8
STEMPEL
100
AcDbCircle
 10
274.2879544462456
 20
454.1602322057715
 30
0.0
 40
8.0
100
AcDbArc
 50
147.6719358778371
 51
180.0
  0
ARC
  5
566
102
{ACAD_REACTORS
330
7AC
102
}
330
20
100
AcDbEntity
  8
STEMPEL
100
AcDbCircle
 10
257.3879544462455
 20
464.8555582877572
 30
0.0
 40
10.4
100
AcDbArc
 50
327.6719358778372
 51
359.9999999999998
  0
ARC
  5
567
102
{ACAD_REACTORS
330
7AC
330
E1E
102
}
330
20
100
AcDbEntity
  8
STEMPEL
100
AcDbCircle
 10
257.3879544462455
 20
464.8555582877572
 30
0.0
 40
12.0
100
AcDbArc
 50
327.6719358778371
 51
359.9999999999998
  0
LINE
  5
568
102
{ACAD_REACTORS
330
7AC
102
}
330
20
100
AcDbEntity
  8
STEMPEL
100
AcDbLine
 10
264.6879544462454
 20
426.9425112480808
 30
0.0
 11
264.6879544462456
 21
454.1602322057715
 31
0.0
  0
LINE
  5
569
102
{ACAD_REACTORS
330
7AC
330
E1E
102
}
330
20
100
AcDbEntity
  8
STEMPEL
100
AcDbLine
 10
266.2879544462455
 20
426.9425112480808
 30
0.0
 11
266.2879544462456
 21
454.1602322057715
 31
0.0
  0
LINE
  5
56A
102
{ACAD_REACTORS
330
7C8
102
}
330
20
100
AcDbEntity
  8
STEMPEL
100
AcDbLine
 10
209.3946453346121
 20
209.4668318703404
 30
0.0
 11
250.1812635578792
 21
209.4668318703404
 31
0.0
  0
TEXT
  5
570
330
20
100
AcDbEntity
  8
TEXT
100
AcDbText
 10
50.61890059558578
 20
113.2854817854125
 30
0.0
 40
5.0
  1
Erstellt mit AUTOCAD 2004
 41
0.8
  7
GREEKS
100
AcDbText
  0
LINE
  5
576
330
20
100
AcDbEntity
  8
HILF
100
AcDbLine
 10
0.0
 20
0.0
 30
0.0
 11
0.0
 21
594.0
 31
0.0
  0
LINE
  5
57D
330
20
100
AcDbEntity
  8
HILF
100
AcDbLine
 10
197.5139752070646
 20
423.4668318703402
 30
0.0
 11
262.0619336854263
 21
423.46683187034
 31
0.0
  0
LINE
  5
593
330
20
100
AcDbEntity
  8
MITTEL
100
AcDbLine
 10
229.7879544462456
 20
204.4668318703402
 30
0.0
 11
229.7879544462455
 21
519.4668318703401
 31
0.0
  0
LINE
  5
596
102
{ACAD_REACTORS
330
7C8
330
E1E
102
}
330
20
100
AcDbEntity
  8
STEMPEL
100
AcDbLine
 10
250.7879544462456
 20
216.4013404559771
 30
0.0
 11
250.7879544462456
 21
401.6999272777842
 31
0.0
  0
LINE
  5
59C
102
{ACAD_REACTORS
330
7C8
102
}
330
20
100
AcDbEntity
  8
STEMPEL
100
AcDbLine
 10
249.2879544462456
 20
216.4668318703391
 30
0.0
 11
249.2879544462456
 21
401.6999272777842
 31
0.0
  0
LINE
  5
5A4
330
20
100
AcDbEntity
  8
HILF
100
AcDbLine
 10
211.7936842025606
 20
216.4668318703403
 30
0.0
 11
247.7822246899307
 21
216.4668318703403
 31
0.0
  0
LINE
  5
5A5
102
{ACAD_REACTORS
330
7C8
102
}
330
20
100
AcDbEntity
  8
STEMPEL
100
AcDbLine
 10
210.2879544462456
 20
216.4668318703402
 30
0.0
 11
210.9003750909271
 21
209.4668318703404
 31
0.0
  0
LINE
  5
5A6
102
{ACAD_REACTORS
330
7C8
102
}
330
20
100
AcDbEntity
  8
STEMPEL
100
AcDbLine
 10
208.7879544462456
 20
216.4013404559773
 30
0.0
 11
209.3946453346121
 21
209.4668318703404
 31
0.0
  0
LINE
  5
5A7
102
{ACAD_REACTORS
330
7C8
102
}
330
20
100
AcDbEntity
  8
STEMPEL
100
AcDbLine
 10
250.7879544462456
 20
216.4013404559771
 30
0.0
 11
250.1812635578792
 21
209.4668318703404
 31
0.0
  0
LINE
  5
5A8
102
{ACAD_REACTORS
330
7C8
102
}
330
20
100
AcDbEntity
  8
STEMPEL
100
AcDbLine
 10
249.2879544462456
 20
216.4668318703391
 30
0.0
 11
248.6755338015643
 21
209.4668318703404
 31
0.0
  0
DIMENSION
  5
5AC
330
20
100
AcDbEntity
  8
BEM
100
AcDbDimension
  2
*D1
 10
250.7879544462456
 20
187.7723858012576
 30
0.0
 11
229.7879544462456
 21
194.2723858012576
 31
0.0
 70
    32
  1
%%c<>
 71
     5
 42
41.99999999999997
  3
Standard
100
AcDbAlignedDimension
 13
208.7879544462456
 23
216.4013404559773
 33
0.0
 14
250.7879544462456
 24
216.4013404559771
 34
0.0
100
AcDbRotatedDimension
1001
ACAD
1000
DSTYLE
1002
{
1070
    40
1040
2.0
1070
    41
1040
3.5
1070
    42
1040
1.0
1070
    43
1040
7.0
1070
    44
1040
1.0
1070
    47
1040
0.4
1070
    73
1070
     0
1070
    74
1070
     0
1070
    77
1070
     1
1070
    78
1070
     8
1070
    79
1070
     2
1070
   140
1040
3.5
1070
   141
1040
1.5
1070
   145
1040
0.5714285714285714
1070
   146
1040
0.5
1070
   147
1040
1.5
1070
   172
1070
     1
1070
   178
1070
     1
1070
   179
1070
     2
1070
   271
1070
     2
1070
   272
1070
     2
1070
   284
1070
     8
1070
   285
1070
     8
1070
   286
1070
     8
1002
}
  0
TEXT
  5
666
330
20
100
AcDbEntity
  8
TEXT
 62
     1
100
AcDbText
 10
224.1788527849791
 20
261.7317582580602
 30
0.0
 40
7.0
  1
DN40
 50
90.0
 41
0.8
  7
GREEKS
100
AcDbText
  0
TEXT
  5
667
330
20
100
AcDbEntity
  8
TEXT
 62
     1
100
AcDbText
 10
224.1788527849791
 20
487.0517171696363
 30
0.0
 40
7.0
  1
DN70
 50
90.0
 41
0.8
  7
GREEKS
100
AcDbText
  0
LINE
  5
67C
102
{ACAD_REACTORS
330
7AC
330
7C8
102
}
330
20
100
AcDbEntity
  8
STEMPEL
  6
Continuous
100
AcDbLine
 10
256.2879544462455
 20
411.4668318703403
 30
0.0
 11
203.2879544462455
 21
411.4668318703402
 31
0.0
  0
LINE
  5
6A6
102
{ACAD_REACTORS
330
7C8
330
E1E
102
}
330
20
100
AcDbEntity
  8
STEMPEL
100
AcDbLine
 10
252.4974077356662
 20
406.6424996932394
 30
0.0
 11
256.2879544462455
 21
411.4668318703403
 31
0.0
  0
ARC
  5
6A7
102
{ACAD_REACTORS
330
7C8
330
E1E
102
}
330
20
100
AcDbEntity
  8
STEMPEL
100
AcDbCircle
 10
258.7879544462456
 20
401.6999272777842
 30
0.0
 40
8.0
100
AcDbArc
 50
141.8427734126312
 51
180.0
  0
LINE
  5
6A8
102
{ACAD_REACTORS
330
7C8
102
}
330
20
100
AcDbEntity
  8
STEMPEL
100
AcDbLine
 10
251.3179302274326
 20
407.5692320211372
 30
0.0
 11
254.3803301089492
 21
411.4668318703403
 31
0.0
  0
ARC
  5
6A9
102
{ACAD_REACTORS
330
7C8
102
}
330
20
100
AcDbEntity
  8
STEMPEL
100
AcDbCircle
 10
258.7879544462456
 20
401.6999272777842
 30
0.0
 40
9.5
100
AcDbArc
 50
141.8427734126312
 51
180.0
  0
LINE
  5
6AC
330
20
100
AcDbEntity
  8
HILF
100
AcDbLine
 10
248.1032837988968
 20
404.3148485304574
 30
0.0
 11
211.4726250935943
 21
404.3148485304574
 31
0.0
  0
LINE
  5
6B2
102
{ACAD_REACTORS
330
7AC
330
E1E
102
}
330
20
100
AcDbEntity
  8
STEMPEL
100
AcDbLine
 10
193.2879544462456
 20
426.9425112480807
 30
0.0
 11
193.2879544462454
 21
454.1602322057714
 31
0.0
  0
LINE
  5
6B3
102
{ACAD_REACTORS
330
7AC
102
}
330
20
100
AcDbEntity
  8
STEMPEL
100
AcDbLine
 10
194.8879544462456
 20
426.9425112480807
 30
0.0
 11
194.8879544462454
 21
454.1602322057714
 31
0.0
  0
ARC
  5
6B8
102
{ACAD_REACTORS
330
7C8
102
}
330
20
100
AcDbEntity
  8
STEMPEL
100
AcDbCircle
 10
200.7879544462455
 20
401.6999272777841
 30
0.0
 40
9.5
100
AcDbArc
 50
0.0000000000000798
 51
38.15722658736888
  0
LINE
  5
6B9
102
{ACAD_REACTORS
330
7C8
102
}
330
20
100
AcDbEntity
  8
STEMPEL
100
AcDbLine
 10
208.2579786650585
 20
407.5692320211372
 30
0.0
 11
205.1955787835418
 21
411.4668318703402
 31
0.0
  0
ARC
  5
6BA
102
{ACAD_REACTORS
330
7C8
330
E1E
102
}
330
20
100
AcDbEntity
  8
STEMPEL
100
AcDbCircle
 10
200.7879544462455
 20
401.6999272777841
 30
0.0
 40
8.0
100
AcDbArc
 50
0.0000000000000798
 51
38.15722658736888
  0
LINE
  5
6BB
102
{ACAD_REACTORS
330
7C8
330
E1E
102
}
330
20
100
AcDbEntity
  8
STEMPEL
100
AcDbLine
 10
207.0785011568249
 20
406.6424996932393
 30
0.0
 11
203.2879544462455
 21
411.4668318703402
 31
0.0
  0
LINE
  5
6BC
102
{ACAD_REACTORS
330
7C8
102
}
330
20
100
AcDbEntity
  8
STEMPEL
100
AcDbLine
 10
210.2879544462457
 20
216.4668318703391
 30
0.0
 11
210.2879544462454
 21
401.6999272777841
 31
0.0
  0
LINE
  5
6BD
102
{ACAD_REACTORS
330
7C8
330
E1E
102
}
330
20
100
AcDbEntity
  8
STEMPEL
100
AcDbLine
 10
208.7879544462456
 20
216.401340455977
 30
0.0
 11
208.7879544462455
 21
401.6999272777841
 31
0.0
  0
LINE
  5
6E4
102
{ACAD_REACTORS
330
7AC
330
E1E
102
}
330
20
100
AcDbEntity
  8
STEMPEL
100
AcDbLine
 10
264.0628787303803
 20
420.7967410113018
 30
0.0
 11
256.2879544462455
 21
411.4668318703403
 31
0.0
  0
LINE
  5
6E5
102
{ACAD_REACTORS
330
7AC
102
}
330
20
100
AcDbEntity
  8
STEMPEL
100
AcDbLine
 10
262.8337246830244
 20
421.8210360507649
 30
0.0
 11
254.2052211993371
 21
411.4668318703403
 31
0.0
  0
ARC
  5
6E6
102
{ACAD_REACTORS
330
7AC
102
}
330
20
100
AcDbEntity
  8
STEMPEL
100
AcDbCircle
 10
256.6879544462454
 20
426.9425112480809
 30
0.0
 40
8.0
100
AcDbArc
 50
320.1944289077343
 51
359.9999999999998
  0
ARC
  5
6E7
102
{ACAD_REACTORS
330
7AC
330
E1E
102
}
330
20
100
AcDbEntity
  8
STEMPEL
100
AcDbCircle
 10
256.6879544462454
 20
426.9425112480809
 30
0.0
 40
9.599999999999999
100
AcDbArc
 50
320.1944289077343
 51
359.9999999999998
  0
ARC
  5
6F5
102
{ACAD_REACTORS
330
7AC
330
E1E
102
}
330
20
100
AcDbEntity
  8
STEMPEL
100
AcDbCircle
 10
202.8879544462456
 20
426.9425112480808
 30
0.0
 40
9.599999999999999
100
AcDbArc
 50
180.0000000000003
 51
219.8055710922658
  0
ARC
  5
6F6
102
{ACAD_REACTORS
330
7AC
102
}
330
20
100
AcDbEntity
  8
STEMPEL
100
AcDbCircle
 10
202.8879544462456
 20
426.9425112480808
 30
0.0
 40
8.0
100
AcDbArc
 50
180.0000000000003
 51
219.8055710922658
  0
LINE
  5
6F7
102
{ACAD_REACTORS
330
7AC
102
}
330
20
100
AcDbEntity
  8
STEMPEL
100
AcDbLine
 10
196.7421842094667
 20
421.8210360507649
 30
0.0
 11
205.3706876931541
 21
411.4668318703402
 31
0.0
  0
LINE
  5
6F8
102
{ACAD_REACTORS
330
7AC
330
E1E
102
}
330
20
100
AcDbEntity
  8
STEMPEL
100
AcDbLine
 10
195.5130301621108
 20
420.7967410113017
 30
0.0
 11
203.2879544462455
 21
411.4668318703403
 31
0.0
  0
HATCH
  5
7AC
330
20
100
AcDbEntity
  8
SCHRAFF
100
AcDbHatch
 10
0.0
 20
0.0
 30
0.0
210
0.0
220
0.0
230
1.0
  2
_USER
 70
     0
 71
     1
 91
        2
 92
        7
 72
     1
 73
     1
 93
       22
 10
269.3879544462455
 20
481.4668318703402
 42
-0.0926930603363572
 10
270.1987934546873
 20
485.8030371589528
 42
0.0920044384188513
 10
271.8879544462457
 20
494.7685518221274
 42
0.0
 10
271.8879544462457
 20
503.9179094632215
 42
0.1093332246020764
 10
269.5533517745209
 20
514.4668318703403
 42
0.0
 10
267.7752768224764
 20
514.4668318703403
 42
-0.1174534402570142
 10
270.2879544462456
 20
503.9179094632218
 42
0.0
 10
270.2879544462456
 20
494.9028908362751
 42
-0.0934049271928111
 10
268.7069053224797
 20
486.3811978641011
 42
0.0926930603363643
 10
267.7879544462455
 20
481.4668318703398
 42
0.0
 10
267.7879544462455
 20
464.8555582877572
 42
-0.1420008527982326
 10
266.1759544462455
 20
459.2939887251247
 42
0.1420008527982323
 10
264.6879544462456
 20
454.1602322057715
 42
0.0
 10
264.6879544462454
 20
426.9425112480808
 42
-0.1754523787641746
 10
262.8337246830245
 20
421.821036050765
 42
0.0
 10
254.2052211993371
 20
411.4668318703404
 42
0.0
 10
256.2879544462455
 20
411.4668318703403
 42
0.0
 10
264.0628787303803
 20
420.7967410113018
 42
0.1754523787641738
 10
266.2879544462455
 20
426.9425112480807
 42
0.0
 10
266.2879544462456
 20
454.1602322057715
 42
-0.1420008527982322
 10
267.5279544462457
 20
458.4383626385657
 42
0.1420008527982313
 10
269.3879544462455
 20
464.8555582877572
 42
0.0
 97
       22
330
563
330
55A
330
55C
330
55B
330
547
330
55F
330
561
330
560
330
562
330
55D
330
566
330
564
330
568
330
6E6
330
6E5
330
67C
330
6E4
330
6E7
330
569
330
565
330
567
330
55E
 92
        7
 72
     1
 73
     1
 93
       22
 10
191.7879544462455
 20
481.4668318703402
 42
0.0926930603363564
 10
190.8690035700115
 20
486.3811978641011
 42
-0.0934049271926556
 10
189.2879544462454
 20
494.9028908362606
 42
0.0
 10
189.2879544462454
 20
503.9179094632215
 42
-0.117453440257016
 10
191.8006320700148
 20
514.4668318703402
 42
0.0
 10
190.0225571179702
 20
514.4668318703402
 42
0.1093332246020755
 10
187.6879544462455
 20
503.9179094632215
 42
0.0
 10
187.6879544462455
 20
494.7685518221436
 42
0.0920044384190149
 10
189.3771154378037
 20
485.8030371589527
 42
-0.0926930603363595
 10
190.1879544462455
 20
481.4668318703401
 42
0.0
 10
190.1879544462455
 20
464.8555582877572
 42
0.1420008527982315
 10
192.0479544462455
 20
458.4383626385658
 42
-0.1420008527982346
 10
193.2879544462454
 20
454.1602322057714
 42
0.0
 10
193.2879544462456
 20
426.9425112480807
 42
0.1754523787641732
 10
195.5130301621107
 20
420.7967410113018
 42
0.0
 10
203.2879544462456
 20
411.4668318703402
 42
0.0
 10
205.370687693154
 20
411.4668318703402
 42
0.0
 10
196.7421842094667
 20
421.8210360507649
 42
-0.175452378764176
 10
194.8879544462456
 20
426.9425112480807
 42
0.0
 10
194.8879544462454
 20
454.1602322057714
 42
0.1420008527982338
 10
193.3999544462454
 20
459.2939887251247
 42
-0.1420008527982326
 10
191.7879544462455
 20
464.8555582877572
 42
0.0
 97
       22
330
555
330
554
330
553
330
552
330
547
330
548
330
546
330
54F
330
54E
330
54D
330
550
330
551
330
6B2
330
6F5
330
6F8
330
67C
330
6F7
330
6F6
330
6B3
330
558
330
557
330
556
 75
     0
 76
     0
 52
45.0
 41
2.0
 77
     0
 78
     1
 53
45.0
 43
1.797259580835998
 44
1.326826444687412
 45
-1.414213562373094
 46
1.414213562373095
 79
     0
 47
0.2638269015503299
 98
        2
 10
268.8037339939801
 20
476.5796821150961
 10
191.1818094389123
 20
469.1925284529259
  0
HATCH
  5
7C8
330
20
100
AcDbEntity
  8
SCHRAFF
100
AcDbHatch
 10
0.0
 20
0.0
 30
0.0
210
0.0
220
0.0
230
1.0
  2
_USER
 70
     0
 71
     1
 91
        2
 92
        7
 72
     1
 73
     1
 93
       10
 10
250.7879544462456
 20
401.6999272777842
 42
-0.1680479318558763
 10
252.4974077356662
 20
406.6424996932394
 42
0.0
 10
256.2879544462455
 20
411.4668318703403
 42
0.0
 10
254.3803301089493
 20
411.4668318703403
 42
0.0
 10
251.3179302274326
 20
407.5692320211372
 42
0.168047931855877
 10
249.2879544462456
 20
401.6999272777842
 42
0.0
 10
249.2879544462456
 20
216.466831870339
 42
0.0
 10
248.6755338015642
 20
209.4668318703404
 42
0.0
 10
250.1812635578792
 20
209.4668318703404
 42
0.0
 10
250.7879544462456
 20
216.4013404559766
 42
0.0
 97
       10
330
6A7
330
6A6
330
67C
330
6A8
330
6A9
330
59C
330
5A8
330
56A
330
5A7
330
596
 92
        7
 72
     1
 73
     1
 93
       10
 10
210.2879544462454
 20
401.6999272777841
 42
0.1680479318558779
 10
208.2579786650585
 20
407.5692320211372
 42
0.0
 10
205.1955787835418
 20
411.4668318703403
 42
0.0
 10
203.2879544462456
 20
411.4668318703403
 42
0.0
 10
207.0785011568249
 20
406.6424996932393
 42
-0.1680479318558748
 10
208.7879544462455
 20
401.6999272777841
 42
0.0
 10
208.7879544462456
 20
216.4013404559774
 42
0.0
 10
209.3946453346121
 20
209.4668318703404
 42
0.0
 10
210.900375090927
 20
209.4668318703404
 42
0.0
 10
210.2879544462457
 20
216.4668318703396
 42
0.0
 97
       10
330
6B8
330
6B9
330
67C
330
6BB
330
6BA
330
6BD
330
5A6
330
56A
330
5A5
330
6BC
 75
     0
 76
     0
 52
135.0
 41
2.0
 77
     0
 78
     1
 53
135.0
 43
1.797259580835998
 44
1.326826444687412
 45
-1.414213562373095
 46
-1.414213562373094
 79
     0
 47
0.5057098033382835
 98
        2
 10
250.3524555471613
 20
297.2605440684442
 10
209.8660385499784
 20
295.7434136418314
  0
ARC
  5
7CB
102
{ACAD_REACTORS
330
E1E
102
}
330
20
100
AcDbEntity
  8
SCHRAFF
100
AcDbCircle
 10
254.419241682873
 20
413.0374224747032
 30
0.0
 40
4.596614235411802
100
AcDbArc
 50
263.9003115040249
 51
18.11770041096345
  0
ARC
  5
7CC
102
{ACAD_REACTORS
330
E1E
102
}
330
20
100
AcDbEntity
  8
SCHRAFF
100
AcDbCircle
 10
205.1566672096181
 20
413.0374224747031
 30
0.0
 40
4.596614235411802
100
AcDbArc
 50
161.8822995890367
 51
276.0996884959752
  0
HATCH
  5
7D7
330
20
100
AcDbEntity
  8
SCHRAFF
100
AcDbHatch
 10
0.0
 20
0.0
 30
0.0
210
0.0
220
0.0
230
1.0
  2
_USER
 70
     0
 71
     0
 91
        2
 92
        7
 72
     1
 73
     1
 93
        3
 10
258.7879544462456
 20
414.4668318703404
 42
0.0
 10
256.287954446246
 20
411.4668318703409
 42
0.0
 10
253.9308115891028
 20
408.4668318703403
 42
0.5441845007645641
 97
        0
 92
        7
 72
     1
 73
     1
 93
        3
 10
205.6450973033884
 20
408.4668318703402
 42
0.0
 10
203.2879544462455
 20
411.46683187034
 42
0.0
 10
200.7879544462455
 20
414.46683187034
 42
0.544184500764541
 97
        0
 75
     0
 76
     0
 52
0.0
 41
0.1
 77
     0
 78
     1
 53
0.0
 43
1.797259580835998
 44
1.326826444687412
 45
0.0
 46
0.1
 79
     0
 47
0.1238254435860611
 98
        2
 10
257.3591105040923
 20
410.8879321533363
 10
202.3403434758252
 20
410.1449784023396
  0
TEXT
  5
7DD
330
20
100
AcDbEntity
  8
TEXT
100
AcDbText
 10
417.3022923857165
 20
10.16790107998861
 30
0.0
 40
4.0
  1
Diese Zeichnung ist urheberrechtlich geschützt und bleibt unser Eigentum. Sie darf weder ganz noch teilweise verfielfältigt und nicht an Dritte weitergegeben werden.
 50
90.0
 41
0.8
  7
GREEKS
100
AcDbText
  0
TEXT
  5
7E7
330
20
100
AcDbEntity
  8
TEXT
100
AcDbText
 10
192.5556106269613
 20
89.7253168893854
 30
0.0
 40
4.0
  1
DIN EN1123-2
 41
0.8
  7
GREEKS
 72
     1
 11
209.5460868174375
 21
89.7253168893854
 31
0.0
100
AcDbText
  0
LINE
  5
844
102
{ACAD_REACTORS
330
DE6
330
E1E
102
}
330
20
100
AcDbEntity
  8
STEMPEL
100
AcDbLine
 10
279.2879544462454
 20
499.4668318703402
 30
0.0
 11
271.8879544462455
 21
499.4668318703402
 31
0.0
  0
LINE
  5
846
102
{ACAD_REACTORS
330
99B
330
DD5
102
}
330
20
100
AcDbEntity
  8
STEMPEL
100
AcDbLine
 10
280.7879544462454
 20
394.4668318703401
 30
0.0
 11
280.7879544462454
 21
514.4668318703402
 31
0.0
  0
LINE
  5
847
102
{ACAD_REACTORS
330
DE6
330
E1E
102
}
330
20
100
AcDbEntity
  8
STEMPEL
100
AcDbLine
 10
187.6879544462454
 20
499.4668318703402
 30
0.0
 11
180.2879544462454
 21
499.4668318703402
 31
0.0
  0
LINE
  5
849
102
{ACAD_REACTORS
330
DD5
102
}
330
20
100
AcDbEntity
  8
STEMPEL
100
AcDbLine
 10
178.7879544462455
 20
394.4668318703401
 30
0.0
 11
178.7879544462454
 21
514.4668318703402
 31
0.0
  0
LINE
  5
84A
102
{ACAD_REACTORS
330
A2D
102
}
330
20
100
AcDbEntity
  8
STEMPEL
100
AcDbLine
 10
180.7879544462457
 20
394.4668318703401
 30
0.0
 11
179.3058233593859
 21
393.8640985616838
 31
0.0
  0
LINE
  5
84B
102
{ACAD_REACTORS
330
A2D
102
}
330
20
100
AcDbEntity
  8
STEMPEL
100
AcDbLine
 10
184.4039375976941
 20
381.3277520740404
 30
0.0
 11
179.3058233593859
 21
393.8640985616838
 31
0.0
  0
LINE
  5
84C
102
{ACAD_REACTORS
330
A2D
330
E1E
102
}
330
20
100
AcDbEntity
  8
STEMPEL
100
AcDbLine
 10
185.8860686845538
 20
381.9304853826967
 30
0.0
 11
180.7879544462457
 21
394.4668318703401
 31
0.0
  0
ARC
  5
84D
102
{ACAD_REACTORS
330
A2D
330
E1E
102
}
330
20
100
AcDbEntity
  8
STEMPEL
100
AcDbCircle
 10
173.2879544462456
 20
376.8072522591182
 30
0.0
 40
13.6
100
AcDbArc
 50
0.0
 51
22.12993673176471
  0
ARC
  5
84E
102
{ACAD_REACTORS
330
A2D
102
}
330
20
100
AcDbEntity
  8
STEMPEL
100
AcDbCircle
 10
173.2879544462456
 20
376.8072522591182
 30
0.0
 40
12.0
100
AcDbArc
 50
0.0
 51
22.12993673176471
  0
LINE
  5
84F
102
{ACAD_REACTORS
330
A2D
102
}
330
20
100
AcDbEntity
  8
STEMPEL
100
AcDbLine
 10
185.2879544462457
 20
232.4668318703403
 30
0.0
 11
185.2879544462455
 21
376.8072522591182
 31
0.0
  0
LINE
  5
850
102
{ACAD_REACTORS
330
A2D
330
E1E
102
}
330
20
100
AcDbEntity
  8
STEMPEL
100
AcDbLine
 10
186.8879544462457
 20
234.4668318703402
 30
0.0
 11
186.8879544462456
 21
376.8072522591182
 31
0.0
  0
LINE
  5
851
102
{ACAD_REACTORS
330
DD5
330
E1E
102
}
330
20
100
AcDbEntity
  8
STEMPEL
100
AcDbLine
 10
178.7879544462455
 20
394.4668318703401
 30
0.0
 11
180.7879544462455
 21
394.4668318703401
 31
0.0
  0
LINE
  5
852
102
{ACAD_REACTORS
330
DD5
330
E1E
102
}
330
20
100
AcDbEntity
  8
STEMPEL
100
AcDbLine
 10
278.7879544462453
 20
394.4668318703401
 30
0.0
 11
280.7879544462454
 21
394.4668318703401
 31
0.0
  0
ARC
  5
853
102
{ACAD_REACTORS
330
A2D
330
E1E
102
}
330
20
100
AcDbEntity
  8
STEMPEL
100
AcDbCircle
 10
286.2879544462455
 20
376.8072522591182
 30
0.0
 40
13.6
100
AcDbArc
 50
157.8700632682352
 51
180.0
  0
ARC
  5
854
102
{ACAD_REACTORS
330
A2D
102
}
330
20
100
AcDbEntity
  8
STEMPEL
100
AcDbCircle
 10
286.2879544462455
 20
376.8072522591182
 30
0.0
 40
12.0
100
AcDbArc
 50
157.8700632682352
 51
180.0
  0
LINE
  5
855
102
{ACAD_REACTORS
330
A2D
102
}
330
20
100
AcDbEntity
  8
STEMPEL
100
AcDbLine
 10
278.7879544462453
 20
394.4668318703401
 30
0.0
 11
280.2700855331051
 21
393.8640985616838
 31
0.0
  0
LINE
  5
856
102
{ACAD_REACTORS
330
A2D
102
}
330
20
100
AcDbEntity
  8
STEMPEL
100
AcDbLine
 10
275.171971294797
 20
381.3277520740405
 30
0.0
 11
280.2700855331051
 21
393.8640985616838
 31
0.0
  0
LINE
  5
857
102
{ACAD_REACTORS
330
A2D
330
E1E
102
}
330
20
100
AcDbEntity
  8
STEMPEL
100
AcDbLine
 10
273.6898402079372
 20
381.9304853826968
 30
0.0
 11
278.7879544462453
 21
394.4668318703401
 31
0.0
  0
LINE
  5
858
102
{ACAD_REACTORS
330
A2D
330
E1E
102
}
330
20
100
AcDbEntity
  8
STEMPEL
100
AcDbLine
 10
272.6879544462455
 20
234.4668318703404
 30
0.0
 11
272.6879544462455
 21
376.8072522591182
 31
0.0
  0
LINE
  5
859
102
{ACAD_REACTORS
330
A2D
102
}
330
20
100
AcDbEntity
  8
STEMPEL
100
AcDbLine
 10
274.2879544462454
 20
232.4668318703404
 30
0.0
 11
274.2879544462455
 21
376.8072522591182
 31
0.0
  0
LINE
  5
85A
102
{ACAD_REACTORS
330
A2D
102
}
330
20
100
AcDbEntity
  8
STEMPEL
100
AcDbLine
 10
272.6879544462455
 20
234.4668318703403
 30
0.0
 11
274.2879544462455
 21
234.4668318703402
 31
0.0
  0
LINE
  5
863
102
{ACAD_REACTORS
330
A2D
102
}
330
20
100
AcDbEntity
  8
STEMPEL
100
AcDbLine
 10
185.2879544462455
 20
234.4668318703404
 30
0.0
 11
186.8879544462457
 21
234.4668318703403
 31
0.0
  0
DIMENSION
  5
894
330
20
100
AcDbEntity
  8
BEM
100
AcDbDimension
  2
*D4
 10
159.5285277947821
 20
209.4668318703404
 30
0.0
 11
153.028527794782
 21
221.9668318703403
 31
0.0
 70
    32
 71
     5
 42
24.99999999999986
  3
Standard
100
AcDbAlignedDimension
 13
185.2879544462457
 23
234.4668318703402
 33
0.0
 14
210.900375090927
 24
209.4668318703403
 34
0.0
 50
90.0
100
AcDbRotatedDimension
1001
ACAD
1000
DSTYLE
1002
{
1070
   279
1070
     1
1070
    40
1040
2.0
1070
    41
1040
3.5
1070
    42
1040
1.0
1070
    43
1040
7.0
1070
    44
1040
1.0
1070
    47
1040
0.4
1070
    73
1070
     0
1070
    74
1070
     0
1070
    77
1070
     1
1070
    78
1070
     8
1070
    79
1070
     2
1070
   140
1040
3.5
1070
   141
1040
1.5
1070
   145
1040
0.5714285714285714
1070
   146
1040
0.5
1070
   147
1040
1.5
1070
   172
1070
     1
1070
   178
1070
     1
1070
   179
1070
     2
1070
   271
1070
     2
1070
   272
1070
     2
1070
   284
1070
     8
1070
   285
1070
     8
1070
   286
1070
     8
1002
}
  0
DIMENSION
  5
8AC
330
20
100
AcDbEntity
  8
BEM
100
AcDbDimension
  2
*D5
 10
143.8249250869941
 20
209.4668318703404
 30
0.0
 11
137.3249250869941
 21
361.9668318703403
 31
0.0
 70
    32
 71
     5
 42
304.9999999999998
  3
Standard
100
AcDbAlignedDimension
 13
178.7879544462455
 23
514.4668318703402
 33
0.0
 14
209.394645334612
 24
209.4668318703404
 34
0.0
 50
90.0
100
AcDbRotatedDimension
1001
ACAD
1000
DSTYLE
1002
{
1070
    40
1040
2.0
1070
    41
1040
3.5
1070
    42
1040
1.0
1070
    43
1040
7.0
1070
    44
1040
1.0
1070
    47
1040
0.4
1070
    73
1070
     0
1070
    74
1070
     0
1070
    77
1070
     1
1070
    78
1070
     8
1070
    79
1070
     2
1070
   140
1040
3.5
1070
   141
1040
1.5
1070
   145
1040
0.5714285714285714
1070
   146
1040
0.5
1070
   147
1040
1.5
1070
   172
1070
     1
1070
   178
1070
     1
1070
   179
1070
     2
1070
   271
1070
     2
1070
   272
1070
     2
1070
   284
1070
     8
1070
   285
1070
     8
1070
   286
1070
     8
1002
}
  0
DIMENSION
  5
984
102
{ACAD_XDICTIONARY
360
991
102
}
102
{ACAD_REACTORS
330
99B
102
}
330
20
100
AcDbEntity
  8
BEM
100
AcDbDimension
  2
*D7
 10
178.7879544462454
 20
526.8859060114348
 30
0.0
 11
229.7879544462454
 21
533.3859060114348
 31
0.0
 70
    32
  1
%%c<>
 71
     5
 42
101.9999999999999
  3
Standard
100
AcDbAlignedDimension
 13
280.7879544462454
 23
514.4668318703402
 33
0.0
 14
178.7879544462454
 24
514.4668318703402
 34
0.0
100
AcDbRotatedDimension
1001
ACAD
1000
DSTYLE
1002
{
1070
    40
1040
2.0
1070
    41
1040
3.5
1070
    42
1040
1.0
1070
    43
1040
7.0
1070
    44
1040
1.0
1070
    47
1040
0.4
1070
    73
1070
     0
1070
    74
1070
     0
1070
    77
1070
     1
1070
    78
1070
     8
1070
    79
1070
     2
1070
   140
1040
3.5
1070
   141
1040
1.5
1070
   145
1040
0.5714285714285714
1070
   146
1040
0.5
1070
   147
1040
1.5
1070
   172
1070
     1
1070
   178
1070
     1
1070
   179
1070
     2
1070
   271
1070
     2
1070
   272
1070
     2
1070
   284
1070
     8
1070
   285
1070
     8
1070
   286
1070
     8
1002
}
  0
DIMENSION
  5
9D7
330
20
100
AcDbEntity
  8
BEM
100
AcDbDimension
  2
*D9
 10
274.2879544462455
 20
171.374294183551
 30
0.0
 11
229.7879544462456
 21
177.874294183551
 31
0.0
 70
    32
  1
%%c<>
 71
     5
 42
88.99999999999982
  3
Standard
100
AcDbAlignedDimension
 13
185.2879544462457
 23
232.4668318703401
 33
0.0
 14
274.2879544462455
 24
232.4668318703402
 34
0.0
100
AcDbRotatedDimension
1001
ACAD
1000
DSTYLE
1002
{
1070
    40
1040
2.0
1070
    41
1040
3.5
1070
    42
1040
1.0
1070
    43
1040
7.0
1070
    44
1040
1.0
1070
    47
1040
0.4
1070
    73
1070
     0
1070
    74
1070
     0
1070
    77
1070
     1
1070
    78
1070
     8
1070
    79
1070
     2
1070
   140
1040
3.5
1070
   141
1040
1.5
1070
   145
1040
0.5714285714285714
1070
   146
1040
0.5
1070
   147
1040
1.5
1070
   172
1070
     1
1070
   178
1070
     1
1070
   179
1070
     2
1070
   271
1070
     2
1070
   272
1070
     2
1070
   284
1070
     8
1070
   285
1070
     8
1070
   286
1070
     8
1002
}
  0
HATCH
  5
A2D
330
20
100
AcDbEntity
  8
SCHRAFF
100
AcDbHatch
 10
0.0
 20
0.0
 30
0.0
210
0.0
220
0.0
230
1.0
  2
_USER
 70
     0
 71
     1
 91
        2
 92
        7
 72
     1
 73
     1
 93
        8
 10
274.2879544462455
 20
376.8072522591182
 42
-0.0968612920235901
 10
275.171971294797
 20
381.3277520740404
 42
0.0
 10
280.2700855331051
 20
393.8640985616839
 42
0.0
 10
278.7879544462452
 20
394.4668318703401
 42
0.0
 10
273.6898402079372
 20
381.9304853826968
 42
0.0968612920235919
 10
272.6879544462455
 20
376.8072522591182
 42
0.0
 10
272.6879544462455
 20
234.4668318703403
 42
0.0
 10
274.2879544462455
 20
234.4668318703402
 42
0.0
 97
        8
330
854
330
856
330
855
330
857
330
853
330
858
330
85A
330
859
 92
        7
 72
     1
 73
     1
 93
        8
 10
186.8879544462456
 20
376.8072522591182
 42
0.0968612920235888
 10
185.8860686845539
 20
381.9304853826966
 42
0.0
 10
180.7879544462458
 20
394.46683187034
 42
0.0
 10
179.305823359386
 20
393.8640985616839
 42
0.0
 10
184.4039375976941
 20
381.3277520740404
 42
-0.0968612920235903
 10
185.2879544462455
 20
376.8072522591182
 42
0.0
 10
185.2879544462457
 20
234.4668318703404
 42
0.0
 10
186.8879544462457
 20
234.4668318703404
 42
0.0
 97
        8
330
84D
330
84C
330
84A
330
84B
330
84E
330
84F
330
863
330
850
 75
     0
 76
     0
 52
45.0
 41
2.0
 77
     0
 78
     1
 53
45.0
 43
-29.60072669170358
 44
-10.6487298688985
 45
-1.414213562373094
 46
1.414213562373095
 79
     0
 47
0.5128973795724832
 98
        2
 10
273.4974577153953
 20
311.0645774331533
 10
185.7277652025464
 20
314.141962156865
  0
ARC
  5
AAB
330
20
100
AcDbEntity
  8
SCHRAFF
100
AcDbCircle
 10
180.4960024402102
 20
394.7060883616647
 30
0.0
 40
3.246403035727395
100
AcDbArc
 50
121.7447183268281
 51
266.1975442999631
  0
HATCH
  5
AB1
330
20
100
AcDbEntity
  8
SCHRAFF
100
AcDbHatch
 10
0.0
 20
0.0
 30
0.0
210
0.0
220
0.0
230
1.0
  2
_USER
 70
     0
 71
     0
 91
        1
 92
        7
 72
     1
 73
     1
 93
        5
 10
178.7879544462455
 20
397.4668318703401
 42
0.7295656652877801
 10
180.2807118138656
 20
391.4668318703402
 42
0.0
 10
179.3058233593859
 20
393.8640985616838
 42
0.0
 10
180.7879544462457
 20
394.4668318703401
 42
0.0
 10
178.7879544462454
 20
394.46683187034
 42
0.0
 97
        0
 75
     0
 76
     0
 52
0.0
 41
0.1
 77
     0
 78
     1
 53
0.0
 43
-29.60072669170358
 44
-10.6487298688985
 45
0.0
 46
0.1
 79
     0
 47
0.0196092199529725
 98
        1
 10
178.2774879777175
 20
395.2168179030948
  0
HATCH
  5
AB2
330
20
100
AcDbEntity
  8
SCHRAFF
100
AcDbHatch
 10
0.0
 20
0.0
 30
0.0
210
0.0
220
0.0
230
1.0
  2
_USER
 70
     0
 71
     0
 91
        1
 92
        7
 72
     1
 73
     1
 93
        5
 10
280.7879544462456
 20
397.4668318703401
 42
-0.7295656652877801
 10
279.2951970786255
 20
391.4668318703402
 42
0.0
 10
280.2700855331053
 20
393.8640985616838
 42
0.0
 10
278.7879544462454
 20
394.4668318703401
 42
0.0
 10
280.7879544462457
 20
394.46683187034
 42
0.0
 97
        0
 75
     0
 76
     0
 52
0.0
 41
0.1
 77
     0
 78
     1
 53
180.0
 43
489.1766355841947
 44
-10.6487298688985
 45
0.0
 46
0.1
 79
     0
 47
0.0196092199529725
 98
        1
 10
281.2984209147736
 20
395.2168179030948
  0
ARC
  5
AB3
330
20
100
AcDbEntity
  8
SCHRAFF
100
AcDbCircle
 10
279.079906452281
 20
394.7060883616647
 30
0.0
 40
3.246403035727395
100
AcDbArc
 50
273.802455700037
 51
58.25528167317187
  0
TEXT
  5
AC4
330
20
100
AcDbEntity
  8
TEXT
 62
     1
100
AcDbText
 10
216.7415882626313
 20
155.2771946768855
 30
0.0
 40
7.0
  1
Außenrohr: E195 EN10305 feuerverzinkt
 41
0.8
  7
GREEKS
100
AcDbText
  0
TEXT
  5
AC5
330
20
100
AcDbEntity
  8
TEXT
 62
     1
100
AcDbText
 10
217.8661644803737
 20
120.8252594324623
 30
0.0
 40
7.0
  1
Dämmung: 2 K-PU-Schaum
 41
0.8
  7
GREEKS
100
AcDbText
  0
TEXT
  5
AC6
330
20
100
AcDbEntity
  8
TEXT
 62
     1
100
AcDbText
 10
220.5936125068978
 20
142.6202039205065
 30
0.0
 40
7.0
  1
Innenrohr: E195 EN10305 feuerverzinkt
 41
0.8
  7
GREEKS
100
AcDbText
  0
TEXT
  5
AC7
330
20
100
AcDbEntity
  8
TEXT
 62
     1
100
AcDbText
 10
268.5433299442956
 20
131.8980921055031
 30
0.0
 40
7.0
  1
und innen beschichtet
 41
0.8
  7
GREEKS
100
AcDbText
  0
LINE
  5
ADB
330
20
100
AcDbEntity
  8
HILF
100
AcDbLine
 10
265.5292074210645
 20
461.5148996700591
 30
0.0
 11
194.0467014714264
 21
461.5148996700592
 31
0.0
  0
LINE
  5
ADE
330
20
100
AcDbEntity
  8
HILF
100
AcDbLine
 10
266.3488399128247
 20
483.6725140892128
 30
0.0
 11
193.2270689796663
 21
483.6725140892128
 31
0.0
  0
HATCH
  5
CD3
330
20
100
AcDbEntity
  8
SCHRAFF
100
AcDbHatch
 10
0.0
 20
0.0
 30
0.0
210
0.0
220
0.0
230
1.0
  2
NET
 70
     0
 71
     0
 91
        2
 92
        7
 72
     0
 73
     1
 93
       10
 10
272.6879544462455
 20
250.4668318703402
 10
250.7879544462457
 20
250.4668318703402
 10
250.7879544462457
 20
240.4668318703404
 10
254.2879544462456
 20
240.4668318703404
 10
257.7520560613833
 20
234.4668318703403
 10
268.2879544462456
 20
234.4668318703403
 10
268.2879544462456
 20
232.4668318703404
 10
274.2879544462455
 20
232.4668318703405
 10
274.2879544462455
 20
234.4668318703404
 10
272.6879544462455
 20
234.4668318703404
 97
        0
 92
        7
 72
     0
 73
     1
 93
       10
 10
208.7879544462456
 20
250.4668318703402
 10
186.8879544462457
 20
250.4668318703403
 10
186.8879544462457
 20
234.4668318703404
 10
185.2879544462456
 20
234.4668318703404
 10
185.2879544462457
 20
232.4668318703403
 10
191.2879544462457
 20
232.4668318703403
 10
191.2879544462456
 20
234.4668318703404
 10
201.8238528311079
 20
234.4668318703404
 10
205.2879544462457
 20
240.4668318703404
 10
208.7879544462456
 20
240.4668318703403
 97
        0
 75
     0
 76
     1
 52
45.0
 41
20.0
 77
     0
 78
     2
 53
45.0
 43
4.78795444624572
 44
-13.66904980649082
 45
-1.767766952966368
 46
1.767766952966368
 79
     0
 53
135.0
 43
4.78795444624572
 44
-13.66904980649082
 45
-1.767766952966368
 46
-1.767766952966368
 79
     0
 47
0.1322099502765182
 98
        2
 10
266.1604563606725
 20
240.6051024395018
 10
202.3968162393766
 20
243.513722051205
  0
LINE
  5
CD4
330
20
100
AcDbEntity
  8
STEMPEL
100
AcDbLine
 10
274.2879544462455
 20
232.4668318703404
 30
0.0
 11
250.7879544462458
 21
232.4668318703404
 31
0.0
  0
POINT
  5
CD5
330
20
100
AcDbEntity
  8
STEMPEL
100
AcDbPoint
 10
268.2879544462456
 20
232.4668318703404
 30
0.0
  0
POINT
  5
CD6
330
20
100
AcDbEntity
  8
STEMPEL
100
AcDbPoint
 10
257.7520560613833
 20
234.4668318703404
 30
0.0
  0
LINE
  5
CD7
330
20
100
AcDbEntity
  8
STEMPEL
100
AcDbLine
 10
268.2879544462456
 20
234.4668318703404
 30
0.0
 11
250.7879544462456
 21
234.4668318703403
 31
0.0
  0
LINE
  5
CD8
330
20
100
AcDbEntity
  8
STEMPEL
100
AcDbLine
 10
268.2879544462456
 20
232.4668318703404
 30
0.0
 11
268.2879544462456
 21
234.4668318703404
 31
0.0
  0
LINE
  5
CD9
330
20
100
AcDbEntity
  8
STEMPEL
100
AcDbLine
 10
254.2879544462457
 20
240.4668318703404
 30
0.0
 11
257.7520560613833
 21
234.4668318703404
 31
0.0
  0
LINE
  5
CDA
102
{ACAD_REACTORS
330
E1E
102
}
330
20
100
AcDbEntity
  8
STEMPEL
100
AcDbLine
 10
250.7879544462458
 20
250.4668318703402
 30
0.0
 11
272.6879544462455
 21
250.4668318703402
 31
0.0
  0
LINE
  5
CDB
330
20
100
AcDbEntity
  8
STEMPEL
100
AcDbLine
 10
208.7879544462457
 20
234.4668318703404
 30
0.0
 11
191.2879544462456
 21
234.4668318703404
 31
0.0
  0
LINE
  5
CDC
330
20
100
AcDbEntity
  8
STEMPEL
100
AcDbLine
 10
208.7879544462456
 20
232.4668318703404
 30
0.0
 11
185.2879544462457
 21
232.4668318703404
 31
0.0
  0
POINT
  5
CDD
330
20
100
AcDbEntity
  8
STEMPEL
100
AcDbPoint
 10
192.7879544462456
 20
234.4668318703404
 30
0.0
  0
POINT
  5
CDE
330
20
100
AcDbEntity
  8
STEMPEL
100
AcDbPoint
 10
192.7879544462456
 20
234.4668318703404
 30
0.0
  0
POINT
  5
CDF
330
20
100
AcDbEntity
  8
STEMPEL
100
AcDbPoint
 10
192.7879544462456
 20
234.4668318703404
 30
0.0
  0
POINT
  5
CE0
330
20
100
AcDbEntity
  8
STEMPEL
100
AcDbPoint
 10
196.7879544462456
 20
234.4668318703404
 30
0.0
  0
POINT
  5
CE1
330
20
100
AcDbEntity
  8
STEMPEL
100
AcDbPoint
 10
191.2879544462456
 20
232.4668318703404
 30
0.0
  0
LINE
  5
CE2
330
20
100
AcDbEntity
  8
STEMPEL
100
AcDbLine
 10
191.2879544462456
 20
232.4668318703404
 30
0.0
 11
191.2879544462456
 21
234.4668318703404
 31
0.0
  0
LINE
  5
CE3
330
20
100
AcDbEntity
  8
STEMPEL
100
AcDbLine
 10
205.2879544462457
 20
240.4668318703404
 30
0.0
 11
208.7879544462456
 21
240.4668318703404
 31
0.0
  0
LINE
  5
CE4
330
20
100
AcDbEntity
  8
STEMPEL
100
AcDbLine
 10
205.2879544462457
 20
240.4668318703404
 30
0.0
 11
201.8238528311079
 21
234.4668318703404
 31
0.0
  0
LINE
  5
CE5
102
{ACAD_REACTORS
330
E1E
102
}
330
20
100
AcDbEntity
  8
STEMPEL
100
AcDbLine
 10
186.8879544462457
 20
250.4668318703402
 30
0.0
 11
208.7879544462456
 21
250.4668318703402
 31
0.0
  0
LINE
  5
D0E
330
20
100
AcDbEntity
  8
STEMPEL
100
AcDbLine
 10
250.7879544462456
 20
240.4668318703404
 30
0.0
 11
254.2879544462457
 21
240.4668318703404
 31
0.0
  0
LINE
  5
D98
102
{ACAD_REACTORS
330
DD5
330
DE6
330
E1E
102
}
330
20
100
AcDbEntity
  8
STEMPEL
100
AcDbLine
 10
180.2879544462455
 20
394.4668318703401
 30
0.0
 11
180.2879544462454
 21
514.4668318703402
 31
0.0
  0
LINE
  5
D9B
102
{ACAD_REACTORS
330
87B
330
893
330
983
330
99B
330
DD5
330
DE6
330
E1E
102
}
330
20
100
AcDbEntity
  8
STEMPEL
100
AcDbLine
 10
279.2879544462454
 20
394.4668318703401
 30
0.0
 11
279.2879544462454
 21
514.4668318703402
 31
0.0
  0
TEXT
  5
DB6
330
20
100
AcDbEntity
  8
VOLL
100
AcDbText
 10
1956.69281190029
 20
388.8438089487022
 30
0.0
 40
3.6
  1

  7
GREEKS
100
AcDbText
  0
TEXT
  5
DB7
330
20
100
AcDbEntity
  8
VOLL
100
AcDbText
 10
2199.498349238652
 20
803.4846250392272
 30
0.0
 40
3.6
  1

  7
GREEKS
100
AcDbText
  0
TEXT
  5
DB8
330
20
100
AcDbEntity
  8
VOLL
100
AcDbText
 10
2859.164771167491
 20
436.3057769710407
 30
0.0
 40
3.6
  1

  7
GREEKS
100
AcDbText
  0
TEXT
  5
DB9
330
20
100
AcDbEntity
  8
VOLL
100
AcDbText
 10
2851.500218138816
 20
413.898129514119
 30
0.0
 40
3.6
  1

  7
GREEKS
100
AcDbText
  0
HATCH
  5
DD5
330
20
100
AcDbEntity
  8
SCHRAFF
100
AcDbHatch
 10
0.0
 20
0.0
 30
0.0
210
0.0
220
0.0
230
1.0
  2
_USER
 70
     0
 71
     1
 91
        2
 92
        7
 72
     0
 73
     1
 93
        4
 10
180.2879544462454
 20
514.4668318703402
 10
178.7879544462454
 20
514.4668318703402
 10
178.7879544462455
 20
394.4668318703401
 10
180.2879544462455
 20
394.4668318703401
 97
        4
330
547
330
849
330
851
330
D98
 92
        7
 72
     0
 73
     1
 93
        4
 10
280.7879544462454
 20
514.4668318703403
 10
279.2879544462454
 20
514.4668318703403
 10
279.2879544462454
 20
394.4668318703401
 10
280.7879544462454
 20
394.4668318703401
 97
        4
330
547
330
D9B
330
852
330
846
 75
     1
 76
     0
 52
135.0
 41
2.0
 77
     0
 78
     1
 53
135.0
 43
0.0
 44
0.0
 45
-1.414213562373095
 46
-1.414213562373094
 79
     0
 47
0.2638421066160461
 98
        2
 10
179.833733559823
 20
508.9230652991384
 10
280.1401683678991
 20
506.0208020466807
1001
GradientColor1ACI
1070
     5
1001
GradientColor2ACI
1070
     2
1001
ACAD
1010
0.0
1020
0.0
1030
0.0
  0
HATCH
  5
DE6
330
20
100
AcDbEntity
  8
SCHRAFF
100
AcDbHatch
 10
0.0
 20
0.0
 30
0.0
210
0.0
220
0.0
230
1.0
  2
NET
 70
     0
 71
     1
 91
        2
 92
        7
 72
     1
 73
     1
 93
        5
 10
190.0225571179702
 20
514.4668318703402
 42
0.0
 10
180.2879544462454
 20
514.4668318703402
 42
0.0
 10
180.2879544462454
 20
499.4668318703402
 42
0.0
 10
187.6879544462455
 20
499.4668318703402
 42
0.0
 10
187.6879544462455
 20
503.9179094632215
 42
-0.1093332246020757
 97
        5
330
547
330
D98
330
847
330
546
330
548
 92
        7
 72
     1
 73
     1
 93
        5
 10
279.2879544462454
 20
514.4668318703403
 42
0.0
 10
269.5533517745209
 20
514.4668318703403
 42
-0.1093332246020761
 10
271.8879544462457
 20
503.9179094632215
 42
0.0
 10
271.8879544462457
 20
499.4668318703402
 42
0.0
 10
279.2879544462454
 20
499.4668318703402
 42
0.0
 97
        5
330
547
330
55B
330
55C
330
844
330
D9B
 75
     1
 76
     1
 52
45.0
 41
15.0
 77
     0
 78
     2
 53
45.0
 43
0.0
 44
0.0
 45
-1.325825214724776
 46
1.325825214724776
 79
     0
 53
135.0
 43
0.0
 44
0.0
 45
-1.325825214724776
 46
-1.325825214724776
 79
     0
 47
0.4243178597904834
 98
        2
 10
183.2586294139223
 20
511.4730023621005
 10
275.3782488136421
 20
508.5027763864875
1001
GradientColor1ACI
1070
     5
1001
GradientColor2ACI
1070
     2
1001
ACAD
1010
0.0
1020
0.0
1030
0.0
  0
HATCH
  5
E1E
330
20
100
AcDbEntity
  8
SCHRAFF
100
AcDbHatch
 10
0.0
 20
0.0
 30
0.0
210
0.0
220
0.0
230
1.0
  2
HONEY
 70
     0
 71
     1
 91
        2
 92
        7
 72
     1
 73
     1
 93
       20
 10
193.2879544462454
 20
454.1602322057715
 42
0.1420008527982317
 10
192.0479544462455
 20
458.4383626385659
 42
-0.1420008527982312
 10
190.1879544462455
 20
464.8555582877572
 42
0.0
 10
190.1879544462455
 20
481.4668318703402
 42
0.0926930603363569
 10
189.3771154378037
 20
485.8030371589527
 42
-0.092004438419034
 10
187.6879544462455
 20
494.7685518221455
 42
0.0
 10
187.6879544462455
 20
499.4668318703402
 42
0.0
 10
180.2879544462454
 20
499.4668318703402
 42
0.0
 10
180.2879544462455
 20
394.4668318703401
 42
0.0
 10
180.7879544462457
 20
394.4668318703401
 42
0.0
 10
185.8860686845539
 20
381.9304853826967
 42
-0.0968612920235903
 10
186.8879544462456
 20
376.8072522591182
 42
0.0
 10
186.8879544462457
 20
250.4668318703402
 42
0.0
 10
208.7879544462456
 20
250.4668318703402
 42
0.0
 10
208.7879544462455
 20
401.6999272777841
 42
0.1680479318558785
 10
207.0785011568248
 20
406.6424996932394
 42
0.0
 10
205.6450973033884
 20
408.4668318703402
 42
-0.5441845007645582
 10
200.7879544462455
 20
414.4668318703402
 42
0.0
 10
195.5130301621109
 20
420.7967410113018
 42
-0.1754523787641748
 10
193.2879544462456
 20
426.9425112480807
 42
0.0
 97
       20
330
551
330
550
330
54D
330
54E
330
54F
330
546
330
847
330
D98
330
851
330
84C
330
84D
330
850
330
CE5
330
6BD
330
6BA
330
6BB
330
7CC
330
6F8
330
6F5
330
6B2
 92
        7
 72
     1
 73
     1
 93
       20
 10
279.2879544462454
 20
499.4668318703402
 42
0.0
 10
271.8879544462457
 20
499.4668318703402
 42
0.0
 10
271.8879544462457
 20
494.9051119185358
 42
-0.0933817694259598
 10
270.1987934546873
 20
485.8030371589528
 42
0.0926930603363569
 10
269.3879544462455
 20
481.4668318703403
 42
0.0
 10
269.3879544462455
 20
464.8555582877572
 42
-0.1420008527982324
 10
267.5279544462457
 20
458.4383626385657
 42
0.1420008527982306
 10
266.2879544462456
 20
454.1602322057715
 42
0.0
 10
266.2879544462455
 20
426.9425112480809
 42
-0.1754523787641759
 10
264.0628787303802
 20
420.7967410113018
 42
0.0
 10
258.7879544462456
 20
414.4668318703404
 42
-0.5441845007645619
 10
253.9308115891027
 20
408.4668318703403
 42
0.0
 10
252.4974077356662
 20
406.6424996932394
 42
0.1680479318558761
 10
250.7879544462456
 20
401.6999272777842
 42
0.0
 10
250.7879544462456
 20
250.4668318703402
 42
0.0
 10
272.6879544462455
 20
250.4668318703402
 42
0.0
 10
272.6879544462455
 20
376.8072522591181
 42
-0.0968612920235905
 10
273.6898402079372
 20
381.9304853826967
 42
0.0
 10
278.7879544462453
 20
394.4668318703401
 42
0.0
 10
279.2879544462454
 20
394.4668318703401
 42
0.0
 97
       20
330
844
330
55C
330
55A
330
563
330
55E
330
567
330
565
330
569
330
6E7
330
6E4
330
7CB
330
6A6
330
6A7
330
596
330
CDA
330
858
330
853
330
857
330
852
330
D9B
 75
     1
 76
     1
 52
0.0
 41
30.0
 77
     0
 78
     3
 53
0.0
 43
0.0
 44
0.0
 45
5.625
 46
3.247595264191644
 79
     2
 49
3.75
 49
-7.5
 53
120.0
 43
0.0
 44
0.0
 45
-5.624999999999998
 46
3.247595264191645
 79
     2
 49
3.749999999999999
 49
-7.499999999999999
 53
60.0
 43
0.0
 44
0.0
 45
0.0000000000000012
 46
6.49519052838329
 79
     2
 49
-7.5
 49
3.75
 47
0.4243178597904834
 98
        2
 10
186.2302309278589
 20
432.1255611637337
 10
268.5860196422868
 20
408.7880799376311
1001
GradientColor1ACI
1070
     5
1001
GradientColor2ACI
1070
     2
1001
ACAD
1010
0.0
1020
0.0
1030
0.0
  0
ENDSEC
  0
SECTION
  2
OBJECTS
  0
DICTIONARY
  5
C
330
0
100
AcDbDictionary
281
     1
  3
ACAD_CIP_PREVIOUS_PRODUCT_INFO
350
D97
  3
ACAD_COLOR
350
1B
  3
ACAD_DETAILVIEWSTYLE
350
D94
  3
ACAD_GROUP
350
D
  3
ACAD_LAYOUT
350
19
  3
ACAD_MATERIAL
350
1A
  3
ACAD_MLEADERSTYLE
350
D8F
  3
ACAD_MLINESTYLE
350
16
  3
ACAD_PLOTSETTINGS
350
18
  3
ACAD_PLOTSTYLENAME
350
E
  3
ACAD_SCALELIST
350
D7D
  3
ACAD_SECTIONVIEWSTYLE
350
D91
  3
ACAD_TABLESTYLE
350
D7B
  3
ACAD_VISUALSTYLE
350
D62
  3
ACDB_RECOMPOSE_DATA
350
EED
  3
AcDbVariableDictionary
350
810
  0
DICTIONARY
  5
E37
330
8
100
AcDbDictionary
280
     1
281
     1
  0
DICTIONARY
  5
E24
330
10
100
AcDbDictionary
280
     1
281
     1
  3
ADSK_XREC_LAYER_RECONCILED
360
E25
  0
DICTIONARY
  5
E26
330
54
100
AcDbDictionary
280
     1
281
     1
  3
ADSK_XREC_LAYER_RECONCILED
360
E27
  0
DICTIONARY
  5
E28
330
55
100
AcDbDictionary
280
     1
281
     1
  3
ADSK_XREC_LAYER_RECONCILED
360
E29
  0
DICTIONARY
  5
E2A
330
56
100
AcDbDictionary
280
     1
281
     1
  3
ADSK_XREC_LAYER_RECONCILED
360
E2B
  0
DICTIONARY
  5
E2C
330
57
100
AcDbDictionary
280
     1
281
     1
  3
ADSK_XREC_LAYER_RECONCILED
360
E2D
  0
DICTIONARY
  5
E2E
330
58
100
AcDbDictionary
280
     1
281
     1
  3
ADSK_XREC_LAYER_RECONCILED
360
E2F
  0
DICTIONARY
  5
E30
330
59
100
AcDbDictionary
280
     1
281
     1
  3
ADSK_XREC_LAYER_RECONCILED
360
E31
  0
DICTIONARY
  5
E32
330
5A
100
AcDbDictionary
280
     1
281
     1
  3
ADSK_XREC_LAYER_RECONCILED
360
E33
  0
DICTIONARY
  5
D99
330
20
100
AcDbDictionary
280
     1
281
     1
  3
ACAD_SORTENTS
360
D9A
  0
DICTIONARY
  5
991
330
984
100
AcDbDictionary
280
     1
281
     1
  3
ACAD_DIMASSOC
360
99B
  0
XRECORD
  5
D97
102
{ACAD_REACTORS
330
C
102
}
330
C
100
AcDbXrecord
280
     1
300
ACD
300
2013
300
ACD_F_S
  0
DICTIONARY
  5
1B
102
{ACAD_REACTORS
330
C
102
}
330
C
100
AcDbDictionary
281
     1
  0
DICTIONARY
  5
D94
102
{ACAD_REACTORS
330
C
102
}
330
C
100
AcDbDictionary
281
     1
  3
Imperial24
350
D95
  0
DICTIONARY
  5
D
102
{ACAD_REACTORS
330
C
102
}
330
C
100
AcDbDictionary
281
     1
  0
DICTIONARY
  5
19
102
{ACAD_REACTORS
330
C
102
}
330
C
100
AcDbDictionary
281
     1
  3
Layout1
350
1F
  3
Model
350
23
  0
DICTIONARY
  5
1A
102
{ACAD_REACTORS
330
C
102
}
330
C
100
AcDbDictionary
281
     1
  3
ByBlock
350
D52
  3
ByLayer
350
D4A
  3
Global
350
D5A
  0
DICTIONARY
  5
D8F
102
{ACAD_REACTORS
330
C
102
}
330
C
100
AcDbDictionary
281
     1
  3
Standard
350
D90
  0
DICTIONARY
  5
16
102
{ACAD_REACTORS
330
C
102
}
330
C
100
AcDbDictionary
281
     1
  3
Standard
350
17
  0
DICTIONARY
  5
18
102
{ACAD_REACTORS
330
C
102
}
330
C
100
AcDbDictionary
281
     1
  0
ACDBDICTIONARYWDFLT
  5
E
102
{ACAD_REACTORS
330
C
102
}
330
C
100
AcDbDictionary
281
     1
  3
Normal
350
F
100
AcDbDictionaryWithDefault
340
F
  0
DICTIONARY
  5
D7D
102
{ACAD_REACTORS
330
C
102
}
330
C
100
AcDbDictionary
281
     1
  3
A0
350
D7E
  3
A1
350
D7F
  3
A2
350
D80
  3
A3
350
D81
  3
A4
350
D82
  3
A5
350
D83
  3
A6
350
D84
  3
A7
350
D85
  3
A8
350
D86
  3
A9
350
D87
  3
B0
350
D88
  3
B1
350
D89
  3
B2
350
D8A
  3
B3
350
D8B
  3
B4
350
D8C
  3
B5
350
D8D
  3
B6
350
D8E
  0
DICTIONARY
  5
D91
102
{ACAD_REACTORS
330
C
102
}
330
C
100
AcDbDictionary
281
     1
  3
Imperial24
350
D93
  0
DICTIONARY
  5
D7B
102
{ACAD_REACTORS
330
C
102
}
330
C
100
AcDbDictionary
281
     1
  3
Standard
350
D7C
  0
DICTIONARY
  5
D62
102
{ACAD_REACTORS
330
C
102
}
330
C
100
AcDbDictionary
281
     1
  3
2dWireframe
350
D68
  3
Basic
350
D67
  3
Brighten
350
D6E
  3
ColorChange
350
D72
  3
Conceptual
350
D6B
  3
Dim
350
D6D
  3
EdgeColorOff
350
D7A
  3
Facepattern
350
D71
  3
Flat
350
D63
  3
FlatWithEdges
350
D64
  3
Gouraud
350
D65
  3
GouraudWithEdges
350
D66
  3
Hidden
350
D6A
  3
JitterOff
350
D78
  3
Linepattern
350
D70
  3
OverhangOff
350
D79
  3
Realistic
350
D6C
  3
Shaded
350
D77
  3
Shaded with edges
350
D76
  3
Shades of Gray
350
D73
  3
Sketchy
350
D74
  3
Thicken
350
D6F
  3
Wireframe
350
D69
  3
X-Ray
350
D75
  0
XRECORD
  5
EED
102
{ACAD_REACTORS
330
C
102
}
330
C
100
AcDbXrecord
280
     1
 90
        1
330
D7C
  0
DICTIONARY
  5
810
102
{ACAD_REACTORS
330
C
102
}
330
C
100
AcDbDictionary
281
     1
  3
CANNOSCALE
350
E74
  3
CMLEADERSTYLE
350
E71
  3
CTABLESTYLE
350
E70
  3
CVIEWDETAILSTYLE
350
E72
  3
CVIEWSECTIONSTYLE
350
E73
  3
DIMASSOC
350
812
  3
HIDETEXT
350
811
  3
PROJECTNAME
350
813
  3
XCLIPFRAME
350
EEB
  0
XRECORD
  5
E25
102
{ACAD_REACTORS
330
E24
102
}
330
E24
100
AcDbXrecord
280
     1
290
     1
  0
XRECORD
  5
E27
102
{ACAD_REACTORS
330
E26
102
}
330
E26
100
AcDbXrecord
280
     1
290
     1
  0
XRECORD
  5
E29
102
{ACAD_REACTORS
330
E28
102
}
330
E28
100
AcDbXrecord
280
     1
290
     1
  0
XRECORD
  5
E2B
102
{ACAD_REACTORS
330
E2A
102
}
330
E2A
100
AcDbXrecord
280
     1
290
     1
  0
XRECORD
  5
E2D
102
{ACAD_REACTORS
330
E2C
102
}
330
E2C
100
AcDbXrecord
280
     1
290
     1
  0
XRECORD
  5
E2F
102
{ACAD_REACTORS
330
E2E
102
}
330
E2E
100
AcDbXrecord
280
     1
290
     1
  0
XRECORD
  5
E31
102
{ACAD_REACTORS
330
E30
102
}
330
E30
100
AcDbXrecord
280
     1
290
     1
  0
XRECORD
  5
E33
102
{ACAD_REACTORS
330
E32
102
}
330
E32
100
AcDbXrecord
280
     1
290
     1
  0
SORTENTSTABLE
  5
D9A
102
{ACAD_REACTORS
330
D99
102
}
330
D99
100
AcDbSortentsTable
330
20
331
47C
  5
47C
331
478
  5
478
331
536
  5
536
331
4BC
  5
4BC
331
4B8
  5
4B8
331
4F7
  5
4F7
331
532
  5
532
331
4B4
  5
4B4
331
4F3
  5
4F3
331
667
  5
6BA
331
52E
  5
52E
331
569
  5
5A7
331
4B0
  5
4B0
331
52A
  5
52A
331
6F6
  5
844
331
474
  5
474
331
470
  5
470
331
46C
  5
46C
331
468
  5
468
331
4EF
  5
4EF
331
4EB
  5
4EB
331
526
  5
526
331
565
  5
59C
331
4AC
  5
4AC
331
4E7
  5
4E7
331
522
  5
522
331
561
  5
576
331
4A8
  5
4A8
331
4A4
  5
4A4
331
4E3
  5
4E3
331
6E6
  5
7DD
331
51E
  5
51E
331
55D
  5
568
331
51A
  5
51A
331
5A7
  5
6B2
331
6BA
  5
6F8
331
7DD
  5
84E
331
CE2
  5
DC0
331
D98
  5
856
331
CDE
  5
DB7
331
CDA
  5
D98
331
ADB
  5
CDD
331
AC7
  5
CDC
331
4DF
  5
4DF
331
516
  5
516
331
555
  5
560
331
49C
  5
49C
331
4DB
  5
4DB
331
4D7
  5
4D7
331
512
  5
512
331
551
  5
55C
331
498
  5
498
331
494
  5
494
331
4D3
  5
4D3
331
DB8
  5
DE8
331
50E
  5
50E
331
54D
  5
557
331
490
  5
490
331
6B2
  5
6E7
331
50A
  5
50A
331
593
  5
67C
331
CD6
  5
CE3
331
858
  5
984
331
AB3
  5
CD8
331
4CF
  5
4CF
331
AAB
  5
CD5
331
506
  5
506
331
545
  5
545
331
48C
  5
48C
331
4CB
  5
4CB
331
4C7
  5
4C7
331
502
  5
502
331
541
  5
541
331
488
  5
488
331
484
  5
484
331
4C3
  5
4C3
331
4FE
  5
4FE
331
6A6
  5
6BC
331
53D
  5
53D
331
539
  5
539
331
480
  5
480
331
854
  5
938
331
4FA
  5
4FA
331
850
  5
87C
331
84C
  5
859
331
47F
  5
47F
331
47B
  5
47B
331
4BF
  5
4BF
331
535
  5
535
331
4BB
  5
4BB
331
4B7
  5
4B7
331
4F6
  5
4F6
331
531
  5
531
331
4B3
  5
4B3
331
4F2
  5
4F2
331
666
  5
6B9
331
52D
  5
52D
331
568
  5
5A6
331
844
  5
851
331
529
  5
529
331
6F5
  5
7E8
331
477
  5
477
331
984
  5
ADE
331
473
  5
473
331
46F
  5
46F
331
9D7
  5
CD3
331
46B
  5
46B
331
4AF
  5
4AF
331
4EE
  5
4EE
331
4EA
  5
4EA
331
525
  5
525
331
564
  5
596
331
4AB
  5
4AB
331
4A7
  5
4A7
331
4E6
  5
4E6
331
521
  5
521
331
560
  5
570
331
4A3
  5
4A3
331
4E2
  5
4E2
331
6E5
  5
7D7
331
51D
  5
51D
331
55C
  5
567
331
558
  5
564
331
519
  5
519
331
6BD
  5
7CB
331
5A6
  5
6AC
331
6B9
  5
6F7
331
CE5
  5
DC5
331
D9B
  5
853
331
CE1
  5
DBA
331
CDD
  5
DB6
331
CD9
  5
D0E
331
467
  5
467
331
ADE
  5
CDE
331
AC6
  5
CDB
331
49F
  5
49F
331
4DE
  5
4DE
331
4DA
  5
4DA
331
515
  5
515
331
554
  5
55F
331
49B
  5
49B
331
4D6
  5
4D6
331
511
  5
511
331
550
  5
55B
331
497
  5
497
331
493
  5
493
331
4D2
  5
4D2
331
50D
  5
50D
331
548
  5
555
331
863
  5
A2D
331
509
  5
509
331
596
  5
6A6
331
6A9
  5
6E5
331
7CC
  5
84C
331
CD5
  5
CE2
331
7C8
  5
84A
331
AB2
  5
CD7
331
DB7
  5
DDA
331
48F
  5
48F
331
4CE
  5
4CE
331
505
  5
505
331
544
  5
544
331
48B
  5
48B
331
4CA
  5
4CA
331
4C6
  5
4C6
331
501
  5
501
331
540
  5
540
331
487
  5
487
331
483
  5
483
331
4C2
  5
4C2
331
857
  5
968
331
4FD
  5
4FD
331
53C
  5
53C
331
538
  5
538
331
853
  5
937
331
4F9
  5
4F9
331
7AC
  5
849
331
576
  5
666
331
84F
  5
864
331
84B
  5
858
331
6F8
  5
847
331
47E
  5
47E
331
47A
  5
47A
331
4BE
  5
4BE
331
534
  5
534
331
4BA
  5
4BA
331
4B6
  5
4B6
331
4F5
  5
4F5
331
530
  5
530
331
4B2
  5
4B2
331
4F1
  5
4F1
331
847
  5
854
331
52C
  5
52C
331
528
  5
528
331
476
  5
476
331
8AC
  5
AB3
331
472
  5
472
331
46E
  5
46E
331
E1E
  5
551
331
46A
  5
46A
331
567
  5
5A5
331
4AE
  5
4AE
331
4ED
  5
4ED
331
4E9
  5
4E9
331
524
  5
524
331
563
  5
593
331
DE6
  5
54E
331
4A6
  5
4A6
331
4E5
  5
4E5
331
520
  5
520
331
55F
  5
56A
331
55B
  5
566
331
4A2
  5
4A2
331
4E1
  5
4E1
331
6E4
  5
7CC
331
51C
  5
51C
331
7E7
  5
84F
331
518
  5
518
331
6BC
  5
7C8
331
5A5
  5
6A9
331
6B8
  5
6F6
331
CE4
  5
DC3
331
CE0
  5
DB9
331
CDC
  5
DB5
331
CD8
  5
CE5
331
AC5
  5
CDA
331
894
  5
AB2
331
557
  5
562
331
49E
  5
49E
331
4DD
  5
4DD
331
4D9
  5
4D9
331
514
  5
514
331
553
  5
55E
331
49A
  5
49A
331
496
  5
496
331
4D5
  5
4D5
331
510
  5
510
331
54F
  5
55A
331
492
  5
492
331
4D1
  5
4D1
331
50C
  5
50C
331
7D7
  5
84D
331
508
  5
508
331
6AC
  5
6E6
331
85A
  5
9D7
331
6A8
  5
6E4
331
7CB
  5
84B
331
CD4
  5
CE1
331
AB1
  5
CD6
331
DB6
  5
DD9
331
547
  5
554
331
48E
  5
48E
331
4CD
  5
4CD
331
4C9
  5
4C9
331
504
  5
504
331
543
  5
543
331
48A
  5
48A
331
4C5
  5
4C5
331
500
  5
500
331
53F
  5
53F
331
486
  5
486
331
482
  5
482
331
4C1
  5
4C1
331
57D
  5
667
331
856
  5
93A
331
4FC
  5
4FC
331
53B
  5
53B
331
852
  5
8AC
331
4F8
  5
4F8
331
84E
  5
863
331
67C
  5
6BB
331
84A
  5
857
331
A2D
  5
CD4
331
47D
  5
47D
331
479
  5
479
331
537
  5
537
331
4BD
  5
4BD
331
533
  5
533
331
4B9
  5
4B9
331
4B5
  5
4B5
331
4F4
  5
4F4
331
52F
  5
52F
331
56A
  5
5A8
331
4B1
  5
4B1
331
4F0
  5
4F0
331
846
  5
852
331
52B
  5
52B
331
6F7
  5
846
331
475
  5
475
331
471
  5
471
331
46D
  5
46D
331
469
  5
469
331
527
  5
527
331
566
  5
5A4
331
4AD
  5
4AD
331
4EC
  5
4EC
331
4E8
  5
4E8
331
523
  5
523
331
562
  5
57D
331
4A9
  5
4A9
331
4A5
  5
4A5
331
4E4
  5
4E4
331
6E7
  5
7E7
331
51F
  5
51F
331
55E
  5
569
331
55A
  5
565
331
4A1
  5
4A1
331
4E0
  5
4E0
331
5AC
  5
6B8
331
51B
  5
51B
331
5A8
  5
6B3
331
6BB
  5
7AC
331
5A4
  5
6A8
331
CE3
  5
DC2
331
CDF
  5
DB8
331
CDB
  5
D9B
331
DD5
  5
553
331
AC4
  5
CD9
331
517
  5
517
331
556
  5
561
331
49D
  5
49D
331
4DC
  5
4DC
331
4D8
  5
4D8
331
513
  5
513
331
552
  5
55D
331
499
  5
499
331
495
  5
495
331
4D4
  5
4D4
331
DB9
  5
DE9
331
50F
  5
50F
331
54E
  5
558
331
54A
  5
556
331
491
  5
491
331
4D0
  5
4D0
331
59C
  5
6A7
331
6B3
  5
6F5
331
50B
  5
50B
331
CD7
  5
CE4
331
859
  5
9A5
331
CD3
  5
CE0
331
546
  5
552
331
48D
  5
48D
331
4CC
  5
4CC
331
507
  5
507
331
4C8
  5
4C8
331
503
  5
503
331
542
  5
542
331
489
  5
489
331
485
  5
485
331
4C4
  5
4C4
331
4FF
  5
4FF
331
6A7
  5
6BD
331
53E
  5
53E
331
481
  5
481
331
4C0
  5
4C0
331
855
  5
939
331
4FB
  5
4FB
331
53A
  5
53A
331
851
  5
894
331
84D
  5
85A
331
570
  5
5AC
331
849
  5
855
331
D0E
  5
DD7
  0
DIMASSOC
  5
99B
102
{ACAD_REACTORS
330
991
102
}
330
991
100
AcDbDimAssoc
330
984
 90
        3
 70
     0
 71
     0
  1
AcDbOsnapPointRef
 72
     1
331
846
 73
     2
 91
        0
 40
1.0
 10
0.0
 20
0.0
 30
2.000000000000000E+50
 75
     0
  1
AcDbOsnapPointRef
 72
     1
331
547
 73
     2
 91
        0
 40
1.0
 10
0.0
 20
0.0
 30
2.000000000000000E+50
 75
     0
  0
ACDBDETAILVIEWSTYLE
  5
D95
102
{ACAD_REACTORS
330
D94
102
}
330
D94
100
AcDbModelDocViewStyle
 70
     0
  3
Imperial24
290
     0
100
AcDbDetailViewStyle
 70
     0
 71
     0
 90
        3
 71
     1
340
11
 62
   256
 40
0.24
340
0
 62
   256
 40
0.24
300

 40
0.36
280
     3
 71
     2
340
15
 90
       25
 62
   256
 71
     3
340
11
 62
   256
 40
0.24
 90
        1
 40
0.75
 90
        1
300
%<\AcVar ViewType \f "%tc1">% %<\AcVar ViewDetailId>%\PVARIA %<\AcVar ViewScale \f "%sn">%
 71
     4
340
15
 90
       25
 62
   256
340
15
 90
       25
 62
   256
280
     0
  0
LAYOUT
  5
1F
102
{ACAD_REACTORS
330
19
102
}
330
19
100
AcDbPlotSettings
  1

  2
RICOH Aficio 2027 PCL 6
  4

  6

 40
0.0
 41
0.0
 42
0.0
 43
0.0
 44
0.0
 45
0.0
 46
0.0
 47
0.0
 48
0.0
 49
0.0
140
0.0
141
0.0
142
1.0
143
1.0
 70
   688
 72
     0
 73
     0
 74
     5
  7
monochrome1.ctb
 75
    16
147
1.0
 76
     0
 77
     2
 78
   300
148
0.0
149
0.0
100
AcDbLayout
  1
Layout1
 70
     0
 71
     1
 10
0.0
 20
0.0
 11
12.0
 21
9.0
 12
0.0
 22
0.0
 32
0.0
 14
1.000000000000000E+20
 24
1.000000000000000E+20
 34
1.000000000000000E+20
 15
-1.000000000000000E+20
 25
-1.000000000000000E+20
 35
-1.000000000000000E+20
146
0.0
 13
0.0
 23
0.0
 33
0.0
 16
1.0
 26
0.0
 36
0.0
 17
0.0
 27
1.0
 37
0.0
 76
     0
330
1C
  0
LAYOUT
  5
23
102
{ACAD_REACTORS
330
19
102
}
330
19
100
AcDbPlotSettings
  1

  2
RICOH Aficio 2027 PCL 6
  4
A4
  6

 40
5.027083396911621
 41
5.027085304260253
 42
5.027084350585937
 43
5.027069091796875
 44
209.9733276367187
 45
296.9259948730469
 46
0.0
 47
0.0
 48
0.0
 49
0.0
140
0.0
141
0.0
142
1.0
143
1.0
 70
 11952
 72
     0
 73
     1
 74
     0
  7
monochrome1.ctb
 75
     0
147
1.0
 76
     0
 77
     2
 78
   300
148
2303.507892622773
149
93.70788233259395
100
AcDbLayout
  1
Model
 70
     1
 71
     0
 10
0.0
 20
0.0
 11
12.0
 21
9.0
 12
0.0
 22
0.0
 32
0.0
 14
0.0
 24
0.0
 34
0.0
 15
0.0
 25
0.0
 35
0.0
146
0.0
 13
0.0
 23
0.0
 33
0.0
 16
1.0
 26
0.0
 36
0.0
 17
0.0
 27
1.0
 37
0.0
 76
     0
330
20
331
D41
  0
MATERIAL
  5
D52
102
{ACAD_XDICTIONARY
360
D53
102
}
102
{ACAD_REACTORS
330
1A
102
}
330
1A
100
AcDbMaterial
  1
ByBlock
 72
     0
 43
0.0208333333333333
 43
0.0
 43
0.0
 43
0.0
 43
0.0
 43
0.0208333333333333
 43
0.0
 43
0.0
 43
0.0
 43
0.0
 43
1.0
 43
0.0
 43
0.0
 43
0.0
 43
0.0
 43
1.0
 77
     0
 47
0.0208333333333333
 47
0.0
 47
0.0
 47
0.0
 47
0.0
 47
0.0208333333333333
 47
0.0
 47
0.0
 47
0.0
 47
0.0
 47
1.0
 47
0.0
 47
0.0
 47
0.0
 47
0.0
 47
1.0
171
     0
 49
0.0208333333333333
 49
0.0
 49
0.0
 49
0.0
 49
0.0
 49
0.0208333333333333
 49
0.0
 49
0.0
 49
0.0
 49
0.0
 49
1.0
 49
0.0
 49
0.0
 49
0.0
 49
0.0
 49
1.0
175
     0
142
0.0208333333333333
142
0.0
142
0.0
142
0.0
142
0.0
142
0.0208333333333333
142
0.0
142
0.0
142
0.0
142
0.0
142
1.0
142
0.0
142
0.0
142
0.0
142
0.0
142
1.0
179
     0
144
0.0208333333333333
144
0.0
144
0.0
144
0.0
144
0.0
144
0.0208333333333333
144
0.0
144
0.0
144
0.0
144
0.0
144
1.0
144
0.0
144
0.0
144
0.0
144
0.0
144
1.0
147
0.0208333333333333
147
0.0
147
0.0
147
0.0
147
0.0
147
0.0208333333333333
147
0.0
147
0.0
147
0.0
147
0.0
147
1.0
147
0.0
147
0.0
147
0.0
147
0.0
147
1.0
  0
MATERIAL
  5
D4A
102
{ACAD_XDICTIONARY
360
D4B
102
}
102
{ACAD_REACTORS
330
1A
102
}
330
1A
100
AcDbMaterial
  1
ByLayer
 72
     0
 43
0.0208333333333333
 43
0.0
 43
0.0
 43
0.0
 43
0.0
 43
0.0208333333333333
 43
0.0
 43
0.0
 43
0.0
 43
0.0
 43
1.0
 43
0.0
 43
0.0
 43
0.0
 43
0.0
 43
1.0
 77
     0
 47
0.0208333333333333
 47
0.0
 47
0.0
 47
0.0
 47
0.0
 47
0.0208333333333333
 47
0.0
 47
0.0
 47
0.0
 47
0.0
 47
1.0
 47
0.0
 47
0.0
 47
0.0
 47
0.0
 47
1.0
171
     0
 49
0.0208333333333333
 49
0.0
 49
0.0
 49
0.0
 49
0.0
 49
0.0208333333333333
 49
0.0
 49
0.0
 49
0.0
 49
0.0
 49
1.0
 49
0.0
 49
0.0
 49
0.0
 49
0.0
 49
1.0
175
     0
142
0.0208333333333333
142
0.0
142
0.0
142
0.0
142
0.0
142
0.0208333333333333
142
0.0
142
0.0
142
0.0
142
0.0
142
1.0
142
0.0
142
0.0
142
0.0
142
0.0
142
1.0
179
     0
144
0.0208333333333333
144
0.0
144
0.0
144
0.0
144
0.0
144
0.0208333333333333
144
0.0
144
0.0
144
0.0
144
0.0
144
1.0
144
0.0
144
0.0
144
0.0
144
0.0
144
1.0
147
0.0208333333333333
147
0.0
147
0.0
147
0.0
147
0.0
147
0.0208333333333333
147
0.0
147
0.0
147
0.0
147
0.0
147
1.0
147
0.0
147
0.0
147
0.0
147
0.0
147
1.0
  0
MATERIAL
  5
D5A
102
{ACAD_XDICTIONARY
360
D5B
102
}
102
{ACAD_REACTORS
330
1A
102
}
330
1A
100
AcDbMaterial
  1
Global
 72
     0
 43
0.0208333333333333
 43
0.0
 43
0.0
 43
0.0
 43
0.0
 43
0.0208333333333333
 43
0.0
 43
0.0
 43
0.0
 43
0.0
 43
1.0
 43
0.0
 43
0.0
 43
0.0
 43
0.0
 43
1.0
 77
     0
 47
0.0208333333333333
 47
0.0
 47
0.0
 47
0.0
 47
0.0
 47
0.0208333333333333
 47
0.0
 47
0.0
 47
0.0
 47
0.0
 47
1.0
 47
0.0
 47
0.0
 47
0.0
 47
0.0
 47
1.0
171
     0
 49
0.0208333333333333
 49
0.0
 49
0.0
 49
0.0
 49
0.0
 49
0.0208333333333333
 49
0.0
 49
0.0
 49
0.0
 49
0.0
 49
1.0
 49
0.0
 49
0.0
 49
0.0
 49
0.0
 49
1.0
175
     0
142
0.0208333333333333
142
0.0
142
0.0
142
0.0
142
0.0
142
0.0208333333333333
142
0.0
142
0.0
142
0.0
142
0.0
142
1.0
142
0.0
142
0.0
142
0.0
142
0.0
142
1.0
179
     0
144
0.0208333333333333
144
0.0
144
0.0
144
0.0
144
0.0
144
0.0208333333333333
144
0.0
144
0.0
144
0.0
144
0.0
144
1.0
144
0.0
144
0.0
144
0.0
144
0.0
144
1.0
147
0.0208333333333333
147
0.0
147
0.0
147
0.0
147
0.0
147
0.0208333333333333
147
0.0
147
0.0
147
0.0
147
0.0
147
1.0
147
0.0
147
0.0
147
0.0
147
0.0
147
1.0
  0
MLEADERSTYLE
  5
D90
102
{ACAD_XDICTIONARY
360
F22
102
}
102
{ACAD_REACTORS
330
D8F
102
}
330
D8F
100
AcDbMLeaderStyle
170
     2
171
     1
172
     0
 90
        2
 40
0.0
 41
0.0
173
     1
 91
-1056964608
340
13
 92
       -2
290
     1
 42
0.09
291
     1
 43
0.36
  3
Standard
 44
0.18
300

342
11
174
     1
178
     6
175
     1
176
     0
 93
-1056964608
 45
0.18
292
     0
297
     0
 46
0.18
 94
-1056964608
 47
1.0
 49
1.0
140
1.0
293
     1
141
0.0
294
     1
177
     0
142
1.0
295
     0
296
     0
143
0.125
1001
ACAD_MLEADERVER
1070
     2
  0
MLINESTYLE
  5
17
102
{ACAD_REACTORS
330
16
102
}
330
16
100
AcDbMlineStyle
  2
STANDARD
 70
     0
  3

 62
   256
 51
90.0
 52
90.0
 71
     2
 49
0.5
 62
   256
  6
BYLAYER
 49
-0.5
 62
   256
  6
BYLAYER
  0
ACDBPLACEHOLDER
  5
F
102
{ACAD_REACTORS
330
E
102
}
330
E
  0
SCALE
  5
D7E
102
{ACAD_REACTORS
330
D7D
102
}
330
D7D
100
AcDbScale
 70
     0
300
1:1
140
1.0
141
1.0
290
     1
  0
SCALE
  5
D7F
102
{ACAD_REACTORS
330
D7D
102
}
330
D7D
100
AcDbScale
 70
     0
300
1/128" = 1'-0"
140
0.0078125
141
12.0
290
     0
  0
SCALE
  5
D80
102
{ACAD_REACTORS
330
D7D
102
}
330
D7D
100
AcDbScale
 70
     0
300
1/64" = 1'-0"
140
0.015625
141
12.0
290
     0
  0
SCALE
  5
D81
102
{ACAD_REACTORS
330
D7D
102
}
330
D7D
100
AcDbScale
 70
     0
300
1/32" = 1'-0"
140
0.03125
141
12.0
290
     0
  0
SCALE
  5
D82
102
{ACAD_REACTORS
330
D7D
102
}
330
D7D
100
AcDbScale
 70
     0
300
1/16" = 1'-0"
140
0.0625
141
12.0
290
     0
  0
SCALE
  5
D83
102
{ACAD_REACTORS
330
D7D
102
}
330
D7D
100
AcDbScale
 70
     0
300
3/32" = 1'-0"
140
0.09375
141
12.0
290
     0
  0
SCALE
  5
D84
102
{ACAD_REACTORS
330
D7D
102
}
330
D7D
100
AcDbScale
 70
     0
300
1/8" = 1'-0"
140
0.125
141
12.0
290
     0
  0
SCALE
  5
D85
102
{ACAD_REACTORS
330
D7D
102
}
330
D7D
100
AcDbScale
 70
     0
300
3/16" = 1'-0"
140
0.1875
141
12.0
290
     0
  0
SCALE
  5
D86
102
{ACAD_REACTORS
330
D7D
102
}
330
D7D
100
AcDbScale
 70
     0
300
1/4" = 1'-0"
140
0.25
141
12.0
290
     0
  0
SCALE
  5
D87
102
{ACAD_REACTORS
330
D7D
102
}
330
D7D
100
AcDbScale
 70
     0
300
3/8" = 1'-0"
140
0.375
141
12.0
290
     0
  0
SCALE
  5
D88
102
{ACAD_REACTORS
330
D7D
102
}
330
D7D
100
AcDbScale
 70
     0
300
1/2" = 1'-0"
140
0.5
141
12.0
290
     0
  0
SCALE
  5
D89
102
{ACAD_REACTORS
330
D7D
102
}
330
D7D
100
AcDbScale
 70
     0
300
3/4" = 1'-0"
140
0.75
141
12.0
290
     0
  0
SCALE
  5
D8A
102
{ACAD_REACTORS
330
D7D
102
}
330
D7D
100
AcDbScale
 70
     0
300
1" = 1'-0"
140
1.0
141
12.0
290
     0
  0
SCALE
  5
D8B
102
{ACAD_REACTORS
330
D7D
102
}
330
D7D
100
AcDbScale
 70
     0
300
1-1/2" = 1'-0"
140
1.5
141
12.0
290
     0
  0
SCALE
  5
D8C
102
{ACAD_REACTORS
330
D7D
102
}
330
D7D
100
AcDbScale
 70
     0
300
3" = 1'-0"
140
3.0
141
12.0
290
     0
  0
SCALE
  5
D8D
102
{ACAD_REACTORS
330
D7D
102
}
330
D7D
100
AcDbScale
 70
     0
300
6" = 1'-0"
140
6.0
141
12.0
290
     0
  0
SCALE
  5
D8E
102
{ACAD_REACTORS
330
D7D
102
}
330
D7D
100
AcDbScale
 70
     0
300
1'-0" = 1'-0"
140
12.0
141
12.0
290
     0
  0
ACDBSECTIONVIEWSTYLE
  5
D93
102
{ACAD_REACTORS
330
D91
102
}
330
D91
100
AcDbModelDocViewStyle
 70
     0
  3
Imperial24
290
     0
100
AcDbSectionViewStyle
 70
     0
 71
     0
 90
       78
 71
     1
340
11
 62
   256
 40
0.24
340
0
340
0
 62
   256
 40
0.24
300
I, O, Q, S, X, Z
 40
0.48
 90
        3
 40
0.18
 90
        1
 71
     2
340
D92
 90
       25
 62
   256
340
15
 90
       50
 62
   256
 40
0.24
 40
0.0
 40
0.24
 71
     3
340
11
 62
   256
 40
0.24
 90
        1
 40
0.75
 90
        1
300
%<\AcVar ViewType \f "%tc1">% %<\AcVar ViewSectionStartId>%-%<\AcVar ViewSectionEndId>%\PVARIA %<\AcVar ViewScale \f "%sn">%
 71
     4
 62
   256
 62
   257
300
ANSI31
 40
1.0
 90
        0
290
     0
290
     0
 90
        6
 40
0.0
 40
1.570796326794896
 40
0.2617993877991494
 40
1.308996938995747
 40
-0.2617993877991494
 40
1.832595714594046
  0
TABLESTYLE
  5
D7C
102
{ACAD_XDICTIONARY
360
E34
102
}
102
{ACAD_REACTORS
330
D7B
102
}
330
D7B
100
AcDbTableStyle
  3
Standard
 70
     0
 71
     0
 40
0.06
 41
0.06
280
     0
281
     0
  7
STANDARD
140
0.18
170
     2
 62
     0
 63
     7
283
     0
274
    -2
284
     1
 64
     0
275
    -2
285
     1
 65
     0
276
    -2
286
     1
 66
     0
277
    -2
287
     1
 67
     0
278
    -2
288
     1
 68
     0
279
    -2
289
     1
 69
     0
  7
STANDARD
140
0.25
170
     5
 62
     0
 63
     7
283
     0
274
    -2
284
     1
 64
     0
275
    -2
285
     1
 65
     0
276
    -2
286
     1
 66
     0
277
    -2
287
     1
 67
     0
278
    -2
288
     1
 68
     0
279
    -2
289
     1
 69
     0
  7
STANDARD
140
0.18
170
     5
 62
     0
 63
     7
283
     0
274
    -2
284
     1
 64
     0
275
    -2
285
     1
 65
     0
276
    -2
286
     1
 66
     0
277
    -2
287
     1
 67
     0
278
    -2
288
     1
 68
     0
279
    -2
289
     1
 69
     0
  0
VISUALSTYLE
  5
D68
102
{ACAD_XDICTIONARY
360
EFB
102
}
102
{ACAD_REACTORS
330
D62
102
}
330
D62
100
AcDbVisualStyle
  2
2dWireframe
 70
     4
 71
     0
 72
     2
 73
     0
 90
        0
 40
-0.6
 41
-30.0
 62
     5
 63
     7
421
 16777215
 74
     1
 91
        4
 64
     7
 65
   257
 75
     1
175
     1
 42
1.0
 92
        0
 66
   257
 43
1.0
 76
     1
 77
     6
 78
     2
 67
     7
 79
     5
170
     0
171
     0
290
     0
174
     0
 93
        1
 44
0.0
173
     0
291
     0
 45
0.0
1001
ACAD
1000
AcDbSavedByObjectVersion
1070
     0
  0
VISUALSTYLE
  5
D67
102
{ACAD_XDICTIONARY
360
EF9
102
}
102
{ACAD_REACTORS
330
D62
102
}
330
D62
100
AcDbVisualStyle
  2
Basic
 70
     7
 71
     1
 72
     0
 73
     1
 90
        0
 40
-0.6
 41
-30.0
 62
     5
 63
     7
421
 16777215
 74
     0
 91
        4
 64
     7
 65
   257
 75
     1
175
     1
 42
1.0
 92
        8
 66
     7
 43
1.0
 76
     1
 77
     6
 78
     2
 67
     7
 79
     5
170
     0
171
     0
290
     0
174
     0
 93
        1
 44
0.0
173
     0
291
     1
 45
0.0
1001
ACAD
1000
AcDbSavedByObjectVersion
1070
     0
  0
VISUALSTYLE
  5
D6E
102
{ACAD_XDICTIONARY
360
F07
102
}
102
{ACAD_REACTORS
330
D62
102
}
330
D62
100
AcDbVisualStyle
  2
Brighten
 70
    12
 71
     2
 72
     2
 73
     0
 90
        0
 40
-0.6
 41
-30.0
 62
     5
 63
     7
421
 16777215
 74
     1
 91
        4
 64
     7
 65
   257
 75
     1
175
     1
 42
1.0
 92
        8
 66
     7
 43
1.0
 76
     1
 77
     6
 78
     2
 67
     7
 79
     5
170
     0
171
     0
290
     0
174
     0
 93
        1
 44
50.0
173
     0
291
     1
 45
0.0
1001
ACAD
1000
AcDbSavedByObjectVersion
1070
     0
  0
VISUALSTYLE
  5
D72
102
{ACAD_XDICTIONARY
360
F0F
102
}
102
{ACAD_REACTORS
330
D62
102
}
330
D62
100
AcDbVisualStyle
  2
ColorChange
 70
    16
 71
     2
 72
     2
 73
     3
 90
        0
 40
-0.6
 41
-30.0
 62
     5
 63
     8
421
  8421504
 74
     1
 91
        4
 64
     7
 65
   257
 75
     1
175
     1
 42
1.0
 92
        8
 66
     8
424
  8421504
 43
1.0
 76
     1
 77
     6
 78
     2
 67
     7
 79
     5
170
     0
171
     0
290
     0
174
     0
 93
        1
 44
0.0
173
     0
291
     1
 45
0.0
1001
ACAD
1000
AcDbSavedByObjectVersion
1070
     0
  0
VISUALSTYLE
  5
D6B
102
{ACAD_XDICTIONARY
360
F01
102
}
102
{ACAD_REACTORS
330
D62
102
}
330
D62
100
AcDbVisualStyle
  2
Conceptual
 70
     9
 71
     3
 72
     2
 73
     0
 90
        0
 40
-0.6
 41
-30.0
 62
     5
 63
     7
421
 16777215
 74
     2
 91
        2
 64
     7
 65
   257
 75
     1
175
     1
 42
179.0
 92
        8
 66
     7
 43
1.0
 76
     1
 77
     6
 78
     2
 67
     7
 79
     3
170
     0
171
     0
290
     0
174
     0
 93
        1
 44
0.0
173
     0
291
     0
 45
0.0
1001
ACAD
1000
AcDbSavedByObjectVersion
1070
     0
  0
VISUALSTYLE
  5
D6D
102
{ACAD_XDICTIONARY
360
F05
102
}
102
{ACAD_REACTORS
330
D62
102
}
330
D62
100
AcDbVisualStyle
  2
Dim
 70
    11
 71
     2
 72
     2
 73
     0
 90
        0
 40
-0.6
 41
-30.0
 62
     5
 63
     7
421
 16777215
 74
     1
 91
        4
 64
     7
 65
   257
 75
     1
175
     1
 42
1.0
 92
        8
 66
     7
 43
1.0
 76
     1
 77
     6
 78
     2
 67
     7
 79
     5
170
     0
171
     0
290
     0
174
     0
 93
        1
 44
-50.0
173
     0
291
     1
 45
0.0
1001
ACAD
1000
AcDbSavedByObjectVersion
1070
     0
  0
VISUALSTYLE
  5
D7A
102
{ACAD_XDICTIONARY
360
F1F
102
}
102
{ACAD_REACTORS
330
D62
102
}
330
D62
100
AcDbVisualStyle
  2
EdgeColorOff
 70
    22
 71
     2
 72
     2
 73
     0
 90
        0
 40
-0.6
 41
-30.0
 62
     5
 63
     7
421
 16777215
 74
     1
 91
        4
 64
     7
 65
   257
 75
     1
175
     1
 42
1.0
 92
        8
 66
     7
 43
1.0
 76
     1
 77
     6
 78
     2
 67
     7
 79
     5
170
     0
171
     0
290
     0
174
     0
 93
        1
 44
0.0
173
     0
291
     1
 45
0.0
1001
ACAD
1000
AcDbSavedByObjectVersion
1070
     0
  0
VISUALSTYLE
  5
D71
102
{ACAD_XDICTIONARY
360
F0D
102
}
102
{ACAD_REACTORS
330
D62
102
}
330
D62
100
AcDbVisualStyle
  2
Facepattern
 70
    15
 71
     2
 72
     2
 73
     0
 90
        0
 40
-0.6
 41
-30.0
 62
     5
 63
     7
421
 16777215
 74
     1
 91
        4
 64
     7
 65
   257
 75
     1
175
     1
 42
1.0
 92
        8
 66
     7
 43
1.0
 76
     1
 77
     6
 78
     2
 67
     7
 79
     5
170
     0
171
     0
290
     0
174
     0
 93
        1
 44
0.0
173
     0
291
     1
 45
0.0
1001
ACAD
1000
AcDbSavedByObjectVersion
1070
     0
  0
VISUALSTYLE
  5
D63
102
{ACAD_XDICTIONARY
360
EF1
102
}
102
{ACAD_REACTORS
330
D62
102
}
330
D62
100
AcDbVisualStyle
  2
Flat
 70
     0
 71
     2
 72
     1
 73
     1
 90
        2
 40
-0.6
 41
30.0
 62
     5
 63
     7
421
 16777215
 74
     0
 91
        0
 64
     7
 65
   257
 75
     1
175
     1
 42
1.0
 92
        8
 66
     7
 43
1.0
 76
     1
 77
     6
 78
     2
 67
     7
 79
     5
170
     0
171
     0
290
     0
174
     0
 93
       13
 44
0.0
173
     0
291
     1
 45
0.0
1001
ACAD
1000
AcDbSavedByObjectVersion
1070
     0
  0
VISUALSTYLE
  5
D64
102
{ACAD_XDICTIONARY
360
EF3
102
}
102
{ACAD_REACTORS
330
D62
102
}
330
D62
100
AcDbVisualStyle
  2
FlatWithEdges
 70
     1
 71
     2
 72
     1
 73
     1
 90
        2
 40
-0.6
 41
30.0
 62
     5
 63
     7
421
 16777215
 74
     1
 91
        0
 64
     7
 65
   257
 75
     1
175
     1
 42
1.0
 92
        0
 66
   257
 43
1.0
 76
     1
 77
     6
 78
     2
 67
     7
 79
     5
170
     0
171
     0
290
     0
174
     0
 93
       13
 44
0.0
173
     0
291
     1
 45
0.0
1001
ACAD
1000
AcDbSavedByObjectVersion
1070
     0
  0
VISUALSTYLE
  5
D65
102
{ACAD_XDICTIONARY
360
EF5
102
}
102
{ACAD_REACTORS
330
D62
102
}
330
D62
100
AcDbVisualStyle
  2
Gouraud
 70
     2
 71
     2
 72
     2
 73
     1
 90
        2
 40
-0.6
 41
30.0
 62
     5
 63
     7
421
 16777215
 74
     0
 91
        0
 64
     7
 65
   257
 75
     1
175
     1
 42
1.0
 92
        0
 66
     7
 43
1.0
 76
     1
 77
     6
 78
     2
 67
     7
 79
     5
170
     0
171
     0
290
     0
174
     0
 93
       13
 44
0.0
173
     0
291
     1
 45
0.0
1001
ACAD
1000
AcDbSavedByObjectVersion
1070
     0
  0
VISUALSTYLE
  5
D66
102
{ACAD_XDICTIONARY
360
EF7
102
}
102
{ACAD_REACTORS
330
D62
102
}
330
D62
100
AcDbVisualStyle
  2
GouraudWithEdges
 70
     3
 71
     2
 72
     2
 73
     1
 90
        2
 40
-0.6
 41
30.0
 62
     5
 63
     7
421
 16777215
 74
     1
 91
        0
 64
     7
 65
   257
 75
     1
175
     1
 42
1.0
 92
        0
 66
   257
 43
1.0
 76
     1
 77
     6
 78
     2
 67
     7
 79
     5
170
     0
171
     0
290
     0
174
     0
 93
       13
 44
0.0
173
     0
291
     1
 45
0.0
1001
ACAD
1000
AcDbSavedByObjectVersion
1070
     0
  0
VISUALSTYLE
  5
D6A
102
{ACAD_XDICTIONARY
360
EFF
102
}
102
{ACAD_REACTORS
330
D62
102
}
330
D62
100
AcDbVisualStyle
  2
Hidden
 70
     6
 71
     1
 72
     2
 73
     2
 90
        0
 40
-0.6
 41
-30.0
 62
     5
 63
     7
421
 16777215
 74
     2
 91
        2
 64
     7
 65
   257
 75
     2
175
     1
 42
40.0
 92
        0
 66
   257
 43
1.0
 76
     1
 77
     6
 78
     2
 67
     7
 79
     3
170
     0
171
     0
290
     0
174
     0
 93
        1
 44
0.0
173
     0
291
     0
 45
0.0
1001
ACAD
1000
AcDbSavedByObjectVersion
1070
     0
  0
VISUALSTYLE
  5
D78
102
{ACAD_XDICTIONARY
360
F1B
102
}
102
{ACAD_REACTORS
330
D62
102
}
330
D62
100
AcDbVisualStyle
  2
JitterOff
 70
    20
 71
     2
 72
     2
 73
     0
 90
        0
 40
-0.6
 41
-30.0
 62
     5
 63
     7
421
 16777215
 74
     1
 91
        4
 64
     7
 65
   257
 75
     1
175
     1
 42
1.0
 92
       10
 66
     7
 43
1.0
 76
     1
 77
     6
 78
     2
 67
     7
 79
     5
170
     0
171
     0
290
     0
174
     0
 93
        1
 44
0.0
173
     0
291
     1
 45
0.0
1001
ACAD
1000
AcDbSavedByObjectVersion
1070
     0
  0
VISUALSTYLE
  5
D70
102
{ACAD_XDICTIONARY
360
F0B
102
}
102
{ACAD_REACTORS
330
D62
102
}
330
D62
100
AcDbVisualStyle
  2
Linepattern
 70
    14
 71
     2
 72
     2
 73
     0
 90
        0
 40
-0.6
 41
-30.0
 62
     5
 63
     7
421
 16777215
 74
     1
 91
        4
 64
     7
 65
   257
 75
     7
175
     7
 42
1.0
 92
        8
 66
     7
 43
1.0
 76
     1
 77
     6
 78
     2
 67
     7
 79
     5
170
     0
171
     0
290
     0
174
     0
 93
        1
 44
0.0
173
     0
291
     1
 45
0.0
1001
ACAD
1000
AcDbSavedByObjectVersion
1070
     0
  0
VISUALSTYLE
  5
D79
102
{ACAD_XDICTIONARY
360
F1D
102
}
102
{ACAD_REACTORS
330
D62
102
}
330
D62
100
AcDbVisualStyle
  2
OverhangOff
 70
    21
 71
     2
 72
     2
 73
     0
 90
        0
 40
-0.6
 41
-30.0
 62
     5
 63
     7
421
 16777215
 74
     1
 91
        4
 64
     7
 65
   257
 75
     1
175
     1
 42
1.0
 92
        9
 66
     7
 43
1.0
 76
     1
 77
     6
 78
     2
 67
     7
 79
     5
170
     0
171
     0
290
     0
174
     0
 93
        1
 44
0.0
173
     0
291
     1
 45
0.0
1001
ACAD
1000
AcDbSavedByObjectVersion
1070
     0
  0
VISUALSTYLE
  5
D6C
102
{ACAD_XDICTIONARY
360
F03
102
}
102
{ACAD_REACTORS
330
D62
102
}
330
D62
100
AcDbVisualStyle
  2
Realistic
 70
     8
 71
     2
 72
     2
 73
     0
 90
        2
 40
-0.6
 41
30.0
 62
     5
 63
     7
421
 16777215
 74
     0
 91
        0
 64
     7
 65
   257
 75
     1
175
     1
 42
1.0
 92
        8
 66
   257
 43
1.0
 76
     1
 77
     6
 78
     2
 67
     7
 79
     3
170
     0
171
     0
290
     0
174
     0
 93
       13
 44
0.0
173
     0
291
     0
 45
0.0
1001
ACAD
1000
AcDbSavedByObjectVersion
1070
     0
  0
VISUALSTYLE
  5
D77
102
{ACAD_XDICTIONARY
360
F19
102
}
102
{ACAD_REACTORS
330
D62
102
}
330
D62
100
AcDbVisualStyle
  2
Shaded
 70
    27
 71
     2
 72
     2
 73
     1
 90
        2
 40
-0.6
 41
30.0
 62
     5
 63
     7
421
 16777215
 74
     0
 91
        4
 64
     7
 65
   257
 75
     1
175
     1
 42
1.0
 92
        8
 66
   257
 43
1.0
 76
     1
 77
     6
 78
     2
 67
     8
425
  7895160
 79
     3
170
     0
171
     0
290
     0
174
     0
 93
        5
 44
0.0
173
     0
291
     0
 45
0.0
1001
ACAD
1000
AcDbSavedByObjectVersion
1070
     0
  0
VISUALSTYLE
  5
D76
102
{ACAD_XDICTIONARY
360
F17
102
}
102
{ACAD_REACTORS
330
D62
102
}
330
D62
100
AcDbVisualStyle
  2
Shaded with edges
 70
    26
 71
     2
 72
     2
 73
     1
 90
        2
 40
-0.6
 41
30.0
 62
     5
 63
     7
421
 16777215
 74
     1
 91
       10
 64
     7
 65
   257
 75
     2
175
     1
 42
1.0
 92
        8
 66
   257
 43
1.0
 76
     1
 77
     6
 78
     2
 67
     7
 79
     3
170
     0
171
     0
290
     0
174
     0
 93
        5
 44
0.0
173
     0
291
     0
 45
0.0
1001
ACAD
1000
AcDbSavedByObjectVersion
1070
     0
  0
VISUALSTYLE
  5
D73
102
{ACAD_XDICTIONARY
360
F11
102
}
102
{ACAD_REACTORS
330
D62
102
}
330
D62
100
AcDbVisualStyle
  2
Shades of Gray
 70
    23
 71
     2
 72
     2
 73
     3
 90
        0
 40
-0.6
 41
-30.0
 62
     5
 63
     7
421
 16777215
 74
     2
 91
        2
 64
     7
 65
     7
 75
     1
175
     1
 42
40.0
 92
        8
 66
     7
 43
1.0
 76
     1
 77
     6
 78
     2
 67
     7
 79
     3
170
     0
171
     0
290
     0
174
     0
 93
        1
 44
0.0
173
     0
291
     0
 45
0.0
1001
ACAD
1000
AcDbSavedByObjectVersion
1070
     0
  0
VISUALSTYLE
  5
D74
102
{ACAD_XDICTIONARY
360
F13
102
}
102
{ACAD_REACTORS
330
D62
102
}
330
D62
100
AcDbVisualStyle
  2
Sketchy
 70
    24
 71
     1
 72
     2
 73
     2
 90
        0
 40
-0.6
 41
-30.0
 62
     5
 63
     7
421
 16777215
 74
     2
 91
        2
 64
     7
 65
     7
 75
     1
175
     1
 42
40.0
 92
       11
 66
     7
 43
1.0
 76
     1
 77
     6
 78
     2
 67
     7
 79
     6
170
     0
171
     0
290
     0
174
     0
 93
        1
 44
0.0
173
     0
291
     0
 45
0.0
1001
ACAD
1000
AcDbSavedByObjectVersion
1070
     0
  0
VISUALSTYLE
  5
D6F
102
{ACAD_XDICTIONARY
360
F09
102
}
102
{ACAD_REACTORS
330
D62
102
}
330
D62
100
AcDbVisualStyle
  2
Thicken
 70
    13
 71
     2
 72
     2
 73
     0
 90
        0
 40
-0.6
 41
-30.0
 62
     5
 63
     7
421
 16777215
 74
     1
 91
        4
 64
     7
 65
   257
 75
     1
175
     1
 42
1.0
 92
       12
 66
     7
 43
1.0
 76
     1
 77
     6
 78
     2
 67
     7
 79
     5
170
     0
171
     0
290
     0
174
     0
 93
        1
 44
0.0
173
     0
291
     1
 45
0.0
1001
ACAD
1000
AcDbSavedByObjectVersion
1070
     0
  0
VISUALSTYLE
  5
D69
102
{ACAD_XDICTIONARY
360
EFD
102
}
102
{ACAD_REACTORS
330
D62
102
}
330
D62
100
AcDbVisualStyle
  2
Wireframe
 70
     5
 71
     0
 72
     2
 73
     0
 90
        0
 40
-0.6
 41
-30.0
 62
     5
 63
     7
421
 16777215
 74
     1
 91
        4
 64
     7
 65
   257
 75
     1
175
     1
 42
1.0
 92
        0
 66
   257
 43
1.0
 76
     1
 77
     6
 78
     2
 67
     7
 79
     3
170
     0
171
     0
290
     0
174
     0
 93
        1
 44
0.0
173
     0
291
     0
 45
0.0
1001
ACAD
1000
AcDbSavedByObjectVersion
1070
     0
  0
VISUALSTYLE
  5
D75
102
{ACAD_XDICTIONARY
360
F15
102
}
102
{ACAD_REACTORS
330
D62
102
}
330
D62
100
AcDbVisualStyle
  2
X-Ray
 70
    25
 71
     2
 72
     2
 73
     1
 90
        1
 40
0.5
 41
-30.0
 62
     5
 63
     7
421
 16777215
 74
     1
 91
        0
 64
     7
 65
   257
 75
     1
175
     1
 42
1.0
 92
        8
 66
     7
 43
1.0
 76
     1
 77
     6
 78
     2
 67
     7
 79
     3
170
     0
171
     0
290
     0
174
     0
 93
       13
 44
0.0
173
     0
291
     0
 45
0.0
1001
ACAD
1000
AcDbSavedByObjectVersion
1070
     0
  0
DICTIONARYVAR
  5
E74
102
{ACAD_REACTORS
330
810
102
}
330
810
100
DictionaryVariables
280
     0
  1
1:1
  0
DICTIONARYVAR
  5
E71
102
{ACAD_REACTORS
330
810
102
}
330
810
100
DictionaryVariables
280
     0
  1
STANDARD
  0
DICTIONARYVAR
  5
E70
102
{ACAD_REACTORS
330
810
102
}
330
810
100
DictionaryVariables
280
     0
  1
STANDARD
  0
DICTIONARYVAR
  5
E72
102
{ACAD_REACTORS
330
810
102
}
330
810
100
DictionaryVariables
280
     0
  1
Imperial24
  0
DICTIONARYVAR
  5
E73
102
{ACAD_REACTORS
330
810
102
}
330
810
100
DictionaryVariables
280
     0
  1
Imperial24
  0
DICTIONARYVAR
  5
812
102
{ACAD_REACTORS
330
810
102
}
330
810
100
DictionaryVariables
280
     0
  1
2
  0
DICTIONARYVAR
  5
811
102
{ACAD_REACTORS
330
810
102
}
330
810
100
DictionaryVariables
280
     0
  1
1
  0
DICTIONARYVAR
  5
813
102
{ACAD_REACTORS
330
810
102
}
330
810
100
DictionaryVariables
280
     0
  1

  0
DICTIONARYVAR
  5
EEB
102
{ACAD_REACTORS
330
810
102
}
330
810
100
DictionaryVariables
280
     0
  1
2
  0
DICTIONARY
  5
D53
330
D52
100
AcDbDictionary
280
     1
281
     1
  3
ACAD_XREC_ROUNDTRIP
360
EEF
  3
BUMPTILE
360
D55
  3
DIFFUSETILE
360
D54
  3
OPACITYTILE
360
D58
  3
REFLECTIONTILE
360
D57
  3
REFRACTIONTILE
360
D59
  3
SPECULARTILE
360
D56
  0
DICTIONARY
  5
D4B
330
D4A
100
AcDbDictionary
280
     1
281
     1
  3
ACAD_XREC_ROUNDTRIP
360
EEE
  3
BUMPTILE
360
D4D
  3
DIFFUSETILE
360
D4C
  3
OPACITYTILE
360
D50
  3
REFLECTIONTILE
360
D4F
  3
REFRACTIONTILE
360
D51
  3
SPECULARTILE
360
D4E
  0
DICTIONARY
  5
D5B
330
D5A
100
AcDbDictionary
280
     1
281
     1
  3
ACAD_XREC_ROUNDTRIP
360
EF0
  3
BUMPTILE
360
D5D
  3
DIFFUSETILE
360
D5C
  3
OPACITYTILE
360
D60
  3
REFLECTIONTILE
360
D5F
  3
REFRACTIONTILE
360
D61
  3
SPECULARTILE
360
D5E
  0
DICTIONARY
  5
F22
330
D90
100
AcDbDictionary
280
     1
281
     1
  3
ACAD_XREC_ROUNDTRIP
360
F23
  0
DICTIONARY
  5
E34
330
D7C
100
AcDbDictionary
280
     1
281
     1
  3
ACAD_ROUNDTRIP_2008_TABLESTYLE_CELLSTYLEMAP
360
EEC
  3
ACAD_XREC_ROUNDTRIP
360
F21
  0
DICTIONARY
  5
EFB
330
D68
100
AcDbDictionary
280
     1
281
     1
  3
ACAD_XREC_ROUNDTRIP
360
EFC
  0
DICTIONARY
  5
EF9
330
D67
100
AcDbDictionary
280
     1
281
     1
  3
ACAD_XREC_ROUNDTRIP
360
EFA
  0
DICTIONARY
  5
F07
330
D6E
100
AcDbDictionary
280
     1
281
     1
  3
ACAD_XREC_ROUNDTRIP
360
F08
  0
DICTIONARY
  5
F0F
330
D72
100
AcDbDictionary
280
     1
281
     1
  3
ACAD_XREC_ROUNDTRIP
360
F10
  0
DICTIONARY
  5
F01
330
D6B
100
AcDbDictionary
280
     1
281
     1
  3
ACAD_XREC_ROUNDTRIP
360
F02
  0
DICTIONARY
  5
F05
330
D6D
100
AcDbDictionary
280
     1
281
     1
  3
ACAD_XREC_ROUNDTRIP
360
F06
  0
DICTIONARY
  5
F1F
330
D7A
100
AcDbDictionary
280
     1
281
     1
  3
ACAD_XREC_ROUNDTRIP
360
F20
  0
DICTIONARY
  5
F0D
330
D71
100
AcDbDictionary
280
     1
281
     1
  3
ACAD_XREC_ROUNDTRIP
360
F0E
  0
DICTIONARY
  5
EF1
330
D63
100
AcDbDictionary
280
     1
281
     1
  3
ACAD_XREC_ROUNDTRIP
360
EF2
  0
DICTIONARY
  5
EF3
330
D64
100
AcDbDictionary
280
     1
281
     1
  3
ACAD_XREC_ROUNDTRIP
360
EF4
  0
DICTIONARY
  5
EF5
330
D65
100
AcDbDictionary
280
     1
281
     1
  3
ACAD_XREC_ROUNDTRIP
360
EF6
  0
DICTIONARY
  5
EF7
330
D66
100
AcDbDictionary
280
     1
281
     1
  3
ACAD_XREC_ROUNDTRIP
360
EF8
  0
DICTIONARY
  5
EFF
330
D6A
100
AcDbDictionary
280
     1
281
     1
  3
ACAD_XREC_ROUNDTRIP
360
F00
  0
DICTIONARY
  5
F1B
330
D78
100
AcDbDictionary
280
     1
281
     1
  3
ACAD_XREC_ROUNDTRIP
360
F1C
  0
DICTIONARY
  5
F0B
330
D70
100
AcDbDictionary
280
     1
281
     1
  3
ACAD_XREC_ROUNDTRIP
360
F0C
  0
DICTIONARY
  5
F1D
330
D79
100
AcDbDictionary
280
     1
281
     1
  3
ACAD_XREC_ROUNDTRIP
360
F1E
  0
DICTIONARY
  5
F03
330
D6C
100
AcDbDictionary
280
     1
281
     1
  3
ACAD_XREC_ROUNDTRIP
360
F04
  0
DICTIONARY
  5
F19
330
D77
100
AcDbDictionary
280
     1
281
     1
  3
ACAD_XREC_ROUNDTRIP
360
F1A
  0
DICTIONARY
  5
F17
330
D76
100
AcDbDictionary
280
     1
281
     1
  3
ACAD_XREC_ROUNDTRIP
360
F18
  0
DICTIONARY
  5
F11
330
D73
100
AcDbDictionary
280
     1
281
     1
  3
ACAD_XREC_ROUNDTRIP
360
F12
  0
DICTIONARY
  5
F13
330
D74
100
AcDbDictionary
280
     1
281
     1
  3
ACAD_XREC_ROUNDTRIP
360
F14
  0
DICTIONARY
  5
F09
330
D6F
100
AcDbDictionary
280
     1
281
     1
  3
ACAD_XREC_ROUNDTRIP
360
F0A
  0
DICTIONARY
  5
EFD
330
D69
100
AcDbDictionary
280
     1
281
     1
  3
ACAD_XREC_ROUNDTRIP
360
EFE
  0
DICTIONARY
  5
F15
330
D75
100
AcDbDictionary
280
     1
281
     1
  3
ACAD_XREC_ROUNDTRIP
360
F16
  0
XRECORD
  5
EEF
102
{ACAD_REACTORS
330
D53
102
}
330
D53
100
AcDbXrecord
280
     1
102
MATERIAL
148
0.0
149
0.0
149
0.0
 93
        0
 94
      127
282
     0
 72
     0
 77
     0
171
     0
175
     0
179
     0
273
     0
  0
XRECORD
  5
D55
102
{ACAD_REACTORS
330
D53
102
}
330
D53
100
AcDbXrecord
280
     1
270
     1
271
     1
  0
XRECORD
  5
D54
102
{ACAD_REACTORS
330
D53
102
}
330
D53
100
AcDbXrecord
280
     1
270
     1
271
     1
  0
XRECORD
  5
D58
102
{ACAD_REACTORS
330
D53
102
}
330
D53
100
AcDbXrecord
280
     1
270
     1
271
     1
  0
XRECORD
  5
D57
102
{ACAD_REACTORS
330
D53
102
}
330
D53
100
AcDbXrecord
280
     1
270
     1
271
     1
  0
XRECORD
  5
D59
102
{ACAD_REACTORS
330
D53
102
}
330
D53
100
AcDbXrecord
280
     1
270
     1
271
     1
  0
XRECORD
  5
D56
102
{ACAD_REACTORS
330
D53
102
}
330
D53
100
AcDbXrecord
280
     1
270
     1
271
     1
  0
XRECORD
  5
EEE
102
{ACAD_REACTORS
330
D4B
102
}
330
D4B
100
AcDbXrecord
280
     1
102
MATERIAL
148
0.0
149
0.0
149
0.0
 93
        0
 94
      127
282
     0
 72
     0
 77
     0
171
     0
175
     0
179
     0
273
     0
  0
XRECORD
  5
D4D
102
{ACAD_REACTORS
330
D4B
102
}
330
D4B
100
AcDbXrecord
280
     1
270
     1
271
     1
  0
XRECORD
  5
D4C
102
{ACAD_REACTORS
330
D4B
102
}
330
D4B
100
AcDbXrecord
280
     1
270
     1
271
     1
  0
XRECORD
  5
D50
102
{ACAD_REACTORS
330
D4B
102
}
330
D4B
100
AcDbXrecord
280
     1
270
     1
271
     1
  0
XRECORD
  5
D4F
102
{ACAD_REACTORS
330
D4B
102
}
330
D4B
100
AcDbXrecord
280
     1
270
     1
271
     1
  0
XRECORD
  5
D51
102
{ACAD_REACTORS
330
D4B
102
}
330
D4B
100
AcDbXrecord
280
     1
270
     1
271
     1
  0
XRECORD
  5
D4E
102
{ACAD_REACTORS
330
D4B
102
}
330
D4B
100
AcDbXrecord
280
     1
270
     1
271
     1
  0
XRECORD
  5
EF0
102
{ACAD_REACTORS
330
D5B
102
}
330
D5B
100
AcDbXrecord
280
     1
102
MATERIAL
148
0.0
149
0.0
149
0.0
 93
        0
 94
      127
282
     0
 72
     0
 77
     0
171
     0
175
     0
179
     0
273
     0
  0
XRECORD
  5
D5D
102
{ACAD_REACTORS
330
D5B
102
}
330
D5B
100
AcDbXrecord
280
     1
270
     1
271
     1
  0
XRECORD
  5
D5C
102
{ACAD_REACTORS
330
D5B
102
}
330
D5B
100
AcDbXrecord
280
     1
270
     1
271
     1
  0
XRECORD
  5
D60
102
{ACAD_REACTORS
330
D5B
102
}
330
D5B
100
AcDbXrecord
280
     1
270
     1
271
     1
  0
XRECORD
  5
D5F
102
{ACAD_REACTORS
330
D5B
102
}
330
D5B
100
AcDbXrecord
280
     1
270
     1
271
     1
  0
XRECORD
  5
D61
102
{ACAD_REACTORS
330
D5B
102
}
330
D5B
100
AcDbXrecord
280
     1
270
     1
271
     1
  0
XRECORD
  5
D5E
102
{ACAD_REACTORS
330
D5B
102
}
330
D5B
100
AcDbXrecord
280
     1
270
     1
271
     1
  0
XRECORD
  5
F23
102
{ACAD_REACTORS
330
F22
102
}
330
F22
100
AcDbXrecord
280
     1
102
ACAD_ROUNDTRIP_2012_MLEADER_STYLE
298
     1
  0
CELLSTYLEMAP
  5
EEC
102
{ACAD_REACTORS
330
E34
102
}
330
E34
100
AcDbCellStyleMap
 90
        3
300
CELLSTYLE
  1
TABLEFORMAT_BEGIN
 90
        5
170
     1
 91
        0
 92
    32768
 62
   257
 93
        1
300
CONTENTFORMAT
  1
CONTENTFORMAT_BEGIN
 90
        0
 91
        0
 92
      512
 93
        0
300

 40
0.0
140
1.0
 94
        5
 62
     0
340
11
144
0.25
309
CONTENTFORMAT_END
171
     0
 94
        0
309
TABLEFORMAT_END
  1
CELLSTYLE_BEGIN
 90
        1
 91
        1
300
_TITLE
309
CELLSTYLE_END
300
CELLSTYLE
  1
TABLEFORMAT_BEGIN
 90
        5
170
     1
 91
        0
 92
        0
 62
   257
 93
        1
300
CONTENTFORMAT
  1
CONTENTFORMAT_BEGIN
 90
        0
 91
        0
 92
      512
 93
        0
300

 40
0.0
140
1.0
 94
        5
 62
     0
340
11
144
0.18
309
CONTENTFORMAT_END
171
     0
 94
        0
309
TABLEFORMAT_END
  1
CELLSTYLE_BEGIN
 90
        2
 91
        1
300
_HEADER
309
CELLSTYLE_END
300
CELLSTYLE
  1
TABLEFORMAT_BEGIN
 90
        5
170
     1
 91
        0
 92
        0
 62
   257
 93
        1
300
CONTENTFORMAT
  1
CONTENTFORMAT_BEGIN
 90
        0
 91
        0
 92
      512
 93
        0
300

 40
0.0
140
1.0
 94
        2
 62
     0
340
11
144
0.18
309
CONTENTFORMAT_END
171
     0
 94
        0
309
TABLEFORMAT_END
  1
CELLSTYLE_BEGIN
 90
        3
 91
        2
300
_DATA
309
CELLSTYLE_END
  0
XRECORD
  5
F21
102
{ACAD_REACTORS
330
E34
102
}
330
E34
100
AcDbXrecord
280
     1
102
ACAD_ROUNDTRIP_PRE2007_TABLESTYLE
 90
      512
 91
        0
  1

 92
      512
 93
        0
  2

 94
      512
 95
        0
  3

  0
XRECORD
  5
EFC
102
{ACAD_REACTORS
330
EFB
102
}
330
EFB
100
AcDbXrecord
280
     1
102
RTVSPost2010Prop28
280
     1
102
RTVSPost2010PropOp28
 70
     1
102
RTVSPost2010Prop29
280
     1
102
RTVSPost2010PropOp29
 70
     1
102
RTVSPost2010Prop30
280
     0
102
RTVSPost2010PropOp30
 70
     1
102
RTVSPost2010Prop31
280
     0
102
RTVSPost2010PropOp31
 70
     1
102
RTVSPost2010Prop32
280
     0
102
RTVSPost2010PropOp32
 70
     1
102
RTVSPost2010Prop33
280
     0
102
RTVSPost2010PropOp33
 70
     1
102
RTVSPost2010Prop34
280
     0
102
RTVSPost2010PropOp34
 70
     1
102
RTVSPost2010Prop35
280
     0
102
RTVSPost2010PropOp35
 70
     1
102
RTVSPost2010Prop36
280
     0
102
RTVSPost2010PropOp36
 70
     1
102
RTVSPost2010Prop37
 90
       50
102
RTVSPost2010PropOp37
 70
     1
102
RTVSPost2010Prop38
140
0.0
102
RTVSPost2010PropOp38
 70
     1
102
RTVSPost2010Prop39
140
1.0
102
RTVSPost2010PropOp39
 70
     1
102
RTVSPost2010Prop40
 90
        0
102
RTVSPost2010PropOp40
 70
     1
102
RTVSPost2010Prop41ColorIndex
 90
       18
102
RTVSPost2010Prop41ColorRGB
 90
        0
102
RTVSPost2010PropOp41
 70
     1
102
RTVSPost2010Prop42
 90
       50
102
RTVSPost2010PropOp42
 70
     1
102
RTVSPost2010Prop43
 90
        3
102
RTVSPost2010PropOp43
 70
     1
102
RTVSPost2010Prop44ColorIndex
 90
        5
102
RTVSPost2010Prop44ColorRGB
 90
      255
102
RTVSPost2010PropOp44
 70
     1
102
RTVSPost2010Prop45
280
     0
102
RTVSPost2010PropOp45
 70
     1
102
RTVSPost2010Prop46
 90
       50
102
RTVSPost2010PropOp46
 70
     1
102
RTVSPost2010Prop47
 90
       50
102
RTVSPost2010PropOp47
 70
     1
102
RTVSPost2010Prop48
 90
       50
102
RTVSPost2010PropOp48
 70
     1
102
RTVSPost2010Prop49
280
     0
102
RTVSPost2010PropOp49
 70
     1
102
RTVSPost2010Prop50
 90
       50
102
RTVSPost2010PropOp50
 70
     1
102
RTVSPost2010Prop51ColorIndex
 90
      256
102
RTVSPost2010Prop51ColorRGB
 90
-16777216
102
RTVSPost2010PropOp51
 70
     0
102
RTVSPost2010Prop52
140
1.0
102
RTVSPost2010PropOp52
 70
     0
102
RTVSPost2010Prop53
 90
        2
102
RTVSPost2010PropOp53
 70
     1
102
RTVSPost2010Prop54
  1
strokes_ogs.tif
102
RTVSPost2010PropOp54
 70
     1
102
RTVSPost2010Prop55
280
     0
102
RTVSPost2010PropOp55
 70
     1
102
RTVSPost2010Prop56
140
1.0
102
RTVSPost2010PropOp56
 70
     1
102
RTVSPost2010Prop57
140
1.0
102
RTVSPost2010PropOp57
 70
     1
102
RTVSPropertyOp0
 70
     1
102
RTVSPropertyOp1
 70
     1
102
RTVSPropertyOp2
 70
     1
102
RTVSPropertyOp3
 70
     1
102
RTVSPropertyOp4
 70
     1
102
RTVSPropertyOp5
 70
     1
102
RTVSPropertyOp6
 70
     1
102
RTVSPropertyOp7
 70
     1
102
RTVSPropertyOp8
 70
     1
102
RTVSPropertyOp9
 70
     1
102
RTVSPropertyOp10
 70
     1
102
RTVSPropertyOp11
 70
     1
102
RTVSPropertyOp12
 70
     1
102
RTVSPropertyOp13
 70
     1
102
RTVSPropertyOp14
 70
     1
102
RTVSPropertyOp15
 70
     1
102
RTVSPropertyOp16
 70
     1
102
RTVSPropertyOp17
 70
     1
102
RTVSPropertyOp18
 70
     1
102
RTVSPropertyOp19
 70
     1
102
RTVSPropertyOp20
 70
     1
102
RTVSPropertyOp21
 70
     1
102
RTVSPropertyOp22
 70
     1
102
RTVSPropertyOp23
 70
     1
102
RTVSPropertyOp24
 70
     1
102
RTVSPropertyOp25
 70
     1
102
RTVSPropertyOp26
 70
     1
102
RTVSPropertyOp27
 70
     1
102
RTVSPropertyOp28
 70
     1
102
RTVSPropertyOp29
 70
     1
102
RTVSPropertyOp30
 70
     1
102
RTVSPropertyOp31
 70
     1
102
RTVSPropertyOp32
 70
     1
102
RTVSPropertyOp33
 70
     1
102
RTVSPropertyOp34
 70
     1
102
RTVSPropertyOp35
 70
     1
102
RTVSPropertyOp36
 70
     1
102
RTVSPropertyOp37
 70
     1
102
RTVSPropertyOp38
 70
     1
102
RTVSPropertyOp39
 70
     1
102
RTVSPropertyOp40
 70
     1
102
RTVSPropertyOp41
 70
     1
102
RTVSPropertyOp42
 70
     1
102
RTVSPropertyOp43
 70
     1
102
RTVSPropertyOp44
 70
     1
102
RTVSPropertyOp45
 70
     1
102
RTVSPropertyOp46
 70
     1
102
RTVSPropertyOp47
 70
     1
102
RTVSPropertyOp48
 70
     1
102
RTVSPropertyOp49
 70
     1
102
RTVSPropertyOp50
 70
     1
102
RTVSPropertyOp51
 70
     0
102
RTVSPropertyOp52
 70
     0
102
RTVSPropertyOp53
 70
     1
102
RTVSPropertyOp54
 70
     1
102
RTVSPropertyOp55
 70
     1
102
RTVSPropertyOp56
 70
     1
102
RTVSPropertyOp57
 70
     1
102
RTVSPropertyOp58
 70
     1
102
RTVSPropertyOp59
 70
     1
102
RTVSPropertyOp60
 70
     1
102
RTVSPropertyOp61
 70
     1
102
RTVSPropertyOp62
 70
     1
  0
XRECORD
  5
EFA
102
{ACAD_REACTORS
330
EF9
102
}
330
EF9
100
AcDbXrecord
280
     1
102
RTVSPost2010Prop28
280
     0
102
RTVSPost2010PropOp28
 70
     1
102
RTVSPost2010Prop29
280
     1
102
RTVSPost2010PropOp29
 70
     1
102
RTVSPost2010Prop30
280
     1
102
RTVSPost2010PropOp30
 70
     1
102
RTVSPost2010Prop31
280
     0
102
RTVSPost2010PropOp31
 70
     1
102
RTVSPost2010Prop32
280
     0
102
RTVSPost2010PropOp32
 70
     1
102
RTVSPost2010Prop33
280
     0
102
RTVSPost2010PropOp33
 70
     1
102
RTVSPost2010Prop34
280
     0
102
RTVSPost2010PropOp34
 70
     1
102
RTVSPost2010Prop35
280
     0
102
RTVSPost2010PropOp35
 70
     1
102
RTVSPost2010Prop36
280
     0
102
RTVSPost2010PropOp36
 70
     1
102
RTVSPost2010Prop37
 90
       50
102
RTVSPost2010PropOp37
 70
     1
102
RTVSPost2010Prop38
140
0.0
102
RTVSPost2010PropOp38
 70
     1
102
RTVSPost2010Prop39
140
1.0
102
RTVSPost2010PropOp39
 70
     1
102
RTVSPost2010Prop40
 90
        0
102
RTVSPost2010PropOp40
 70
     1
102
RTVSPost2010Prop41ColorIndex
 90
       18
102
RTVSPost2010Prop41ColorRGB
 90
        0
102
RTVSPost2010PropOp41
 70
     1
102
RTVSPost2010Prop42
 90
       50
102
RTVSPost2010PropOp42
 70
     1
102
RTVSPost2010Prop43
 90
        3
102
RTVSPost2010PropOp43
 70
     1
102
RTVSPost2010Prop44ColorIndex
 90
        5
102
RTVSPost2010Prop44ColorRGB
 90
      255
102
RTVSPost2010PropOp44
 70
     1
102
RTVSPost2010Prop45
280
     0
102
RTVSPost2010PropOp45
 70
     1
102
RTVSPost2010Prop46
 90
       50
102
RTVSPost2010PropOp46
 70
     1
102
RTVSPost2010Prop47
 90
       50
102
RTVSPost2010PropOp47
 70
     1
102
RTVSPost2010Prop48
 90
       50
102
RTVSPost2010PropOp48
 70
     1
102
RTVSPost2010Prop49
280
     0
102
RTVSPost2010PropOp49
 70
     1
102
RTVSPost2010Prop50
 90
       50
102
RTVSPost2010PropOp50
 70
     1
102
RTVSPost2010Prop51ColorIndex
 90
      256
102
RTVSPost2010Prop51ColorRGB
 90
-16777216
102
RTVSPost2010PropOp51
 70
     0
102
RTVSPost2010Prop52
140
1.0
102
RTVSPost2010PropOp52
 70
     0
102
RTVSPost2010Prop53
 90
        2
102
RTVSPost2010PropOp53
 70
     1
102
RTVSPost2010Prop54
  1
strokes_ogs.tif
102
RTVSPost2010PropOp54
 70
     1
102
RTVSPost2010Prop55
280
     0
102
RTVSPost2010PropOp55
 70
     1
102
RTVSPost2010Prop56
140
1.0
102
RTVSPost2010PropOp56
 70
     1
102
RTVSPost2010Prop57
140
1.0
102
RTVSPost2010PropOp57
 70
     1
102
RTVSPropertyOp0
 70
     1
102
RTVSPropertyOp1
 70
     1
102
RTVSPropertyOp2
 70
     1
102
RTVSPropertyOp3
 70
     1
102
RTVSPropertyOp4
 70
     1
102
RTVSPropertyOp5
 70
     1
102
RTVSPropertyOp6
 70
     1
102
RTVSPropertyOp7
 70
     1
102
RTVSPropertyOp8
 70
     1
102
RTVSPropertyOp9
 70
     1
102
RTVSPropertyOp10
 70
     1
102
RTVSPropertyOp11
 70
     1
102
RTVSPropertyOp12
 70
     1
102
RTVSPropertyOp13
 70
     1
102
RTVSPropertyOp14
 70
     1
102
RTVSPropertyOp15
 70
     1
102
RTVSPropertyOp16
 70
     1
102
RTVSPropertyOp17
 70
     1
102
RTVSPropertyOp18
 70
     1
102
RTVSPropertyOp19
 70
     1
102
RTVSPropertyOp20
 70
     1
102
RTVSPropertyOp21
 70
     1
102
RTVSPropertyOp22
 70
     1
102
RTVSPropertyOp23
 70
     1
102
RTVSPropertyOp24
 70
     1
102
RTVSPropertyOp25
 70
     1
102
RTVSPropertyOp26
 70
     1
102
RTVSPropertyOp27
 70
     1
102
RTVSPropertyOp28
 70
     1
102
RTVSPropertyOp29
 70
     1
102
RTVSPropertyOp30
 70
     1
102
RTVSPropertyOp31
 70
     1
102
RTVSPropertyOp32
 70
     1
102
RTVSPropertyOp33
 70
     1
102
RTVSPropertyOp34
 70
     1
102
RTVSPropertyOp35
 70
     1
102
RTVSPropertyOp36
 70
     1
102
RTVSPropertyOp37
 70
     1
102
RTVSPropertyOp38
 70
     1
102
RTVSPropertyOp39
 70
     1
102
RTVSPropertyOp40
 70
     1
102
RTVSPropertyOp41
 70
     1
102
RTVSPropertyOp42
 70
     1
102
RTVSPropertyOp43
 70
     1
102
RTVSPropertyOp44
 70
     1
102
RTVSPropertyOp45
 70
     1
102
RTVSPropertyOp46
 70
     1
102
RTVSPropertyOp47
 70
     1
102
RTVSPropertyOp48
 70
     1
102
RTVSPropertyOp49
 70
     1
102
RTVSPropertyOp50
 70
     1
102
RTVSPropertyOp51
 70
     0
102
RTVSPropertyOp52
 70
     0
102
RTVSPropertyOp53
 70
     1
102
RTVSPropertyOp54
 70
     1
102
RTVSPropertyOp55
 70
     1
102
RTVSPropertyOp56
 70
     1
102
RTVSPropertyOp57
 70
     1
102
RTVSPropertyOp58
 70
     1
102
RTVSPropertyOp59
 70
     1
102
RTVSPropertyOp60
 70
     1
102
RTVSPropertyOp61
 70
     1
102
RTVSPropertyOp62
 70
     1
  0
XRECORD
  5
F08
102
{ACAD_REACTORS
330
F07
102
}
330
F07
100
AcDbXrecord
280
     1
102
RTVSPost2010Prop28
280
     0
102
RTVSPost2010PropOp28
 70
     1
102
RTVSPost2010Prop29
280
     1
102
RTVSPost2010PropOp29
 70
     1
102
RTVSPost2010Prop30
280
     1
102
RTVSPost2010PropOp30
 70
     1
102
RTVSPost2010Prop31
280
     0
102
RTVSPost2010PropOp31
 70
     1
102
RTVSPost2010Prop32
280
     0
102
RTVSPost2010PropOp32
 70
     1
102
RTVSPost2010Prop33
280
     0
102
RTVSPost2010PropOp33
 70
     1
102
RTVSPost2010Prop34
280
     0
102
RTVSPost2010PropOp34
 70
     1
102
RTVSPost2010Prop35
280
     0
102
RTVSPost2010PropOp35
 70
     1
102
RTVSPost2010Prop36
280
     0
102
RTVSPost2010PropOp36
 70
     1
102
RTVSPost2010Prop37
 90
       50
102
RTVSPost2010PropOp37
 70
     1
102
RTVSPost2010Prop38
140
0.0
102
RTVSPost2010PropOp38
 70
     1
102
RTVSPost2010Prop39
140
1.0
102
RTVSPost2010PropOp39
 70
     1
102
RTVSPost2010Prop40
 90
        0
102
RTVSPost2010PropOp40
 70
     1
102
RTVSPost2010Prop41ColorIndex
 90
       18
102
RTVSPost2010Prop41ColorRGB
 90
        0
102
RTVSPost2010PropOp41
 70
     1
102
RTVSPost2010Prop42
 90
       50
102
RTVSPost2010PropOp42
 70
     1
102
RTVSPost2010Prop43
 90
        3
102
RTVSPost2010PropOp43
 70
     1
102
RTVSPost2010Prop44ColorIndex
 90
        5
102
RTVSPost2010Prop44ColorRGB
 90
      255
102
RTVSPost2010PropOp44
 70
     1
102
RTVSPost2010Prop45
280
     0
102
RTVSPost2010PropOp45
 70
     1
102
RTVSPost2010Prop46
 90
       50
102
RTVSPost2010PropOp46
 70
     1
102
RTVSPost2010Prop47
 90
       50
102
RTVSPost2010PropOp47
 70
     1
102
RTVSPost2010Prop48
 90
       50
102
RTVSPost2010PropOp48
 70
     1
102
RTVSPost2010Prop49
280
     0
102
RTVSPost2010PropOp49
 70
     1
102
RTVSPost2010Prop50
 90
       50
102
RTVSPost2010PropOp50
 70
     1
102
RTVSPost2010Prop51ColorIndex
 90
      256
102
RTVSPost2010Prop51ColorRGB
 90
-16777216
102
RTVSPost2010PropOp51
 70
     0
102
RTVSPost2010Prop52
140
1.0
102
RTVSPost2010PropOp52
 70
     0
102
RTVSPost2010Prop53
 90
        2
102
RTVSPost2010PropOp53
 70
     1
102
RTVSPost2010Prop54
  1
strokes_ogs.tif
102
RTVSPost2010PropOp54
 70
     1
102
RTVSPost2010Prop55
280
     0
102
RTVSPost2010PropOp55
 70
     1
102
RTVSPost2010Prop56
140
1.0
102
RTVSPost2010PropOp56
 70
     1
102
RTVSPost2010Prop57
140
1.0
102
RTVSPost2010PropOp57
 70
     1
102
RTVSPropertyOp0
 70
     1
102
RTVSPropertyOp1
 70
     1
102
RTVSPropertyOp2
 70
     1
102
RTVSPropertyOp3
 70
     1
102
RTVSPropertyOp4
 70
     1
102
RTVSPropertyOp5
 70
     1
102
RTVSPropertyOp6
 70
     1
102
RTVSPropertyOp7
 70
     1
102
RTVSPropertyOp8
 70
     1
102
RTVSPropertyOp9
 70
     1
102
RTVSPropertyOp10
 70
     1
102
RTVSPropertyOp11
 70
     1
102
RTVSPropertyOp12
 70
     1
102
RTVSPropertyOp13
 70
     1
102
RTVSPropertyOp14
 70
     1
102
RTVSPropertyOp15
 70
     1
102
RTVSPropertyOp16
 70
     1
102
RTVSPropertyOp17
 70
     1
102
RTVSPropertyOp18
 70
     1
102
RTVSPropertyOp19
 70
     1
102
RTVSPropertyOp20
 70
     1
102
RTVSPropertyOp21
 70
     1
102
RTVSPropertyOp22
 70
     1
102
RTVSPropertyOp23
 70
     1
102
RTVSPropertyOp24
 70
     1
102
RTVSPropertyOp25
 70
     1
102
RTVSPropertyOp26
 70
     1
102
RTVSPropertyOp27
 70
     1
102
RTVSPropertyOp28
 70
     1
102
RTVSPropertyOp29
 70
     1
102
RTVSPropertyOp30
 70
     1
102
RTVSPropertyOp31
 70
     1
102
RTVSPropertyOp32
 70
     1
102
RTVSPropertyOp33
 70
     1
102
RTVSPropertyOp34
 70
     1
102
RTVSPropertyOp35
 70
     1
102
RTVSPropertyOp36
 70
     1
102
RTVSPropertyOp37
 70
     1
102
RTVSPropertyOp38
 70
     1
102
RTVSPropertyOp39
 70
     1
102
RTVSPropertyOp40
 70
     1
102
RTVSPropertyOp41
 70
     1
102
RTVSPropertyOp42
 70
     1
102
RTVSPropertyOp43
 70
     1
102
RTVSPropertyOp44
 70
     1
102
RTVSPropertyOp45
 70
     1
102
RTVSPropertyOp46
 70
     1
102
RTVSPropertyOp47
 70
     1
102
RTVSPropertyOp48
 70
     1
102
RTVSPropertyOp49
 70
     1
102
RTVSPropertyOp50
 70
     1
102
RTVSPropertyOp51
 70
     0
102
RTVSPropertyOp52
 70
     0
102
RTVSPropertyOp53
 70
     1
102
RTVSPropertyOp54
 70
     1
102
RTVSPropertyOp55
 70
     1
102
RTVSPropertyOp56
 70
     1
102
RTVSPropertyOp57
 70
     1
102
RTVSPropertyOp58
 70
     1
102
RTVSPropertyOp59
 70
     1
102
RTVSPropertyOp60
 70
     1
102
RTVSPropertyOp61
 70
     1
102
RTVSPropertyOp62
 70
     1
  0
XRECORD
  5
F10
102
{ACAD_REACTORS
330
F0F
102
}
330
F0F
100
AcDbXrecord
280
     1
102
RTVSPost2010Prop28
280
     0
102
RTVSPost2010PropOp28
 70
     1
102
RTVSPost2010Prop29
280
     1
102
RTVSPost2010PropOp29
 70
     1
102
RTVSPost2010Prop30
280
     1
102
RTVSPost2010PropOp30
 70
     1
102
RTVSPost2010Prop31
280
     0
102
RTVSPost2010PropOp31
 70
     1
102
RTVSPost2010Prop32
280
     0
102
RTVSPost2010PropOp32
 70
     1
102
RTVSPost2010Prop33
280
     0
102
RTVSPost2010PropOp33
 70
     1
102
RTVSPost2010Prop34
280
     0
102
RTVSPost2010PropOp34
 70
     1
102
RTVSPost2010Prop35
280
     0
102
RTVSPost2010PropOp35
 70
     1
102
RTVSPost2010Prop36
280
     0
102
RTVSPost2010PropOp36
 70
     1
102
RTVSPost2010Prop37
 90
       50
102
RTVSPost2010PropOp37
 70
     1
102
RTVSPost2010Prop38
140
0.0
102
RTVSPost2010PropOp38
 70
     1
102
RTVSPost2010Prop39
140
1.0
102
RTVSPost2010PropOp39
 70
     1
102
RTVSPost2010Prop40
 90
        0
102
RTVSPost2010PropOp40
 70
     1
102
RTVSPost2010Prop41ColorIndex
 90
       18
102
RTVSPost2010Prop41ColorRGB
 90
        0
102
RTVSPost2010PropOp41
 70
     1
102
RTVSPost2010Prop42
 90
       50
102
RTVSPost2010PropOp42
 70
     1
102
RTVSPost2010Prop43
 90
        3
102
RTVSPost2010PropOp43
 70
     1
102
RTVSPost2010Prop44ColorIndex
 90
        5
102
RTVSPost2010Prop44ColorRGB
 90
      255
102
RTVSPost2010PropOp44
 70
     1
102
RTVSPost2010Prop45
280
     0
102
RTVSPost2010PropOp45
 70
     1
102
RTVSPost2010Prop46
 90
       50
102
RTVSPost2010PropOp46
 70
     1
102
RTVSPost2010Prop47
 90
       50
102
RTVSPost2010PropOp47
 70
     1
102
RTVSPost2010Prop48
 90
       50
102
RTVSPost2010PropOp48
 70
     1
102
RTVSPost2010Prop49
280
     0
102
RTVSPost2010PropOp49
 70
     1
102
RTVSPost2010Prop50
 90
       50
102
RTVSPost2010PropOp50
 70
     1
102
RTVSPost2010Prop51ColorIndex
 90
      256
102
RTVSPost2010Prop51ColorRGB
 90
-16777216
102
RTVSPost2010PropOp51
 70
     0
102
RTVSPost2010Prop52
140
1.0
102
RTVSPost2010PropOp52
 70
     0
102
RTVSPost2010Prop53
 90
        2
102
RTVSPost2010PropOp53
 70
     1
102
RTVSPost2010Prop54
  1
strokes_ogs.tif
102
RTVSPost2010PropOp54
 70
     1
102
RTVSPost2010Prop55
280
     0
102
RTVSPost2010PropOp55
 70
     1
102
RTVSPost2010Prop56
140
1.0
102
RTVSPost2010PropOp56
 70
     1
102
RTVSPost2010Prop57
140
1.0
102
RTVSPost2010PropOp57
 70
     1
102
RTVSPropertyOp0
 70
     1
102
RTVSPropertyOp1
 70
     1
102
RTVSPropertyOp2
 70
     1
102
RTVSPropertyOp3
 70
     1
102
RTVSPropertyOp4
 70
     1
102
RTVSPropertyOp5
 70
     1
102
RTVSPropertyOp6
 70
     1
102
RTVSPropertyOp7
 70
     1
102
RTVSPropertyOp8
 70
     1
102
RTVSPropertyOp9
 70
     1
102
RTVSPropertyOp10
 70
     1
102
RTVSPropertyOp11
 70
     1
102
RTVSPropertyOp12
 70
     1
102
RTVSPropertyOp13
 70
     1
102
RTVSPropertyOp14
 70
     1
102
RTVSPropertyOp15
 70
     1
102
RTVSPropertyOp16
 70
     1
102
RTVSPropertyOp17
 70
     1
102
RTVSPropertyOp18
 70
     1
102
RTVSPropertyOp19
 70
     1
102
RTVSPropertyOp20
 70
     1
102
RTVSPropertyOp21
 70
     1
102
RTVSPropertyOp22
 70
     1
102
RTVSPropertyOp23
 70
     1
102
RTVSPropertyOp24
 70
     1
102
RTVSPropertyOp25
 70
     1
102
RTVSPropertyOp26
 70
     1
102
RTVSPropertyOp27
 70
     1
102
RTVSPropertyOp28
 70
     1
102
RTVSPropertyOp29
 70
     1
102
RTVSPropertyOp30
 70
     1
102
RTVSPropertyOp31
 70
     1
102
RTVSPropertyOp32
 70
     1
102
RTVSPropertyOp33
 70
     1
102
RTVSPropertyOp34
 70
     1
102
RTVSPropertyOp35
 70
     1
102
RTVSPropertyOp36
 70
     1
102
RTVSPropertyOp37
 70
     1
102
RTVSPropertyOp38
 70
     1
102
RTVSPropertyOp39
 70
     1
102
RTVSPropertyOp40
 70
     1
102
RTVSPropertyOp41
 70
     1
102
RTVSPropertyOp42
 70
     1
102
RTVSPropertyOp43
 70
     1
102
RTVSPropertyOp44
 70
     1
102
RTVSPropertyOp45
 70
     1
102
RTVSPropertyOp46
 70
     1
102
RTVSPropertyOp47
 70
     1
102
RTVSPropertyOp48
 70
     1
102
RTVSPropertyOp49
 70
     1
102
RTVSPropertyOp50
 70
     1
102
RTVSPropertyOp51
 70
     0
102
RTVSPropertyOp52
 70
     0
102
RTVSPropertyOp53
 70
     1
102
RTVSPropertyOp54
 70
     1
102
RTVSPropertyOp55
 70
     1
102
RTVSPropertyOp56
 70
     1
102
RTVSPropertyOp57
 70
     1
102
RTVSPropertyOp58
 70
     1
102
RTVSPropertyOp59
 70
     1
102
RTVSPropertyOp60
 70
     1
102
RTVSPropertyOp61
 70
     1
102
RTVSPropertyOp62
 70
     1
  0
XRECORD
  5
F02
102
{ACAD_REACTORS
330
F01
102
}
330
F01
100
AcDbXrecord
280
     1
102
RTVSPost2010Prop28
280
     0
102
RTVSPost2010PropOp28
 70
     1
102
RTVSPost2010Prop29
280
     1
102
RTVSPost2010PropOp29
 70
     1
102
RTVSPost2010Prop30
280
     1
102
RTVSPost2010PropOp30
 70
     1
102
RTVSPost2010Prop31
280
     0
102
RTVSPost2010PropOp31
 70
     1
102
RTVSPost2010Prop32
280
     0
102
RTVSPost2010PropOp32
 70
     1
102
RTVSPost2010Prop33
280
     0
102
RTVSPost2010PropOp33
 70
     1
102
RTVSPost2010Prop34
280
     0
102
RTVSPost2010PropOp34
 70
     1
102
RTVSPost2010Prop35
280
     0
102
RTVSPost2010PropOp35
 70
     1
102
RTVSPost2010Prop36
280
     0
102
RTVSPost2010PropOp36
 70
     1
102
RTVSPost2010Prop37
 90
       50
102
RTVSPost2010PropOp37
 70
     1
102
RTVSPost2010Prop38
140
0.0
102
RTVSPost2010PropOp38
 70
     1
102
RTVSPost2010Prop39
140
1.0
102
RTVSPost2010PropOp39
 70
     1
102
RTVSPost2010Prop40
 90
        0
102
RTVSPost2010PropOp40
 70
     1
102
RTVSPost2010Prop41ColorIndex
 90
       18
102
RTVSPost2010Prop41ColorRGB
 90
        0
102
RTVSPost2010PropOp41
 70
     1
102
RTVSPost2010Prop42
 90
       50
102
RTVSPost2010PropOp42
 70
     1
102
RTVSPost2010Prop43
 90
        3
102
RTVSPost2010PropOp43
 70
     1
102
RTVSPost2010Prop44ColorIndex
 90
        5
102
RTVSPost2010Prop44ColorRGB
 90
      255
102
RTVSPost2010PropOp44
 70
     1
102
RTVSPost2010Prop45
280
     0
102
RTVSPost2010PropOp45
 70
     1
102
RTVSPost2010Prop46
 90
       50
102
RTVSPost2010PropOp46
 70
     1
102
RTVSPost2010Prop47
 90
       50
102
RTVSPost2010PropOp47
 70
     1
102
RTVSPost2010Prop48
 90
       50
102
RTVSPost2010PropOp48
 70
     1
102
RTVSPost2010Prop49
280
     0
102
RTVSPost2010PropOp49
 70
     1
102
RTVSPost2010Prop50
 90
       50
102
RTVSPost2010PropOp50
 70
     1
102
RTVSPost2010Prop51ColorIndex
 90
      256
102
RTVSPost2010Prop51ColorRGB
 90
-16777216
102
RTVSPost2010PropOp51
 70
     0
102
RTVSPost2010Prop52
140
1.0
102
RTVSPost2010PropOp52
 70
     0
102
RTVSPost2010Prop53
 90
        2
102
RTVSPost2010PropOp53
 70
     1
102
RTVSPost2010Prop54
  1
strokes_ogs.tif
102
RTVSPost2010PropOp54
 70
     1
102
RTVSPost2010Prop55
280
     0
102
RTVSPost2010PropOp55
 70
     1
102
RTVSPost2010Prop56
140
1.0
102
RTVSPost2010PropOp56
 70
     1
102
RTVSPost2010Prop57
140
1.0
102
RTVSPost2010PropOp57
 70
     1
102
RTVSPropertyOp0
 70
     1
102
RTVSPropertyOp1
 70
     1
102
RTVSPropertyOp2
 70
     1
102
RTVSPropertyOp3
 70
     1
102
RTVSPropertyOp4
 70
     1
102
RTVSPropertyOp5
 70
     1
102
RTVSPropertyOp6
 70
     1
102
RTVSPropertyOp7
 70
     1
102
RTVSPropertyOp8
 70
     1
102
RTVSPropertyOp9
 70
     1
102
RTVSPropertyOp10
 70
     1
102
RTVSPropertyOp11
 70
     1
102
RTVSPropertyOp12
 70
     1
102
RTVSPropertyOp13
 70
     1
102
RTVSPropertyOp14
 70
     1
102
RTVSPropertyOp15
 70
     1
102
RTVSPropertyOp16
 70
     1
102
RTVSPropertyOp17
 70
     1
102
RTVSPropertyOp18
 70
     1
102
RTVSPropertyOp19
 70
     1
102
RTVSPropertyOp20
 70
     1
102
RTVSPropertyOp21
 70
     1
102
RTVSPropertyOp22
 70
     1
102
RTVSPropertyOp23
 70
     1
102
RTVSPropertyOp24
 70
     1
102
RTVSPropertyOp25
 70
     1
102
RTVSPropertyOp26
 70
     1
102
RTVSPropertyOp27
 70
     1
102
RTVSPropertyOp28
 70
     1
102
RTVSPropertyOp29
 70
     1
102
RTVSPropertyOp30
 70
     1
102
RTVSPropertyOp31
 70
     1
102
RTVSPropertyOp32
 70
     1
102
RTVSPropertyOp33
 70
     1
102
RTVSPropertyOp34
 70
     1
102
RTVSPropertyOp35
 70
     1
102
RTVSPropertyOp36
 70
     1
102
RTVSPropertyOp37
 70
     1
102
RTVSPropertyOp38
 70
     1
102
RTVSPropertyOp39
 70
     1
102
RTVSPropertyOp40
 70
     1
102
RTVSPropertyOp41
 70
     1
102
RTVSPropertyOp42
 70
     1
102
RTVSPropertyOp43
 70
     1
102
RTVSPropertyOp44
 70
     1
102
RTVSPropertyOp45
 70
     1
102
RTVSPropertyOp46
 70
     1
102
RTVSPropertyOp47
 70
     1
102
RTVSPropertyOp48
 70
     1
102
RTVSPropertyOp49
 70
     1
102
RTVSPropertyOp50
 70
     1
102
RTVSPropertyOp51
 70
     0
102
RTVSPropertyOp52
 70
     0
102
RTVSPropertyOp53
 70
     1
102
RTVSPropertyOp54
 70
     1
102
RTVSPropertyOp55
 70
     1
102
RTVSPropertyOp56
 70
     1
102
RTVSPropertyOp57
 70
     1
102
RTVSPropertyOp58
 70
     1
102
RTVSPropertyOp59
 70
     1
102
RTVSPropertyOp60
 70
     1
102
RTVSPropertyOp61
 70
     1
102
RTVSPropertyOp62
 70
     1
  0
XRECORD
  5
F06
102
{ACAD_REACTORS
330
F05
102
}
330
F05
100
AcDbXrecord
280
     1
102
RTVSPost2010Prop28
280
     0
102
RTVSPost2010PropOp28
 70
     1
102
RTVSPost2010Prop29
280
     1
102
RTVSPost2010PropOp29
 70
     1
102
RTVSPost2010Prop30
280
     1
102
RTVSPost2010PropOp30
 70
     1
102
RTVSPost2010Prop31
280
     0
102
RTVSPost2010PropOp31
 70
     1
102
RTVSPost2010Prop32
280
     0
102
RTVSPost2010PropOp32
 70
     1
102
RTVSPost2010Prop33
280
     0
102
RTVSPost2010PropOp33
 70
     1
102
RTVSPost2010Prop34
280
     0
102
RTVSPost2010PropOp34
 70
     1
102
RTVSPost2010Prop35
280
     0
102
RTVSPost2010PropOp35
 70
     1
102
RTVSPost2010Prop36
280
     0
102
RTVSPost2010PropOp36
 70
     1
102
RTVSPost2010Prop37
 90
       50
102
RTVSPost2010PropOp37
 70
     1
102
RTVSPost2010Prop38
140
0.0
102
RTVSPost2010PropOp38
 70
     1
102
RTVSPost2010Prop39
140
1.0
102
RTVSPost2010PropOp39
 70
     1
102
RTVSPost2010Prop40
 90
        0
102
RTVSPost2010PropOp40
 70
     1
102
RTVSPost2010Prop41ColorIndex
 90
       18
102
RTVSPost2010Prop41ColorRGB
 90
        0
102
RTVSPost2010PropOp41
 70
     1
102
RTVSPost2010Prop42
 90
       50
102
RTVSPost2010PropOp42
 70
     1
102
RTVSPost2010Prop43
 90
        3
102
RTVSPost2010PropOp43
 70
     1
102
RTVSPost2010Prop44ColorIndex
 90
        5
102
RTVSPost2010Prop44ColorRGB
 90
      255
102
RTVSPost2010PropOp44
 70
     1
102
RTVSPost2010Prop45
280
     0
102
RTVSPost2010PropOp45
 70
     1
102
RTVSPost2010Prop46
 90
       50
102
RTVSPost2010PropOp46
 70
     1
102
RTVSPost2010Prop47
 90
       50
102
RTVSPost2010PropOp47
 70
     1
102
RTVSPost2010Prop48
 90
       50
102
RTVSPost2010PropOp48
 70
     1
102
RTVSPost2010Prop49
280
     0
102
RTVSPost2010PropOp49
 70
     1
102
RTVSPost2010Prop50
 90
       50
102
RTVSPost2010PropOp50
 70
     1
102
RTVSPost2010Prop51ColorIndex
 90
      256
102
RTVSPost2010Prop51ColorRGB
 90
-16777216
102
RTVSPost2010PropOp51
 70
     0
102
RTVSPost2010Prop52
140
1.0
102
RTVSPost2010PropOp52
 70
     0
102
RTVSPost2010Prop53
 90
        2
102
RTVSPost2010PropOp53
 70
     1
102
RTVSPost2010Prop54
  1
strokes_ogs.tif
102
RTVSPost2010PropOp54
 70
     1
102
RTVSPost2010Prop55
280
     0
102
RTVSPost2010PropOp55
 70
     1
102
RTVSPost2010Prop56
140
1.0
102
RTVSPost2010PropOp56
 70
     1
102
RTVSPost2010Prop57
140
1.0
102
RTVSPost2010PropOp57
 70
     1
102
RTVSPropertyOp0
 70
     1
102
RTVSPropertyOp1
 70
     1
102
RTVSPropertyOp2
 70
     1
102
RTVSPropertyOp3
 70
     1
102
RTVSPropertyOp4
 70
     1
102
RTVSPropertyOp5
 70
     1
102
RTVSPropertyOp6
 70
     1
102
RTVSPropertyOp7
 70
     1
102
RTVSPropertyOp8
 70
     1
102
RTVSPropertyOp9
 70
     1
102
RTVSPropertyOp10
 70
     1
102
RTVSPropertyOp11
 70
     1
102
RTVSPropertyOp12
 70
     1
102
RTVSPropertyOp13
 70
     1
102
RTVSPropertyOp14
 70
     1
102
RTVSPropertyOp15
 70
     1
102
RTVSPropertyOp16
 70
     1
102
RTVSPropertyOp17
 70
     1
102
RTVSPropertyOp18
 70
     1
102
RTVSPropertyOp19
 70
     1
102
RTVSPropertyOp20
 70
     1
102
RTVSPropertyOp21
 70
     1
102
RTVSPropertyOp22
 70
     1
102
RTVSPropertyOp23
 70
     1
102
RTVSPropertyOp24
 70
     1
102
RTVSPropertyOp25
 70
     1
102
RTVSPropertyOp26
 70
     1
102
RTVSPropertyOp27
 70
     1
102
RTVSPropertyOp28
 70
     1
102
RTVSPropertyOp29
 70
     1
102
RTVSPropertyOp30
 70
     1
102
RTVSPropertyOp31
 70
     1
102
RTVSPropertyOp32
 70
     1
102
RTVSPropertyOp33
 70
     1
102
RTVSPropertyOp34
 70
     1
102
RTVSPropertyOp35
 70
     1
102
RTVSPropertyOp36
 70
     1
102
RTVSPropertyOp37
 70
     1
102
RTVSPropertyOp38
 70
     1
102
RTVSPropertyOp39
 70
     1
102
RTVSPropertyOp40
 70
     1
102
RTVSPropertyOp41
 70
     1
102
RTVSPropertyOp42
 70
     1
102
RTVSPropertyOp43
 70
     1
102
RTVSPropertyOp44
 70
     1
102
RTVSPropertyOp45
 70
     1
102
RTVSPropertyOp46
 70
     1
102
RTVSPropertyOp47
 70
     1
102
RTVSPropertyOp48
 70
     1
102
RTVSPropertyOp49
 70
     1
102
RTVSPropertyOp50
 70
     1
102
RTVSPropertyOp51
 70
     0
102
RTVSPropertyOp52
 70
     0
102
RTVSPropertyOp53
 70
     1
102
RTVSPropertyOp54
 70
     1
102
RTVSPropertyOp55
 70
     1
102
RTVSPropertyOp56
 70
     1
102
RTVSPropertyOp57
 70
     1
102
RTVSPropertyOp58
 70
     1
102
RTVSPropertyOp59
 70
     1
102
RTVSPropertyOp60
 70
     1
102
RTVSPropertyOp61
 70
     1
102
RTVSPropertyOp62
 70
     1
  0
XRECORD
  5
F20
102
{ACAD_REACTORS
330
F1F
102
}
330
F1F
100
AcDbXrecord
280
     1
102
RTVSPost2010Prop28
280
     0
102
RTVSPost2010PropOp28
 70
     0
102
RTVSPost2010Prop29
280
     1
102
RTVSPost2010PropOp29
 70
     0
102
RTVSPost2010Prop30
280
     1
102
RTVSPost2010PropOp30
 70
     0
102
RTVSPost2010Prop31
280
     0
102
RTVSPost2010PropOp31
 70
     0
102
RTVSPost2010Prop32
280
     0
102
RTVSPost2010PropOp32
 70
     0
102
RTVSPost2010Prop33
280
     0
102
RTVSPost2010PropOp33
 70
     0
102
RTVSPost2010Prop34
280
     0
102
RTVSPost2010PropOp34
 70
     0
102
RTVSPost2010Prop35
280
     0
102
RTVSPost2010PropOp35
 70
     0
102
RTVSPost2010Prop36
280
     0
102
RTVSPost2010PropOp36
 70
     0
102
RTVSPost2010Prop37
 90
       50
102
RTVSPost2010PropOp37
 70
     0
102
RTVSPost2010Prop38
140
0.0
102
RTVSPost2010PropOp38
 70
     0
102
RTVSPost2010Prop39
140
1.0
102
RTVSPost2010PropOp39
 70
     0
102
RTVSPost2010Prop40
 90
        0
102
RTVSPost2010PropOp40
 70
     0
102
RTVSPost2010Prop41ColorIndex
 90
       18
102
RTVSPost2010Prop41ColorRGB
 90
        0
102
RTVSPost2010PropOp41
 70
     0
102
RTVSPost2010Prop42
 90
       50
102
RTVSPost2010PropOp42
 70
     0
102
RTVSPost2010Prop43
 90
        3
102
RTVSPost2010PropOp43
 70
     0
102
RTVSPost2010Prop44ColorIndex
 90
        5
102
RTVSPost2010Prop44ColorRGB
 90
      255
102
RTVSPost2010PropOp44
 70
     0
102
RTVSPost2010Prop45
280
     0
102
RTVSPost2010PropOp45
 70
     0
102
RTVSPost2010Prop46
 90
       50
102
RTVSPost2010PropOp46
 70
     0
102
RTVSPost2010Prop47
 90
       50
102
RTVSPost2010PropOp47
 70
     0
102
RTVSPost2010Prop48
 90
       50
102
RTVSPost2010PropOp48
 70
     0
102
RTVSPost2010Prop49
280
     0
102
RTVSPost2010PropOp49
 70
     0
102
RTVSPost2010Prop50
 90
       50
102
RTVSPost2010PropOp50
 70
     0
102
RTVSPost2010Prop51ColorIndex
 90
      256
102
RTVSPost2010Prop51ColorRGB
 90
-16777216
102
RTVSPost2010PropOp51
 70
     0
102
RTVSPost2010Prop52
140
1.0
102
RTVSPost2010PropOp52
 70
     0
102
RTVSPost2010Prop53
 90
        2
102
RTVSPost2010PropOp53
 70
     0
102
RTVSPost2010Prop54
  1
strokes_ogs.tif
102
RTVSPost2010PropOp54
 70
     0
102
RTVSPost2010Prop55
280
     0
102
RTVSPost2010PropOp55
 70
     0
102
RTVSPost2010Prop56
140
1.0
102
RTVSPost2010PropOp56
 70
     0
102
RTVSPost2010Prop57
140
1.0
102
RTVSPost2010PropOp57
 70
     0
102
RTVSPropertyOp0
 70
     0
102
RTVSPropertyOp1
 70
     0
102
RTVSPropertyOp2
 70
     0
102
RTVSPropertyOp3
 70
     0
102
RTVSPropertyOp4
 70
     0
102
RTVSPropertyOp5
 70
     0
102
RTVSPropertyOp6
 70
     0
102
RTVSPropertyOp7
 70
     0
102
RTVSPropertyOp8
 70
     0
102
RTVSPropertyOp9
 70
     0
102
RTVSPropertyOp10
 70
     0
102
RTVSPropertyOp11
 70
     0
102
RTVSPropertyOp12
 70
     0
102
RTVSPropertyOp13
 70
     0
102
RTVSPropertyOp14
 70
     2
102
RTVSPropertyOp15
 70
     0
102
RTVSPropertyOp16
 70
     0
102
RTVSPropertyOp17
 70
     0
102
RTVSPropertyOp18
 70
     0
102
RTVSPropertyOp19
 70
     0
102
RTVSPropertyOp20
 70
     0
102
RTVSPropertyOp21
 70
     0
102
RTVSPropertyOp22
 70
     0
102
RTVSPropertyOp23
 70
     0
102
RTVSPropertyOp24
 70
     0
102
RTVSPropertyOp25
 70
     0
102
RTVSPropertyOp26
 70
     0
102
RTVSPropertyOp27
 70
     0
102
RTVSPropertyOp28
 70
     0
102
RTVSPropertyOp29
 70
     0
102
RTVSPropertyOp30
 70
     0
102
RTVSPropertyOp31
 70
     0
102
RTVSPropertyOp32
 70
     0
102
RTVSPropertyOp33
 70
     0
102
RTVSPropertyOp34
 70
     0
102
RTVSPropertyOp35
 70
     0
102
RTVSPropertyOp36
 70
     0
102
RTVSPropertyOp37
 70
     0
102
RTVSPropertyOp38
 70
     0
102
RTVSPropertyOp39
 70
     0
102
RTVSPropertyOp40
 70
     0
102
RTVSPropertyOp41
 70
     0
102
RTVSPropertyOp42
 70
     0
102
RTVSPropertyOp43
 70
     0
102
RTVSPropertyOp44
 70
     0
102
RTVSPropertyOp45
 70
     0
102
RTVSPropertyOp46
 70
     0
102
RTVSPropertyOp47
 70
     0
102
RTVSPropertyOp48
 70
     0
102
RTVSPropertyOp49
 70
     0
102
RTVSPropertyOp50
 70
     0
102
RTVSPropertyOp51
 70
     0
102
RTVSPropertyOp52
 70
     0
102
RTVSPropertyOp53
 70
     0
102
RTVSPropertyOp54
 70
     0
102
RTVSPropertyOp55
 70
     0
102
RTVSPropertyOp56
 70
     0
102
RTVSPropertyOp57
 70
     0
102
RTVSPropertyOp58
 70
     0
102
RTVSPropertyOp59
 70
     0
102
RTVSPropertyOp60
 70
     0
102
RTVSPropertyOp61
 70
     0
102
RTVSPropertyOp62
 70
     0
  0
XRECORD
  5
F0E
102
{ACAD_REACTORS
330
F0D
102
}
330
F0D
100
AcDbXrecord
280
     1
102
RTVSPost2010Prop28
280
     0
102
RTVSPost2010PropOp28
 70
     1
102
RTVSPost2010Prop29
280
     1
102
RTVSPost2010PropOp29
 70
     1
102
RTVSPost2010Prop30
280
     1
102
RTVSPost2010PropOp30
 70
     1
102
RTVSPost2010Prop31
280
     0
102
RTVSPost2010PropOp31
 70
     1
102
RTVSPost2010Prop32
280
     0
102
RTVSPost2010PropOp32
 70
     1
102
RTVSPost2010Prop33
280
     0
102
RTVSPost2010PropOp33
 70
     1
102
RTVSPost2010Prop34
280
     0
102
RTVSPost2010PropOp34
 70
     1
102
RTVSPost2010Prop35
280
     0
102
RTVSPost2010PropOp35
 70
     1
102
RTVSPost2010Prop36
280
     0
102
RTVSPost2010PropOp36
 70
     1
102
RTVSPost2010Prop37
 90
       50
102
RTVSPost2010PropOp37
 70
     1
102
RTVSPost2010Prop38
140
0.0
102
RTVSPost2010PropOp38
 70
     1
102
RTVSPost2010Prop39
140
1.0
102
RTVSPost2010PropOp39
 70
     1
102
RTVSPost2010Prop40
 90
        0
102
RTVSPost2010PropOp40
 70
     1
102
RTVSPost2010Prop41ColorIndex
 90
       18
102
RTVSPost2010Prop41ColorRGB
 90
        0
102
RTVSPost2010PropOp41
 70
     1
102
RTVSPost2010Prop42
 90
       50
102
RTVSPost2010PropOp42
 70
     1
102
RTVSPost2010Prop43
 90
        3
102
RTVSPost2010PropOp43
 70
     1
102
RTVSPost2010Prop44ColorIndex
 90
        5
102
RTVSPost2010Prop44ColorRGB
 90
      255
102
RTVSPost2010PropOp44
 70
     1
102
RTVSPost2010Prop45
280
     0
102
RTVSPost2010PropOp45
 70
     1
102
RTVSPost2010Prop46
 90
       50
102
RTVSPost2010PropOp46
 70
     1
102
RTVSPost2010Prop47
 90
       50
102
RTVSPost2010PropOp47
 70
     1
102
RTVSPost2010Prop48
 90
       50
102
RTVSPost2010PropOp48
 70
     1
102
RTVSPost2010Prop49
280
     0
102
RTVSPost2010PropOp49
 70
     1
102
RTVSPost2010Prop50
 90
       50
102
RTVSPost2010PropOp50
 70
     1
102
RTVSPost2010Prop51ColorIndex
 90
      256
102
RTVSPost2010Prop51ColorRGB
 90
-16777216
102
RTVSPost2010PropOp51
 70
     0
102
RTVSPost2010Prop52
140
1.0
102
RTVSPost2010PropOp52
 70
     0
102
RTVSPost2010Prop53
 90
        2
102
RTVSPost2010PropOp53
 70
     1
102
RTVSPost2010Prop54
  1
strokes_ogs.tif
102
RTVSPost2010PropOp54
 70
     1
102
RTVSPost2010Prop55
280
     0
102
RTVSPost2010PropOp55
 70
     1
102
RTVSPost2010Prop56
140
1.0
102
RTVSPost2010PropOp56
 70
     1
102
RTVSPost2010Prop57
140
1.0
102
RTVSPost2010PropOp57
 70
     1
102
RTVSPropertyOp0
 70
     1
102
RTVSPropertyOp1
 70
     1
102
RTVSPropertyOp2
 70
     1
102
RTVSPropertyOp3
 70
     1
102
RTVSPropertyOp4
 70
     1
102
RTVSPropertyOp5
 70
     1
102
RTVSPropertyOp6
 70
     1
102
RTVSPropertyOp7
 70
     1
102
RTVSPropertyOp8
 70
     1
102
RTVSPropertyOp9
 70
     1
102
RTVSPropertyOp10
 70
     1
102
RTVSPropertyOp11
 70
     1
102
RTVSPropertyOp12
 70
     1
102
RTVSPropertyOp13
 70
     1
102
RTVSPropertyOp14
 70
     1
102
RTVSPropertyOp15
 70
     1
102
RTVSPropertyOp16
 70
     1
102
RTVSPropertyOp17
 70
     1
102
RTVSPropertyOp18
 70
     1
102
RTVSPropertyOp19
 70
     1
102
RTVSPropertyOp20
 70
     1
102
RTVSPropertyOp21
 70
     1
102
RTVSPropertyOp22
 70
     1
102
RTVSPropertyOp23
 70
     1
102
RTVSPropertyOp24
 70
     1
102
RTVSPropertyOp25
 70
     1
102
RTVSPropertyOp26
 70
     1
102
RTVSPropertyOp27
 70
     1
102
RTVSPropertyOp28
 70
     1
102
RTVSPropertyOp29
 70
     1
102
RTVSPropertyOp30
 70
     1
102
RTVSPropertyOp31
 70
     1
102
RTVSPropertyOp32
 70
     1
102
RTVSPropertyOp33
 70
     1
102
RTVSPropertyOp34
 70
     1
102
RTVSPropertyOp35
 70
     1
102
RTVSPropertyOp36
 70
     1
102
RTVSPropertyOp37
 70
     1
102
RTVSPropertyOp38
 70
     1
102
RTVSPropertyOp39
 70
     1
102
RTVSPropertyOp40
 70
     1
102
RTVSPropertyOp41
 70
     1
102
RTVSPropertyOp42
 70
     1
102
RTVSPropertyOp43
 70
     1
102
RTVSPropertyOp44
 70
     1
102
RTVSPropertyOp45
 70
     1
102
RTVSPropertyOp46
 70
     1
102
RTVSPropertyOp47
 70
     1
102
RTVSPropertyOp48
 70
     1
102
RTVSPropertyOp49
 70
     1
102
RTVSPropertyOp50
 70
     1
102
RTVSPropertyOp51
 70
     0
102
RTVSPropertyOp52
 70
     0
102
RTVSPropertyOp53
 70
     1
102
RTVSPropertyOp54
 70
     1
102
RTVSPropertyOp55
 70
     1
102
RTVSPropertyOp56
 70
     1
102
RTVSPropertyOp57
 70
     1
102
RTVSPropertyOp58
 70
     1
102
RTVSPropertyOp59
 70
     1
102
RTVSPropertyOp60
 70
     1
102
RTVSPropertyOp61
 70
     1
102
RTVSPropertyOp62
 70
     1
  0
XRECORD
  5
EF2
102
{ACAD_REACTORS
330
EF1
102
}
330
EF1
100
AcDbXrecord
280
     1
102
RTVSPost2010Prop28
280
     0
102
RTVSPost2010PropOp28
 70
     1
102
RTVSPost2010Prop29
280
     1
102
RTVSPost2010PropOp29
 70
     1
102
RTVSPost2010Prop30
280
     1
102
RTVSPost2010PropOp30
 70
     1
102
RTVSPost2010Prop31
280
     0
102
RTVSPost2010PropOp31
 70
     1
102
RTVSPost2010Prop32
280
     0
102
RTVSPost2010PropOp32
 70
     1
102
RTVSPost2010Prop33
280
     0
102
RTVSPost2010PropOp33
 70
     1
102
RTVSPost2010Prop34
280
     0
102
RTVSPost2010PropOp34
 70
     1
102
RTVSPost2010Prop35
280
     0
102
RTVSPost2010PropOp35
 70
     1
102
RTVSPost2010Prop36
280
     0
102
RTVSPost2010PropOp36
 70
     1
102
RTVSPost2010Prop37
 90
       50
102
RTVSPost2010PropOp37
 70
     1
102
RTVSPost2010Prop38
140
0.0
102
RTVSPost2010PropOp38
 70
     1
102
RTVSPost2010Prop39
140
1.0
102
RTVSPost2010PropOp39
 70
     1
102
RTVSPost2010Prop40
 90
        0
102
RTVSPost2010PropOp40
 70
     1
102
RTVSPost2010Prop41ColorIndex
 90
       18
102
RTVSPost2010Prop41ColorRGB
 90
        0
102
RTVSPost2010PropOp41
 70
     1
102
RTVSPost2010Prop42
 90
       50
102
RTVSPost2010PropOp42
 70
     1
102
RTVSPost2010Prop43
 90
        3
102
RTVSPost2010PropOp43
 70
     1
102
RTVSPost2010Prop44ColorIndex
 90
        5
102
RTVSPost2010Prop44ColorRGB
 90
      255
102
RTVSPost2010PropOp44
 70
     1
102
RTVSPost2010Prop45
280
     0
102
RTVSPost2010PropOp45
 70
     1
102
RTVSPost2010Prop46
 90
       50
102
RTVSPost2010PropOp46
 70
     1
102
RTVSPost2010Prop47
 90
       50
102
RTVSPost2010PropOp47
 70
     1
102
RTVSPost2010Prop48
 90
       50
102
RTVSPost2010PropOp48
 70
     1
102
RTVSPost2010Prop49
280
     0
102
RTVSPost2010PropOp49
 70
     1
102
RTVSPost2010Prop50
 90
       50
102
RTVSPost2010PropOp50
 70
     1
102
RTVSPost2010Prop51ColorIndex
 90
      256
102
RTVSPost2010Prop51ColorRGB
 90
-16777216
102
RTVSPost2010PropOp51
 70
     0
102
RTVSPost2010Prop52
140
1.0
102
RTVSPost2010PropOp52
 70
     0
102
RTVSPost2010Prop53
 90
        2
102
RTVSPost2010PropOp53
 70
     1
102
RTVSPost2010Prop54
  1
strokes_ogs.tif
102
RTVSPost2010PropOp54
 70
     1
102
RTVSPost2010Prop55
280
     0
102
RTVSPost2010PropOp55
 70
     1
102
RTVSPost2010Prop56
140
1.0
102
RTVSPost2010PropOp56
 70
     1
102
RTVSPost2010Prop57
140
1.0
102
RTVSPost2010PropOp57
 70
     1
102
RTVSPropertyOp0
 70
     1
102
RTVSPropertyOp1
 70
     1
102
RTVSPropertyOp2
 70
     1
102
RTVSPropertyOp3
 70
     1
102
RTVSPropertyOp4
 70
     1
102
RTVSPropertyOp5
 70
     1
102
RTVSPropertyOp6
 70
     1
102
RTVSPropertyOp7
 70
     1
102
RTVSPropertyOp8
 70
     1
102
RTVSPropertyOp9
 70
     1
102
RTVSPropertyOp10
 70
     1
102
RTVSPropertyOp11
 70
     1
102
RTVSPropertyOp12
 70
     1
102
RTVSPropertyOp13
 70
     1
102
RTVSPropertyOp14
 70
     1
102
RTVSPropertyOp15
 70
     1
102
RTVSPropertyOp16
 70
     1
102
RTVSPropertyOp17
 70
     1
102
RTVSPropertyOp18
 70
     1
102
RTVSPropertyOp19
 70
     1
102
RTVSPropertyOp20
 70
     1
102
RTVSPropertyOp21
 70
     1
102
RTVSPropertyOp22
 70
     1
102
RTVSPropertyOp23
 70
     1
102
RTVSPropertyOp24
 70
     1
102
RTVSPropertyOp25
 70
     1
102
RTVSPropertyOp26
 70
     1
102
RTVSPropertyOp27
 70
     1
102
RTVSPropertyOp28
 70
     1
102
RTVSPropertyOp29
 70
     1
102
RTVSPropertyOp30
 70
     1
102
RTVSPropertyOp31
 70
     1
102
RTVSPropertyOp32
 70
     1
102
RTVSPropertyOp33
 70
     1
102
RTVSPropertyOp34
 70
     1
102
RTVSPropertyOp35
 70
     1
102
RTVSPropertyOp36
 70
     1
102
RTVSPropertyOp37
 70
     1
102
RTVSPropertyOp38
 70
     1
102
RTVSPropertyOp39
 70
     1
102
RTVSPropertyOp40
 70
     1
102
RTVSPropertyOp41
 70
     1
102
RTVSPropertyOp42
 70
     1
102
RTVSPropertyOp43
 70
     1
102
RTVSPropertyOp44
 70
     1
102
RTVSPropertyOp45
 70
     1
102
RTVSPropertyOp46
 70
     1
102
RTVSPropertyOp47
 70
     1
102
RTVSPropertyOp48
 70
     1
102
RTVSPropertyOp49
 70
     1
102
RTVSPropertyOp50
 70
     1
102
RTVSPropertyOp51
 70
     0
102
RTVSPropertyOp52
 70
     0
102
RTVSPropertyOp53
 70
     1
102
RTVSPropertyOp54
 70
     1
102
RTVSPropertyOp55
 70
     1
102
RTVSPropertyOp56
 70
     1
102
RTVSPropertyOp57
 70
     1
102
RTVSPropertyOp58
 70
     1
102
RTVSPropertyOp59
 70
     1
102
RTVSPropertyOp60
 70
     1
102
RTVSPropertyOp61
 70
     1
102
RTVSPropertyOp62
 70
     1
  0
XRECORD
  5
EF4
102
{ACAD_REACTORS
330
EF3
102
}
330
EF3
100
AcDbXrecord
280
     1
102
RTVSPost2010Prop28
280
     0
102
RTVSPost2010PropOp28
 70
     1
102
RTVSPost2010Prop29
280
     1
102
RTVSPost2010PropOp29
 70
     1
102
RTVSPost2010Prop30
280
     1
102
RTVSPost2010PropOp30
 70
     1
102
RTVSPost2010Prop31
280
     0
102
RTVSPost2010PropOp31
 70
     1
102
RTVSPost2010Prop32
280
     0
102
RTVSPost2010PropOp32
 70
     1
102
RTVSPost2010Prop33
280
     0
102
RTVSPost2010PropOp33
 70
     1
102
RTVSPost2010Prop34
280
     0
102
RTVSPost2010PropOp34
 70
     1
102
RTVSPost2010Prop35
280
     0
102
RTVSPost2010PropOp35
 70
     1
102
RTVSPost2010Prop36
280
     0
102
RTVSPost2010PropOp36
 70
     1
102
RTVSPost2010Prop37
 90
       50
102
RTVSPost2010PropOp37
 70
     1
102
RTVSPost2010Prop38
140
0.0
102
RTVSPost2010PropOp38
 70
     1
102
RTVSPost2010Prop39
140
1.0
102
RTVSPost2010PropOp39
 70
     1
102
RTVSPost2010Prop40
 90
        0
102
RTVSPost2010PropOp40
 70
     1
102
RTVSPost2010Prop41ColorIndex
 90
       18
102
RTVSPost2010Prop41ColorRGB
 90
        0
102
RTVSPost2010PropOp41
 70
     1
102
RTVSPost2010Prop42
 90
       50
102
RTVSPost2010PropOp42
 70
     1
102
RTVSPost2010Prop43
 90
        3
102
RTVSPost2010PropOp43
 70
     1
102
RTVSPost2010Prop44ColorIndex
 90
        5
102
RTVSPost2010Prop44ColorRGB
 90
      255
102
RTVSPost2010PropOp44
 70
     1
102
RTVSPost2010Prop45
280
     0
102
RTVSPost2010PropOp45
 70
     1
102
RTVSPost2010Prop46
 90
       50
102
RTVSPost2010PropOp46
 70
     1
102
RTVSPost2010Prop47
 90
       50
102
RTVSPost2010PropOp47
 70
     1
102
RTVSPost2010Prop48
 90
       50
102
RTVSPost2010PropOp48
 70
     1
102
RTVSPost2010Prop49
280
     0
102
RTVSPost2010PropOp49
 70
     1
102
RTVSPost2010Prop50
 90
       50
102
RTVSPost2010PropOp50
 70
     1
102
RTVSPost2010Prop51ColorIndex
 90
      256
102
RTVSPost2010Prop51ColorRGB
 90
-16777216
102
RTVSPost2010PropOp51
 70
     0
102
RTVSPost2010Prop52
140
1.0
102
RTVSPost2010PropOp52
 70
     0
102
RTVSPost2010Prop53
 90
        2
102
RTVSPost2010PropOp53
 70
     1
102
RTVSPost2010Prop54
  1
strokes_ogs.tif
102
RTVSPost2010PropOp54
 70
     1
102
RTVSPost2010Prop55
280
     0
102
RTVSPost2010PropOp55
 70
     1
102
RTVSPost2010Prop56
140
1.0
102
RTVSPost2010PropOp56
 70
     1
102
RTVSPost2010Prop57
140
1.0
102
RTVSPost2010PropOp57
 70
     1
102
RTVSPropertyOp0
 70
     1
102
RTVSPropertyOp1
 70
     1
102
RTVSPropertyOp2
 70
     1
102
RTVSPropertyOp3
 70
     1
102
RTVSPropertyOp4
 70
     1
102
RTVSPropertyOp5
 70
     1
102
RTVSPropertyOp6
 70
     1
102
RTVSPropertyOp7
 70
     1
102
RTVSPropertyOp8
 70
     1
102
RTVSPropertyOp9
 70
     1
102
RTVSPropertyOp10
 70
     1
102
RTVSPropertyOp11
 70
     1
102
RTVSPropertyOp12
 70
     1
102
RTVSPropertyOp13
 70
     1
102
RTVSPropertyOp14
 70
     1
102
RTVSPropertyOp15
 70
     1
102
RTVSPropertyOp16
 70
     1
102
RTVSPropertyOp17
 70
     1
102
RTVSPropertyOp18
 70
     1
102
RTVSPropertyOp19
 70
     1
102
RTVSPropertyOp20
 70
     1
102
RTVSPropertyOp21
 70
     1
102
RTVSPropertyOp22
 70
     1
102
RTVSPropertyOp23
 70
     1
102
RTVSPropertyOp24
 70
     1
102
RTVSPropertyOp25
 70
     1
102
RTVSPropertyOp26
 70
     1
102
RTVSPropertyOp27
 70
     1
102
RTVSPropertyOp28
 70
     1
102
RTVSPropertyOp29
 70
     1
102
RTVSPropertyOp30
 70
     1
102
RTVSPropertyOp31
 70
     1
102
RTVSPropertyOp32
 70
     1
102
RTVSPropertyOp33
 70
     1
102
RTVSPropertyOp34
 70
     1
102
RTVSPropertyOp35
 70
     1
102
RTVSPropertyOp36
 70
     1
102
RTVSPropertyOp37
 70
     1
102
RTVSPropertyOp38
 70
     1
102
RTVSPropertyOp39
 70
     1
102
RTVSPropertyOp40
 70
     1
102
RTVSPropertyOp41
 70
     1
102
RTVSPropertyOp42
 70
     1
102
RTVSPropertyOp43
 70
     1
102
RTVSPropertyOp44
 70
     1
102
RTVSPropertyOp45
 70
     1
102
RTVSPropertyOp46
 70
     1
102
RTVSPropertyOp47
 70
     1
102
RTVSPropertyOp48
 70
     1
102
RTVSPropertyOp49
 70
     1
102
RTVSPropertyOp50
 70
     1
102
RTVSPropertyOp51
 70
     0
102
RTVSPropertyOp52
 70
     0
102
RTVSPropertyOp53
 70
     1
102
RTVSPropertyOp54
 70
     1
102
RTVSPropertyOp55
 70
     1
102
RTVSPropertyOp56
 70
     1
102
RTVSPropertyOp57
 70
     1
102
RTVSPropertyOp58
 70
     1
102
RTVSPropertyOp59
 70
     1
102
RTVSPropertyOp60
 70
     1
102
RTVSPropertyOp61
 70
     1
102
RTVSPropertyOp62
 70
     1
  0
XRECORD
  5
EF6
102
{ACAD_REACTORS
330
EF5
102
}
330
EF5
100
AcDbXrecord
280
     1
102
RTVSPost2010Prop28
280
     0
102
RTVSPost2010PropOp28
 70
     1
102
RTVSPost2010Prop29
280
     1
102
RTVSPost2010PropOp29
 70
     1
102
RTVSPost2010Prop30
280
     1
102
RTVSPost2010PropOp30
 70
     1
102
RTVSPost2010Prop31
280
     0
102
RTVSPost2010PropOp31
 70
     1
102
RTVSPost2010Prop32
280
     0
102
RTVSPost2010PropOp32
 70
     1
102
RTVSPost2010Prop33
280
     0
102
RTVSPost2010PropOp33
 70
     1
102
RTVSPost2010Prop34
280
     0
102
RTVSPost2010PropOp34
 70
     1
102
RTVSPost2010Prop35
280
     0
102
RTVSPost2010PropOp35
 70
     1
102
RTVSPost2010Prop36
280
     0
102
RTVSPost2010PropOp36
 70
     1
102
RTVSPost2010Prop37
 90
       50
102
RTVSPost2010PropOp37
 70
     1
102
RTVSPost2010Prop38
140
0.0
102
RTVSPost2010PropOp38
 70
     1
102
RTVSPost2010Prop39
140
1.0
102
RTVSPost2010PropOp39
 70
     1
102
RTVSPost2010Prop40
 90
        0
102
RTVSPost2010PropOp40
 70
     1
102
RTVSPost2010Prop41ColorIndex
 90
       18
102
RTVSPost2010Prop41ColorRGB
 90
        0
102
RTVSPost2010PropOp41
 70
     1
102
RTVSPost2010Prop42
 90
       50
102
RTVSPost2010PropOp42
 70
     1
102
RTVSPost2010Prop43
 90
        3
102
RTVSPost2010PropOp43
 70
     1
102
RTVSPost2010Prop44ColorIndex
 90
        5
102
RTVSPost2010Prop44ColorRGB
 90
      255
102
RTVSPost2010PropOp44
 70
     1
102
RTVSPost2010Prop45
280
     0
102
RTVSPost2010PropOp45
 70
     1
102
RTVSPost2010Prop46
 90
       50
102
RTVSPost2010PropOp46
 70
     1
102
RTVSPost2010Prop47
 90
       50
102
RTVSPost2010PropOp47
 70
     1
102
RTVSPost2010Prop48
 90
       50
102
RTVSPost2010PropOp48
 70
     1
102
RTVSPost2010Prop49
280
     0
102
RTVSPost2010PropOp49
 70
     1
102
RTVSPost2010Prop50
 90
       50
102
RTVSPost2010PropOp50
 70
     1
102
RTVSPost2010Prop51ColorIndex
 90
      256
102
RTVSPost2010Prop51ColorRGB
 90
-16777216
102
RTVSPost2010PropOp51
 70
     0
102
RTVSPost2010Prop52
140
1.0
102
RTVSPost2010PropOp52
 70
     0
102
RTVSPost2010Prop53
 90
        2
102
RTVSPost2010PropOp53
 70
     1
102
RTVSPost2010Prop54
  1
strokes_ogs.tif
102
RTVSPost2010PropOp54
 70
     1
102
RTVSPost2010Prop55
280
     0
102
RTVSPost2010PropOp55
 70
     1
102
RTVSPost2010Prop56
140
1.0
102
RTVSPost2010PropOp56
 70
     1
102
RTVSPost2010Prop57
140
1.0
102
RTVSPost2010PropOp57
 70
     1
102
RTVSPropertyOp0
 70
     1
102
RTVSPropertyOp1
 70
     1
102
RTVSPropertyOp2
 70
     1
102
RTVSPropertyOp3
 70
     1
102
RTVSPropertyOp4
 70
     1
102
RTVSPropertyOp5
 70
     1
102
RTVSPropertyOp6
 70
     1
102
RTVSPropertyOp7
 70
     1
102
RTVSPropertyOp8
 70
     1
102
RTVSPropertyOp9
 70
     1
102
RTVSPropertyOp10
 70
     1
102
RTVSPropertyOp11
 70
     1
102
RTVSPropertyOp12
 70
     1
102
RTVSPropertyOp13
 70
     1
102
RTVSPropertyOp14
 70
     1
102
RTVSPropertyOp15
 70
     1
102
RTVSPropertyOp16
 70
     1
102
RTVSPropertyOp17
 70
     1
102
RTVSPropertyOp18
 70
     1
102
RTVSPropertyOp19
 70
     1
102
RTVSPropertyOp20
 70
     1
102
RTVSPropertyOp21
 70
     1
102
RTVSPropertyOp22
 70
     1
102
RTVSPropertyOp23
 70
     1
102
RTVSPropertyOp24
 70
     1
102
RTVSPropertyOp25
 70
     1
102
RTVSPropertyOp26
 70
     1
102
RTVSPropertyOp27
 70
     1
102
RTVSPropertyOp28
 70
     1
102
RTVSPropertyOp29
 70
     1
102
RTVSPropertyOp30
 70
     1
102
RTVSPropertyOp31
 70
     1
102
RTVSPropertyOp32
 70
     1
102
RTVSPropertyOp33
 70
     1
102
RTVSPropertyOp34
 70
     1
102
RTVSPropertyOp35
 70
     1
102
RTVSPropertyOp36
 70
     1
102
RTVSPropertyOp37
 70
     1
102
RTVSPropertyOp38
 70
     1
102
RTVSPropertyOp39
 70
     1
102
RTVSPropertyOp40
 70
     1
102
RTVSPropertyOp41
 70
     1
102
RTVSPropertyOp42
 70
     1
102
RTVSPropertyOp43
 70
     1
102
RTVSPropertyOp44
 70
     1
102
RTVSPropertyOp45
 70
     1
102
RTVSPropertyOp46
 70
     1
102
RTVSPropertyOp47
 70
     1
102
RTVSPropertyOp48
 70
     1
102
RTVSPropertyOp49
 70
     1
102
RTVSPropertyOp50
 70
     1
102
RTVSPropertyOp51
 70
     0
102
RTVSPropertyOp52
 70
     0
102
RTVSPropertyOp53
 70
     1
102
RTVSPropertyOp54
 70
     1
102
RTVSPropertyOp55
 70
     1
102
RTVSPropertyOp56
 70
     1
102
RTVSPropertyOp57
 70
     1
102
RTVSPropertyOp58
 70
     1
102
RTVSPropertyOp59
 70
     1
102
RTVSPropertyOp60
 70
     1
102
RTVSPropertyOp61
 70
     1
102
RTVSPropertyOp62
 70
     1
  0
XRECORD
  5
EF8
102
{ACAD_REACTORS
330
EF7
102
}
330
EF7
100
AcDbXrecord
280
     1
102
RTVSPost2010Prop28
280
     0
102
RTVSPost2010PropOp28
 70
     1
102
RTVSPost2010Prop29
280
     1
102
RTVSPost2010PropOp29
 70
     1
102
RTVSPost2010Prop30
280
     1
102
RTVSPost2010PropOp30
 70
     1
102
RTVSPost2010Prop31
280
     0
102
RTVSPost2010PropOp31
 70
     1
102
RTVSPost2010Prop32
280
     0
102
RTVSPost2010PropOp32
 70
     1
102
RTVSPost2010Prop33
280
     0
102
RTVSPost2010PropOp33
 70
     1
102
RTVSPost2010Prop34
280
     0
102
RTVSPost2010PropOp34
 70
     1
102
RTVSPost2010Prop35
280
     0
102
RTVSPost2010PropOp35
 70
     1
102
RTVSPost2010Prop36
280
     0
102
RTVSPost2010PropOp36
 70
     1
102
RTVSPost2010Prop37
 90
       50
102
RTVSPost2010PropOp37
 70
     1
102
RTVSPost2010Prop38
140
0.0
102
RTVSPost2010PropOp38
 70
     1
102
RTVSPost2010Prop39
140
1.0
102
RTVSPost2010PropOp39
 70
     1
102
RTVSPost2010Prop40
 90
        0
102
RTVSPost2010PropOp40
 70
     1
102
RTVSPost2010Prop41ColorIndex
 90
       18
102
RTVSPost2010Prop41ColorRGB
 90
        0
102
RTVSPost2010PropOp41
 70
     1
102
RTVSPost2010Prop42
 90
       50
102
RTVSPost2010PropOp42
 70
     1
102
RTVSPost2010Prop43
 90
        3
102
RTVSPost2010PropOp43
 70
     1
102
RTVSPost2010Prop44ColorIndex
 90
        5
102
RTVSPost2010Prop44ColorRGB
 90
      255
102
RTVSPost2010PropOp44
 70
     1
102
RTVSPost2010Prop45
280
     0
102
RTVSPost2010PropOp45
 70
     1
102
RTVSPost2010Prop46
 90
       50
102
RTVSPost2010PropOp46
 70
     1
102
RTVSPost2010Prop47
 90
       50
102
RTVSPost2010PropOp47
 70
     1
102
RTVSPost2010Prop48
 90
       50
102
RTVSPost2010PropOp48
 70
     1
102
RTVSPost2010Prop49
280
     0
102
RTVSPost2010PropOp49
 70
     1
102
RTVSPost2010Prop50
 90
       50
102
RTVSPost2010PropOp50
 70
     1
102
RTVSPost2010Prop51ColorIndex
 90
      256
102
RTVSPost2010Prop51ColorRGB
 90
-16777216
102
RTVSPost2010PropOp51
 70
     0
102
RTVSPost2010Prop52
140
1.0
102
RTVSPost2010PropOp52
 70
     0
102
RTVSPost2010Prop53
 90
        2
102
RTVSPost2010PropOp53
 70
     1
102
RTVSPost2010Prop54
  1
strokes_ogs.tif
102
RTVSPost2010PropOp54
 70
     1
102
RTVSPost2010Prop55
280
     0
102
RTVSPost2010PropOp55
 70
     1
102
RTVSPost2010Prop56
140
1.0
102
RTVSPost2010PropOp56
 70
     1
102
RTVSPost2010Prop57
140
1.0
102
RTVSPost2010PropOp57
 70
     1
102
RTVSPropertyOp0
 70
     1
102
RTVSPropertyOp1
 70
     1
102
RTVSPropertyOp2
 70
     1
102
RTVSPropertyOp3
 70
     1
102
RTVSPropertyOp4
 70
     1
102
RTVSPropertyOp5
 70
     1
102
RTVSPropertyOp6
 70
     1
102
RTVSPropertyOp7
 70
     1
102
RTVSPropertyOp8
 70
     1
102
RTVSPropertyOp9
 70
     1
102
RTVSPropertyOp10
 70
     1
102
RTVSPropertyOp11
 70
     1
102
RTVSPropertyOp12
 70
     1
102
RTVSPropertyOp13
 70
     1
102
RTVSPropertyOp14
 70
     1
102
RTVSPropertyOp15
 70
     1
102
RTVSPropertyOp16
 70
     1
102
RTVSPropertyOp17
 70
     1
102
RTVSPropertyOp18
 70
     1
102
RTVSPropertyOp19
 70
     1
102
RTVSPropertyOp20
 70
     1
102
RTVSPropertyOp21
 70
     1
102
RTVSPropertyOp22
 70
     1
102
RTVSPropertyOp23
 70
     1
102
RTVSPropertyOp24
 70
     1
102
RTVSPropertyOp25
 70
     1
102
RTVSPropertyOp26
 70
     1
102
RTVSPropertyOp27
 70
     1
102
RTVSPropertyOp28
 70
     1
102
RTVSPropertyOp29
 70
     1
102
RTVSPropertyOp30
 70
     1
102
RTVSPropertyOp31
 70
     1
102
RTVSPropertyOp32
 70
     1
102
RTVSPropertyOp33
 70
     1
102
RTVSPropertyOp34
 70
     1
102
RTVSPropertyOp35
 70
     1
102
RTVSPropertyOp36
 70
     1
102
RTVSPropertyOp37
 70
     1
102
RTVSPropertyOp38
 70
     1
102
RTVSPropertyOp39
 70
     1
102
RTVSPropertyOp40
 70
     1
102
RTVSPropertyOp41
 70
     1
102
RTVSPropertyOp42
 70
     1
102
RTVSPropertyOp43
 70
     1
102
RTVSPropertyOp44
 70
     1
102
RTVSPropertyOp45
 70
     1
102
RTVSPropertyOp46
 70
     1
102
RTVSPropertyOp47
 70
     1
102
RTVSPropertyOp48
 70
     1
102
RTVSPropertyOp49
 70
     1
102
RTVSPropertyOp50
 70
     1
102
RTVSPropertyOp51
 70
     0
102
RTVSPropertyOp52
 70
     0
102
RTVSPropertyOp53
 70
     1
102
RTVSPropertyOp54
 70
     1
102
RTVSPropertyOp55
 70
     1
102
RTVSPropertyOp56
 70
     1
102
RTVSPropertyOp57
 70
     1
102
RTVSPropertyOp58
 70
     1
102
RTVSPropertyOp59
 70
     1
102
RTVSPropertyOp60
 70
     1
102
RTVSPropertyOp61
 70
     1
102
RTVSPropertyOp62
 70
     1
  0
XRECORD
  5
F00
102
{ACAD_REACTORS
330
EFF
102
}
330
EFF
100
AcDbXrecord
280
     1
102
RTVSPost2010Prop28
280
     0
102
RTVSPost2010PropOp28
 70
     1
102
RTVSPost2010Prop29
280
     1
102
RTVSPost2010PropOp29
 70
     1
102
RTVSPost2010Prop30
280
     1
102
RTVSPost2010PropOp30
 70
     1
102
RTVSPost2010Prop31
280
     0
102
RTVSPost2010PropOp31
 70
     1
102
RTVSPost2010Prop32
280
     0
102
RTVSPost2010PropOp32
 70
     1
102
RTVSPost2010Prop33
280
     0
102
RTVSPost2010PropOp33
 70
     1
102
RTVSPost2010Prop34
280
     0
102
RTVSPost2010PropOp34
 70
     1
102
RTVSPost2010Prop35
280
     0
102
RTVSPost2010PropOp35
 70
     1
102
RTVSPost2010Prop36
280
     0
102
RTVSPost2010PropOp36
 70
     1
102
RTVSPost2010Prop37
 90
       50
102
RTVSPost2010PropOp37
 70
     1
102
RTVSPost2010Prop38
140
0.0
102
RTVSPost2010PropOp38
 70
     1
102
RTVSPost2010Prop39
140
1.0
102
RTVSPost2010PropOp39
 70
     1
102
RTVSPost2010Prop40
 90
        0
102
RTVSPost2010PropOp40
 70
     1
102
RTVSPost2010Prop41ColorIndex
 90
       18
102
RTVSPost2010Prop41ColorRGB
 90
        0
102
RTVSPost2010PropOp41
 70
     1
102
RTVSPost2010Prop42
 90
       50
102
RTVSPost2010PropOp42
 70
     1
102
RTVSPost2010Prop43
 90
        3
102
RTVSPost2010PropOp43
 70
     1
102
RTVSPost2010Prop44ColorIndex
 90
        5
102
RTVSPost2010Prop44ColorRGB
 90
      255
102
RTVSPost2010PropOp44
 70
     1
102
RTVSPost2010Prop45
280
     0
102
RTVSPost2010PropOp45
 70
     1
102
RTVSPost2010Prop46
 90
       50
102
RTVSPost2010PropOp46
 70
     1
102
RTVSPost2010Prop47
 90
       50
102
RTVSPost2010PropOp47
 70
     1
102
RTVSPost2010Prop48
 90
       50
102
RTVSPost2010PropOp48
 70
     1
102
RTVSPost2010Prop49
280
     0
102
RTVSPost2010PropOp49
 70
     1
102
RTVSPost2010Prop50
 90
       50
102
RTVSPost2010PropOp50
 70
     1
102
RTVSPost2010Prop51ColorIndex
 90
      256
102
RTVSPost2010Prop51ColorRGB
 90
-16777216
102
RTVSPost2010PropOp51
 70
     0
102
RTVSPost2010Prop52
140
1.0
102
RTVSPost2010PropOp52
 70
     0
102
RTVSPost2010Prop53
 90
        2
102
RTVSPost2010PropOp53
 70
     1
102
RTVSPost2010Prop54
  1
strokes_ogs.tif
102
RTVSPost2010PropOp54
 70
     1
102
RTVSPost2010Prop55
280
     0
102
RTVSPost2010PropOp55
 70
     1
102
RTVSPost2010Prop56
140
1.0
102
RTVSPost2010PropOp56
 70
     1
102
RTVSPost2010Prop57
140
1.0
102
RTVSPost2010PropOp57
 70
     1
102
RTVSPropertyOp0
 70
     1
102
RTVSPropertyOp1
 70
     1
102
RTVSPropertyOp2
 70
     1
102
RTVSPropertyOp3
 70
     1
102
RTVSPropertyOp4
 70
     1
102
RTVSPropertyOp5
 70
     1
102
RTVSPropertyOp6
 70
     1
102
RTVSPropertyOp7
 70
     1
102
RTVSPropertyOp8
 70
     1
102
RTVSPropertyOp9
 70
     1
102
RTVSPropertyOp10
 70
     1
102
RTVSPropertyOp11
 70
     1
102
RTVSPropertyOp12
 70
     1
102
RTVSPropertyOp13
 70
     1
102
RTVSPropertyOp14
 70
     1
102
RTVSPropertyOp15
 70
     1
102
RTVSPropertyOp16
 70
     1
102
RTVSPropertyOp17
 70
     1
102
RTVSPropertyOp18
 70
     1
102
RTVSPropertyOp19
 70
     1
102
RTVSPropertyOp20
 70
     1
102
RTVSPropertyOp21
 70
     1
102
RTVSPropertyOp22
 70
     1
102
RTVSPropertyOp23
 70
     1
102
RTVSPropertyOp24
 70
     1
102
RTVSPropertyOp25
 70
     1
102
RTVSPropertyOp26
 70
     1
102
RTVSPropertyOp27
 70
     1
102
RTVSPropertyOp28
 70
     1
102
RTVSPropertyOp29
 70
     1
102
RTVSPropertyOp30
 70
     1
102
RTVSPropertyOp31
 70
     1
102
RTVSPropertyOp32
 70
     1
102
RTVSPropertyOp33
 70
     1
102
RTVSPropertyOp34
 70
     1
102
RTVSPropertyOp35
 70
     1
102
RTVSPropertyOp36
 70
     1
102
RTVSPropertyOp37
 70
     1
102
RTVSPropertyOp38
 70
     1
102
RTVSPropertyOp39
 70
     1
102
RTVSPropertyOp40
 70
     1
102
RTVSPropertyOp41
 70
     1
102
RTVSPropertyOp42
 70
     1
102
RTVSPropertyOp43
 70
     1
102
RTVSPropertyOp44
 70
     1
102
RTVSPropertyOp45
 70
     1
102
RTVSPropertyOp46
 70
     1
102
RTVSPropertyOp47
 70
     1
102
RTVSPropertyOp48
 70
     1
102
RTVSPropertyOp49
 70
     1
102
RTVSPropertyOp50
 70
     1
102
RTVSPropertyOp51
 70
     0
102
RTVSPropertyOp52
 70
     0
102
RTVSPropertyOp53
 70
     1
102
RTVSPropertyOp54
 70
     1
102
RTVSPropertyOp55
 70
     1
102
RTVSPropertyOp56
 70
     1
102
RTVSPropertyOp57
 70
     1
102
RTVSPropertyOp58
 70
     1
102
RTVSPropertyOp59
 70
     1
102
RTVSPropertyOp60
 70
     1
102
RTVSPropertyOp61
 70
     1
102
RTVSPropertyOp62
 70
     1
  0
XRECORD
  5
F1C
102
{ACAD_REACTORS
330
F1B
102
}
330
F1B
100
AcDbXrecord
280
     1
102
RTVSPost2010Prop28
280
     0
102
RTVSPost2010PropOp28
 70
     0
102
RTVSPost2010Prop29
280
     1
102
RTVSPost2010PropOp29
 70
     0
102
RTVSPost2010Prop30
280
     1
102
RTVSPost2010PropOp30
 70
     0
102
RTVSPost2010Prop31
280
     0
102
RTVSPost2010PropOp31
 70
     0
102
RTVSPost2010Prop32
280
     0
102
RTVSPost2010PropOp32
 70
     0
102
RTVSPost2010Prop33
280
     0
102
RTVSPost2010PropOp33
 70
     0
102
RTVSPost2010Prop34
280
     0
102
RTVSPost2010PropOp34
 70
     0
102
RTVSPost2010Prop35
280
     0
102
RTVSPost2010PropOp35
 70
     0
102
RTVSPost2010Prop36
280
     0
102
RTVSPost2010PropOp36
 70
     0
102
RTVSPost2010Prop37
 90
       50
102
RTVSPost2010PropOp37
 70
     0
102
RTVSPost2010Prop38
140
0.0
102
RTVSPost2010PropOp38
 70
     0
102
RTVSPost2010Prop39
140
1.0
102
RTVSPost2010PropOp39
 70
     0
102
RTVSPost2010Prop40
 90
        0
102
RTVSPost2010PropOp40
 70
     0
102
RTVSPost2010Prop41ColorIndex
 90
       18
102
RTVSPost2010Prop41ColorRGB
 90
        0
102
RTVSPost2010PropOp41
 70
     0
102
RTVSPost2010Prop42
 90
       50
102
RTVSPost2010PropOp42
 70
     0
102
RTVSPost2010Prop43
 90
        3
102
RTVSPost2010PropOp43
 70
     0
102
RTVSPost2010Prop44ColorIndex
 90
        5
102
RTVSPost2010Prop44ColorRGB
 90
      255
102
RTVSPost2010PropOp44
 70
     0
102
RTVSPost2010Prop45
280
     0
102
RTVSPost2010PropOp45
 70
     0
102
RTVSPost2010Prop46
 90
       50
102
RTVSPost2010PropOp46
 70
     0
102
RTVSPost2010Prop47
 90
       50
102
RTVSPost2010PropOp47
 70
     0
102
RTVSPost2010Prop48
 90
       50
102
RTVSPost2010PropOp48
 70
     0
102
RTVSPost2010Prop49
280
     0
102
RTVSPost2010PropOp49
 70
     0
102
RTVSPost2010Prop50
 90
       50
102
RTVSPost2010PropOp50
 70
     0
102
RTVSPost2010Prop51ColorIndex
 90
      256
102
RTVSPost2010Prop51ColorRGB
 90
-16777216
102
RTVSPost2010PropOp51
 70
     0
102
RTVSPost2010Prop52
140
1.0
102
RTVSPost2010PropOp52
 70
     0
102
RTVSPost2010Prop53
 90
        2
102
RTVSPost2010PropOp53
 70
     0
102
RTVSPost2010Prop54
  1
strokes_ogs.tif
102
RTVSPost2010PropOp54
 70
     0
102
RTVSPost2010Prop55
280
     0
102
RTVSPost2010PropOp55
 70
     0
102
RTVSPost2010Prop56
140
1.0
102
RTVSPost2010PropOp56
 70
     0
102
RTVSPost2010Prop57
140
1.0
102
RTVSPost2010PropOp57
 70
     0
102
RTVSPropertyOp0
 70
     0
102
RTVSPropertyOp1
 70
     0
102
RTVSPropertyOp2
 70
     0
102
RTVSPropertyOp3
 70
     0
102
RTVSPropertyOp4
 70
     0
102
RTVSPropertyOp5
 70
     0
102
RTVSPropertyOp6
 70
     0
102
RTVSPropertyOp7
 70
     0
102
RTVSPropertyOp8
 70
     0
102
RTVSPropertyOp9
 70
     0
102
RTVSPropertyOp10
 70
     0
102
RTVSPropertyOp11
 70
     0
102
RTVSPropertyOp12
 70
     0
102
RTVSPropertyOp13
 70
     0
102
RTVSPropertyOp14
 70
     2
102
RTVSPropertyOp15
 70
     0
102
RTVSPropertyOp16
 70
     0
102
RTVSPropertyOp17
 70
     0
102
RTVSPropertyOp18
 70
     0
102
RTVSPropertyOp19
 70
     0
102
RTVSPropertyOp20
 70
     0
102
RTVSPropertyOp21
 70
     0
102
RTVSPropertyOp22
 70
     0
102
RTVSPropertyOp23
 70
     0
102
RTVSPropertyOp24
 70
     0
102
RTVSPropertyOp25
 70
     0
102
RTVSPropertyOp26
 70
     0
102
RTVSPropertyOp27
 70
     0
102
RTVSPropertyOp28
 70
     0
102
RTVSPropertyOp29
 70
     0
102
RTVSPropertyOp30
 70
     0
102
RTVSPropertyOp31
 70
     0
102
RTVSPropertyOp32
 70
     0
102
RTVSPropertyOp33
 70
     0
102
RTVSPropertyOp34
 70
     0
102
RTVSPropertyOp35
 70
     0
102
RTVSPropertyOp36
 70
     0
102
RTVSPropertyOp37
 70
     0
102
RTVSPropertyOp38
 70
     0
102
RTVSPropertyOp39
 70
     0
102
RTVSPropertyOp40
 70
     0
102
RTVSPropertyOp41
 70
     0
102
RTVSPropertyOp42
 70
     0
102
RTVSPropertyOp43
 70
     0
102
RTVSPropertyOp44
 70
     0
102
RTVSPropertyOp45
 70
     0
102
RTVSPropertyOp46
 70
     0
102
RTVSPropertyOp47
 70
     0
102
RTVSPropertyOp48
 70
     0
102
RTVSPropertyOp49
 70
     0
102
RTVSPropertyOp50
 70
     0
102
RTVSPropertyOp51
 70
     0
102
RTVSPropertyOp52
 70
     0
102
RTVSPropertyOp53
 70
     0
102
RTVSPropertyOp54
 70
     0
102
RTVSPropertyOp55
 70
     0
102
RTVSPropertyOp56
 70
     0
102
RTVSPropertyOp57
 70
     0
102
RTVSPropertyOp58
 70
     0
102
RTVSPropertyOp59
 70
     0
102
RTVSPropertyOp60
 70
     0
102
RTVSPropertyOp61
 70
     0
102
RTVSPropertyOp62
 70
     0
  0
XRECORD
  5
F0C
102
{ACAD_REACTORS
330
F0B
102
}
330
F0B
100
AcDbXrecord
280
     1
102
RTVSPost2010Prop28
280
     0
102
RTVSPost2010PropOp28
 70
     1
102
RTVSPost2010Prop29
280
     1
102
RTVSPost2010PropOp29
 70
     1
102
RTVSPost2010Prop30
280
     1
102
RTVSPost2010PropOp30
 70
     1
102
RTVSPost2010Prop31
280
     0
102
RTVSPost2010PropOp31
 70
     1
102
RTVSPost2010Prop32
280
     0
102
RTVSPost2010PropOp32
 70
     1
102
RTVSPost2010Prop33
280
     0
102
RTVSPost2010PropOp33
 70
     1
102
RTVSPost2010Prop34
280
     0
102
RTVSPost2010PropOp34
 70
     1
102
RTVSPost2010Prop35
280
     0
102
RTVSPost2010PropOp35
 70
     1
102
RTVSPost2010Prop36
280
     0
102
RTVSPost2010PropOp36
 70
     1
102
RTVSPost2010Prop37
 90
       50
102
RTVSPost2010PropOp37
 70
     1
102
RTVSPost2010Prop38
140
0.0
102
RTVSPost2010PropOp38
 70
     1
102
RTVSPost2010Prop39
140
1.0
102
RTVSPost2010PropOp39
 70
     1
102
RTVSPost2010Prop40
 90
        0
102
RTVSPost2010PropOp40
 70
     1
102
RTVSPost2010Prop41ColorIndex
 90
       18
102
RTVSPost2010Prop41ColorRGB
 90
        0
102
RTVSPost2010PropOp41
 70
     1
102
RTVSPost2010Prop42
 90
       50
102
RTVSPost2010PropOp42
 70
     1
102
RTVSPost2010Prop43
 90
        3
102
RTVSPost2010PropOp43
 70
     1
102
RTVSPost2010Prop44ColorIndex
 90
        5
102
RTVSPost2010Prop44ColorRGB
 90
      255
102
RTVSPost2010PropOp44
 70
     1
102
RTVSPost2010Prop45
280
     0
102
RTVSPost2010PropOp45
 70
     1
102
RTVSPost2010Prop46
 90
       50
102
RTVSPost2010PropOp46
 70
     1
102
RTVSPost2010Prop47
 90
       50
102
RTVSPost2010PropOp47
 70
     1
102
RTVSPost2010Prop48
 90
       50
102
RTVSPost2010PropOp48
 70
     1
102
RTVSPost2010Prop49
280
     0
102
RTVSPost2010PropOp49
 70
     1
102
RTVSPost2010Prop50
 90
       50
102
RTVSPost2010PropOp50
 70
     1
102
RTVSPost2010Prop51ColorIndex
 90
      256
102
RTVSPost2010Prop51ColorRGB
 90
-16777216
102
RTVSPost2010PropOp51
 70
     0
102
RTVSPost2010Prop52
140
1.0
102
RTVSPost2010PropOp52
 70
     0
102
RTVSPost2010Prop53
 90
        2
102
RTVSPost2010PropOp53
 70
     1
102
RTVSPost2010Prop54
  1
strokes_ogs.tif
102
RTVSPost2010PropOp54
 70
     1
102
RTVSPost2010Prop55
280
     0
102
RTVSPost2010PropOp55
 70
     1
102
RTVSPost2010Prop56
140
1.0
102
RTVSPost2010PropOp56
 70
     1
102
RTVSPost2010Prop57
140
1.0
102
RTVSPost2010PropOp57
 70
     1
102
RTVSPropertyOp0
 70
     1
102
RTVSPropertyOp1
 70
     1
102
RTVSPropertyOp2
 70
     1
102
RTVSPropertyOp3
 70
     1
102
RTVSPropertyOp4
 70
     1
102
RTVSPropertyOp5
 70
     1
102
RTVSPropertyOp6
 70
     1
102
RTVSPropertyOp7
 70
     1
102
RTVSPropertyOp8
 70
     1
102
RTVSPropertyOp9
 70
     1
102
RTVSPropertyOp10
 70
     1
102
RTVSPropertyOp11
 70
     1
102
RTVSPropertyOp12
 70
     1
102
RTVSPropertyOp13
 70
     1
102
RTVSPropertyOp14
 70
     1
102
RTVSPropertyOp15
 70
     1
102
RTVSPropertyOp16
 70
     1
102
RTVSPropertyOp17
 70
     1
102
RTVSPropertyOp18
 70
     1
102
RTVSPropertyOp19
 70
     1
102
RTVSPropertyOp20
 70
     1
102
RTVSPropertyOp21
 70
     1
102
RTVSPropertyOp22
 70
     1
102
RTVSPropertyOp23
 70
     1
102
RTVSPropertyOp24
 70
     1
102
RTVSPropertyOp25
 70
     1
102
RTVSPropertyOp26
 70
     1
102
RTVSPropertyOp27
 70
     1
102
RTVSPropertyOp28
 70
     1
102
RTVSPropertyOp29
 70
     1
102
RTVSPropertyOp30
 70
     1
102
RTVSPropertyOp31
 70
     1
102
RTVSPropertyOp32
 70
     1
102
RTVSPropertyOp33
 70
     1
102
RTVSPropertyOp34
 70
     1
102
RTVSPropertyOp35
 70
     1
102
RTVSPropertyOp36
 70
     1
102
RTVSPropertyOp37
 70
     1
102
RTVSPropertyOp38
 70
     1
102
RTVSPropertyOp39
 70
     1
102
RTVSPropertyOp40
 70
     1
102
RTVSPropertyOp41
 70
     1
102
RTVSPropertyOp42
 70
     1
102
RTVSPropertyOp43
 70
     1
102
RTVSPropertyOp44
 70
     1
102
RTVSPropertyOp45
 70
     1
102
RTVSPropertyOp46
 70
     1
102
RTVSPropertyOp47
 70
     1
102
RTVSPropertyOp48
 70
     1
102
RTVSPropertyOp49
 70
     1
102
RTVSPropertyOp50
 70
     1
102
RTVSPropertyOp51
 70
     0
102
RTVSPropertyOp52
 70
     0
102
RTVSPropertyOp53
 70
     1
102
RTVSPropertyOp54
 70
     1
102
RTVSPropertyOp55
 70
     1
102
RTVSPropertyOp56
 70
     1
102
RTVSPropertyOp57
 70
     1
102
RTVSPropertyOp58
 70
     1
102
RTVSPropertyOp59
 70
     1
102
RTVSPropertyOp60
 70
     1
102
RTVSPropertyOp61
 70
     1
102
RTVSPropertyOp62
 70
     1
  0
XRECORD
  5
F1E
102
{ACAD_REACTORS
330
F1D
102
}
330
F1D
100
AcDbXrecord
280
     1
102
RTVSPost2010Prop28
280
     0
102
RTVSPost2010PropOp28
 70
     0
102
RTVSPost2010Prop29
280
     1
102
RTVSPost2010PropOp29
 70
     0
102
RTVSPost2010Prop30
280
     1
102
RTVSPost2010PropOp30
 70
     0
102
RTVSPost2010Prop31
280
     0
102
RTVSPost2010PropOp31
 70
     0
102
RTVSPost2010Prop32
280
     0
102
RTVSPost2010PropOp32
 70
     0
102
RTVSPost2010Prop33
280
     0
102
RTVSPost2010PropOp33
 70
     0
102
RTVSPost2010Prop34
280
     0
102
RTVSPost2010PropOp34
 70
     0
102
RTVSPost2010Prop35
280
     0
102
RTVSPost2010PropOp35
 70
     0
102
RTVSPost2010Prop36
280
     0
102
RTVSPost2010PropOp36
 70
     0
102
RTVSPost2010Prop37
 90
       50
102
RTVSPost2010PropOp37
 70
     0
102
RTVSPost2010Prop38
140
0.0
102
RTVSPost2010PropOp38
 70
     0
102
RTVSPost2010Prop39
140
1.0
102
RTVSPost2010PropOp39
 70
     0
102
RTVSPost2010Prop40
 90
        0
102
RTVSPost2010PropOp40
 70
     0
102
RTVSPost2010Prop41ColorIndex
 90
       18
102
RTVSPost2010Prop41ColorRGB
 90
        0
102
RTVSPost2010PropOp41
 70
     0
102
RTVSPost2010Prop42
 90
       50
102
RTVSPost2010PropOp42
 70
     0
102
RTVSPost2010Prop43
 90
        3
102
RTVSPost2010PropOp43
 70
     0
102
RTVSPost2010Prop44ColorIndex
 90
        5
102
RTVSPost2010Prop44ColorRGB
 90
      255
102
RTVSPost2010PropOp44
 70
     0
102
RTVSPost2010Prop45
280
     0
102
RTVSPost2010PropOp45
 70
     0
102
RTVSPost2010Prop46
 90
       50
102
RTVSPost2010PropOp46
 70
     0
102
RTVSPost2010Prop47
 90
       50
102
RTVSPost2010PropOp47
 70
     0
102
RTVSPost2010Prop48
 90
       50
102
RTVSPost2010PropOp48
 70
     0
102
RTVSPost2010Prop49
280
     0
102
RTVSPost2010PropOp49
 70
     0
102
RTVSPost2010Prop50
 90
       50
102
RTVSPost2010PropOp50
 70
     0
102
RTVSPost2010Prop51ColorIndex
 90
      256
102
RTVSPost2010Prop51ColorRGB
 90
-16777216
102
RTVSPost2010PropOp51
 70
     0
102
RTVSPost2010Prop52
140
1.0
102
RTVSPost2010PropOp52
 70
     0
102
RTVSPost2010Prop53
 90
        2
102
RTVSPost2010PropOp53
 70
     0
102
RTVSPost2010Prop54
  1
strokes_ogs.tif
102
RTVSPost2010PropOp54
 70
     0
102
RTVSPost2010Prop55
280
     0
102
RTVSPost2010PropOp55
 70
     0
102
RTVSPost2010Prop56
140
1.0
102
RTVSPost2010PropOp56
 70
     0
102
RTVSPost2010Prop57
140
1.0
102
RTVSPost2010PropOp57
 70
     0
102
RTVSPropertyOp0
 70
     0
102
RTVSPropertyOp1
 70
     0
102
RTVSPropertyOp2
 70
     0
102
RTVSPropertyOp3
 70
     0
102
RTVSPropertyOp4
 70
     0
102
RTVSPropertyOp5
 70
     0
102
RTVSPropertyOp6
 70
     0
102
RTVSPropertyOp7
 70
     0
102
RTVSPropertyOp8
 70
     0
102
RTVSPropertyOp9
 70
     0
102
RTVSPropertyOp10
 70
     0
102
RTVSPropertyOp11
 70
     0
102
RTVSPropertyOp12
 70
     0
102
RTVSPropertyOp13
 70
     0
102
RTVSPropertyOp14
 70
     2
102
RTVSPropertyOp15
 70
     0
102
RTVSPropertyOp16
 70
     0
102
RTVSPropertyOp17
 70
     0
102
RTVSPropertyOp18
 70
     0
102
RTVSPropertyOp19
 70
     0
102
RTVSPropertyOp20
 70
     0
102
RTVSPropertyOp21
 70
     0
102
RTVSPropertyOp22
 70
     0
102
RTVSPropertyOp23
 70
     0
102
RTVSPropertyOp24
 70
     0
102
RTVSPropertyOp25
 70
     0
102
RTVSPropertyOp26
 70
     0
102
RTVSPropertyOp27
 70
     0
102
RTVSPropertyOp28
 70
     0
102
RTVSPropertyOp29
 70
     0
102
RTVSPropertyOp30
 70
     0
102
RTVSPropertyOp31
 70
     0
102
RTVSPropertyOp32
 70
     0
102
RTVSPropertyOp33
 70
     0
102
RTVSPropertyOp34
 70
     0
102
RTVSPropertyOp35
 70
     0
102
RTVSPropertyOp36
 70
     0
102
RTVSPropertyOp37
 70
     0
102
RTVSPropertyOp38
 70
     0
102
RTVSPropertyOp39
 70
     0
102
RTVSPropertyOp40
 70
     0
102
RTVSPropertyOp41
 70
     0
102
RTVSPropertyOp42
 70
     0
102
RTVSPropertyOp43
 70
     0
102
RTVSPropertyOp44
 70
     0
102
RTVSPropertyOp45
 70
     0
102
RTVSPropertyOp46
 70
     0
102
RTVSPropertyOp47
 70
     0
102
RTVSPropertyOp48
 70
     0
102
RTVSPropertyOp49
 70
     0
102
RTVSPropertyOp50
 70
     0
102
RTVSPropertyOp51
 70
     0
102
RTVSPropertyOp52
 70
     0
102
RTVSPropertyOp53
 70
     0
102
RTVSPropertyOp54
 70
     0
102
RTVSPropertyOp55
 70
     0
102
RTVSPropertyOp56
 70
     0
102
RTVSPropertyOp57
 70
     0
102
RTVSPropertyOp58
 70
     0
102
RTVSPropertyOp59
 70
     0
102
RTVSPropertyOp60
 70
     0
102
RTVSPropertyOp61
 70
     0
102
RTVSPropertyOp62
 70
     0
  0
XRECORD
  5
F04
102
{ACAD_REACTORS
330
F03
102
}
330
F03
100
AcDbXrecord
280
     1
102
RTVSPost2010Prop28
280
     0
102
RTVSPost2010PropOp28
 70
     1
102
RTVSPost2010Prop29
280
     1
102
RTVSPost2010PropOp29
 70
     1
102
RTVSPost2010Prop30
280
     1
102
RTVSPost2010PropOp30
 70
     1
102
RTVSPost2010Prop31
280
     0
102
RTVSPost2010PropOp31
 70
     1
102
RTVSPost2010Prop32
280
     0
102
RTVSPost2010PropOp32
 70
     1
102
RTVSPost2010Prop33
280
     0
102
RTVSPost2010PropOp33
 70
     1
102
RTVSPost2010Prop34
280
     0
102
RTVSPost2010PropOp34
 70
     1
102
RTVSPost2010Prop35
280
     0
102
RTVSPost2010PropOp35
 70
     1
102
RTVSPost2010Prop36
280
     0
102
RTVSPost2010PropOp36
 70
     1
102
RTVSPost2010Prop37
 90
       50
102
RTVSPost2010PropOp37
 70
     1
102
RTVSPost2010Prop38
140
0.0
102
RTVSPost2010PropOp38
 70
     1
102
RTVSPost2010Prop39
140
1.0
102
RTVSPost2010PropOp39
 70
     1
102
RTVSPost2010Prop40
 90
        0
102
RTVSPost2010PropOp40
 70
     1
102
RTVSPost2010Prop41ColorIndex
 90
       18
102
RTVSPost2010Prop41ColorRGB
 90
        0
102
RTVSPost2010PropOp41
 70
     1
102
RTVSPost2010Prop42
 90
       50
102
RTVSPost2010PropOp42
 70
     1
102
RTVSPost2010Prop43
 90
        3
102
RTVSPost2010PropOp43
 70
     1
102
RTVSPost2010Prop44ColorIndex
 90
        5
102
RTVSPost2010Prop44ColorRGB
 90
      255
102
RTVSPost2010PropOp44
 70
     1
102
RTVSPost2010Prop45
280
     0
102
RTVSPost2010PropOp45
 70
     1
102
RTVSPost2010Prop46
 90
       50
102
RTVSPost2010PropOp46
 70
     1
102
RTVSPost2010Prop47
 90
       50
102
RTVSPost2010PropOp47
 70
     1
102
RTVSPost2010Prop48
 90
       50
102
RTVSPost2010PropOp48
 70
     1
102
RTVSPost2010Prop49
280
     0
102
RTVSPost2010PropOp49
 70
     1
102
RTVSPost2010Prop50
 90
       50
102
RTVSPost2010PropOp50
 70
     1
102
RTVSPost2010Prop51ColorIndex
 90
      256
102
RTVSPost2010Prop51ColorRGB
 90
-16777216
102
RTVSPost2010PropOp51
 70
     0
102
RTVSPost2010Prop52
140
1.0
102
RTVSPost2010PropOp52
 70
     0
102
RTVSPost2010Prop53
 90
        2
102
RTVSPost2010PropOp53
 70
     1
102
RTVSPost2010Prop54
  1
strokes_ogs.tif
102
RTVSPost2010PropOp54
 70
     1
102
RTVSPost2010Prop55
280
     0
102
RTVSPost2010PropOp55
 70
     1
102
RTVSPost2010Prop56
140
1.0
102
RTVSPost2010PropOp56
 70
     1
102
RTVSPost2010Prop57
140
1.0
102
RTVSPost2010PropOp57
 70
     1
102
RTVSPropertyOp0
 70
     1
102
RTVSPropertyOp1
 70
     1
102
RTVSPropertyOp2
 70
     1
102
RTVSPropertyOp3
 70
     1
102
RTVSPropertyOp4
 70
     1
102
RTVSPropertyOp5
 70
     1
102
RTVSPropertyOp6
 70
     1
102
RTVSPropertyOp7
 70
     1
102
RTVSPropertyOp8
 70
     1
102
RTVSPropertyOp9
 70
     1
102
RTVSPropertyOp10
 70
     1
102
RTVSPropertyOp11
 70
     1
102
RTVSPropertyOp12
 70
     1
102
RTVSPropertyOp13
 70
     1
102
RTVSPropertyOp14
 70
     1
102
RTVSPropertyOp15
 70
     1
102
RTVSPropertyOp16
 70
     1
102
RTVSPropertyOp17
 70
     1
102
RTVSPropertyOp18
 70
     1
102
RTVSPropertyOp19
 70
     1
102
RTVSPropertyOp20
 70
     1
102
RTVSPropertyOp21
 70
     1
102
RTVSPropertyOp22
 70
     1
102
RTVSPropertyOp23
 70
     1
102
RTVSPropertyOp24
 70
     1
102
RTVSPropertyOp25
 70
     1
102
RTVSPropertyOp26
 70
     1
102
RTVSPropertyOp27
 70
     1
102
RTVSPropertyOp28
 70
     1
102
RTVSPropertyOp29
 70
     1
102
RTVSPropertyOp30
 70
     1
102
RTVSPropertyOp31
 70
     1
102
RTVSPropertyOp32
 70
     1
102
RTVSPropertyOp33
 70
     1
102
RTVSPropertyOp34
 70
     1
102
RTVSPropertyOp35
 70
     1
102
RTVSPropertyOp36
 70
     1
102
RTVSPropertyOp37
 70
     1
102
RTVSPropertyOp38
 70
     1
102
RTVSPropertyOp39
 70
     1
102
RTVSPropertyOp40
 70
     1
102
RTVSPropertyOp41
 70
     1
102
RTVSPropertyOp42
 70
     1
102
RTVSPropertyOp43
 70
     1
102
RTVSPropertyOp44
 70
     1
102
RTVSPropertyOp45
 70
     1
102
RTVSPropertyOp46
 70
     1
102
RTVSPropertyOp47
 70
     1
102
RTVSPropertyOp48
 70
     1
102
RTVSPropertyOp49
 70
     1
102
RTVSPropertyOp50
 70
     1
102
RTVSPropertyOp51
 70
     0
102
RTVSPropertyOp52
 70
     0
102
RTVSPropertyOp53
 70
     1
102
RTVSPropertyOp54
 70
     1
102
RTVSPropertyOp55
 70
     1
102
RTVSPropertyOp56
 70
     1
102
RTVSPropertyOp57
 70
     1
102
RTVSPropertyOp58
 70
     1
102
RTVSPropertyOp59
 70
     1
102
RTVSPropertyOp60
 70
     1
102
RTVSPropertyOp61
 70
     1
102
RTVSPropertyOp62
 70
     1
  0
XRECORD
  5
F1A
102
{ACAD_REACTORS
330
F19
102
}
330
F19
100
AcDbXrecord
280
     1
102
RTVSPost2010Prop28
280
     0
102
RTVSPost2010PropOp28
 70
     1
102
RTVSPost2010Prop29
280
     1
102
RTVSPost2010PropOp29
 70
     1
102
RTVSPost2010Prop30
280
     1
102
RTVSPost2010PropOp30
 70
     1
102
RTVSPost2010Prop31
280
     0
102
RTVSPost2010PropOp31
 70
     1
102
RTVSPost2010Prop32
280
     0
102
RTVSPost2010PropOp32
 70
     1
102
RTVSPost2010Prop33
280
     0
102
RTVSPost2010PropOp33
 70
     1
102
RTVSPost2010Prop34
280
     0
102
RTVSPost2010PropOp34
 70
     1
102
RTVSPost2010Prop35
280
     0
102
RTVSPost2010PropOp35
 70
     1
102
RTVSPost2010Prop36
280
     0
102
RTVSPost2010PropOp36
 70
     1
102
RTVSPost2010Prop37
 90
       50
102
RTVSPost2010PropOp37
 70
     1
102
RTVSPost2010Prop38
140
0.0
102
RTVSPost2010PropOp38
 70
     1
102
RTVSPost2010Prop39
140
1.0
102
RTVSPost2010PropOp39
 70
     1
102
RTVSPost2010Prop40
 90
        0
102
RTVSPost2010PropOp40
 70
     1
102
RTVSPost2010Prop41ColorIndex
 90
       18
102
RTVSPost2010Prop41ColorRGB
 90
        0
102
RTVSPost2010PropOp41
 70
     1
102
RTVSPost2010Prop42
 90
       50
102
RTVSPost2010PropOp42
 70
     1
102
RTVSPost2010Prop43
 90
        3
102
RTVSPost2010PropOp43
 70
     1
102
RTVSPost2010Prop44ColorIndex
 90
        5
102
RTVSPost2010Prop44ColorRGB
 90
      255
102
RTVSPost2010PropOp44
 70
     1
102
RTVSPost2010Prop45
280
     0
102
RTVSPost2010PropOp45
 70
     1
102
RTVSPost2010Prop46
 90
       50
102
RTVSPost2010PropOp46
 70
     1
102
RTVSPost2010Prop47
 90
       50
102
RTVSPost2010PropOp47
 70
     1
102
RTVSPost2010Prop48
 90
       50
102
RTVSPost2010PropOp48
 70
     1
102
RTVSPost2010Prop49
280
     0
102
RTVSPost2010PropOp49
 70
     1
102
RTVSPost2010Prop50
 90
       50
102
RTVSPost2010PropOp50
 70
     1
102
RTVSPost2010Prop51ColorIndex
 90
      256
102
RTVSPost2010Prop51ColorRGB
 90
-16777216
102
RTVSPost2010PropOp51
 70
     0
102
RTVSPost2010Prop52
140
1.0
102
RTVSPost2010PropOp52
 70
     0
102
RTVSPost2010Prop53
 90
        2
102
RTVSPost2010PropOp53
 70
     1
102
RTVSPost2010Prop54
  1
strokes_ogs.tif
102
RTVSPost2010PropOp54
 70
     1
102
RTVSPost2010Prop55
280
     0
102
RTVSPost2010PropOp55
 70
     1
102
RTVSPost2010Prop56
140
1.0
102
RTVSPost2010PropOp56
 70
     1
102
RTVSPost2010Prop57
140
1.0
102
RTVSPost2010PropOp57
 70
     1
102
RTVSPropertyOp0
 70
     1
102
RTVSPropertyOp1
 70
     1
102
RTVSPropertyOp2
 70
     1
102
RTVSPropertyOp3
 70
     1
102
RTVSPropertyOp4
 70
     1
102
RTVSPropertyOp5
 70
     1
102
RTVSPropertyOp6
 70
     1
102
RTVSPropertyOp7
 70
     1
102
RTVSPropertyOp8
 70
     1
102
RTVSPropertyOp9
 70
     1
102
RTVSPropertyOp10
 70
     1
102
RTVSPropertyOp11
 70
     1
102
RTVSPropertyOp12
 70
     1
102
RTVSPropertyOp13
 70
     1
102
RTVSPropertyOp14
 70
     1
102
RTVSPropertyOp15
 70
     1
102
RTVSPropertyOp16
 70
     1
102
RTVSPropertyOp17
 70
     1
102
RTVSPropertyOp18
 70
     1
102
RTVSPropertyOp19
 70
     1
102
RTVSPropertyOp20
 70
     1
102
RTVSPropertyOp21
 70
     1
102
RTVSPropertyOp22
 70
     1
102
RTVSPropertyOp23
 70
     1
102
RTVSPropertyOp24
 70
     1
102
RTVSPropertyOp25
 70
     1
102
RTVSPropertyOp26
 70
     1
102
RTVSPropertyOp27
 70
     1
102
RTVSPropertyOp28
 70
     1
102
RTVSPropertyOp29
 70
     1
102
RTVSPropertyOp30
 70
     1
102
RTVSPropertyOp31
 70
     1
102
RTVSPropertyOp32
 70
     1
102
RTVSPropertyOp33
 70
     1
102
RTVSPropertyOp34
 70
     1
102
RTVSPropertyOp35
 70
     1
102
RTVSPropertyOp36
 70
     1
102
RTVSPropertyOp37
 70
     1
102
RTVSPropertyOp38
 70
     1
102
RTVSPropertyOp39
 70
     1
102
RTVSPropertyOp40
 70
     1
102
RTVSPropertyOp41
 70
     1
102
RTVSPropertyOp42
 70
     1
102
RTVSPropertyOp43
 70
     1
102
RTVSPropertyOp44
 70
     1
102
RTVSPropertyOp45
 70
     1
102
RTVSPropertyOp46
 70
     1
102
RTVSPropertyOp47
 70
     1
102
RTVSPropertyOp48
 70
     1
102
RTVSPropertyOp49
 70
     1
102
RTVSPropertyOp50
 70
     1
102
RTVSPropertyOp51
 70
     0
102
RTVSPropertyOp52
 70
     0
102
RTVSPropertyOp53
 70
     1
102
RTVSPropertyOp54
 70
     1
102
RTVSPropertyOp55
 70
     1
102
RTVSPropertyOp56
 70
     1
102
RTVSPropertyOp57
 70
     1
102
RTVSPropertyOp58
 70
     1
102
RTVSPropertyOp59
 70
     1
102
RTVSPropertyOp60
 70
     1
102
RTVSPropertyOp61
 70
     1
102
RTVSPropertyOp62
 70
     1
  0
XRECORD
  5
F18
102
{ACAD_REACTORS
330
F17
102
}
330
F17
100
AcDbXrecord
280
     1
102
RTVSPost2010Prop28
280
     0
102
RTVSPost2010PropOp28
 70
     1
102
RTVSPost2010Prop29
280
     1
102
RTVSPost2010PropOp29
 70
     1
102
RTVSPost2010Prop30
280
     1
102
RTVSPost2010PropOp30
 70
     1
102
RTVSPost2010Prop31
280
     0
102
RTVSPost2010PropOp31
 70
     1
102
RTVSPost2010Prop32
280
     0
102
RTVSPost2010PropOp32
 70
     1
102
RTVSPost2010Prop33
280
     0
102
RTVSPost2010PropOp33
 70
     1
102
RTVSPost2010Prop34
280
     0
102
RTVSPost2010PropOp34
 70
     1
102
RTVSPost2010Prop35
280
     0
102
RTVSPost2010PropOp35
 70
     1
102
RTVSPost2010Prop36
280
     0
102
RTVSPost2010PropOp36
 70
     1
102
RTVSPost2010Prop37
 90
       50
102
RTVSPost2010PropOp37
 70
     1
102
RTVSPost2010Prop38
140
0.0
102
RTVSPost2010PropOp38
 70
     1
102
RTVSPost2010Prop39
140
1.0
102
RTVSPost2010PropOp39
 70
     1
102
RTVSPost2010Prop40
 90
        0
102
RTVSPost2010PropOp40
 70
     1
102
RTVSPost2010Prop41ColorIndex
 90
       18
102
RTVSPost2010Prop41ColorRGB
 90
        0
102
RTVSPost2010PropOp41
 70
     1
102
RTVSPost2010Prop42
 90
       50
102
RTVSPost2010PropOp42
 70
     1
102
RTVSPost2010Prop43
 90
        3
102
RTVSPost2010PropOp43
 70
     1
102
RTVSPost2010Prop44ColorIndex
 90
        5
102
RTVSPost2010Prop44ColorRGB
 90
      255
102
RTVSPost2010PropOp44
 70
     1
102
RTVSPost2010Prop45
280
     0
102
RTVSPost2010PropOp45
 70
     1
102
RTVSPost2010Prop46
 90
       50
102
RTVSPost2010PropOp46
 70
     1
102
RTVSPost2010Prop47
 90
       50
102
RTVSPost2010PropOp47
 70
     1
102
RTVSPost2010Prop48
 90
       50
102
RTVSPost2010PropOp48
 70
     1
102
RTVSPost2010Prop49
280
     0
102
RTVSPost2010PropOp49
 70
     1
102
RTVSPost2010Prop50
 90
       50
102
RTVSPost2010PropOp50
 70
     1
102
RTVSPost2010Prop51ColorIndex
 90
      256
102
RTVSPost2010Prop51ColorRGB
 90
-16777216
102
RTVSPost2010PropOp51
 70
     0
102
RTVSPost2010Prop52
140
1.0
102
RTVSPost2010PropOp52
 70
     0
102
RTVSPost2010Prop53
 90
        2
102
RTVSPost2010PropOp53
 70
     1
102
RTVSPost2010Prop54
  1
strokes_ogs.tif
102
RTVSPost2010PropOp54
 70
     1
102
RTVSPost2010Prop55
280
     0
102
RTVSPost2010PropOp55
 70
     1
102
RTVSPost2010Prop56
140
1.0
102
RTVSPost2010PropOp56
 70
     1
102
RTVSPost2010Prop57
140
1.0
102
RTVSPost2010PropOp57
 70
     1
102
RTVSPropertyOp0
 70
     1
102
RTVSPropertyOp1
 70
     1
102
RTVSPropertyOp2
 70
     1
102
RTVSPropertyOp3
 70
     1
102
RTVSPropertyOp4
 70
     1
102
RTVSPropertyOp5
 70
     1
102
RTVSPropertyOp6
 70
     1
102
RTVSPropertyOp7
 70
     1
102
RTVSPropertyOp8
 70
     1
102
RTVSPropertyOp9
 70
     1
102
RTVSPropertyOp10
 70
     1
102
RTVSPropertyOp11
 70
     1
102
RTVSPropertyOp12
 70
     1
102
RTVSPropertyOp13
 70
     1
102
RTVSPropertyOp14
 70
     1
102
RTVSPropertyOp15
 70
     1
102
RTVSPropertyOp16
 70
     1
102
RTVSPropertyOp17
 70
     1
102
RTVSPropertyOp18
 70
     1
102
RTVSPropertyOp19
 70
     1
102
RTVSPropertyOp20
 70
     1
102
RTVSPropertyOp21
 70
     1
102
RTVSPropertyOp22
 70
     1
102
RTVSPropertyOp23
 70
     1
102
RTVSPropertyOp24
 70
     1
102
RTVSPropertyOp25
 70
     1
102
RTVSPropertyOp26
 70
     1
102
RTVSPropertyOp27
 70
     1
102
RTVSPropertyOp28
 70
     1
102
RTVSPropertyOp29
 70
     1
102
RTVSPropertyOp30
 70
     1
102
RTVSPropertyOp31
 70
     1
102
RTVSPropertyOp32
 70
     1
102
RTVSPropertyOp33
 70
     1
102
RTVSPropertyOp34
 70
     1
102
RTVSPropertyOp35
 70
     1
102
RTVSPropertyOp36
 70
     1
102
RTVSPropertyOp37
 70
     1
102
RTVSPropertyOp38
 70
     1
102
RTVSPropertyOp39
 70
     1
102
RTVSPropertyOp40
 70
     1
102
RTVSPropertyOp41
 70
     1
102
RTVSPropertyOp42
 70
     1
102
RTVSPropertyOp43
 70
     1
102
RTVSPropertyOp44
 70
     1
102
RTVSPropertyOp45
 70
     1
102
RTVSPropertyOp46
 70
     1
102
RTVSPropertyOp47
 70
     1
102
RTVSPropertyOp48
 70
     1
102
RTVSPropertyOp49
 70
     1
102
RTVSPropertyOp50
 70
     1
102
RTVSPropertyOp51
 70
     0
102
RTVSPropertyOp52
 70
     0
102
RTVSPropertyOp53
 70
     1
102
RTVSPropertyOp54
 70
     1
102
RTVSPropertyOp55
 70
     1
102
RTVSPropertyOp56
 70
     1
102
RTVSPropertyOp57
 70
     1
102
RTVSPropertyOp58
 70
     1
102
RTVSPropertyOp59
 70
     1
102
RTVSPropertyOp60
 70
     1
102
RTVSPropertyOp61
 70
     1
102
RTVSPropertyOp62
 70
     1
  0
XRECORD
  5
F12
102
{ACAD_REACTORS
330
F11
102
}
330
F11
100
AcDbXrecord
280
     1
102
RTVSPost2010Prop28
280
     0
102
RTVSPost2010PropOp28
 70
     1
102
RTVSPost2010Prop29
280
     1
102
RTVSPost2010PropOp29
 70
     1
102
RTVSPost2010Prop30
280
     1
102
RTVSPost2010PropOp30
 70
     1
102
RTVSPost2010Prop31
280
     0
102
RTVSPost2010PropOp31
 70
     1
102
RTVSPost2010Prop32
280
     0
102
RTVSPost2010PropOp32
 70
     1
102
RTVSPost2010Prop33
280
     0
102
RTVSPost2010PropOp33
 70
     1
102
RTVSPost2010Prop34
280
     0
102
RTVSPost2010PropOp34
 70
     1
102
RTVSPost2010Prop35
280
     0
102
RTVSPost2010PropOp35
 70
     1
102
RTVSPost2010Prop36
280
     0
102
RTVSPost2010PropOp36
 70
     1
102
RTVSPost2010Prop37
 90
       50
102
RTVSPost2010PropOp37
 70
     1
102
RTVSPost2010Prop38
140
0.0
102
RTVSPost2010PropOp38
 70
     1
102
RTVSPost2010Prop39
140
1.0
102
RTVSPost2010PropOp39
 70
     1
102
RTVSPost2010Prop40
 90
        0
102
RTVSPost2010PropOp40
 70
     1
102
RTVSPost2010Prop41ColorIndex
 90
       18
102
RTVSPost2010Prop41ColorRGB
 90
        0
102
RTVSPost2010PropOp41
 70
     1
102
RTVSPost2010Prop42
 90
       50
102
RTVSPost2010PropOp42
 70
     1
102
RTVSPost2010Prop43
 90
        3
102
RTVSPost2010PropOp43
 70
     1
102
RTVSPost2010Prop44ColorIndex
 90
        5
102
RTVSPost2010Prop44ColorRGB
 90
      255
102
RTVSPost2010PropOp44
 70
     1
102
RTVSPost2010Prop45
280
     0
102
RTVSPost2010PropOp45
 70
     1
102
RTVSPost2010Prop46
 90
       50
102
RTVSPost2010PropOp46
 70
     1
102
RTVSPost2010Prop47
 90
       50
102
RTVSPost2010PropOp47
 70
     1
102
RTVSPost2010Prop48
 90
       50
102
RTVSPost2010PropOp48
 70
     1
102
RTVSPost2010Prop49
280
     0
102
RTVSPost2010PropOp49
 70
     1
102
RTVSPost2010Prop50
 90
       50
102
RTVSPost2010PropOp50
 70
     1
102
RTVSPost2010Prop51ColorIndex
 90
      256
102
RTVSPost2010Prop51ColorRGB
 90
-16777216
102
RTVSPost2010PropOp51
 70
     0
102
RTVSPost2010Prop52
140
1.0
102
RTVSPost2010PropOp52
 70
     0
102
RTVSPost2010Prop53
 90
        2
102
RTVSPost2010PropOp53
 70
     1
102
RTVSPost2010Prop54
  1
strokes_ogs.tif
102
RTVSPost2010PropOp54
 70
     1
102
RTVSPost2010Prop55
280
     0
102
RTVSPost2010PropOp55
 70
     1
102
RTVSPost2010Prop56
140
1.0
102
RTVSPost2010PropOp56
 70
     1
102
RTVSPost2010Prop57
140
1.0
102
RTVSPost2010PropOp57
 70
     1
102
RTVSPropertyOp0
 70
     1
102
RTVSPropertyOp1
 70
     1
102
RTVSPropertyOp2
 70
     1
102
RTVSPropertyOp3
 70
     1
102
RTVSPropertyOp4
 70
     1
102
RTVSPropertyOp5
 70
     1
102
RTVSPropertyOp6
 70
     1
102
RTVSPropertyOp7
 70
     1
102
RTVSPropertyOp8
 70
     1
102
RTVSPropertyOp9
 70
     1
102
RTVSPropertyOp10
 70
     1
102
RTVSPropertyOp11
 70
     1
102
RTVSPropertyOp12
 70
     1
102
RTVSPropertyOp13
 70
     1
102
RTVSPropertyOp14
 70
     1
102
RTVSPropertyOp15
 70
     1
102
RTVSPropertyOp16
 70
     1
102
RTVSPropertyOp17
 70
     1
102
RTVSPropertyOp18
 70
     1
102
RTVSPropertyOp19
 70
     1
102
RTVSPropertyOp20
 70
     1
102
RTVSPropertyOp21
 70
     1
102
RTVSPropertyOp22
 70
     1
102
RTVSPropertyOp23
 70
     1
102
RTVSPropertyOp24
 70
     1
102
RTVSPropertyOp25
 70
     1
102
RTVSPropertyOp26
 70
     1
102
RTVSPropertyOp27
 70
     1
102
RTVSPropertyOp28
 70
     1
102
RTVSPropertyOp29
 70
     1
102
RTVSPropertyOp30
 70
     1
102
RTVSPropertyOp31
 70
     1
102
RTVSPropertyOp32
 70
     1
102
RTVSPropertyOp33
 70
     1
102
RTVSPropertyOp34
 70
     1
102
RTVSPropertyOp35
 70
     1
102
RTVSPropertyOp36
 70
     1
102
RTVSPropertyOp37
 70
     1
102
RTVSPropertyOp38
 70
     1
102
RTVSPropertyOp39
 70
     1
102
RTVSPropertyOp40
 70
     1
102
RTVSPropertyOp41
 70
     1
102
RTVSPropertyOp42
 70
     1
102
RTVSPropertyOp43
 70
     1
102
RTVSPropertyOp44
 70
     1
102
RTVSPropertyOp45
 70
     1
102
RTVSPropertyOp46
 70
     1
102
RTVSPropertyOp47
 70
     1
102
RTVSPropertyOp48
 70
     1
102
RTVSPropertyOp49
 70
     1
102
RTVSPropertyOp50
 70
     1
102
RTVSPropertyOp51
 70
     0
102
RTVSPropertyOp52
 70
     0
102
RTVSPropertyOp53
 70
     1
102
RTVSPropertyOp54
 70
     1
102
RTVSPropertyOp55
 70
     1
102
RTVSPropertyOp56
 70
     1
102
RTVSPropertyOp57
 70
     1
102
RTVSPropertyOp58
 70
     1
102
RTVSPropertyOp59
 70
     1
102
RTVSPropertyOp60
 70
     1
102
RTVSPropertyOp61
 70
     1
102
RTVSPropertyOp62
 70
     1
  0
XRECORD
  5
F14
102
{ACAD_REACTORS
330
F13
102
}
330
F13
100
AcDbXrecord
280
     1
102
RTVSPost2010Prop28
280
     0
102
RTVSPost2010PropOp28
 70
     1
102
RTVSPost2010Prop29
280
     1
102
RTVSPost2010PropOp29
 70
     1
102
RTVSPost2010Prop30
280
     1
102
RTVSPost2010PropOp30
 70
     1
102
RTVSPost2010Prop31
280
     0
102
RTVSPost2010PropOp31
 70
     1
102
RTVSPost2010Prop32
280
     0
102
RTVSPost2010PropOp32
 70
     1
102
RTVSPost2010Prop33
280
     0
102
RTVSPost2010PropOp33
 70
     1
102
RTVSPost2010Prop34
280
     0
102
RTVSPost2010PropOp34
 70
     1
102
RTVSPost2010Prop35
280
     0
102
RTVSPost2010PropOp35
 70
     1
102
RTVSPost2010Prop36
280
     0
102
RTVSPost2010PropOp36
 70
     1
102
RTVSPost2010Prop37
 90
       50
102
RTVSPost2010PropOp37
 70
     1
102
RTVSPost2010Prop38
140
0.0
102
RTVSPost2010PropOp38
 70
     1
102
RTVSPost2010Prop39
140
1.0
102
RTVSPost2010PropOp39
 70
     1
102
RTVSPost2010Prop40
 90
        0
102
RTVSPost2010PropOp40
 70
     1
102
RTVSPost2010Prop41ColorIndex
 90
       18
102
RTVSPost2010Prop41ColorRGB
 90
        0
102
RTVSPost2010PropOp41
 70
     1
102
RTVSPost2010Prop42
 90
       50
102
RTVSPost2010PropOp42
 70
     1
102
RTVSPost2010Prop43
 90
        3
102
RTVSPost2010PropOp43
 70
     1
102
RTVSPost2010Prop44ColorIndex
 90
        5
102
RTVSPost2010Prop44ColorRGB
 90
      255
102
RTVSPost2010PropOp44
 70
     1
102
RTVSPost2010Prop45
280
     0
102
RTVSPost2010PropOp45
 70
     1
102
RTVSPost2010Prop46
 90
       50
102
RTVSPost2010PropOp46
 70
     1
102
RTVSPost2010Prop47
 90
       50
102
RTVSPost2010PropOp47
 70
     1
102
RTVSPost2010Prop48
 90
       50
102
RTVSPost2010PropOp48
 70
     1
102
RTVSPost2010Prop49
280
     0
102
RTVSPost2010PropOp49
 70
     1
102
RTVSPost2010Prop50
 90
       50
102
RTVSPost2010PropOp50
 70
     1
102
RTVSPost2010Prop51ColorIndex
 90
      256
102
RTVSPost2010Prop51ColorRGB
 90
-16777216
102
RTVSPost2010PropOp51
 70
     0
102
RTVSPost2010Prop52
140
1.0
102
RTVSPost2010PropOp52
 70
     0
102
RTVSPost2010Prop53
 90
        2
102
RTVSPost2010PropOp53
 70
     1
102
RTVSPost2010Prop54
  1
strokes_ogs.tif
102
RTVSPost2010PropOp54
 70
     1
102
RTVSPost2010Prop55
280
     0
102
RTVSPost2010PropOp55
 70
     1
102
RTVSPost2010Prop56
140
1.0
102
RTVSPost2010PropOp56
 70
     1
102
RTVSPost2010Prop57
140
1.0
102
RTVSPost2010PropOp57
 70
     1
102
RTVSPropertyOp0
 70
     1
102
RTVSPropertyOp1
 70
     1
102
RTVSPropertyOp2
 70
     1
102
RTVSPropertyOp3
 70
     1
102
RTVSPropertyOp4
 70
     1
102
RTVSPropertyOp5
 70
     1
102
RTVSPropertyOp6
 70
     1
102
RTVSPropertyOp7
 70
     1
102
RTVSPropertyOp8
 70
     1
102
RTVSPropertyOp9
 70
     1
102
RTVSPropertyOp10
 70
     1
102
RTVSPropertyOp11
 70
     1
102
RTVSPropertyOp12
 70
     1
102
RTVSPropertyOp13
 70
     1
102
RTVSPropertyOp14
 70
     1
102
RTVSPropertyOp15
 70
     1
102
RTVSPropertyOp16
 70
     1
102
RTVSPropertyOp17
 70
     1
102
RTVSPropertyOp18
 70
     1
102
RTVSPropertyOp19
 70
     1
102
RTVSPropertyOp20
 70
     1
102
RTVSPropertyOp21
 70
     1
102
RTVSPropertyOp22
 70
     1
102
RTVSPropertyOp23
 70
     1
102
RTVSPropertyOp24
 70
     1
102
RTVSPropertyOp25
 70
     1
102
RTVSPropertyOp26
 70
     1
102
RTVSPropertyOp27
 70
     1
102
RTVSPropertyOp28
 70
     1
102
RTVSPropertyOp29
 70
     1
102
RTVSPropertyOp30
 70
     1
102
RTVSPropertyOp31
 70
     1
102
RTVSPropertyOp32
 70
     1
102
RTVSPropertyOp33
 70
     1
102
RTVSPropertyOp34
 70
     1
102
RTVSPropertyOp35
 70
     1
102
RTVSPropertyOp36
 70
     1
102
RTVSPropertyOp37
 70
     1
102
RTVSPropertyOp38
 70
     1
102
RTVSPropertyOp39
 70
     1
102
RTVSPropertyOp40
 70
     1
102
RTVSPropertyOp41
 70
     1
102
RTVSPropertyOp42
 70
     1
102
RTVSPropertyOp43
 70
     1
102
RTVSPropertyOp44
 70
     1
102
RTVSPropertyOp45
 70
     1
102
RTVSPropertyOp46
 70
     1
102
RTVSPropertyOp47
 70
     1
102
RTVSPropertyOp48
 70
     1
102
RTVSPropertyOp49
 70
     1
102
RTVSPropertyOp50
 70
     1
102
RTVSPropertyOp51
 70
     0
102
RTVSPropertyOp52
 70
     0
102
RTVSPropertyOp53
 70
     1
102
RTVSPropertyOp54
 70
     1
102
RTVSPropertyOp55
 70
     1
102
RTVSPropertyOp56
 70
     1
102
RTVSPropertyOp57
 70
     1
102
RTVSPropertyOp58
 70
     1
102
RTVSPropertyOp59
 70
     1
102
RTVSPropertyOp60
 70
     1
102
RTVSPropertyOp61
 70
     1
102
RTVSPropertyOp62
 70
     1
  0
XRECORD
  5
F0A
102
{ACAD_REACTORS
330
F09
102
}
330
F09
100
AcDbXrecord
280
     1
102
RTVSPost2010Prop28
280
     0
102
RTVSPost2010PropOp28
 70
     1
102
RTVSPost2010Prop29
280
     1
102
RTVSPost2010PropOp29
 70
     1
102
RTVSPost2010Prop30
280
     1
102
RTVSPost2010PropOp30
 70
     1
102
RTVSPost2010Prop31
280
     0
102
RTVSPost2010PropOp31
 70
     1
102
RTVSPost2010Prop32
280
     0
102
RTVSPost2010PropOp32
 70
     1
102
RTVSPost2010Prop33
280
     0
102
RTVSPost2010PropOp33
 70
     1
102
RTVSPost2010Prop34
280
     0
102
RTVSPost2010PropOp34
 70
     1
102
RTVSPost2010Prop35
280
     0
102
RTVSPost2010PropOp35
 70
     1
102
RTVSPost2010Prop36
280
     0
102
RTVSPost2010PropOp36
 70
     1
102
RTVSPost2010Prop37
 90
       50
102
RTVSPost2010PropOp37
 70
     1
102
RTVSPost2010Prop38
140
0.0
102
RTVSPost2010PropOp38
 70
     1
102
RTVSPost2010Prop39
140
1.0
102
RTVSPost2010PropOp39
 70
     1
102
RTVSPost2010Prop40
 90
        0
102
RTVSPost2010PropOp40
 70
     1
102
RTVSPost2010Prop41ColorIndex
 90
       18
102
RTVSPost2010Prop41ColorRGB
 90
        0
102
RTVSPost2010PropOp41
 70
     1
102
RTVSPost2010Prop42
 90
       50
102
RTVSPost2010PropOp42
 70
     1
102
RTVSPost2010Prop43
 90
        3
102
RTVSPost2010PropOp43
 70
     1
102
RTVSPost2010Prop44ColorIndex
 90
        5
102
RTVSPost2010Prop44ColorRGB
 90
      255
102
RTVSPost2010PropOp44
 70
     1
102
RTVSPost2010Prop45
280
     0
102
RTVSPost2010PropOp45
 70
     1
102
RTVSPost2010Prop46
 90
       50
102
RTVSPost2010PropOp46
 70
     1
102
RTVSPost2010Prop47
 90
       50
102
RTVSPost2010PropOp47
 70
     1
102
RTVSPost2010Prop48
 90
       50
102
RTVSPost2010PropOp48
 70
     1
102
RTVSPost2010Prop49
280
     0
102
RTVSPost2010PropOp49
 70
     1
102
RTVSPost2010Prop50
 90
       50
102
RTVSPost2010PropOp50
 70
     1
102
RTVSPost2010Prop51ColorIndex
 90
      256
102
RTVSPost2010Prop51ColorRGB
 90
-16777216
102
RTVSPost2010PropOp51
 70
     0
102
RTVSPost2010Prop52
140
1.0
102
RTVSPost2010PropOp52
 70
     0
102
RTVSPost2010Prop53
 90
        2
102
RTVSPost2010PropOp53
 70
     1
102
RTVSPost2010Prop54
  1
strokes_ogs.tif
102
RTVSPost2010PropOp54
 70
     1
102
RTVSPost2010Prop55
280
     0
102
RTVSPost2010PropOp55
 70
     1
102
RTVSPost2010Prop56
140
1.0
102
RTVSPost2010PropOp56
 70
     1
102
RTVSPost2010Prop57
140
1.0
102
RTVSPost2010PropOp57
 70
     1
102
RTVSPropertyOp0
 70
     1
102
RTVSPropertyOp1
 70
     1
102
RTVSPropertyOp2
 70
     1
102
RTVSPropertyOp3
 70
     1
102
RTVSPropertyOp4
 70
     1
102
RTVSPropertyOp5
 70
     1
102
RTVSPropertyOp6
 70
     1
102
RTVSPropertyOp7
 70
     1
102
RTVSPropertyOp8
 70
     1
102
RTVSPropertyOp9
 70
     1
102
RTVSPropertyOp10
 70
     1
102
RTVSPropertyOp11
 70
     1
102
RTVSPropertyOp12
 70
     1
102
RTVSPropertyOp13
 70
     1
102
RTVSPropertyOp14
 70
     1
102
RTVSPropertyOp15
 70
     1
102
RTVSPropertyOp16
 70
     1
102
RTVSPropertyOp17
 70
     1
102
RTVSPropertyOp18
 70
     1
102
RTVSPropertyOp19
 70
     1
102
RTVSPropertyOp20
 70
     1
102
RTVSPropertyOp21
 70
     1
102
RTVSPropertyOp22
 70
     1
102
RTVSPropertyOp23
 70
     1
102
RTVSPropertyOp24
 70
     1
102
RTVSPropertyOp25
 70
     1
102
RTVSPropertyOp26
 70
     1
102
RTVSPropertyOp27
 70
     1
102
RTVSPropertyOp28
 70
     1
102
RTVSPropertyOp29
 70
     1
102
RTVSPropertyOp30
 70
     1
102
RTVSPropertyOp31
 70
     1
102
RTVSPropertyOp32
 70
     1
102
RTVSPropertyOp33
 70
     1
102
RTVSPropertyOp34
 70
     1
102
RTVSPropertyOp35
 70
     1
102
RTVSPropertyOp36
 70
     1
102
RTVSPropertyOp37
 70
     1
102
RTVSPropertyOp38
 70
     1
102
RTVSPropertyOp39
 70
     1
102
RTVSPropertyOp40
 70
     1
102
RTVSPropertyOp41
 70
     1
102
RTVSPropertyOp42
 70
     1
102
RTVSPropertyOp43
 70
     1
102
RTVSPropertyOp44
 70
     1
102
RTVSPropertyOp45
 70
     1
102
RTVSPropertyOp46
 70
     1
102
RTVSPropertyOp47
 70
     1
102
RTVSPropertyOp48
 70
     1
102
RTVSPropertyOp49
 70
     1
102
RTVSPropertyOp50
 70
     1
102
RTVSPropertyOp51
 70
     0
102
RTVSPropertyOp52
 70
     0
102
RTVSPropertyOp53
 70
     1
102
RTVSPropertyOp54
 70
     1
102
RTVSPropertyOp55
 70
     1
102
RTVSPropertyOp56
 70
     1
102
RTVSPropertyOp57
 70
     1
102
RTVSPropertyOp58
 70
     1
102
RTVSPropertyOp59
 70
     1
102
RTVSPropertyOp60
 70
     1
102
RTVSPropertyOp61
 70
     1
102
RTVSPropertyOp62
 70
     1
  0
XRECORD
  5
EFE
102
{ACAD_REACTORS
330
EFD
102
}
330
EFD
100
AcDbXrecord
280
     1
102
RTVSPost2010Prop28
280
     0
102
RTVSPost2010PropOp28
 70
     1
102
RTVSPost2010Prop29
280
     1
102
RTVSPost2010PropOp29
 70
     1
102
RTVSPost2010Prop30
280
     1
102
RTVSPost2010PropOp30
 70
     1
102
RTVSPost2010Prop31
280
     0
102
RTVSPost2010PropOp31
 70
     1
102
RTVSPost2010Prop32
280
     0
102
RTVSPost2010PropOp32
 70
     1
102
RTVSPost2010Prop33
280
     0
102
RTVSPost2010PropOp33
 70
     1
102
RTVSPost2010Prop34
280
     0
102
RTVSPost2010PropOp34
 70
     1
102
RTVSPost2010Prop35
280
     0
102
RTVSPost2010PropOp35
 70
     1
102
RTVSPost2010Prop36
280
     0
102
RTVSPost2010PropOp36
 70
     1
102
RTVSPost2010Prop37
 90
       50
102
RTVSPost2010PropOp37
 70
     1
102
RTVSPost2010Prop38
140
0.0
102
RTVSPost2010PropOp38
 70
     1
102
RTVSPost2010Prop39
140
1.0
102
RTVSPost2010PropOp39
 70
     1
102
RTVSPost2010Prop40
 90
        0
102
RTVSPost2010PropOp40
 70
     1
102
RTVSPost2010Prop41ColorIndex
 90
       18
102
RTVSPost2010Prop41ColorRGB
 90
        0
102
RTVSPost2010PropOp41
 70
     1
102
RTVSPost2010Prop42
 90
       50
102
RTVSPost2010PropOp42
 70
     1
102
RTVSPost2010Prop43
 90
        3
102
RTVSPost2010PropOp43
 70
     1
102
RTVSPost2010Prop44ColorIndex
 90
        5
102
RTVSPost2010Prop44ColorRGB
 90
      255
102
RTVSPost2010PropOp44
 70
     1
102
RTVSPost2010Prop45
280
     0
102
RTVSPost2010PropOp45
 70
     1
102
RTVSPost2010Prop46
 90
       50
102
RTVSPost2010PropOp46
 70
     1
102
RTVSPost2010Prop47
 90
       50
102
RTVSPost2010PropOp47
 70
     1
102
RTVSPost2010Prop48
 90
       50
102
RTVSPost2010PropOp48
 70
     1
102
RTVSPost2010Prop49
280
     0
102
RTVSPost2010PropOp49
 70
     1
102
RTVSPost2010Prop50
 90
       50
102
RTVSPost2010PropOp50
 70
     1
102
RTVSPost2010Prop51ColorIndex
 90
      256
102
RTVSPost2010Prop51ColorRGB
 90
-16777216
102
RTVSPost2010PropOp51
 70
     0
102
RTVSPost2010Prop52
140
1.0
102
RTVSPost2010PropOp52
 70
     0
102
RTVSPost2010Prop53
 90
        2
102
RTVSPost2010PropOp53
 70
     1
102
RTVSPost2010Prop54
  1
strokes_ogs.tif
102
RTVSPost2010PropOp54
 70
     1
102
RTVSPost2010Prop55
280
     0
102
RTVSPost2010PropOp55
 70
     1
102
RTVSPost2010Prop56
140
1.0
102
RTVSPost2010PropOp56
 70
     1
102
RTVSPost2010Prop57
140
1.0
102
RTVSPost2010PropOp57
 70
     1
102
RTVSPropertyOp0
 70
     1
102
RTVSPropertyOp1
 70
     1
102
RTVSPropertyOp2
 70
     1
102
RTVSPropertyOp3
 70
     1
102
RTVSPropertyOp4
 70
     1
102
RTVSPropertyOp5
 70
     1
102
RTVSPropertyOp6
 70
     1
102
RTVSPropertyOp7
 70
     1
102
RTVSPropertyOp8
 70
     1
102
RTVSPropertyOp9
 70
     1
102
RTVSPropertyOp10
 70
     1
102
RTVSPropertyOp11
 70
     1
102
RTVSPropertyOp12
 70
     1
102
RTVSPropertyOp13
 70
     1
102
RTVSPropertyOp14
 70
     1
102
RTVSPropertyOp15
 70
     1
102
RTVSPropertyOp16
 70
     1
102
RTVSPropertyOp17
 70
     1
102
RTVSPropertyOp18
 70
     1
102
RTVSPropertyOp19
 70
     1
102
RTVSPropertyOp20
 70
     1
102
RTVSPropertyOp21
 70
     1
102
RTVSPropertyOp22
 70
     1
102
RTVSPropertyOp23
 70
     1
102
RTVSPropertyOp24
 70
     1
102
RTVSPropertyOp25
 70
     1
102
RTVSPropertyOp26
 70
     1
102
RTVSPropertyOp27
 70
     1
102
RTVSPropertyOp28
 70
     1
102
RTVSPropertyOp29
 70
     1
102
RTVSPropertyOp30
 70
     1
102
RTVSPropertyOp31
 70
     1
102
RTVSPropertyOp32
 70
     1
102
RTVSPropertyOp33
 70
     1
102
RTVSPropertyOp34
 70
     1
102
RTVSPropertyOp35
 70
     1
102
RTVSPropertyOp36
 70
     1
102
RTVSPropertyOp37
 70
     1
102
RTVSPropertyOp38
 70
     1
102
RTVSPropertyOp39
 70
     1
102
RTVSPropertyOp40
 70
     1
102
RTVSPropertyOp41
 70
     1
102
RTVSPropertyOp42
 70
     1
102
RTVSPropertyOp43
 70
     1
102
RTVSPropertyOp44
 70
     1
102
RTVSPropertyOp45
 70
     1
102
RTVSPropertyOp46
 70
     1
102
RTVSPropertyOp47
 70
     1
102
RTVSPropertyOp48
 70
     1
102
RTVSPropertyOp49
 70
     1
102
RTVSPropertyOp50
 70
     1
102
RTVSPropertyOp51
 70
     0
102
RTVSPropertyOp52
 70
     0
102
RTVSPropertyOp53
 70
     1
102
RTVSPropertyOp54
 70
     1
102
RTVSPropertyOp55
 70
     1
102
RTVSPropertyOp56
 70
     1
102
RTVSPropertyOp57
 70
     1
102
RTVSPropertyOp58
 70
     1
102
RTVSPropertyOp59
 70
     1
102
RTVSPropertyOp60
 70
     1
102
RTVSPropertyOp61
 70
     1
102
RTVSPropertyOp62
 70
     1
  0
XRECORD
  5
F16
102
{ACAD_REACTORS
330
F15
102
}
330
F15
100
AcDbXrecord
280
     1
102
RTVSPost2010Prop28
280
     0
102
RTVSPost2010PropOp28
 70
     1
102
RTVSPost2010Prop29
280
     1
102
RTVSPost2010PropOp29
 70
     1
102
RTVSPost2010Prop30
280
     1
102
RTVSPost2010PropOp30
 70
     1
102
RTVSPost2010Prop31
280
     0
102
RTVSPost2010PropOp31
 70
     1
102
RTVSPost2010Prop32
280
     0
102
RTVSPost2010PropOp32
 70
     1
102
RTVSPost2010Prop33
280
     0
102
RTVSPost2010PropOp33
 70
     1
102
RTVSPost2010Prop34
280
     0
102
RTVSPost2010PropOp34
 70
     1
102
RTVSPost2010Prop35
280
     0
102
RTVSPost2010PropOp35
 70
     1
102
RTVSPost2010Prop36
280
     0
102
RTVSPost2010PropOp36
 70
     1
102
RTVSPost2010Prop37
 90
       50
102
RTVSPost2010PropOp37
 70
     1
102
RTVSPost2010Prop38
140
0.0
102
RTVSPost2010PropOp38
 70
     1
102
RTVSPost2010Prop39
140
1.0
102
RTVSPost2010PropOp39
 70
     1
102
RTVSPost2010Prop40
 90
        0
102
RTVSPost2010PropOp40
 70
     1
102
RTVSPost2010Prop41ColorIndex
 90
       18
102
RTVSPost2010Prop41ColorRGB
 90
        0
102
RTVSPost2010PropOp41
 70
     1
102
RTVSPost2010Prop42
 90
       50
102
RTVSPost2010PropOp42
 70
     1
102
RTVSPost2010Prop43
 90
        3
102
RTVSPost2010PropOp43
 70
     1
102
RTVSPost2010Prop44ColorIndex
 90
        5
102
RTVSPost2010Prop44ColorRGB
 90
      255
102
RTVSPost2010PropOp44
 70
     1
102
RTVSPost2010Prop45
280
     0
102
RTVSPost2010PropOp45
 70
     1
102
RTVSPost2010Prop46
 90
       50
102
RTVSPost2010PropOp46
 70
     1
102
RTVSPost2010Prop47
 90
       50
102
RTVSPost2010PropOp47
 70
     1
102
RTVSPost2010Prop48
 90
       50
102
RTVSPost2010PropOp48
 70
     1
102
RTVSPost2010Prop49
280
     0
102
RTVSPost2010PropOp49
 70
     1
102
RTVSPost2010Prop50
 90
       50
102
RTVSPost2010PropOp50
 70
     1
102
RTVSPost2010Prop51ColorIndex
 90
      256
102
RTVSPost2010Prop51ColorRGB
 90
-16777216
102
RTVSPost2010PropOp51
 70
     0
102
RTVSPost2010Prop52
140
1.0
102
RTVSPost2010PropOp52
 70
     0
102
RTVSPost2010Prop53
 90
        2
102
RTVSPost2010PropOp53
 70
     1
102
RTVSPost2010Prop54
  1
strokes_ogs.tif
102
RTVSPost2010PropOp54
 70
     1
102
RTVSPost2010Prop55
280
     0
102
RTVSPost2010PropOp55
 70
     1
102
RTVSPost2010Prop56
140
1.0
102
RTVSPost2010PropOp56
 70
     1
102
RTVSPost2010Prop57
140
1.0
102
RTVSPost2010PropOp57
 70
     1
102
RTVSPropertyOp0
 70
     1
102
RTVSPropertyOp1
 70
     1
102
RTVSPropertyOp2
 70
     1
102
RTVSPropertyOp3
 70
     1
102
RTVSPropertyOp4
 70
     1
102
RTVSPropertyOp5
 70
     1
102
RTVSPropertyOp6
 70
     1
102
RTVSPropertyOp7
 70
     1
102
RTVSPropertyOp8
 70
     1
102
RTVSPropertyOp9
 70
     1
102
RTVSPropertyOp10
 70
     1
102
RTVSPropertyOp11
 70
     1
102
RTVSPropertyOp12
 70
     1
102
RTVSPropertyOp13
 70
     1
102
RTVSPropertyOp14
 70
     1
102
RTVSPropertyOp15
 70
     1
102
RTVSPropertyOp16
 70
     1
102
RTVSPropertyOp17
 70
     1
102
RTVSPropertyOp18
 70
     1
102
RTVSPropertyOp19
 70
     1
102
RTVSPropertyOp20
 70
     1
102
RTVSPropertyOp21
 70
     1
102
RTVSPropertyOp22
 70
     1
102
RTVSPropertyOp23
 70
     1
102
RTVSPropertyOp24
 70
     1
102
RTVSPropertyOp25
 70
     1
102
RTVSPropertyOp26
 70
     1
102
RTVSPropertyOp27
 70
     1
102
RTVSPropertyOp28
 70
     1
102
RTVSPropertyOp29
 70
     1
102
RTVSPropertyOp30
 70
     1
102
RTVSPropertyOp31
 70
     1
102
RTVSPropertyOp32
 70
     1
102
RTVSPropertyOp33
 70
     1
102
RTVSPropertyOp34
 70
     1
102
RTVSPropertyOp35
 70
     1
102
RTVSPropertyOp36
 70
     1
102
RTVSPropertyOp37
 70
     1
102
RTVSPropertyOp38
 70
     1
102
RTVSPropertyOp39
 70
     1
102
RTVSPropertyOp40
 70
     1
102
RTVSPropertyOp41
 70
     1
102
RTVSPropertyOp42
 70
     1
102
RTVSPropertyOp43
 70
     1
102
RTVSPropertyOp44
 70
     1
102
RTVSPropertyOp45
 70
     1
102
RTVSPropertyOp46
 70
     1
102
RTVSPropertyOp47
 70
     1
102
RTVSPropertyOp48
 70
     1
102
RTVSPropertyOp49
 70
     1
102
RTVSPropertyOp50
 70
     1
102
RTVSPropertyOp51
 70
     0
102
RTVSPropertyOp52
 70
     0
102
RTVSPropertyOp53
 70
     1
102
RTVSPropertyOp54
 70
     1
102
RTVSPropertyOp55
 70
     1
102
RTVSPropertyOp56
 70
     1
102
RTVSPropertyOp57
 70
     1
102
RTVSPropertyOp58
 70
     1
102
RTVSPropertyOp59
 70
     1
102
RTVSPropertyOp60
 70
     1
102
RTVSPropertyOp61
 70
     1
102
RTVSPropertyOp62
 70
     1
  0
ENDSEC
  0
EOF
