  0
SECTION
  2
HEADER
  9
$ACADVER
  1
AC1018
  9
$ACADMAINTVER
 70
     2
  9
$DWGCODEPAGE
  3
ANSI_1252
  9
$INSBASE
 10
0.0
 20
0.0
 30
0.0
  9
$EXTMIN
 10
0.0
 20
0.0
 30
0.0
  9
$EXTMAX
 10
840.0
 20
594.0
 30
0.0
  9
$LIMMIN
 10
0.0
 20
0.0
  9
$LIMMAX
 10
840.0
 20
594.0
  9
$ORTHOMODE
 70
     1
  9
$REGENMODE
 70
     1
  9
$FILLMODE
 70
     1
  9
$QTEXTMODE
 70
     0
  9
$MIRRTEXT
 70
     1
  9
$LTSCALE
 40
20.0
  9
$ATTMODE
 70
     1
  9
$TEXTSIZE
 40
3.5
  9
$TRACEWID
 40
1.0
  9
$TEXTSTYLE
  7
STANDARD
  9
$CLAYER
  8
BEM
  9
$CELTYPE
  6
ByLayer
  9
$CECOLOR
 62
   256
  9
$CELTSCALE
 40
1.0
  9
$DISPSILH
 70
     0
  9
$DIMSCALE
 40
2.0
  9
$DIMASZ
 40
3.5
  9
$DIMEXO
 40
1.0
  9
$DIMDLI
 40
7.0
  9
$DIMRND
 40
0.0
  9
$DIMDLE
 40
0.0
  9
$DIMEXE
 40
1.0
  9
$DIMTP
 40
0.0
  9
$DIMTM
 40
0.0
  9
$DIMTXT
 40
3.5
  9
$DIMCEN
 40
1.5
  9
$DIMTSZ
 40
0.0
  9
$DIMTOL
 70
     0
  9
$DIMLIM
 70
     0
  9
$DIMTIH
 70
     0
  9
$DIMTOH
 70
     0
  9
$DIMSE1
 70
     0
  9
$DIMSE2
 70
     0
  9
$DIMTAD
 70
     1
  9
$DIMZIN
 70
     8
  9
$DIMBLK
  1

  9
$DIMASO
 70
     1
  9
$DIMSHO
 70
     0
  9
$DIMPOST
  1

  9
$DIMAPOST
  1

  9
$DIMALT
 70
     0
  9
$DIMALTD
 70
     2
  9
$DIMALTF
 40
25.4
  9
$DIMLFAC
 40
1.0
  9
$DIMTOFL
 70
     1
  9
$DIMTVP
 40
0.0
  9
$DIMTIX
 70
     0
  9
$DIMSOXD
 70
     0
  9
$DIMSAH
 70
     0
  9
$DIMBLK1
  1

  9
$DIMBLK2
  1

  9
$DIMSTYLE
  2
Standard
  9
$DIMCLRD
 70
     0
  9
$DIMCLRE
 70
     0
  9
$DIMCLRT
 70
     1
  9
$DIMTFAC
 40
0.5
  9
$DIMGAP
 40
1.5
  9
$DIMJUST
 70
     0
  9
$DIMSD1
 70
     0
  9
$DIMSD2
 70
     0
  9
$DIMTOLJ
 70
     1
  9
$DIMTZIN
 70
     8
  9
$DIMALTZ
 70
     8
  9
$DIMALTTZ
 70
     8
  9
$DIMUPT
 70
     0
  9
$DIMDEC
 70
     2
  9
$DIMTDEC
 70
     2
  9
$DIMALTU
 70
     2
  9
$DIMALTTD
 70
     2
  9
$DIMTXSTY
  7
STANDARD
  9
$DIMAUNIT
 70
     0
  9
$DIMADEC
 70
     2
  9
$DIMALTRND
 40
0.0
  9
$DIMAZIN
 70
     2
  9
$DIMDSEP
 70
    46
  9
$DIMATFIT
 70
     3
  9
$DIMFRAC
 70
     0
  9
$DIMLDRBLK
  1

  9
$DIMLUNIT
 70
     2
  9
$DIMLWD
 70
    -2
  9
$DIMLWE
 70
    -2
  9
$DIMTMOVE
 70
     0
  9
$LUNITS
 70
     2
  9
$LUPREC
 70
     2
  9
$SKETCHINC
 40
1.0
  9
$FILLETRAD
 40
0.0
  9
$AUNITS
 70
     0
  9
$AUPREC
 70
     0
  9
$MENU
  1
ACAD
  9
$ELEVATION
 40
0.0
  9
$PELEVATION
 40
0.0
  9
$THICKNESS
 40
0.0
  9
$LIMCHECK
 70
     0
  9
$CHAMFERA
 40
0.0
  9
$CHAMFERB
 40
0.0
  9
$CHAMFERC
 40
0.0
  9
$CHAMFERD
 40
0.0
  9
$SKPOLY
 70
     0
  9
$TDCREATE
 40
2455397.867059838
  9
$TDUCREATE
 40
2455397.783726505
  9
$TDUPDATE
 40
2455859.405831933
  9
$TDUUPDATE
 40
2455859.322498600
  9
$TDINDWG
 40
0.1223492014
  9
$TDUSRTIMER
 40
0.1223492014
  9
$USRTIMER
 70
     1
  9
$ANGBASE
 50
0.0
  9
$ANGDIR
 70
     0
  9
$PDMODE
 70
     0
  9
$PDSIZE
 40
0.0
  9
$PLINEWID
 40
0.0
  9
$SPLFRAME
 70
     0
  9
$SPLINETYPE
 70
     6
  9
$SPLINESEGS
 70
     8
  9
$HANDSEED
  5
14EC
  9
$SURFTAB1
 70
     6
  9
$SURFTAB2
 70
     6
  9
$SURFTYPE
 70
     6
  9
$SURFU
 70
     6
  9
$SURFV
 70
     6
  9
$UCSBASE
  2

  9
$UCSNAME
  2

  9
$UCSORG
 10
0.0
 20
0.0
 30
0.0
  9
$UCSXDIR
 10
1.0
 20
0.0
 30
0.0
  9
$UCSYDIR
 10
0.0
 20
1.0
 30
0.0
  9
$UCSORTHOREF
  2

  9
$UCSORTHOVIEW
 70
     0
  9
$UCSORGTOP
 10
0.0
 20
0.0
 30
0.0
  9
$UCSORGBOTTOM
 10
0.0
 20
0.0
 30
0.0
  9
$UCSORGLEFT
 10
0.0
 20
0.0
 30
0.0
  9
$UCSORGRIGHT
 10
0.0
 20
0.0
 30
0.0
  9
$UCSORGFRONT
 10
0.0
 20
0.0
 30
0.0
  9
$UCSORGBACK
 10
0.0
 20
0.0
 30
0.0
  9
$PUCSBASE
  2

  9
$PUCSNAME
  2

  9
$PUCSORG
 10
0.0
 20
0.0
 30
0.0
  9
$PUCSXDIR
 10
1.0
 20
0.0
 30
0.0
  9
$PUCSYDIR
 10
0.0
 20
1.0
 30
0.0
  9
$PUCSORTHOREF
  2

  9
$PUCSORTHOVIEW
 70
     0
  9
$PUCSORGTOP
 10
0.0
 20
0.0
 30
0.0
  9
$PUCSORGBOTTOM
 10
0.0
 20
0.0
 30
0.0
  9
$PUCSORGLEFT
 10
0.0
 20
0.0
 30
0.0
  9
$PUCSORGRIGHT
 10
0.0
 20
0.0
 30
0.0
  9
$PUCSORGFRONT
 10
0.0
 20
0.0
 30
0.0
  9
$PUCSORGBACK
 10
0.0
 20
0.0
 30
0.0
  9
$USERI1
 70
     0
  9
$USERI2
 70
     0
  9
$USERI3
 70
     0
  9
$USERI4
 70
     0
  9
$USERI5
 70
     0
  9
$USERR1
 40
0.0
  9
$USERR2
 40
0.0
  9
$USERR3
 40
0.0
  9
$USERR4
 40
0.0
  9
$USERR5
 40
0.0
  9
$WORLDVIEW
 70
     1
  9
$SHADEDGE
 70
     3
  9
$SHADEDIF
 70
    70
  9
$TILEMODE
 70
     1
  9
$MAXACTVP
 70
    16
  9
$PINSBASE
 10
0.0
 20
0.0
 30
0.0
  9
$PLIMCHECK
 70
     0
  9
$PEXTMIN
 10
1.000000000000000E+20
 20
1.000000000000000E+20
 30
1.000000000000000E+20
  9
$PEXTMAX
 10
-1.000000000000000E+20
 20
-1.000000000000000E+20
 30
-1.000000000000000E+20
  9
$PLIMMIN
 10
0.0
 20
0.0
  9
$PLIMMAX
 10
12.0
 20
9.0
  9
$UNITMODE
 70
     0
  9
$VISRETAIN
 70
     0
  9
$PLINEGEN
 70
     0
  9
$PSLTSCALE
 70
     0
  9
$TREEDEPTH
 70
  3020
  9
$CMLSTYLE
  2
Standard
  9
$CMLJUST
 70
     0
  9
$CMLSCALE
 40
1.0
  9
$PROXYGRAPHICS
 70
     1
  9
$MEASUREMENT
 70
     0
  9
$CELWEIGHT
370
    -1
  9
$ENDCAPS
280
     0
  9
$JOINSTYLE
280
     0
  9
$LWDISPLAY
290
     0
  9
$INSUNITS
 70
     0
  9
$HYPERLINKBASE
  1

  9
$STYLESHEET
  1
monochrome1.ctb
  9
$XEDIT
290
     1
  9
$CEPSNTYPE
380
     0
  9
$PSTYLEMODE
290
     1
  9
$FINGERPRINTGUID
  2
{D68B0D0D-A558-11D7-B632-000102183313}
  9
$VERSIONGUID
  2
{0047BA7D-FCFA-4939-83E4-E81E73AC894A}
  9
$EXTNAMES
290
     1
  9
$PSVPSCALE
 40
0.0
  9
$OLESTARTUP
290
     0
  9
$SORTENTS
280
   127
  9
$INDEXCTL
280
     0
  9
$HIDETEXT
280
     0
  9
$XCLIPFRAME
290
     0
  9
$HALOGAP
280
     0
  9
$OBSCOLOR
 70
   257
  9
$OBSLTYPE
280
     0
  9
$INTERSECTIONDISPLAY
280
     0
  9
$INTERSECTIONCOLOR
 70
   257
  9
$DIMASSOC
280
     1
  9
$PROJECTNAME
  1

  0
ENDSEC
  0
SECTION
  2
CLASSES
  0
CLASS
  1
ACDBDICTIONARYWDFLT
  2
AcDbDictionaryWithDefault
  3
ObjectDBX Classes
 90
        0
 91
        1
280
     0
281
     0
  0
CLASS
  1
DICTIONARYVAR
  2
AcDbDictionaryVar
  3
ObjectDBX Classes
 90
        0
 91
        2
280
     0
281
     0
  0
CLASS
  1
DIMASSOC
  2
AcDbDimAssoc
  3
"AcDbDimAssoc|Product Desc:     AcDim ARX App For Dimension|Company:          Autodesk, Inc.|WEB Address:      www.autodesk.com"
 90
        0
 91
        0
280
     0
281
     0
  0
ENDSEC
  0
SECTION
  2
TABLES
  0
TABLE
  2
VPORT
  5
8
330
0
100
AcDbSymbolTable
 70
     2
  0
VPORT
  5
14EB
330
8
100
AcDbSymbolTableRecord
100
AcDbViewportTableRecord
  2
*Active
 70
     0
 10
0.0
 20
0.0
 11
1.0
 21
1.0
 12
522.0948616600789
 22
297.0
 13
0.0
 23
0.0
 14
1.0
 24
1.0
 15
10.0
 25
10.0
 16
0.0
 26
0.0
 36
1.0
 17
0.0
 27
0.0
 37
0.0
 40
616.1706279476485
 41
1.36388140161725
 42
50.0
 43
0.0
 44
0.0
 50
0.0
 51
0.0
 71
     0
 72
  1500
 73
     1
 74
     0
 75
     0
 76
     0
 77
     0
 78
     0
281
     0
 65
     1
110
0.0
120
0.0
130
0.0
111
1.0
121
0.0
131
0.0
112
0.0
122
1.0
132
0.0
 79
     0
146
0.0
  0
ENDTAB
  0
TABLE
  2
LTYPE
  5
5
330
0
100
AcDbSymbolTable
 70
     3
  0
LTYPE
  5
13
330
5
100
AcDbSymbolTableRecord
100
AcDbLinetypeTableRecord
  2
ByBlock
 70
     0
  3

 72
    65
 73
     0
 40
0.0
  0
LTYPE
  5
14
330
5
100
AcDbSymbolTableRecord
100
AcDbLinetypeTableRecord
  2
ByLayer
 70
     0
  3

 72
    65
 73
     0
 40
0.0
  0
LTYPE
  5
15
330
5
100
AcDbSymbolTableRecord
100
AcDbLinetypeTableRecord
  2
Continuous
 70
     0
  3
Solid line
 72
    65
 73
     0
 40
0.0
  0
LTYPE
  5
25
330
5
100
AcDbSymbolTableRecord
100
AcDbLinetypeTableRecord
  2
STRICHPUNKT
 70
     0
  3
__ . __ . __ . __ . __ . __ . __ . __ . __ . __
 72
    65
 73
     4
 40
1.0
 49
0.5
 74
     0
 49
-0.25
 74
     0
 49
0.0
 74
     0
 49
-0.25
 74
     0
  0
LTYPE
  5
34
330
5
100
AcDbSymbolTableRecord
100
AcDbLinetypeTableRecord
  2
AUSGEZOGEN
 70
     0
  3
Ausgezogene Linie
 72
    65
 73
     0
 40
0.0
  0
ENDTAB
  0
TABLE
  2
LAYER
  5
2
330
0
100
AcDbSymbolTable
 70
     9
  0
LAYER
  5
10
330
2
100
AcDbSymbolTableRecord
100
AcDbLayerTableRecord
  2
0
 70
     0
 62
     7
  6
Continuous
370
    -3
390
F
  0
LAYER
  5
2B
330
2
100
AcDbSymbolTableRecord
100
AcDbLayerTableRecord
  2
VOLL
 70
     0
 62
     1
  6
Continuous
370
    -3
390
F
  0
LAYER
  5
2C
330
2
100
AcDbSymbolTableRecord
100
AcDbLayerTableRecord
  2
HILF
 70
     0
 62
     2
  6
Continuous
370
    -3
390
F
  0
LAYER
  5
2D
330
2
100
AcDbSymbolTableRecord
100
AcDbLayerTableRecord
  2
MITTEL
 70
     0
 62
     2
  6
STRICHPUNKT
370
    -3
390
F
  0
LAYER
  5
2F
330
2
100
AcDbSymbolTableRecord
100
AcDbLayerTableRecord
  2
BEM
 70
     0
 62
     7
  6
Continuous
370
    -3
390
F
  0
LAYER
  5
30
330
2
100
AcDbSymbolTableRecord
100
AcDbLayerTableRecord
  2
STEMPEL
 70
     0
 62
     3
  6
Continuous
370
    -3
390
F
  0
LAYER
  5
33
330
2
100
AcDbSymbolTableRecord
100
AcDbLayerTableRecord
  2
TEXT
 70
     0
 62
     7
  6
Continuous
370
    -3
390
F
  0
LAYER
  5
1E6
330
2
100
AcDbSymbolTableRecord
100
AcDbLayerTableRecord
  2
SCHRAFF
 70
     0
 62
     7
  6
AUSGEZOGEN
370
    -3
390
F
  0
LAYER
  5
1E7
330
2
100
AcDbSymbolTableRecord
100
AcDbLayerTableRecord
  2
DEFPOINTS
 70
     0
 62
     7
  6
AUSGEZOGEN
290
     0
370
    -3
390
F
  0
ENDTAB
  0
TABLE
  2
STYLE
  5
3
330
0
100
AcDbSymbolTable
 70
     2
  0
STYLE
  5
11
330
3
100
AcDbSymbolTableRecord
100
AcDbTextStyleTableRecord
  2
STANDARD
 70
     0
 40
0.0
 41
0.8
 50
0.0
 71
     0
 42
3.5
  3
simplex.shx
  4

  0
STYLE
  5
24
330
3
100
AcDbSymbolTableRecord
100
AcDbTextStyleTableRecord
  2
GREEKS
 70
     0
 40
0.0
 41
0.8
 50
0.0
 71
     0
 42
2.5
  3
SIMPLEX.shx
  4

  0
ENDTAB
  0
TABLE
  2
VIEW
  5
6
330
0
100
AcDbSymbolTable
 70
     0
  0
ENDTAB
  0
TABLE
  2
UCS
  5
7
330
0
100
AcDbSymbolTable
 70
     0
  0
ENDTAB
  0
TABLE
  2
APPID
  5
9
330
0
100
AcDbSymbolTable
 70
     1
  0
APPID
  5
12
330
9
100
AcDbSymbolTableRecord
100
AcDbRegAppTableRecord
  2
ACAD
 70
     0
  0
ENDTAB
  0
TABLE
  2
DIMSTYLE
  5
A
330
0
100
AcDbSymbolTable
 70
     1
100
AcDbDimStyleTable
 71
     1
340
A2
  0
DIMSTYLE
105
A2
102
{ACAD_REACTORS
330
1008
330
FC5
330
FC3
330
F47
330
F46
330
F42
330
118A
102
}
330
A
100
AcDbSymbolTableRecord
100
AcDbDimStyleTableRecord
  2
Standard
 70
     0
340
11
  0
ENDTAB
  0
TABLE
  2
BLOCK_RECORD
  5
1
330
0
100
AcDbSymbolTable
 70
     9
  0
BLOCK_RECORD
  5
1E
102
{ACAD_XDICTIONARY
360
DB
102
}
330
1
100
AcDbSymbolTableRecord
100
AcDbBlockTableRecord
  2
*Model_Space
340
21
  0
BLOCK_RECORD
  5
1A
102
{ACAD_XDICTIONARY
360
DD
102
}
330
1
100
AcDbSymbolTableRecord
100
AcDbBlockTableRecord
  2
*Paper_Space
340
1D
  0
BLOCK_RECORD
  5
22
330
1
100
AcDbSymbolTableRecord
100
AcDbBlockTableRecord
  2
LOGO
340
0
102
{BLKREFS
331
56
102
}
  0
BLOCK_RECORD
  5
23
330
1
100
AcDbSymbolTableRecord
100
AcDbBlockTableRecord
  2
LORO
340
0
102
{BLKREFS
331
9B
102
}
  0
BLOCK_RECORD
  5
1031
330
1
100
AcDbSymbolTableRecord
100
AcDbBlockTableRecord
  2
*D2
340
0
  0
BLOCK_RECORD
  5
103E
330
1
100
AcDbSymbolTableRecord
100
AcDbBlockTableRecord
  2
*D3
340
0
  0
BLOCK_RECORD
  5
104B
330
1
100
AcDbSymbolTableRecord
100
AcDbBlockTableRecord
  2
*D4
340
0
  0
BLOCK_RECORD
  5
1058
330
1
100
AcDbSymbolTableRecord
100
AcDbBlockTableRecord
  2
*D5
340
0
  0
BLOCK_RECORD
  5
1065
330
1
100
AcDbSymbolTableRecord
100
AcDbBlockTableRecord
  2
*D6
340
0
  0
BLOCK_RECORD
  5
1081
330
1
100
AcDbSymbolTableRecord
100
AcDbBlockTableRecord
  2
*D7
340
0
  0
BLOCK_RECORD
  5
118B
330
1
100
AcDbSymbolTableRecord
100
AcDbBlockTableRecord
  2
*D8
340
0
  0
ENDTAB
  0
ENDSEC
  0
SECTION
  2
BLOCKS
  0
BLOCK
  5
37
330
1E
100
AcDbEntity
  8
0
100
AcDbBlockBegin
  2
*Model_Space
 70
     0
 10
0.0
 20
0.0
 30
0.0
  3
*Model_Space
  1

  0
ENDBLK
  5
38
330
1E
100
AcDbEntity
  8
0
100
AcDbBlockEnd
  0
BLOCK
  5
35
330
1A
100
AcDbEntity
 67
     1
  8
0
100
AcDbBlockBegin
  2
*Paper_Space
 70
     0
 10
0.0
 20
0.0
 30
0.0
  3
*Paper_Space
  1

  0
ENDBLK
  5
36
330
1A
100
AcDbEntity
 67
     1
  8
0
100
AcDbBlockEnd
  0
BLOCK
  5
39
330
22
100
AcDbEntity
  8
0
100
AcDbBlockBegin
  2
LOGO
 70
     0
 10
0.0
 20
0.0
 30
0.0
  3
LOGO
  1

  0
ARC
  5
3A
330
22
100
AcDbEntity
  8
0
100
AcDbCircle
 10
11.59973089678112
 20
-9.271599258481501
 30
0.0
 40
4.5
100
AcDbArc
 50
270.0
 51
231.0575587310159
  0
LINE
  5
3B
330
22
100
AcDbEntity
  8
0
100
AcDbLine
 10
3.599730896781125
 20
-4.771599258481529
 30
0.0
 11
3.599730896781153
 21
-11.77159925848133
 31
0.0
  0
LINE
  5
3C
330
22
100
AcDbEntity
  8
0
100
AcDbLine
 10
2.599730896781125
 20
-4.771599258481529
 30
0.0
 11
2.599730896781153
 21
-11.77159925848133
 31
0.0
  0
CIRCLE
  5
3D
330
22
100
AcDbEntity
  8
0
100
AcDbCircle
 10
11.59973089678112
 20
-9.271599258481501
 30
0.0
 40
3.5
  0
ARC
  5
3E
330
22
100
AcDbEntity
  8
0
100
AcDbCircle
 10
31.59973089678115
 20
-9.271599258481472
 30
0.0
 40
4.5
100
AcDbArc
 50
270.0
 51
231.0575587310182
  0
LINE
  5
3F
330
22
100
AcDbEntity
  8
0
100
AcDbLine
 10
17.59973089678112
 20
-4.771599258481472
 30
0.0
 11
17.59973089678115
 21
-13.77159925848147
 31
0.0
  0
ARC
  5
40
330
22
100
AcDbEntity
  8
0
100
AcDbCircle
 10
22.59973089678116
 20
-7.271599258481472
 30
0.0
 40
2.5
100
AcDbArc
 50
293.1161887722295
 51
90.0
  0
CIRCLE
  5
41
330
22
100
AcDbEntity
  8
0
100
AcDbCircle
 10
31.59973089678115
 20
-9.271599258481472
 30
0.0
 40
3.5
  0
ARC
  5
42
330
22
100
AcDbEntity
  8
0
100
AcDbCircle
 10
4.599730896781153
 20
-11.77159925848133
 30
0.0
 40
1.0
100
AcDbArc
 50
180.0
 51
270.0
  0
ARC
  5
43
330
22
100
AcDbEntity
  8
0
100
AcDbCircle
 10
4.599730896781153
 20
-11.77159925848133
 30
0.0
 40
2.0
100
AcDbArc
 50
179.9999999999992
 51
270.0
  0
LINE
  5
44
330
22
100
AcDbEntity
  8
0
100
AcDbLine
 10
11.59973089678115
 20
-13.77159925848144
 30
0.0
 11
4.599730896781153
 21
-13.77159925848147
 31
0.0
  0
LINE
  5
45
330
22
100
AcDbEntity
  8
0
100
AcDbLine
 10
8.771303772034769
 20
-12.77159925848136
 30
0.0
 11
4.599730896781153
 21
-12.77159925848133
 31
0.0
  0
LINE
  5
46
330
22
100
AcDbEntity
  8
0
100
AcDbLine
 10
31.59973089678115
 20
-13.77159925848147
 30
0.0
 11
23.6715276665056
 21
-13.77159925848144
 31
0.0
  0
LINE
  5
47
330
22
100
AcDbEntity
  8
0
100
AcDbLine
 10
23.56565672307022
 20
-9.51278021337896
 30
0.0
 11
24.4388546544846
 21
-12.77159925848144
 31
0.0
  0
LINE
  5
48
330
22
100
AcDbEntity
  8
0
100
AcDbLine
 10
22.59973089678116
 20
-9.771599258481472
 30
0.0
 11
18.59973089678112
 21
-9.771599258481472
 31
0.0
  0
LINE
  5
49
330
22
100
AcDbEntity
  8
0
100
AcDbLine
 10
18.59973089678115
 20
-13.77159925848144
 30
0.0
 11
17.59973089678115
 21
-13.77159925848144
 31
0.0
  0
LINE
  5
4A
330
22
100
AcDbEntity
  8
0
100
AcDbLine
 10
18.59973089678115
 20
-9.771599258481472
 30
0.0
 11
18.59973089678115
 21
-13.77159925848144
 31
0.0
  0
LINE
  5
4B
330
22
100
AcDbEntity
  8
0
100
AcDbLine
 10
22.59973089678116
 20
-9.771599258481472
 30
0.0
 11
23.67152766650562
 21
-13.77159925848147
 31
0.0
  0
ARC
  5
4C
330
22
100
AcDbEntity
  8
0
100
AcDbCircle
 10
22.59973089678116
 20
-7.271599258481472
 30
0.0
 40
2.5
100
AcDbArc
 50
270.0
 51
270.0000000000007
  0
LINE
  5
4D
330
22
100
AcDbEntity
  8
0
100
AcDbLine
 10
28.77130377203494
 20
-12.77159925848147
 30
0.0
 11
24.43885465448463
 21
-12.77159925848144
 31
0.0
  0
LINE
  5
4E
330
22
100
AcDbEntity
  8
0
100
AcDbLine
 10
3.599730896781125
 20
-4.771599258481472
 30
0.0
 11
2.599730896781125
 21
-4.771599258481472
 31
0.0
  0
LINE
  5
4F
330
22
100
AcDbEntity
  8
0
100
AcDbLine
 10
22.59973089678116
 20
-8.771599258481472
 30
0.0
 11
18.59973089678115
 21
-8.771599258481472
 31
0.0
  0
LINE
  5
50
330
22
100
AcDbEntity
  8
0
100
AcDbLine
 10
22.59973089678116
 20
-5.771599258481472
 30
0.0
 11
18.59973089678115
 21
-5.771599258481472
 31
0.0
  0
LINE
  5
51
330
22
100
AcDbEntity
  8
0
100
AcDbLine
 10
22.59973089678116
 20
-4.771599258481472
 30
0.0
 11
17.59973089678115
 21
-4.771599258481472
 31
0.0
  0
LINE
  5
52
330
22
100
AcDbEntity
  8
0
100
AcDbLine
 10
18.59973089678115
 20
-5.771599258481472
 30
0.0
 11
18.59973089678115
 21
-8.771599258481472
 31
0.0
  0
ARC
  5
53
330
22
100
AcDbEntity
  8
0
100
AcDbCircle
 10
22.59973089678116
 20
-7.271599258481472
 30
0.0
 40
1.5
100
AcDbArc
 50
270.0
 51
90.0
  0
ENDBLK
  5
54
330
22
100
AcDbEntity
  8
0
100
AcDbBlockEnd
  0
BLOCK
  5
55
330
23
100
AcDbEntity
  8
0
100
AcDbBlockBegin
  2
LORO
 70
     0
 10
0.0
 20
0.0
 30
0.0
  3
LORO
  1

  0
INSERT
  5
56
330
23
100
AcDbEntity
  8
STEMPEL
100
AcDbBlockReference
  2
LOGO
 10
-1.748032802467321
 20
3.771489518552062
 30
0.0
  0
ENDBLK
  5
57
330
23
100
AcDbEntity
  8
0
100
AcDbBlockEnd
  0
BLOCK
  5
103C
330
1031
100
AcDbEntity
  8
0
100
AcDbBlockBegin
  2
*D2
 70
     1
 10
0.0
 20
0.0
 30
0.0
  3
*D2
  1

  0
LINE
  5
14B6
330
1031
100
AcDbEntity
  8
BEM
 62
     0
370
    -2
100
AcDbLine
 10
720.4653251579877
 20
309.9868830405297
 30
0.0
 11
720.4653251579877
 21
272.313519086602
 31
0.0
  0
LINE
  5
14B7
330
1031
100
AcDbEntity
  8
BEM
 62
     0
370
    -2
100
AcDbLine
 10
690.4653251579877
 20
291.3801921521632
 30
0.0
 11
690.4653251579877
 21
272.313519086602
 31
0.0
  0
LINE
  5
14B8
330
1031
100
AcDbEntity
  8
BEM
 62
     0
370
    -2
100
AcDbLine
 10
713.4653251579877
 20
274.313519086602
 30
0.0
 11
697.4653251579877
 21
274.313519086602
 31
0.0
  0
SOLID
  5
14B9
330
1031
100
AcDbEntity
  8
BEM
 62
     0
100
AcDbTrace
 10
713.4653251579877
 20
275.4801857532687
 30
0.0
 11
713.4653251579877
 21
273.1468524199353
 31
0.0
 12
720.4653251579877
 22
274.313519086602
 32
0.0
 13
720.4653251579877
 23
274.313519086602
 33
0.0
  0
SOLID
  5
14BA
330
1031
100
AcDbEntity
  8
BEM
 62
     0
100
AcDbTrace
 10
697.4653251579877
 20
275.4801857532687
 30
0.0
 11
697.4653251579877
 21
273.1468524199353
 31
0.0
 12
690.4653251579877
 22
274.313519086602
 32
0.0
 13
690.4653251579877
 23
274.313519086602
 33
0.0
  0
MTEXT
  5
14BB
330
1031
100
AcDbEntity
  8
BEM
 62
     1
100
AcDbMText
 10
707.2925836977542
 20
280.813519086602
 30
0.0
 40
7.0
 41
0.0
 71
     5
 72
     1
  1
\A1;30
 73
     1
 44
1.0
  0
POINT
  5
14BC
330
1031
100
AcDbEntity
  8
DEFPOINTS
 62
     0
100
AcDbPoint
 10
720.4653251579877
 20
311.9868830405297
 30
0.0
  0
POINT
  5
14BD
330
1031
100
AcDbEntity
  8
DEFPOINTS
 62
     0
100
AcDbPoint
 10
690.4653251579877
 20
293.3801921521632
 30
0.0
  0
POINT
  5
14BE
330
1031
100
AcDbEntity
  8
DEFPOINTS
 62
     0
100
AcDbPoint
 10
690.4653251579877
 20
274.313519086602
 30
0.0
  0
ENDBLK
  5
103D
330
1031
100
AcDbEntity
  8
0
100
AcDbBlockEnd
  0
BLOCK
  5
1049
330
103E
100
AcDbEntity
  8
0
100
AcDbBlockBegin
  2
*D3
 70
     1
 10
0.0
 20
0.0
 30
0.0
  3
*D3
  1

  0
LINE
  5
1389
330
103E
100
AcDbEntity
  8
BEM
 62
     0
370
    -2
100
AcDbLine
 10
694.4653251579875
 20
382.3801921521632
 30
0.0
 11
760.0556678984491
 21
382.3801921521632
 31
0.0
  0
LINE
  5
138A
330
103E
100
AcDbEntity
  8
BEM
 62
     0
370
    -2
100
AcDbLine
 10
694.4653251579877
 20
293.3801921521632
 30
0.0
 11
760.0556678984491
 21
293.3801921521632
 31
0.0
  0
LINE
  5
138B
330
103E
100
AcDbEntity
  8
BEM
 62
     0
370
    -2
100
AcDbLine
 10
758.0556678984492
 20
375.3801921521632
 30
0.0
 11
758.0556678984492
 21
300.3801921521632
 31
0.0
  0
SOLID
  5
138C
330
103E
100
AcDbEntity
  8
BEM
 62
     0
100
AcDbTrace
 10
756.8890012317825
 20
375.3801921521632
 30
0.0
 11
759.2223345651158
 21
375.3801921521632
 31
0.0
 12
758.0556678984492
 22
382.3801921521632
 32
0.0
 13
758.0556678984492
 23
382.3801921521632
 33
0.0
  0
SOLID
  5
138D
330
103E
100
AcDbEntity
  8
BEM
 62
     0
100
AcDbTrace
 10
756.8890012317825
 20
300.3801921521632
 30
0.0
 11
759.2223345651158
 21
300.3801921521632
 31
0.0
 12
758.0556678984492
 22
293.3801921521632
 32
0.0
 13
758.0556678984492
 23
293.3801921521632
 33
0.0
  0
MTEXT
  5
138E
330
103E
100
AcDbEntity
  8
BEM
 62
     1
100
AcDbMText
 10
751.555667898449
 20
337.8801921521633
 30
0.0
 40
7.0
 41
0.0
 71
     5
 72
     1
  1
\A1;%%c89
 11
0.0000000000000001
 21
1.0
 31
0.0
 73
     1
 44
1.0
  0
POINT
  5
138F
330
103E
100
AcDbEntity
  8
DEFPOINTS
 62
     0
100
AcDbPoint
 10
692.4653251579875
 20
382.3801921521632
 30
0.0
  0
POINT
  5
1390
330
103E
100
AcDbEntity
  8
DEFPOINTS
 62
     0
100
AcDbPoint
 10
692.4653251579877
 20
293.3801921521632
 30
0.0
  0
POINT
  5
1391
330
103E
100
AcDbEntity
  8
DEFPOINTS
 62
     0
100
AcDbPoint
 10
758.0556678984492
 20
293.3801921521632
 30
0.0
  0
ENDBLK
  5
104A
330
103E
100
AcDbEntity
  8
0
100
AcDbBlockEnd
  0
BLOCK
  5
1056
330
104B
100
AcDbEntity
  8
0
100
AcDbBlockBegin
  2
*D4
 70
     1
 10
0.0
 20
0.0
 30
0.0
  3
*D4
  1

  0
LINE
  5
11CA
330
104B
100
AcDbEntity
  8
BEM
 62
     0
370
    -2
100
AcDbLine
 10
715.5308165723504
 20
364.3801921521632
 30
0.0
 11
741.9328381406335
 21
364.3801921521632
 31
0.0
  0
LINE
  5
11CB
330
104B
100
AcDbEntity
  8
BEM
 62
     0
370
    -2
100
AcDbLine
 10
715.5308165723504
 20
311.3801921521632
 30
0.0
 11
741.9328381406335
 21
311.3801921521632
 31
0.0
  0
LINE
  5
11CC
330
104B
100
AcDbEntity
  8
BEM
 62
     0
370
    -2
100
AcDbLine
 10
739.9328381406335
 20
357.3801921521632
 30
0.0
 11
739.9328381406335
 21
318.3801921521632
 31
0.0
  0
SOLID
  5
11CD
330
104B
100
AcDbEntity
  8
BEM
 62
     0
100
AcDbTrace
 10
738.7661714739668
 20
357.3801921521632
 30
0.0
 11
741.0995048073001
 21
357.3801921521632
 31
0.0
 12
739.9328381406335
 22
364.3801921521632
 32
0.0
 13
739.9328381406335
 23
364.3801921521632
 33
0.0
  0
SOLID
  5
11CE
330
104B
100
AcDbEntity
  8
BEM
 62
     0
100
AcDbTrace
 10
738.7661714739668
 20
318.3801921521632
 30
0.0
 11
741.0995048073001
 21
318.3801921521632
 31
0.0
 12
739.9328381406335
 22
311.3801921521632
 32
0.0
 13
739.9328381406335
 23
311.3801921521632
 33
0.0
  0
MTEXT
  5
11CF
330
104B
100
AcDbEntity
  8
BEM
 62
     1
100
AcDbMText
 10
733.4328381406334
 20
337.8801921521633
 30
0.0
 40
7.0
 41
0.0
 71
     5
 72
     1
  1
\A1;%%c53
 11
0.0000000000000001
 21
1.0
 31
0.0
 73
     1
 44
1.0
  0
POINT
  5
11D0
330
104B
100
AcDbEntity
  8
DEFPOINTS
 62
     0
100
AcDbPoint
 10
713.5308165723504
 20
364.3801921521632
 30
0.0
  0
POINT
  5
11D1
330
104B
100
AcDbEntity
  8
DEFPOINTS
 62
     0
100
AcDbPoint
 10
713.5308165723504
 20
311.3801921521632
 30
0.0
  0
POINT
  5
11D2
330
104B
100
AcDbEntity
  8
DEFPOINTS
 62
     0
100
AcDbPoint
 10
739.9328381406335
 20
311.3801921521632
 30
0.0
  0
ENDBLK
  5
1057
330
104B
100
AcDbEntity
  8
0
100
AcDbBlockEnd
  0
BLOCK
  5
1063
330
1058
100
AcDbEntity
  8
0
100
AcDbBlockBegin
  2
*D5
 70
     1
 10
0.0
 20
0.0
 30
0.0
  3
*D5
  1

  0
LINE
  5
14D5
330
1058
100
AcDbEntity
  8
BEM
 62
     0
370
    -2
100
AcDbLine
 10
218.4653251579875
 20
337.8801921521632
 30
0.0
 11
136.4944642659323
 21
337.8801921521632
 31
0.0
  0
LINE
  5
14D6
330
1058
100
AcDbEntity
  8
BEM
 62
     0
370
    -2
100
AcDbLine
 10
167.465325157988
 20
477.8801921521631
 30
0.0
 11
136.4944642659324
 21
477.8801921521631
 31
0.0
  0
LINE
  5
14D7
330
1058
100
AcDbEntity
  8
BEM
 62
     0
370
    -2
100
AcDbLine
 10
138.4944642659323
 20
344.8801921521632
 30
0.0
 11
138.4944642659323
 21
470.8801921521632
 31
0.0
  0
SOLID
  5
14D8
330
1058
100
AcDbEntity
  8
BEM
 62
     0
100
AcDbTrace
 10
137.3277975992657
 20
344.8801921521632
 30
0.0
 11
139.661130932599
 21
344.8801921521632
 31
0.0
 12
138.4944642659323
 22
337.8801921521632
 32
0.0
 13
138.4944642659323
 23
337.8801921521632
 33
0.0
  0
SOLID
  5
14D9
330
1058
100
AcDbEntity
  8
BEM
 62
     0
100
AcDbTrace
 10
137.3277975992657
 20
470.8801921521632
 30
0.0
 11
139.661130932599
 21
470.8801921521632
 31
0.0
 12
138.4944642659323
 22
477.8801921521631
 32
0.0
 13
138.4944642659323
 23
477.8801921521631
 33
0.0
  0
MTEXT
  5
14DA
330
1058
100
AcDbEntity
  8
BEM
 62
     1
100
AcDbMText
 10
131.9944642659323
 20
407.8801921521632
 30
0.0
 40
7.0
 41
0.0
 71
     5
 72
     1
  1
\A1;140
 11
0.0000000000000001
 21
1.0
 31
0.0
 73
     1
 44
1.0
  0
POINT
  5
14DB
330
1058
100
AcDbEntity
  8
DEFPOINTS
 62
     0
100
AcDbPoint
 10
220.4653251579876
 20
337.8801921521632
 30
0.0
  0
POINT
  5
14DC
330
1058
100
AcDbEntity
  8
DEFPOINTS
 62
     0
100
AcDbPoint
 10
169.465325157988
 20
477.8801921521631
 30
0.0
  0
POINT
  5
14DD
330
1058
100
AcDbEntity
  8
DEFPOINTS
 62
     0
100
AcDbPoint
 10
138.4944642659323
 20
477.8801921521631
 30
0.0
  0
ENDBLK
  5
1064
330
1058
100
AcDbEntity
  8
0
100
AcDbBlockEnd
  0
BLOCK
  5
1070
330
1065
100
AcDbEntity
  8
0
100
AcDbBlockBegin
  2
*D6
 70
     1
 10
0.0
 20
0.0
 30
0.0
  3
*D6
  1

  0
LINE
  5
14DE
330
1065
100
AcDbEntity
  8
BEM
 62
     0
370
    -2
100
AcDbLine
 10
169.465325157988
 20
479.8801921521632
 30
0.0
 11
169.465325157988
 21
494.7839349499899
 31
0.0
  0
LINE
  5
14DF
330
1065
100
AcDbEntity
  8
BEM
 62
     0
370
    -2
100
AcDbLine
 10
271.4653251579878
 20
479.8801921521631
 30
0.0
 11
271.4653251579878
 21
494.7839349499899
 31
0.0
  0
LINE
  5
14E0
330
1065
100
AcDbEntity
  8
BEM
 62
     0
370
    -2
100
AcDbLine
 10
176.465325157988
 20
492.7839349499899
 30
0.0
 11
264.4653251579878
 21
492.7839349499899
 31
0.0
  0
SOLID
  5
14E1
330
1065
100
AcDbEntity
  8
BEM
 62
     0
100
AcDbTrace
 10
176.465325157988
 20
493.9506016166566
 30
0.0
 11
176.465325157988
 21
491.6172682833233
 31
0.0
 12
169.465325157988
 22
492.7839349499899
 32
0.0
 13
169.465325157988
 23
492.7839349499899
 33
0.0
  0
SOLID
  5
14E2
330
1065
100
AcDbEntity
  8
BEM
 62
     0
100
AcDbTrace
 10
264.4653251579878
 20
493.9506016166566
 30
0.0
 11
264.4653251579878
 21
491.6172682833233
 31
0.0
 12
271.4653251579878
 22
492.7839349499899
 32
0.0
 13
271.4653251579878
 23
492.7839349499899
 33
0.0
  0
MTEXT
  5
14E3
330
1065
100
AcDbEntity
  8
BEM
 62
     1
100
AcDbMText
 10
220.4653251579879
 20
499.2839349499899
 30
0.0
 40
7.0
 41
0.0
 71
     5
 72
     1
  1
\A1;%%c102
 73
     1
 44
1.0
  0
POINT
  5
14E4
330
1065
100
AcDbEntity
  8
DEFPOINTS
 62
     0
100
AcDbPoint
 10
169.465325157988
 20
477.8801921521631
 30
0.0
  0
POINT
  5
14E5
330
1065
100
AcDbEntity
  8
DEFPOINTS
 62
     0
100
AcDbPoint
 10
271.4653251579878
 20
477.8801921521631
 30
0.0
  0
POINT
  5
14E6
330
1065
100
AcDbEntity
  8
DEFPOINTS
 62
     0
100
AcDbPoint
 10
271.4653251579878
 20
492.7839349499899
 30
0.0
  0
ENDBLK
  5
1071
330
1065
100
AcDbEntity
  8
0
100
AcDbBlockEnd
  0
BLOCK
  5
108C
330
1081
100
AcDbEntity
  8
0
100
AcDbBlockBegin
  2
*D7
 70
     1
 10
0.0
 20
0.0
 30
0.0
  3
*D7
  1

  0
LINE
  5
14AD
330
1081
100
AcDbEntity
  8
BEM
 62
     0
370
    -2
100
AcDbLine
 10
220.4653251579876
 20
335.8801921521632
 30
0.0
 11
220.4653251579876
 21
253.7527154751941
 31
0.0
  0
LINE
  5
14AE
330
1081
100
AcDbEntity
  8
BEM
 62
     0
370
    -2
100
AcDbLine
 10
720.4653251579877
 20
309.9868830405297
 30
0.0
 11
720.4653251579877
 21
253.7527154751941
 31
0.0
  0
LINE
  5
14AF
330
1081
100
AcDbEntity
  8
BEM
 62
     0
370
    -2
100
AcDbLine
 10
227.4653251579875
 20
255.7527154751941
 30
0.0
 11
713.4653251579877
 21
255.7527154751941
 31
0.0
  0
SOLID
  5
14B0
330
1081
100
AcDbEntity
  8
BEM
 62
     0
100
AcDbTrace
 10
227.4653251579875
 20
256.9193821418608
 30
0.0
 11
227.4653251579875
 21
254.5860488085274
 31
0.0
 12
220.4653251579876
 22
255.7527154751941
 32
0.0
 13
220.4653251579876
 23
255.7527154751941
 33
0.0
  0
SOLID
  5
14B1
330
1081
100
AcDbEntity
  8
BEM
 62
     0
100
AcDbTrace
 10
713.4653251579877
 20
256.9193821418608
 30
0.0
 11
713.4653251579877
 21
254.5860488085274
 31
0.0
 12
720.4653251579877
 22
255.7527154751941
 32
0.0
 13
720.4653251579877
 23
255.7527154751941
 33
0.0
  0
MTEXT
  5
14B2
330
1081
100
AcDbEntity
  8
BEM
 62
     1
100
AcDbMText
 10
470.4653251579876
 20
262.2527154751941
 30
0.0
 40
7.0
 41
0.0
 71
     5
 72
     1
  1
\A1;500
 73
     1
 44
1.0
  0
POINT
  5
14B3
330
1081
100
AcDbEntity
  8
DEFPOINTS
 62
     0
100
AcDbPoint
 10
220.4653251579876
 20
337.8801921521632
 30
0.0
  0
POINT
  5
14B4
330
1081
100
AcDbEntity
  8
DEFPOINTS
 62
     0
100
AcDbPoint
 10
720.4653251579877
 20
311.9868830405297
 30
0.0
  0
POINT
  5
14B5
330
1081
100
AcDbEntity
  8
DEFPOINTS
 62
     0
100
AcDbPoint
 10
720.4653251579877
 20
255.7527154751941
 30
0.0
  0
ENDBLK
  5
108D
330
1081
100
AcDbEntity
  8
0
100
AcDbBlockEnd
  0
BLOCK
  5
1197
330
118B
100
AcDbEntity
  8
0
100
AcDbBlockBegin
  2
*D8
 70
     1
 10
0.0
 20
0.0
 30
0.0
  3
*D8
  1

  0
LINE
  5
14CA
330
118B
100
AcDbEntity
  8
BEM
 62
     0
370
    -2
100
AcDbLine
 10
218.4653251579875
 20
337.8801921521633
 30
0.0
 11
136.4944642659323
 21
337.8801921521633
 31
0.0
  0
LINE
  5
14CB
330
118B
100
AcDbEntity
  8
BEM
 62
     0
370
    -2
100
AcDbLine
 10
220.4653251579876
 20
335.8801921521633
 30
0.0
 11
220.4653251579873
 21
253.9093312601081
 31
0.0
  0
ARC
  5
14CC
330
118B
100
AcDbEntity
  8
BEM
 62
     0
370
    -2
100
AcDbCircle
 10
220.4653251579876
 20
337.8801921521634
 30
0.0
 40
81.97086089205523
100
AcDbArc
 50
184.8943297584845
 51
265.1056702415153
  0
SOLID
  5
14CD
330
118B
100
AcDbEntity
  8
BEM
 62
     0
100
AcDbTrace
 10
137.6277482742827
 20
330.8367615604041
 30
0.0
 11
139.9589536549424
 21
330.9363904599642
 31
0.0
 12
138.4944642659323
 22
337.8801921521633
 32
0.0
 13
138.4944642659323
 23
337.8801921521633
 33
0.0
  0
SOLID
  5
14CE
330
118B
100
AcDbEntity
  8
BEM
 62
     0
100
AcDbTrace
 10
213.5215234657881
 20
257.3738206491182
 30
0.0
 11
213.4218945662281
 21
255.0426152684584
 31
0.0
 12
220.4653251579873
 22
255.9093312601081
 32
0.0
 13
220.4653251579873
 23
255.9093312601081
 33
0.0
  0
MTEXT
  5
14CF
330
118B
100
AcDbEntity
  8
BEM
 62
     1
100
AcDbMText
 10
164.0741889109438
 20
287.7215378983329
 30
0.0
 40
7.0
 41
0.0
 71
     5
 72
     1
  1
\A1;90°
 11
0.6646095414967056
 21
-0.7471908439960563
 31
0.0
 73
     1
 44
1.0
  0
POINT
  5
14D0
330
118B
100
AcDbEntity
  8
DEFPOINTS
 62
     0
100
AcDbPoint
 10
179.4798947119597
 20
266.8913442495632
 30
0.0
  0
POINT
  5
14D1
330
118B
100
AcDbEntity
  8
DEFPOINTS
 62
     0
100
AcDbPoint
 10
725.4653251579878
 20
337.8801921521633
 30
0.0
  0
POINT
  5
14D2
330
118B
100
AcDbEntity
  8
DEFPOINTS
 62
     0
100
AcDbPoint
 10
220.4653251579876
 20
337.8801921521634
 30
0.0
  0
POINT
  5
14D3
330
118B
100
AcDbEntity
  8
DEFPOINTS
 62
     0
100
AcDbPoint
 10
220.465325157988
 20
482.8801921521633
 30
0.0
  0
POINT
  5
14D4
330
118B
100
AcDbEntity
  8
DEFPOINTS
 62
     0
100
AcDbPoint
 10
220.4653251579876
 20
337.8801921521634
 30
0.0
  0
ENDBLK
  5
1198
330
118B
100
AcDbEntity
  8
0
100
AcDbBlockEnd
  0
ENDSEC
  0
SECTION
  2
ENTITIES
  0
LINE
  5
58
330
1E
100
AcDbEntity
  8
STEMPEL
100
AcDbLine
 10
830.0000000000002
 20
110.0
 30
0.0
 11
470.0000000000001
 21
110.0
 31
0.0
  0
LINE
  5
59
330
1E
100
AcDbEntity
  8
STEMPEL
100
AcDbLine
 10
470.0000000000001
 20
110.0
 30
0.0
 11
470.0000000000001
 21
10.0
 31
0.0
  0
LINE
  5
5A
330
1E
100
AcDbEntity
  8
STEMPEL
100
AcDbLine
 10
566.0000000000002
 20
109.9999999999999
 30
0.0
 11
566.0000000000001
 21
9.999999999999886
 31
0.0
  0
LINE
  5
5B
330
1E
100
AcDbEntity
  8
STEMPEL
100
AcDbLine
 10
650.0
 20
110.0
 30
0.0
 11
650.0
 21
10.0
 31
0.0
  0
LINE
  5
5C
330
1E
100
AcDbEntity
  8
STEMPEL
100
AcDbLine
 10
752.0000000000002
 20
109.9999999999997
 30
0.0
 11
752.0000000000002
 21
40.0
 31
0.0
  0
LINE
  5
5D
330
1E
100
AcDbEntity
  8
STEMPEL
100
AcDbLine
 10
566.0
 20
30.0
 30
0.0
 11
470.0000000000001
 21
30.0
 31
0.0
  0
LINE
  5
5E
330
1E
100
AcDbEntity
  8
STEMPEL
100
AcDbLine
 10
830.0000000000002
 20
40.0
 30
0.0
 11
566.0000000000001
 21
40.0
 31
0.0
  0
LINE
  5
5F
330
1E
100
AcDbEntity
  8
STEMPEL
100
AcDbLine
 10
830.0000000000002
 20
80.0
 30
0.0
 11
566.0000000000002
 21
80.0
 31
0.0
  0
LINE
  5
60
330
1E
100
AcDbEntity
  8
VOLL
100
AcDbLine
 10
484.0000000000002
 20
110.0
 30
0.0
 11
484.0000000000001
 21
9.999999999999985
 31
0.0
  0
LINE
  5
61
330
1E
100
AcDbEntity
  8
VOLL
100
AcDbLine
 10
524.0000000000001
 20
109.9999999999999
 30
0.0
 11
524.0000000000001
 21
9.999999999999943
 31
0.0
  0
LINE
  5
62
330
1E
100
AcDbEntity
  8
VOLL
100
AcDbLine
 10
544.0000000000002
 20
109.9999999999999
 30
0.0
 11
544.0000000000001
 21
9.999999999999914
 31
0.0
  0
LINE
  5
63
330
1E
100
AcDbEntity
  8
VOLL
100
AcDbLine
 10
584.0000000000002
 20
80.0
 30
0.0
 11
584.0000000000002
 21
40.0
 31
0.0
  0
LINE
  5
64
330
1E
100
AcDbEntity
  8
VOLL
100
AcDbLine
 10
610.0000000000002
 20
109.9999999999998
 30
0.0
 11
610.0000000000001
 21
40.0
 31
0.0
  0
LINE
  5
65
330
1E
100
AcDbEntity
  8
HILF
100
AcDbLine
 10
470.0000000000001
 20
100.0
 30
0.0
 11
566.0000000000002
 21
100.0
 31
0.0
  0
LINE
  5
66
330
1E
100
AcDbEntity
  8
HILF
100
AcDbLine
 10
470.0000000000001
 20
90.0
 30
0.0
 11
566.0000000000002
 21
90.0
 31
0.0
  0
LINE
  5
67
330
1E
100
AcDbEntity
  8
HILF
100
AcDbLine
 10
470.0000000000001
 20
80.0
 30
0.0
 11
566.0000000000002
 21
80.0
 31
0.0
  0
LINE
  5
68
330
1E
100
AcDbEntity
  8
HILF
100
AcDbLine
 10
470.0000000000001
 20
70.0
 30
0.0
 11
566.0000000000002
 21
70.0
 31
0.0
  0
LINE
  5
69
330
1E
100
AcDbEntity
  8
HILF
100
AcDbLine
 10
470.0000000000001
 20
60.0
 30
0.0
 11
566.0000000000002
 21
60.0
 31
0.0
  0
LINE
  5
6A
330
1E
100
AcDbEntity
  8
HILF
100
AcDbLine
 10
470.0000000000001
 20
50.0
 30
0.0
 11
566.0000000000002
 21
50.0
 31
0.0
  0
LINE
  5
6B
330
1E
100
AcDbEntity
  8
HILF
100
AcDbLine
 10
470.0000000000001
 20
40.0
 30
0.0
 11
566.0000000000002
 21
40.0
 31
0.0
  0
LINE
  5
6C
330
1E
100
AcDbEntity
  8
HILF
100
AcDbLine
 10
566.0000000000002
 20
70.0
 30
0.0
 11
650.0
 21
70.0
 31
0.0
  0
LINE
  5
6D
330
1E
100
AcDbEntity
  8
HILF
100
AcDbLine
 10
566.0000000000002
 20
60.0
 30
0.0
 11
650.0
 21
60.0
 31
0.0
  0
LINE
  5
6E
330
1E
100
AcDbEntity
  8
HILF
100
AcDbLine
 10
566.0000000000002
 20
50.0
 30
0.0
 11
650.0
 21
50.0
 31
0.0
  0
LINE
  5
6F
330
1E
100
AcDbEntity
  8
HILF
100
AcDbLine
 10
654.7736801096948
 20
84.03758247564136
 30
0.0
 11
746.6297842514811
 21
84.03758247564136
 31
0.0
  0
LINE
  5
70
330
1E
100
AcDbEntity
  8
HILF
100
AcDbLine
 10
654.7736801096948
 20
70.0
 30
0.0
 11
746.6297842514811
 21
70.0
 31
0.0
  0
LINE
  5
71
330
1E
100
AcDbEntity
  8
HILF
100
AcDbLine
 10
654.7736801096948
 20
60.0
 30
0.0
 11
746.6297842514811
 21
60.0
 31
0.0
  0
LINE
  5
72
330
1E
100
AcDbEntity
  8
HILF
100
AcDbLine
 10
654.7736801096948
 20
50.0
 30
0.0
 11
746.6297842514811
 21
50.0
 31
0.0
  0
LINE
  5
73
330
1E
100
AcDbEntity
  8
VOLL
100
AcDbLine
 10
752.0000000000002
 20
60.0
 30
0.0
 11
830.0000000000002
 21
60.0
 31
0.0
  0
LINE
  5
74
330
1E
100
AcDbEntity
  8
HILF
100
AcDbLine
 10
756.7238616296995
 20
83.77983636955823
 30
0.0
 11
824.858883932673
 21
83.77983636955823
 31
0.0
  0
LINE
  5
75
330
1E
100
AcDbEntity
  8
HILF
100
AcDbLine
 10
654.7736801096948
 20
14.89398258028305
 30
0.0
 11
824.858883932673
 21
14.89398258028305
 31
0.0
  0
TEXT
  5
76
330
1E
100
AcDbEntity
  8
TEXT
100
AcDbText
 10
492.3998239263297
 20
18.67381894984129
 30
0.0
 40
4.0
  1
Änderung
 41
0.8
  7
GREEKS
 72
     1
 11
503.1426810691868
 21
18.67381894984129
 31
0.0
100
AcDbText
  0
TEXT
  5
78
330
1E
100
AcDbEntity
  8
TEXT
100
AcDbText
 10
573.5163572150378
 20
102.4620895087088
 30
0.0
 40
5.0
  1
Maßstab
 41
0.8
  7
GREEKS
100
AcDbText
  0
TEXT
  5
79
330
1E
100
AcDbEntity
  8
TEXT
100
AcDbText
 10
654.8779403809011
 20
102.5489328011779
 30
0.0
 40
5.0
  1
Benennung
 41
0.8
  7
GREEKS
100
AcDbText
  0
TEXT
  5
7A
330
1E
100
AcDbEntity
  8
TEXT
100
AcDbText
 10
756.1787549576343
 20
102.3132034537135
 30
0.0
 40
5.0
  1
Zeichnungs Nr.
 41
0.8
  7
GREEKS
100
AcDbText
  0
TEXT
  5
7B
330
1E
100
AcDbEntity
  8
TEXT
100
AcDbText
 10
654.742238391136
 20
30.84560570193055
 30
0.0
 40
5.0
  1
Bauvorhaben
 41
0.8
  7
GREEKS
100
AcDbText
  0
TEXT
  5
7C
330
1E
100
AcDbEntity
  8
TEXT
100
AcDbText
 10
756.7238616296995
 20
73.18118237099965
 30
0.0
 40
5.0
  1
Ersatz für:
 41
0.8
  7
GREEKS
100
AcDbText
  0
TEXT
  5
7D
330
1E
100
AcDbEntity
  8
TEXT
100
AcDbText
 10
478.2664110704577
 20
13.65465846027187
 30
0.0
 40
4.0
  1
Index
 50
90.0
 41
0.8
  7
GREEKS
100
AcDbText
  0
TEXT
  5
7E
330
1E
100
AcDbEntity
  8
TEXT
100
AcDbText
 10
529.8990113186979
 20
18.67156269339808
 30
0.0
 40
4.0
  1
Tag
 41
0.8
  7
GREEKS
 72
     1
 11
533.6323446520313
 21
18.67156269339808
 31
0.0
100
AcDbText
  0
TEXT
  5
7F
330
1E
100
AcDbEntity
  8
TEXT
100
AcDbText
 10
548.9795678138293
 20
18.59324216966404
 30
0.0
 40
4.0
  1
Name
 41
0.8
  7
GREEKS
 72
     1
 11
555.3033773376388
 21
18.59324216966404
 31
0.0
100
AcDbText
  0
TEXT
  5
80
330
1E
100
AcDbEntity
  8
TEXT
100
AcDbText
 10
592.3311673153651
 20
73.31880501229919
 30
0.0
 40
4.0
  1
Tag
 41
0.8
  7
GREEKS
100
AcDbText
  0
TEXT
  5
81
330
1E
100
AcDbEntity
  8
TEXT
100
AcDbText
 10
622.4626584226296
 20
73.3096109191522
 30
0.0
 40
4.0
  1
Name
 41
0.8
  7
GREEKS
100
AcDbText
  0
TEXT
  5
82
330
1E
100
AcDbEntity
  8
TEXT
100
AcDbText
 10
567.5836127167616
 20
63.62990369617961
 30
0.0
 40
4.0
  1
Gez.
 41
0.8
  7
GREEKS
100
AcDbText
  0
TEXT
  5
83
330
1E
100
AcDbEntity
  8
TEXT
100
AcDbText
 10
567.5515086571673
 20
53.68926291428373
 30
0.0
 40
4.0
  1
Gepr.
 41
0.8
  7
GREEKS
100
AcDbText
  0
TEXT
  5
84
330
1E
100
AcDbEntity
  8
TEXT
100
AcDbText
 10
567.6006777387304
 20
43.52946389649804
 30
0.0
 40
4.0
  1
Norm.
 41
0.8
  7
GREEKS
100
AcDbText
  0
TEXT
  5
85
330
1E
100
AcDbEntity
  8
TEXT
100
AcDbText
 10
757.2400861497007
 20
52.07416177878596
 30
0.0
 40
5.0
  1
ersetzt durch:
 41
0.8
  7
GREEKS
100
AcDbText
  0
TEXT
  5
86
330
1E
100
AcDbEntity
  8
TEXT
100
AcDbText
 10
568.8693027807324
 20
72.96682596523723
 30
0.0
 40
4.0
  1
2011
 41
0.8
  7
GREEKS
100
AcDbText
  0
LINE
  5
87
330
1E
100
AcDbEntity
  8
HILF
100
AcDbLine
 10
0.0
 20
0.0
 30
0.0
 11
840.0
 21
0.0
 31
0.0
  0
LINE
  5
88
330
1E
100
AcDbEntity
  8
HILF
100
AcDbLine
 10
840.0
 20
0.0
 30
0.0
 11
840.0
 21
594.0
 31
0.0
  0
LINE
  5
89
330
1E
100
AcDbEntity
  8
HILF
100
AcDbLine
 10
840.0
 20
594.0
 30
0.0
 11
0.0
 21
594.0
 31
0.0
  0
LINE
  5
8B
330
1E
100
AcDbEntity
  8
STEMPEL
100
AcDbLine
 10
830.0
 20
584.0
 30
0.0
 11
40.0
 21
584.0
 31
0.0
  0
LINE
  5
8D
330
1E
100
AcDbEntity
  8
STEMPEL
100
AcDbLine
 10
40.0
 20
10.0
 30
0.0
 11
830.0
 21
10.0
 31
0.0
  0
LINE
  5
8E
330
1E
100
AcDbEntity
  8
STEMPEL
100
AcDbLine
 10
830.0
 20
10.0
 30
0.0
 11
830.0
 21
584.0
 31
0.0
  0
TEXT
  5
8F
330
1E
100
AcDbEntity
  8
TEXT
 62
     1
100
AcDbText
 10
655.0390572473189
 20
87.37343075652544
 30
0.0
 40
7.0
  1
Verbundrohr 
 41
0.8
  7
GREEKS
100
AcDbText
  0
TEXT
  5
90
330
1E
100
AcDbEntity
  8
TEXT
 62
     1
100
AcDbText
 10
766.6628088850802
 20
87.37343075652544
 30
0.0
 40
7.0
  1
58042CB0X
 41
0.8
  7
GREEKS
 72
     1
 11
790.1294755517469
 21
87.37343075652544
 31
0.0
100
AcDbText
  0
TEXT
  5
91
330
1E
100
AcDbEntity
  8
TEXT
100
AcDbText
 10
618.509022641583
 20
102.83989611379
 30
0.0
 40
5.0
  1
Zul.Abw.
 41
0.8
  7
GREEKS
100
AcDbText
  0
TEXT
  5
93
330
1E
100
AcDbEntity
  8
TEXT
100
AcDbText
 10
590.4612856559488
 20
63.1508587612022
 30
0.0
 40
4.0
  1
24.10.
 41
0.8
  7
GREEKS
 72
     1
 11
597.1660475607107
 21
63.1508587612022
 31
0.0
100
AcDbText
  0
TEXT
  5
94
330
1E
100
AcDbEntity
  8
TEXT
100
AcDbText
 10
624.023175322661
 20
62.94297655165468
 30
0.0
 40
4.0
  1
Koeh
 41
0.8
  7
GREEKS
 72
     1
 11
629.2803181798038
 21
62.94297655165468
 31
0.0
100
AcDbText
  0
TEXT
  5
95
330
1E
100
AcDbEntity
  8
TEXT
100
AcDbText
 10
654.3410940884992
 20
72.10021383107525
 30
0.0
 40
5.0
  1
Anschlußbogen DN70/50
 41
0.8
  7
GREEKS
100
AcDbText
  0
TEXT
  5
97
330
1E
100
AcDbEntity
  8
TEXT
100
AcDbText
 10
654.3410940884992
 20
52.59097337846058
 30
0.0
 40
5.0
  1
EDV-Art.Nr. 58042.CB0X
 41
0.8
  7
GREEKS
100
AcDbText
  0
TEXT
  5
98
330
1E
100
AcDbEntity
  8
TEXT
100
AcDbText
 10
654.1676050109348
 20
43.31127624791508
 30
0.0
 40
4.0
  1
58042.CB0XA.DWG
 41
0.8
  7
GREEKS
100
AcDbText
  0
TEXT
  5
99
330
1E
100
AcDbEntity
  8
TEXT
 62
     1
100
AcDbText
 10
582.7034912034222
 20
87.47077088414977
 30
0.0
 40
7.0
  1
1:2
 41
0.8
  7
GREEKS
100
AcDbText
  0
TEXT
  5
9A
330
1E
100
AcDbEntity
  8
TEXT
100
AcDbText
 10
470.0441139350127
 20
114.1143585051043
 30
0.0
 40
5.0
  1
Erstellt mit AUTOCAD 2004
 41
0.8
  7
GREEKS
100
AcDbText
  0
INSERT
  5
9B
330
1E
100
AcDbEntity
  8
HILF
100
AcDbBlockReference
  2
LORO
 10
573.0624985962354
 20
36.9805930029896
 30
0.0
 41
2.0
 42
2.0
 43
2.0
  0
LINE
  5
9C
330
1E
100
AcDbEntity
  8
BEM
100
AcDbLine
 10
456.0
 20
0.0
 30
0.0
 11
456.0
 21
10.0
 31
0.0
  0
LINE
  5
13E
330
1E
100
AcDbEntity
  8
HILF
100
AcDbLine
 10
0.0
 20
0.0
 30
0.0
 11
0.0
 21
594.0
 31
0.0
  0
LINE
  5
13F
330
1E
100
AcDbEntity
  8
STEMPEL
100
AcDbLine
 10
40.0
 20
10.0
 30
0.0
 11
40.0
 21
584.0
 31
0.0
  0
LINE
  5
14A
330
1E
100
AcDbEntity
  8
HILF
100
AcDbLine
 10
0.0
 20
297.0
 30
0.0
 11
40.0
 21
297.0
 31
0.0
  0
TEXT
  5
15B
330
1E
100
AcDbEntity
  8
BEM
100
AcDbText
 10
837.3022923857165
 20
10.16790107998861
 30
0.0
 40
4.0
  1
Diese Zeichnung ist urheberrechtlich geschützt und bleibt unser Eigentum. Sie darf weder ganz noch teilweise verfielfältigt und nicht an Dritte weitergegeben werden.
 50
90.0
 41
0.8
  7
GREEKS
100
AcDbText
  0
TEXT
  5
32C
330
1E
100
AcDbEntity
  8
TEXT
 62
     1
100
AcDbText
 10
668.7403666994971
 20
131.3559339614753
 30
0.0
 40
7.0
  1
und innenbeschichtet
 41
0.8
  7
GREEKS
100
AcDbText
  0
TEXT
  5
32D
330
1E
100
AcDbEntity
  8
TEXT
 62
     1
100
AcDbText
 10
617.8029302775342
 20
118.7610985760932
 30
0.0
 40
7.0
  1
Dämmung: 2 K-PU-Schaum
 41
0.8
  7
GREEKS
100
AcDbText
  0
TEXT
  5
32E
330
1E
100
AcDbEntity
  8
TEXT
 62
     1
100
AcDbText
 10
621.0858378234834
 20
142.6249878007011
 30
0.0
 40
7.0
  1
Innenrohr: E195 EN10305 feuerverzinkt
 41
0.8
  7
GREEKS
100
AcDbText
  0
TEXT
  5
32F
330
1E
100
AcDbEntity
  8
TEXT
 62
     1
100
AcDbText
 10
617.3136204526193
 20
153.9780558370561
 30
0.0
 40
7.0
  1
Außenrohr: E195 EN10305 feuerverzinkt
 41
0.8
  7
GREEKS
100
AcDbText
  0
TEXT
  5
3F4
330
1E
100
AcDbEntity
  8
TEXT
100
AcDbText
 10
612.2898419893276
 20
88.04076300767105
 30
0.0
 40
4.0
  1
DIN EN1123-2
 41
0.8
  7
GREEKS
 72
     1
 11
629.2803181798038
 21
88.04076300767105
 31
0.0
100
AcDbText
  0
ARC
  5
E3E
102
{ACAD_REACTORS
330
120D
330
1316
102
}
330
1E
100
AcDbEntity
  8
STEMPEL
100
AcDbCircle
 10
290.4653251579878
 20
407.8801921521632
 30
0.0
 40
119.0
100
AcDbArc
 50
180.0
 51
270.0
  0
ARC
  5
E3F
102
{ACAD_REACTORS
330
120D
330
1316
102
}
330
1E
100
AcDbEntity
  8
STEMPEL
100
AcDbCircle
 10
290.4653251579878
 20
407.8801921521632
 30
0.0
 40
21.0
100
AcDbArc
 50
180.0
 51
270.0
  0
ARC
  5
E40
102
{ACAD_REACTORS
330
120D
330
12EB
102
}
330
1E
100
AcDbEntity
  8
STEMPEL
100
AcDbCircle
 10
290.4653251579878
 20
407.8801921521632
 30
0.0
 40
121.0
100
AcDbArc
 50
180.0
 51
270.0
  0
ARC
  5
E41
102
{ACAD_REACTORS
330
120D
330
12EB
102
}
330
1E
100
AcDbEntity
  8
STEMPEL
100
AcDbCircle
 10
290.4653251579878
 20
407.8801921521632
 30
0.0
 40
19.0
100
AcDbArc
 50
180.0
 51
270.0
  0
ARC
  5
E42
330
1E
100
AcDbEntity
  8
MITTEL
100
AcDbCircle
 10
290.4653251579878
 20
407.8801921521632
 30
0.0
 40
70.0
100
AcDbArc
 50
180.0
 51
270.0
  0
LINE
  5
E45
102
{ACAD_REACTORS
330
12BF
102
}
330
1E
100
AcDbEntity
  8
STEMPEL
100
AcDbLine
 10
713.4653251579877
 20
362.8801921521632
 30
0.0
 11
720.4653251579877
 21
362.2677715074817
 31
0.0
  0
LINE
  5
E46
102
{ACAD_REACTORS
330
12BF
102
}
330
1E
100
AcDbEntity
  8
STEMPEL
100
AcDbLine
 10
713.5308165723504
 20
364.3801921521632
 30
0.0
 11
720.4653251579877
 21
363.7735012637967
 31
0.0
  0
LINE
  5
E5D
102
{ACAD_REACTORS
330
1316
330
140A
102
}
330
1E
100
AcDbEntity
  8
STEMPEL
100
AcDbLine
 10
674.4653251579877
 20
364.3801921521632
 30
0.0
 11
674.4653251579877
 21
380.7801921521632
 31
0.0
  0
LINE
  5
E5E
102
{ACAD_REACTORS
330
1226
330
140A
102
}
330
1E
100
AcDbEntity
  8
STEMPEL
100
AcDbLine
 10
690.4653251579875
 20
380.7801921521631
 30
0.0
 11
690.4653251579875
 21
382.3801921521632
 31
0.0
  0
LINE
  5
E5F
102
{ACAD_REACTORS
330
140A
102
}
330
1E
100
AcDbEntity
  8
STEMPEL
100
AcDbLine
 10
684.4653251579877
 20
364.3801921521632
 30
0.0
 11
684.4653251579877
 21
367.9160905370255
 31
0.0
  0
LINE
  5
EC3
102
{ACAD_REACTORS
330
12BF
102
}
330
1E
100
AcDbEntity
  8
STEMPEL
100
AcDbLine
 10
713.4653251579877
 20
312.8801921521632
 30
0.0
 11
720.4653251579877
 21
313.4926127968447
 31
0.0
  0
LINE
  5
EC4
102
{ACAD_REACTORS
330
12BF
102
}
330
1E
100
AcDbEntity
  8
STEMPEL
100
AcDbLine
 10
713.5308165723504
 20
311.3801921521632
 30
0.0
 11
720.4653251579877
 21
311.9868830405297
 31
0.0
  0
LINE
  5
EC6
102
{ACAD_REACTORS
330
140A
102
}
330
1E
100
AcDbEntity
  8
STEMPEL
100
AcDbLine
 10
684.4653251579877
 20
311.3801921521631
 30
0.0
 11
684.4653251579877
 21
306.9160905370256
 31
0.0
  0
LINE
  5
ECD
102
{ACAD_REACTORS
330
1226
330
140A
102
}
330
1E
100
AcDbEntity
  8
STEMPEL
100
AcDbLine
 10
690.4653251579877
 20
293.3801921521632
 30
0.0
 11
690.4653251579879
 21
294.9801921521632
 31
0.0
  0
LINE
  5
ECE
102
{ACAD_REACTORS
330
1316
330
140A
102
}
330
1E
100
AcDbEntity
  8
STEMPEL
100
AcDbLine
 10
674.4653251579877
 20
294.9801921521632
 30
0.0
 11
674.4653251579877
 21
311.3801921521631
 31
0.0
  0
DIMENSION
  5
F42
330
1E
100
AcDbEntity
  8
BEM
100
AcDbDimension
  2
*D2
 10
690.4653251579877
 20
274.313519086602
 30
0.0
 11
707.2925836977542
 21
274.313519086602
 31
0.0
 70
   160
 71
     5
 42
30.0
  3
Standard
100
AcDbAlignedDimension
 13
720.4653251579877
 23
311.9868830405297
 33
0.0
 14
690.4653251579877
 24
293.3801921521632
 34
0.0
100
AcDbRotatedDimension
1001
ACAD
1000
DSTYLE
1002
{
1070
    40
1040
2.0
1070
    41
1040
3.5
1070
    42
1040
1.0
1070
    43
1040
7.0
1070
    44
1040
1.0
1070
    73
1070
     0
1070
    74
1070
     0
1070
    77
1070
     1
1070
    78
1070
     8
1070
    79
1070
     2
1070
   140
1040
3.5
1070
   141
1040
1.5
1070
   146
1040
0.5
1070
   147
1040
1.5
1070
   172
1070
     1
1070
   178
1070
     1
1070
   179
1070
     2
1070
   271
1070
     2
1070
   272
1070
     2
1070
   284
1070
     8
1070
   285
1070
     8
1070
   286
1070
     8
1002
}
  0
LINE
  5
F43
102
{ACAD_REACTORS
330
12BF
102
}
330
1E
100
AcDbEntity
  8
STEMPEL
100
AcDbLine
 10
720.4653251579877
 20
311.9868830405297
 30
0.0
 11
720.4653251579877
 21
363.7735012637967
 31
0.0
  0
LINE
  5
F44
330
1E
100
AcDbEntity
  8
HILF
100
AcDbLine
 10
713.4653251579877
 20
314.3801921521632
 30
0.0
 11
713.4653251579877
 21
361.3801921521632
 31
0.0
  0
DIMENSION
  5
F46
330
1E
100
AcDbEntity
  8
BEM
100
AcDbDimension
  2
*D3
 10
758.0556678984492
 20
293.3801921521632
 30
0.0
 11
751.555667898449
 21
337.8801921521633
 31
0.0
 70
    32
  1
%%c<>
 71
     5
 42
89.0
  3
Standard
100
AcDbAlignedDimension
 13
692.4653251579875
 23
382.3801921521632
 33
0.0
 14
692.4653251579877
 24
293.3801921521632
 34
0.0
 50
90.0
100
AcDbRotatedDimension
1001
ACAD
1000
DSTYLE
1002
{
1070
    40
1040
2.0
1070
    41
1040
3.5
1070
    42
1040
1.0
1070
    43
1040
7.0
1070
    44
1040
1.0
1070
    73
1070
     0
1070
    74
1070
     0
1070
    77
1070
     1
1070
    78
1070
     8
1070
    79
1070
     2
1070
   140
1040
3.5
1070
   141
1040
1.5
1070
   146
1040
0.5
1070
   147
1040
1.5
1070
   172
1070
     1
1070
   178
1070
     1
1070
   179
1070
     2
1070
   271
1070
     2
1070
   272
1070
     2
1070
   284
1070
     8
1070
   285
1070
     8
1070
   286
1070
     8
1002
}
  0
DIMENSION
  5
F47
330
1E
100
AcDbEntity
  8
BEM
100
AcDbDimension
  2
*D4
 10
739.9328381406335
 20
311.3801921521632
 30
0.0
 11
733.4328381406334
 21
337.8801921521633
 31
0.0
 70
    32
  1
%%c<>
 71
     5
 42
53.0
  3
Standard
100
AcDbAlignedDimension
 13
713.5308165723504
 23
364.3801921521632
 33
0.0
 14
713.5308165723504
 24
311.3801921521632
 34
0.0
 50
90.0
100
AcDbRotatedDimension
1001
ACAD
1000
DSTYLE
1002
{
1070
    40
1040
2.0
1070
    41
1040
3.5
1070
    42
1040
1.0
1070
    43
1040
7.0
1070
    44
1040
1.0
1070
    73
1070
     0
1070
    74
1070
     0
1070
    77
1070
     1
1070
    78
1070
     8
1070
    79
1070
     2
1070
   140
1040
3.5
1070
   141
1040
1.5
1070
   146
1040
0.5
1070
   147
1040
1.5
1070
   172
1070
     1
1070
   178
1070
     1
1070
   179
1070
     2
1070
   271
1070
     2
1070
   272
1070
     2
1070
   284
1070
     8
1070
   285
1070
     8
1070
   286
1070
     8
1002
}
  0
ARC
  5
F71
102
{ACAD_REACTORS
330
1226
102
}
330
1E
100
AcDbEntity
  8
STEMPEL
100
AcDbCircle
 10
304.285960296088
 20
394.3801921521632
 30
0.0
 40
12.0
100
AcDbArc
 50
238.6168089436409
 51
270.0
  0
LINE
  5
F76
102
{ACAD_REACTORS
330
120D
330
12EB
102
}
330
1E
100
AcDbEntity
  8
STEMPEL
100
AcDbLine
 10
290.4653251579878
 20
388.8801921521632
 30
0.0
 11
290.4653251579878
 21
386.8801921521633
 31
0.0
  0
LINE
  5
F77
102
{ACAD_REACTORS
330
1226
330
1316
102
}
330
1E
100
AcDbEntity
  8
STEMPEL
100
AcDbLine
 10
297.2036351485863
 20
382.7698230578981
 30
0.0
 11
290.4653251579878
 21
386.8801921521633
 31
0.0
  0
LINE
  5
F78
102
{ACAD_REACTORS
330
1226
330
12EB
102
}
330
1E
100
AcDbEntity
  8
STEMPEL
100
AcDbLine
 10
290.4653251579878
 20
386.8801921521633
 30
0.0
 11
291.2985398812234
 21
388.2461179279592
 31
0.0
  0
ARC
  5
F7A
102
{ACAD_REACTORS
330
1226
330
1316
102
}
330
1E
100
AcDbEntity
  8
STEMPEL
100
AcDbCircle
 10
304.285960296088
 20
394.3801921521632
 30
0.0
 40
13.6
100
AcDbArc
 50
238.6168089436409
 51
270.0
  0
LINE
  5
F7B
102
{ACAD_REACTORS
330
1226
330
12EB
102
}
330
1E
100
AcDbEntity
  8
STEMPEL
100
AcDbLine
 10
298.0368498718217
 20
384.1357488336941
 30
0.0
 11
291.2985398812234
 21
388.2461179279592
 31
0.0
  0
ARC
  5
F87
102
{ACAD_REACTORS
330
12AB
102
}
330
1E
100
AcDbEntity
  8
STEMPEL
100
AcDbCircle
 10
237.5653251579879
 20
467.3312697450445
 30
0.0
 40
23.4
100
AcDbArc
 50
0.0
 51
26.79557793123204
  0
ARC
  5
F88
102
{ACAD_REACTORS
330
12AB
330
132E
102
}
330
1E
100
AcDbEntity
  8
STEMPEL
100
AcDbCircle
 10
237.5653251579879
 20
467.3312697450445
 30
0.0
 40
25.0
100
AcDbArc
 50
0.0
 51
24.95819631231393
  0
LINE
  5
F89
102
{ACAD_REACTORS
330
1316
330
132E
102
}
330
1E
100
AcDbEntity
  8
STEMPEL
100
AcDbLine
 10
262.5653251579879
 20
464.8801921521631
 30
0.0
 11
269.465325157988
 21
464.8801921521631
 31
0.0
  0
ARC
  5
F8A
102
{ACAD_REACTORS
330
12AB
330
1316
102
}
330
1E
100
AcDbEntity
  8
STEMPEL
100
AcDbCircle
 10
237.5653251579879
 20
458.2501921521631
 30
0.0
 40
25.00009324312574
100
AcDbArc
 50
338.8168456069645
 51
0.1564859543701707
  0
ARC
  5
F8B
102
{ACAD_REACTORS
330
12AB
102
}
330
1E
100
AcDbEntity
  8
STEMPEL
100
AcDbCircle
 10
237.5653251579879
 20
458.2501921521631
 30
0.0
 40
23.40009324312573
100
AcDbArc
 50
338.8168456069645
 51
0.1617474313044519
  0
ARC
  5
F8C
102
{ACAD_REACTORS
330
12AB
330
1316
102
}
330
1E
100
AcDbEntity
  8
STEMPEL
100
AcDbCircle
 10
272.0653251579879
 20
444.8801921521631
 30
0.0
 40
12.0
100
AcDbArc
 50
158.8168456069645
 51
180.0
  0
ARC
  5
F8D
102
{ACAD_REACTORS
330
12AB
102
}
330
1E
100
AcDbEntity
  8
STEMPEL
100
AcDbCircle
 10
272.0653251579879
 20
444.8801921521631
 30
0.0
 40
13.6
100
AcDbArc
 50
158.8168456069645
 51
180.0
  0
ARC
  5
F8E
102
{ACAD_REACTORS
330
12AB
330
1316
102
}
330
1E
100
AcDbEntity
  8
STEMPEL
100
AcDbCircle
 10
264.965325157988
 20
417.5735924875945
 30
0.0
 40
8.0
100
AcDbArc
 50
147.6719358778378
 51
180.0
  0
ARC
  5
F8F
102
{ACAD_REACTORS
330
12AB
102
}
330
1E
100
AcDbEntity
  8
STEMPEL
100
AcDbCircle
 10
264.965325157988
 20
417.5735924875945
 30
0.0
 40
9.599999999999999
100
AcDbArc
 50
147.6719358778378
 51
180.0
  0
ARC
  5
F90
102
{ACAD_REACTORS
330
12AB
330
1316
102
}
330
1E
100
AcDbEntity
  8
STEMPEL
100
AcDbCircle
 10
248.0653251579879
 20
428.2689185695802
 30
0.0
 40
12.0
100
AcDbArc
 50
327.6719358778378
 51
0.0
  0
ARC
  5
F91
102
{ACAD_REACTORS
330
12AB
102
}
330
1E
100
AcDbEntity
  8
STEMPEL
100
AcDbCircle
 10
248.0653251579879
 20
428.2689185695802
 30
0.0
 40
10.4
100
AcDbArc
 50
327.6719358778378
 51
0.0
  0
LINE
  5
F92
102
{ACAD_REACTORS
330
12AB
330
1316
102
}
330
1E
100
AcDbEntity
  8
STEMPEL
100
AcDbLine
 10
260.0653251579879
 20
444.8801921521631
 30
0.0
 11
260.0653251579879
 21
428.2689185695802
 31
0.0
  0
LINE
  5
F93
102
{ACAD_REACTORS
330
12AB
102
}
330
1E
100
AcDbEntity
  8
STEMPEL
100
AcDbLine
 10
258.4653251579875
 20
444.8801921521631
 30
0.0
 11
258.4653251579875
 21
428.2689185695802
 31
0.0
  0
LINE
  5
F94
102
{ACAD_REACTORS
330
12AB
102
}
330
1E
100
AcDbEntity
  8
STEMPEL
100
AcDbLine
 10
260.965325157988
 20
467.3312697450445
 30
0.0
 11
260.965325157988
 21
458.316251118098
 31
0.0
  0
LINE
  5
F95
102
{ACAD_REACTORS
330
12AB
330
1316
330
132E
102
}
330
1E
100
AcDbEntity
  8
STEMPEL
100
AcDbLine
 10
262.5653251579879
 20
467.3312697450445
 30
0.0
 11
262.5653251579879
 21
458.3184722003619
 31
0.0
  0
LINE
  5
F96
102
{ACAD_REACTORS
330
1316
330
132E
102
}
330
1E
100
AcDbEntity
  8
STEMPEL
100
AcDbLine
 10
178.3653251579878
 20
464.8801921521632
 30
0.0
 11
171.465325157988
 21
464.8801921521632
 31
0.0
  0
ARC
  5
F97
102
{ACAD_REACTORS
330
12AB
102
}
330
1E
100
AcDbEntity
  8
STEMPEL
100
AcDbCircle
 10
203.3653251579876
 20
467.3312697450445
 30
0.0
 40
23.4
100
AcDbArc
 50
153.2044220687679
 51
180.0
  0
ARC
  5
F98
102
{ACAD_REACTORS
330
12AB
330
132E
102
}
330
1E
100
AcDbEntity
  8
STEMPEL
100
AcDbCircle
 10
203.3653251579876
 20
467.3312697450445
 30
0.0
 40
25.0
100
AcDbArc
 50
155.041803687686
 51
180.0
  0
ARC
  5
F99
102
{ACAD_REACTORS
330
12AB
102
}
330
1E
100
AcDbEntity
  8
STEMPEL
100
AcDbCircle
 10
203.3653251579876
 20
458.2501921521631
 30
0.0
 40
23.40009324312573
100
AcDbArc
 50
179.8382525687313
 51
201.1831543930355
  0
ARC
  5
F9A
102
{ACAD_REACTORS
330
12AB
330
1316
102
}
330
1E
100
AcDbEntity
  8
STEMPEL
100
AcDbCircle
 10
203.3653251579876
 20
458.2501921521631
 30
0.0
 40
25.00009324312574
100
AcDbArc
 50
179.8435140456412
 51
201.1831543930355
  0
ARC
  5
F9B
102
{ACAD_REACTORS
330
12AB
102
}
330
1E
100
AcDbEntity
  8
STEMPEL
100
AcDbCircle
 10
168.8653251579876
 20
444.8801921521631
 30
0.0
 40
13.6
100
AcDbArc
 50
0.0
 51
21.18315439303548
  0
ARC
  5
F9C
102
{ACAD_REACTORS
330
12AB
330
1316
102
}
330
1E
100
AcDbEntity
  8
STEMPEL
100
AcDbCircle
 10
168.8653251579876
 20
444.8801921521631
 30
0.0
 40
12.0
100
AcDbArc
 50
0.0
 51
21.18315439303548
  0
ARC
  5
F9D
102
{ACAD_REACTORS
330
12AB
102
}
330
1E
100
AcDbEntity
  8
STEMPEL
100
AcDbCircle
 10
175.9653251579875
 20
417.5735924875945
 30
0.0
 40
9.599999999999999
100
AcDbArc
 50
0.0
 51
32.32806412216221
  0
ARC
  5
F9E
102
{ACAD_REACTORS
330
12AB
330
1316
102
}
330
1E
100
AcDbEntity
  8
STEMPEL
100
AcDbCircle
 10
175.9653251579875
 20
417.5735924875945
 30
0.0
 40
8.0
100
AcDbArc
 50
0.0
 51
32.32806412216221
  0
ARC
  5
F9F
102
{ACAD_REACTORS
330
12AB
102
}
330
1E
100
AcDbEntity
  8
STEMPEL
100
AcDbCircle
 10
192.8653251579876
 20
428.2689185695802
 30
0.0
 40
10.4
100
AcDbArc
 50
180.0
 51
212.3280641221622
  0
ARC
  5
FA0
102
{ACAD_REACTORS
330
12AB
330
1316
102
}
330
1E
100
AcDbEntity
  8
STEMPEL
100
AcDbCircle
 10
192.8653251579876
 20
428.2689185695802
 30
0.0
 40
12.0
100
AcDbArc
 50
180.0
 51
212.3280641221622
  0
LINE
  5
FA1
102
{ACAD_REACTORS
330
12AB
102
}
330
1E
100
AcDbEntity
  8
STEMPEL
100
AcDbLine
 10
182.4653251579875
 20
444.8801921521631
 30
0.0
 11
182.4653251579875
 21
428.2689185695802
 31
0.0
  0
LINE
  5
FA2
102
{ACAD_REACTORS
330
12AB
330
1316
102
}
330
1E
100
AcDbEntity
  8
STEMPEL
100
AcDbLine
 10
180.8653251579876
 20
444.8801921521631
 30
0.0
 11
180.8653251579876
 21
428.2689185695802
 31
0.0
  0
LINE
  5
FA3
102
{ACAD_REACTORS
330
12AB
102
}
330
1E
100
AcDbEntity
  8
STEMPEL
100
AcDbLine
 10
179.9653251579875
 20
467.3312697450445
 30
0.0
 11
179.9653251579875
 21
458.3162511180836
 31
0.0
  0
LINE
  5
FA4
102
{ACAD_REACTORS
330
12AB
330
1316
330
132E
102
}
330
1E
100
AcDbEntity
  8
STEMPEL
100
AcDbLine
 10
178.3653251579876
 20
467.3312697450445
 30
0.0
 11
178.3653251579876
 21
458.3184722003568
 31
0.0
  0
LINE
  5
FAA
102
{ACAD_REACTORS
330
12AB
330
12D9
330
1316
102
}
330
1E
100
AcDbEntity
  8
STEMPEL
100
AcDbLine
 10
255.353007983631
 20
386.9617163906281
 30
0.0
 11
246.965325157988
 21
374.3801921521632
 31
0.0
  0
LINE
  5
FAB
102
{ACAD_REACTORS
330
12AB
102
}
330
1E
100
AcDbEntity
  8
STEMPEL
100
AcDbLine
 10
254.0217275126906
 20
387.8492367045884
 30
0.0
 11
245.0423644777402
 21
374.3801921521632
 31
0.0
  0
ARC
  5
FAC
102
{ACAD_REACTORS
330
12AB
102
}
330
1E
100
AcDbEntity
  8
STEMPEL
100
AcDbCircle
 10
247.3653251579876
 20
392.2868382743903
 30
0.0
 40
8.0
100
AcDbArc
 50
326.3099324740189
 51
0.0
  0
ARC
  5
FAD
102
{ACAD_REACTORS
330
12AB
330
1316
102
}
330
1E
100
AcDbEntity
  8
STEMPEL
100
AcDbCircle
 10
247.3653251579876
 20
392.2868382743903
 30
0.0
 40
9.599999999999999
100
AcDbArc
 50
326.3099324740189
 51
0.0
  0
ARC
  5
FAE
102
{ACAD_REACTORS
330
1239
330
12D9
330
1316
102
}
330
1E
100
AcDbEntity
  8
STEMPEL
100
AcDbCircle
 10
256.965325157988
 20
374.3801921521632
 30
0.0
 40
10.0
100
AcDbArc
 50
180.0
 51
270.0
  0
ARC
  5
FAF
102
{ACAD_REACTORS
330
1239
102
}
330
1E
100
AcDbEntity
  8
STEMPEL
100
AcDbCircle
 10
256.965325157988
 20
374.3801921521632
 30
0.0
 40
11.5
100
AcDbArc
 50
180.0
 51
270.0
  0
LINE
  5
FB1
102
{ACAD_REACTORS
330
12AB
102
}
330
1E
100
AcDbEntity
  8
STEMPEL
100
AcDbLine
 10
186.9089228032849
 20
387.8492367045884
 30
0.0
 11
195.8882858382353
 21
374.3801921521632
 31
0.0
  0
LINE
  5
FB2
102
{ACAD_REACTORS
330
12AB
330
12D9
330
1316
102
}
330
1E
100
AcDbEntity
  8
STEMPEL
100
AcDbLine
 10
185.5776423323445
 20
386.9617163906281
 30
0.0
 11
193.965325157988
 21
374.3801921521632
 31
0.0
  0
ARC
  5
FB3
102
{ACAD_REACTORS
330
12AB
102
}
330
1E
100
AcDbEntity
  8
STEMPEL
100
AcDbCircle
 10
193.5653251579879
 20
392.2868382743903
 30
0.0
 40
8.0
100
AcDbArc
 50
180.0
 51
213.6900675259811
  0
ARC
  5
FB4
102
{ACAD_REACTORS
330
12AB
330
1316
102
}
330
1E
100
AcDbEntity
  8
STEMPEL
100
AcDbCircle
 10
193.5653251579879
 20
392.2868382743903
 30
0.0
 40
9.599999999999999
100
AcDbArc
 50
180.0
 51
213.6900675259811
  0
ARC
  5
FB5
330
1E
100
AcDbEntity
  8
MITTEL
100
AcDbCircle
 10
256.965325157988
 20
374.3801921521632
 30
0.0
 40
36.5
100
AcDbArc
 50
180.0
 51
270.0
  0
LINE
  5
FB6
102
{ACAD_REACTORS
330
1239
330
12AB
102
}
330
1E
100
AcDbEntity
  8
STEMPEL
100
AcDbLine
 10
193.965325157988
 20
374.3801921521632
 30
0.0
 11
246.965325157988
 21
374.3801921521632
 31
0.0
  0
LINE
  5
FB9
102
{ACAD_REACTORS
330
120D
102
}
330
1E
100
AcDbEntity
  8
STEMPEL
100
AcDbLine
 10
271.4653251579875
 20
407.8801921521633
 30
0.0
 11
271.4653251579878
 21
477.8801921521631
 31
0.0
  0
LINE
  5
FBA
102
{ACAD_REACTORS
330
120D
330
1316
330
132E
102
}
330
1E
100
AcDbEntity
  8
STEMPEL
100
AcDbLine
 10
171.4653251579877
 20
407.8801921521633
 30
0.0
 11
171.465325157988
 21
477.8801921521631
 31
0.0
  0
LINE
  5
FBB
102
{ACAD_REACTORS
330
120D
330
1316
330
132E
102
}
330
1E
100
AcDbEntity
  8
STEMPEL
100
AcDbLine
 10
269.4653251579875
 20
407.8801921521633
 30
0.0
 11
269.4653251579878
 21
477.8801921521631
 31
0.0
  0
LINE
  5
FBC
330
1E
100
AcDbEntity
  8
MITTEL
100
AcDbLine
 10
220.4653251579876
 20
337.8801921521632
 30
0.0
 11
220.465325157988
 21
482.8801921521631
 31
0.0
  0
LINE
  5
FBE
102
{ACAD_REACTORS
330
12AB
330
1316
102
}
330
1E
100
AcDbEntity
  8
STEMPEL
100
AcDbLine
 10
183.9653251579875
 20
392.2868382743903
 30
0.0
 11
183.9653251579875
 21
417.5735924875945
 31
0.0
  0
LINE
  5
FBF
102
{ACAD_REACTORS
330
12AB
102
}
330
1E
100
AcDbEntity
  8
STEMPEL
100
AcDbLine
 10
185.5653251579879
 20
392.2868382743903
 30
0.0
 11
185.5653251579879
 21
417.5735924875945
 31
0.0
  0
LINE
  5
FC0
102
{ACAD_REACTORS
330
12AB
102
}
330
1E
100
AcDbEntity
  8
STEMPEL
100
AcDbLine
 10
255.3653251579876
 20
392.2868382743903
 30
0.0
 11
255.3653251579881
 21
417.5735924875945
 31
0.0
  0
LINE
  5
FC1
102
{ACAD_REACTORS
330
12AB
330
1316
102
}
330
1E
100
AcDbEntity
  8
STEMPEL
100
AcDbLine
 10
256.965325157988
 20
392.2868382743903
 30
0.0
 11
256.965325157988
 21
417.5735924875945
 31
0.0
  0
LINE
  5
FC2
102
{ACAD_REACTORS
330
120D
102
}
330
1E
100
AcDbEntity
  8
STEMPEL
100
AcDbLine
 10
169.4653251579877
 20
407.8801921521633
 30
0.0
 11
169.465325157988
 21
477.8801921521631
 31
0.0
  0
DIMENSION
  5
FC3
330
1E
100
AcDbEntity
  8
BEM
100
AcDbDimension
  2
*D5
 10
138.4944642659323
 20
477.8801921521631
 30
0.0
 11
131.9944642659323
 21
407.8801921521632
 31
0.0
 70
    32
 71
     5
 42
140.0
  3
Standard
100
AcDbAlignedDimension
 13
220.4653251579876
 23
337.8801921521632
 33
0.0
 14
169.465325157988
 24
477.8801921521631
 34
0.0
 50
90.0
100
AcDbRotatedDimension
1001
ACAD
1000
DSTYLE
1002
{
1070
    40
1040
2.0
1070
    41
1040
3.5
1070
    42
1040
1.0
1070
    43
1040
7.0
1070
    44
1040
1.0
1070
    73
1070
     0
1070
    74
1070
     0
1070
    77
1070
     1
1070
    78
1070
     8
1070
    79
1070
     2
1070
   140
1040
3.5
1070
   141
1040
1.5
1070
   146
1040
0.5
1070
   147
1040
1.5
1070
   172
1070
     1
1070
   178
1070
     1
1070
   179
1070
     2
1070
   271
1070
     2
1070
   272
1070
     2
1070
   284
1070
     8
1070
   285
1070
     8
1070
   286
1070
     8
1002
}
  0
LINE
  5
FC4
102
{ACAD_REACTORS
330
120D
330
12AB
330
132E
102
}
330
1E
100
AcDbEntity
  8
STEMPEL
100
AcDbLine
 10
271.4653251579878
 20
477.8801921521631
 30
0.0
 11
169.465325157988
 21
477.8801921521631
 31
0.0
  0
DIMENSION
  5
FC5
330
1E
100
AcDbEntity
  8
BEM
100
AcDbDimension
  2
*D6
 10
271.4653251579878
 20
492.7839349499899
 30
0.0
 11
220.4653251579879
 21
499.2839349499899
 31
0.0
 70
    32
  1
%%c<>
 71
     5
 42
101.9999999999998
  3
Standard
100
AcDbAlignedDimension
 13
169.465325157988
 23
477.8801921521631
 33
0.0
 14
271.4653251579878
 24
477.8801921521631
 34
0.0
100
AcDbRotatedDimension
1001
ACAD
1000
DSTYLE
1002
{
1070
    40
1040
2.0
1070
    41
1040
3.5
1070
    42
1040
1.0
1070
    43
1040
7.0
1070
    44
1040
1.0
1070
    73
1070
     0
1070
    74
1070
     0
1070
    77
1070
     1
1070
    78
1070
     8
1070
    79
1070
     2
1070
   140
1040
3.5
1070
   141
1040
1.5
1070
   146
1040
0.5
1070
   147
1040
1.5
1070
   172
1070
     1
1070
   178
1070
     1
1070
   179
1070
     2
1070
   271
1070
     2
1070
   272
1070
     2
1070
   284
1070
     8
1070
   285
1070
     8
1070
   286
1070
     8
1002
}
  0
ARC
  5
FF5
102
{ACAD_REACTORS
330
1226
102
}
330
1E
100
AcDbEntity
  8
STEMPEL
100
AcDbCircle
 10
304.285960296088
 20
281.3801921521633
 30
0.0
 40
12.0
100
AcDbArc
 50
90.0
 51
121.3831910563591
  0
LINE
  5
FF6
102
{ACAD_REACTORS
330
120D
330
12EB
102
}
330
1E
100
AcDbEntity
  8
STEMPEL
100
AcDbLine
 10
290.4653251579878
 20
288.8801921521632
 30
0.0
 11
290.4653251579878
 21
286.8801921521632
 31
0.0
  0
LINE
  5
FF7
102
{ACAD_REACTORS
330
1226
330
12EB
102
}
330
1E
100
AcDbEntity
  8
STEMPEL
100
AcDbLine
 10
290.4653251579878
 20
288.8801921521633
 30
0.0
 11
291.2985398812234
 21
287.5142663763674
 31
0.0
  0
LINE
  5
FF8
102
{ACAD_REACTORS
330
1226
330
1316
102
}
330
1E
100
AcDbEntity
  8
STEMPEL
100
AcDbLine
 10
297.2036351485863
 20
292.9905612464284
 30
0.0
 11
290.4653251579878
 21
288.8801921521633
 31
0.0
  0
LINE
  5
FFA
102
{ACAD_REACTORS
330
1226
330
12EB
102
}
330
1E
100
AcDbEntity
  8
STEMPEL
100
AcDbLine
 10
298.0368498718217
 20
291.6246354706325
 30
0.0
 11
291.2985398812234
 21
287.5142663763674
 31
0.0
  0
ARC
  5
FFB
102
{ACAD_REACTORS
330
1226
330
1316
102
}
330
1E
100
AcDbEntity
  8
STEMPEL
100
AcDbCircle
 10
304.285960296088
 20
281.3801921521633
 30
0.0
 40
13.6
100
AcDbArc
 50
90.0
 51
121.3831910563591
  0
LINE
  5
1002
102
{ACAD_REACTORS
330
1239
330
12BF
102
}
330
1E
100
AcDbEntity
  8
STEMPEL
100
AcDbLine
 10
320.465325157988
 20
311.3801921521632
 30
0.0
 11
320.465325157988
 21
364.3801921521632
 31
0.0
  0
ARC
  5
1004
102
{ACAD_REACTORS
330
1239
330
12D9
330
1316
102
}
330
1E
100
AcDbEntity
  8
STEMPEL
100
AcDbCircle
 10
256.965325157988
 20
374.3801921521632
 30
0.0
 40
63.0
100
AcDbArc
 50
180.0
 51
270.0
  0
ARC
  5
1005
102
{ACAD_REACTORS
330
1239
102
}
330
1E
100
AcDbEntity
  8
STEMPEL
100
AcDbCircle
 10
256.965325157988
 20
374.3801921521632
 30
0.0
 40
61.5
100
AcDbArc
 50
180.0
 51
270.0
  0
DIMENSION
  5
1008
330
1E
100
AcDbEntity
  8
BEM
100
AcDbDimension
  2
*D7
 10
720.4653251579877
 20
255.7527154751941
 30
0.0
 11
470.4653251579876
 21
262.2527154751941
 31
0.0
 70
    32
 71
     5
 42
500.0000000000002
  3
Standard
100
AcDbAlignedDimension
 13
220.4653251579876
 23
337.8801921521632
 33
0.0
 14
720.4653251579877
 24
311.9868830405297
 34
0.0
100
AcDbRotatedDimension
1001
ACAD
1000
DSTYLE
1002
{
1070
    40
1040
2.0
1070
    41
1040
3.5
1070
    42
1040
1.0
1070
    43
1040
7.0
1070
    44
1040
1.0
1070
    73
1070
     0
1070
    74
1070
     0
1070
    77
1070
     1
1070
    78
1070
     8
1070
    79
1070
     2
1070
   140
1040
3.5
1070
   141
1040
1.5
1070
   146
1040
0.5
1070
   147
1040
1.5
1070
   172
1070
     1
1070
   178
1070
     1
1070
   179
1070
     2
1070
   271
1070
     2
1070
   272
1070
     2
1070
   284
1070
     8
1070
   285
1070
     8
1070
   286
1070
     8
1002
}
  0
LINE
  5
100A
102
{ACAD_REACTORS
330
1239
330
12BF
102
}
330
1E
100
AcDbEntity
  8
STEMPEL
100
AcDbLine
 10
713.4653251579877
 20
312.8801921521632
 30
0.0
 11
256.965325157988
 21
312.8801921521632
 31
0.0
  0
LINE
  5
100B
330
1E
100
AcDbEntity
  8
MITTEL
100
AcDbLine
 10
725.4653251579878
 20
337.8801921521632
 30
0.0
 11
220.4653251579876
 21
337.8801921521632
 31
0.0
  0
LINE
  5
100C
102
{ACAD_REACTORS
330
1239
330
12BF
102
}
330
1E
100
AcDbEntity
  8
STEMPEL
100
AcDbLine
 10
713.4653251579877
 20
362.8801921521632
 30
0.0
 11
256.965325157988
 21
362.8801921521632
 31
0.0
  0
LINE
  5
100D
102
{ACAD_REACTORS
330
1226
330
140A
102
}
330
1E
100
AcDbEntity
  8
STEMPEL
100
AcDbLine
 10
692.4653251579877
 20
293.3801921521632
 30
0.0
 11
304.285960296088
 21
293.3801921521632
 31
0.0
  0
LINE
  5
100E
102
{ACAD_REACTORS
330
1226
330
140A
102
}
330
1E
100
AcDbEntity
  8
STEMPEL
100
AcDbLine
 10
692.4653251579877
 20
382.3801921521632
 30
0.0
 11
304.285960296088
 21
382.3801921521632
 31
0.0
  0
LINE
  5
100F
102
{ACAD_REACTORS
330
1226
330
1316
330
140A
102
}
330
1E
100
AcDbEntity
  8
STEMPEL
100
AcDbLine
 10
690.4653251579877
 20
294.9801921521632
 30
0.0
 11
304.285960296088
 21
294.9801921521632
 31
0.0
  0
LINE
  5
1010
102
{ACAD_REACTORS
330
1239
330
12BF
330
12C9
330
1316
330
140A
102
}
330
1E
100
AcDbEntity
  8
STEMPEL
100
AcDbLine
 10
713.5308165723504
 20
311.3801921521632
 30
0.0
 11
256.965325157988
 21
311.3801921521632
 31
0.0
  0
LINE
  5
1011
102
{ACAD_REACTORS
330
1239
330
12BF
330
12C9
330
1316
330
140A
102
}
330
1E
100
AcDbEntity
  8
STEMPEL
100
AcDbLine
 10
713.5308165723504
 20
364.3801921521632
 30
0.0
 11
256.965325157988
 21
364.3801921521632
 31
0.0
  0
LINE
  5
1012
102
{ACAD_REACTORS
330
1226
330
1316
330
140A
102
}
330
1E
100
AcDbEntity
  8
STEMPEL
100
AcDbLine
 10
690.4653251579875
 20
380.7801921521631
 30
0.0
 11
304.285960296088
 21
380.7801921521632
 31
0.0
  0
DIMENSION
  5
118A
330
1E
100
AcDbEntity
  8
BEM
100
AcDbDimension
  2
*D8
 10
220.4653251579876
 20
337.8801921521632
 30
0.0
 11
159.2174484249695
 21
283.4015758786043
 31
0.0
 70
   162
 71
     5
 42
1.570796326794893
  3
Standard
100
AcDb2LineAngularDimension
 13
220.4653251579876
 23
337.8801921521632
 33
0.0
 14
220.465325157988
 24
482.8801921521631
 34
0.0
 15
725.4653251579878
 25
337.8801921521632
 35
0.0
 16
179.4798947119597
 26
266.8913442495632
 36
0.0
1001
ACAD
1000
DSTYLE
1002
{
1070
    40
1040
2.0
1070
    41
1040
3.5
1070
    42
1040
1.0
1070
    43
1040
7.0
1070
    44
1040
1.0
1070
    73
1070
     0
1070
    74
1070
     0
1070
    77
1070
     1
1070
    78
1070
     8
1070
    79
1070
     2
1070
   140
1040
3.5
1070
   141
1040
1.5
1070
   146
1040
0.5
1070
   147
1040
1.5
1070
   172
1070
     1
1070
   178
1070
     1
1070
   179
1070
     2
1070
   271
1070
     2
1070
   272
1070
     2
1070
   284
1070
     8
1070
   285
1070
     8
1070
   286
1070
     8
1002
}
  0
TEXT
  5
1199
330
1E
100
AcDbEntity
  8
TEXT
 62
     1
100
AcDbText
 10
210.307121976175
 20
394.6374787644177
 30
0.0
 40
7.0
  1
DN70
 50
90.0
 41
0.8
  7
GREEKS
100
AcDbText
  0
TEXT
  5
119A
330
1E
100
AcDbEntity
  8
TEXT
 62
     1
100
AcDbText
 10
480.7583122083663
 20
347.6729073325317
 30
0.0
 40
7.0
  1
DN50
 41
0.8
  7
GREEKS
100
AcDbText
  0
HATCH
  5
120D
330
1E
100
AcDbEntity
  8
SCHRAFF
100
AcDbHatch
 10
0.0
 20
0.0
 30
0.0
210
0.0
220
0.0
230
1.0
  2
_USER
 70
     0
 71
     1
 91
        2
 92
       23
 72
     1
 73
     1
 93
        6
 10
290.4653251579878
 20
386.8801921521633
 42
0.0
 10
290.4653251579878
 20
388.8801921521632
 42
-0.4142135623730995
 10
271.4653251579875
 20
407.8801921521632
 42
0.0
 10
271.4653251579878
 20
477.8801921521631
 42
0.0
 10
269.4653251579878
 20
477.880192152163
 42
0.0
 10
269.4653251579875
 20
407.8801921521633
 42
0.4142135623730984
 97
        6
330
FB9
330
FC4
330
FBB
330
E3F
330
F76
330
E41
 92
        7
 72
     1
 73
     1
 93
        6
 10
171.4653251579877
 20
407.8801921521637
 42
0.0
 10
171.465325157988
 20
477.8801921521632
 42
0.0
 10
169.465325157988
 20
477.8801921521631
 42
0.0
 10
169.4653251579877
 20
407.8801921521633
 42
0.4142135623730957
 10
290.4653251579878
 20
286.8801921521632
 42
0.0
 10
290.4653251579878
 20
288.8801921521632
 42
-0.4142135623730965
 97
        6
330
FBA
330
FC4
330
FC2
330
E40
330
FF6
330
E3E
 75
     0
 76
     0
 52
135.0
 41
2.0
 77
     0
 78
     1
 53
135.0
 43
0.0
 44
0.0
 45
-1.414213562373095
 46
-1.414213562373094
 79
     0
 47
0.4588328276167089
 98
        2
 10
281.6714280299306
 20
389.5185252161093
 10
215.0936130395294
 20
315.1876066243292
  0
HATCH
  5
1226
330
1E
100
AcDbEntity
  8
SCHRAFF
100
AcDbHatch
 10
0.0
 20
0.0
 30
0.0
210
0.0
220
0.0
230
1.0
  2
_USER
 70
     0
 71
     1
 91
        2
 92
        7
 72
     1
 73
     1
 93
        8
 10
690.4653251579873
 20
380.7801921521631
 42
0.0
 10
690.4653251579873
 20
382.3801921521631
 42
0.0
 10
304.285960296088
 20
382.3801921521632
 42
-0.1377973704969905
 10
298.0368498718215
 20
384.1357488336941
 42
0.0
 10
291.2985398812235
 20
388.2461179279593
 42
0.0
 10
290.4653251579878
 20
386.8801921521632
 42
0.0
 10
297.2036351485863
 20
382.7698230578981
 42
0.1377973704969847
 10
304.285960296088
 20
380.7801921521632
 42
0.0
 97
        8
330
100E
330
F71
330
F7B
330
F78
330
F77
330
F7A
330
1012
330
E5E
 92
        7
 72
     1
 73
     1
 93
        8
 10
690.4653251579877
 20
293.3801921521632
 42
0.0
 10
690.4653251579877
 20
294.9801921521632
 42
0.0
 10
304.285960296088
 20
294.9801921521632
 42
0.1377973704969881
 10
297.2036351485861
 20
292.9905612464283
 42
0.0
 10
290.4653251579877
 20
288.8801921521633
 42
0.0
 10
291.2985398812235
 20
287.5142663763674
 42
0.0
 10
298.0368498718217
 20
291.6246354706325
 42
-0.1377973704969857
 10
304.285960296088
 20
293.3801921521632
 42
0.0
 97
        8
330
100F
330
FFB
330
FF8
330
FF7
330
FFA
330
FF5
330
100D
330
ECD
 75
     0
 76
     0
 52
45.0
 41
2.0
 77
     0
 78
     1
 53
45.0
 43
0.0
 44
0.0
 45
-1.414213562373094
 46
1.414213562373095
 79
     0
 47
0.6154942551184578
 98
        2
 10
377.1438896057307
 20
381.4496865441076
 10
362.9775098304458
 20
294.0495012650124
  0
HATCH
  5
1239
330
1E
100
AcDbEntity
  8
SCHRAFF
100
AcDbHatch
 10
0.0
 20
0.0
 30
0.0
210
0.0
220
0.0
230
1.0
  2
_USER
 70
     0
 71
     1
 91
        2
 92
       23
 72
     1
 73
     1
 93
        6
 10
320.465325157988
 20
362.8801921521632
 42
0.0
 10
320.465325157988
 20
364.3801921521632
 42
0.0
 10
256.965325157988
 20
364.3801921521632
 42
-0.4142135623730951
 10
246.965325157988
 20
374.3801921521632
 42
0.0
 10
245.465325157988
 20
374.3801921521632
 42
0.4142135623730951
 10
256.965325157988
 20
362.8801921521632
 42
0.0
 97
        6
330
1011
330
FAE
330
FB6
330
FAF
330
100C
330
1002
 92
        7
 72
     1
 73
     1
 93
        6
 10
256.965325157988
 20
312.8801921521632
 42
-0.4142135623730951
 10
195.465325157988
 20
374.3801921521632
 42
0.0
 10
193.965325157988
 20
374.3801921521632
 42
0.4142135623730951
 10
256.965325157988
 20
311.3801921521632
 42
0.0
 10
320.465325157988
 20
311.3801921521632
 42
0.0
 10
320.465325157988
 20
312.8801921521632
 42
0.0
 97
        6
330
100A
330
1005
330
FB6
330
1004
330
1010
330
1002
 75
     0
 76
     0
 52
45.0
 41
2.0
 77
     0
 78
     1
 53
45.0
 43
0.0
 44
0.0
 45
-1.414213562373094
 46
1.414213562373095
 79
     0
 47
0.4821238339828512
 98
        2
 10
296.1733449643425
 20
363.4093070245715
 10
282.6643288750647
 20
312.3041801045161
  0
HATCH
  5
12AB
330
1E
100
AcDbEntity
  8
SCHRAFF
100
AcDbHatch
 10
0.0
 20
0.0
 30
0.0
210
0.0
220
0.0
230
1.0
  2
_USER
 70
     0
 71
     1
 91
        2
 92
        7
 72
     1
 73
     1
 93
       22
 10
255.3653251579876
 20
392.2868382743903
 42
-0.1480687391120309
 10
254.0217275126905
 20
387.8492367045883
 42
0.0
 10
245.0423644777402
 20
374.3801921521632
 42
0.0
 10
246.965325157988
 20
374.3801921521633
 42
0.0
 10
255.353007983631
 20
386.9617163906281
 42
0.1480687391120269
 10
256.965325157988
 20
392.2868382743903
 42
0.0
 10
256.965325157988
 20
417.5735924875945
 42
-0.1420008527982293
 10
258.205325157988
 20
421.8517229203887
 42
0.1420008527982334
 10
260.0653251579879
 20
428.2689185695802
 42
0.0
 10
260.0653251579879
 20
444.8801921521631
 42
-0.0926930603363571
 10
260.8761641664297
 20
449.2163974407757
 42
0.0933817694259911
 10
262.5653251579879
 20
458.3184722003619
 42
0.0
 10
262.5653251579879
 20
467.3312697450445
 42
0.1093332246020744
 10
260.2307224862633
 20
477.8801921521631
 42
0.0
 10
258.4526475342187
 20
477.8801921521631
 42
-0.1174534402570138
 10
260.965325157988
 20
467.3312697450446
 42
0.0
 10
260.965325157988
 20
458.316251118098
 42
-0.0934049271928115
 10
259.3842760342219
 20
449.794558145924
 42
0.0926930603363593
 10
258.4653251579875
 20
444.8801921521631
 42
0.0
 10
258.4653251579875
 20
428.2689185695802
 42
-0.1420008527982268
 10
256.8533251579879
 20
422.7073490069477
 42
0.1420008527982342
 10
255.3653251579881
 20
417.5735924875945
 42
0.0
 97
       22
330
F8E
330
F90
330
F92
330
F8C
330
F8A
330
F95
330
F88
330
FC4
330
F87
330
F94
330
F8B
330
F8D
330
F93
330
F91
330
F8F
330
FC0
330
FAC
330
FAB
330
FB6
330
FAA
330
FAD
330
FC1
 92
        7
 72
     1
 73
     1
 93
       22
 10
185.5653251579879
 20
417.5735924875945
 42
0.1420008527982258
 10
184.0773251579877
 20
422.7073490069473
 42
-0.1420008527982406
 10
182.4653251579875
 20
428.2689185695802
 42
0.0
 10
182.4653251579875
 20
444.8801921521631
 42
0.0926930603363591
 10
181.5463742817535
 20
449.7945581459242
 42
-0.0934049271926537
 10
179.9653251579875
 20
458.3162511180836
 42
0.0
 10
179.9653251579875
 20
467.3312697450445
 42
-0.1174534402570157
 10
182.4780027817569
 20
477.8801921521631
 42
0.0
 10
180.6999278297123
 20
477.8801921521631
 42
0.109333224602075
 10
178.3653251579876
 20
467.3312697450445
 42
0.0
 10
178.3653251579876
 20
458.3184722003568
 42
0.0933817694259402
 10
180.0544861495458
 20
449.2163974407757
 42
-0.0926930603363571
 10
180.8653251579876
 20
444.8801921521631
 42
0.0
 10
180.8653251579876
 20
428.2689185695802
 42
0.1420008527982317
 10
182.7253251579876
 20
421.8517229203888
 42
-0.1420008527982321
 10
183.9653251579875
 20
417.5735924875945
 42
0.0
 10
183.9653251579875
 20
392.2868382743903
 42
0.148068739112011
 10
185.5776423323442
 20
386.9617163906286
 42
0.0
 10
193.965325157988
 20
374.3801921521632
 42
0.0
 10
195.8882858382353
 20
374.3801921521631
 42
0.0
 10
186.9089228032849
 20
387.8492367045884
 42
-0.1480687391120101
 10
185.5653251579879
 20
392.2868382743899
 42
0.0
 97
       22
330
F9D
330
F9F
330
FA1
330
F9B
330
F99
330
FA3
330
F97
330
FC4
330
F98
330
FA4
330
F9A
330
F9C
330
FA2
330
FA0
330
F9E
330
FBE
330
FB4
330
FB2
330
FB6
330
FB1
330
FB3
330
FBF
 75
     0
 76
     0
 52
135.0
 41
2.0
 77
     0
 78
     1
 53
135.0
 43
0.0
 44
0.0
 45
-1.414213562373095
 46
-1.414213562373094
 79
     0
 47
0.4821238339828512
 98
        2
 10
256.1287624925067
 20
406.3183291195129
 10
185.2064345734629
 20
399.0864711800457
  0
HATCH
  5
12BF
330
1E
100
AcDbEntity
  8
SCHRAFF
100
AcDbHatch
 10
0.0
 20
0.0
 30
0.0
210
0.0
220
0.0
230
1.0
  2
_USER
 70
     0
 71
     1
 91
        2
 92
        7
 72
     0
 73
     1
 93
        6
 10
720.4653251579877
 20
363.7735012637967
 10
713.5308165723499
 20
364.3801921521632
 10
320.465325157988
 20
364.3801921521632
 10
320.465325157988
 20
362.8801921521632
 10
713.4653251579878
 20
362.8801921521632
 10
720.4653251579879
 20
362.2677715074817
 97
        6
330
E46
330
1011
330
1002
330
100C
330
E45
330
F43
 92
        7
 72
     0
 73
     1
 93
        6
 10
720.4653251579877
 20
313.4926127968447
 10
713.4653251579873
 20
312.8801921521632
 10
320.465325157988
 20
312.8801921521632
 10
320.465325157988
 20
311.3801921521632
 10
713.53081657235
 20
311.3801921521632
 10
720.4653251579879
 20
311.9868830405297
 97
        6
330
EC3
330
100A
330
1002
330
1010
330
EC4
330
F43
 75
     0
 76
     0
 52
135.0
 41
2.0
 77
     0
 78
     1
 53
135.0
 43
0.0
 44
0.0
 45
-1.414213562373095
 46
-1.414213562373094
 79
     0
 47
0.6229638462952299
 98
        2
 10
604.5527151589458
 20
363.4875620090056
 10
599.5654814122067
 20
312.4045267780755
  0
ARC
  5
12C1
102
{ACAD_REACTORS
330
12C9
330
1316
102
}
330
1E
100
AcDbEntity
  8
SCHRAFF
100
AcDbCircle
 10
320.465325157988
 20
361.7825291763035
 30
0.0
 40
3.968356452758777
100
AcDbArc
 50
40.88888450365708
 51
139.1111154963429
  0
ARC
  5
12C2
102
{ACAD_REACTORS
330
12C9
330
1316
102
}
330
1E
100
AcDbEntity
  8
SCHRAFF
100
AcDbCircle
 10
320.465325157988
 20
313.977855128023
 30
0.0
 40
3.968356452758777
100
AcDbArc
 50
220.8888845036571
 51
319.1111154963429
  0
HATCH
  5
12C9
330
1E
100
AcDbEntity
  8
SCHRAFF
100
AcDbHatch
 10
0.0
 20
0.0
 30
0.0
210
0.0
220
0.0
230
1.0
  2
_USER
 70
     0
 71
     1
 91
        2
 92
        7
 72
     1
 73
     1
 93
        2
 10
317.465325157988
 20
364.3801921521632
 42
0.0
 10
323.465325157988
 20
364.3801921521632
 42
0.4568978256330288
 97
        2
330
1011
330
12C1
 92
        7
 72
     1
 73
     1
 93
        2
 10
323.4653251579878
 20
311.3801921521632
 42
0.0
 10
317.4653251579881
 20
311.3801921521632
 42
0.4568978256330022
 97
        2
330
1010
330
12C2
 75
     0
 76
     0
 52
0.0
 41
0.1
 77
     0
 78
     1
 53
0.0
 43
0.0
 44
0.0
 45
0.0
 46
0.1
 79
     0
 47
0.1912215175974904
 98
        2
 10
320.6846762219088
 20
365.0434777009991
 10
319.5365373981313
 20
311.1190079314599
  0
ARC
  5
12CC
102
{ACAD_REACTORS
330
12D9
330
1316
102
}
330
1E
100
AcDbEntity
  8
SCHRAFF
100
AcDbCircle
 10
244.8558994566732
 20
375.2370510222937
 30
0.0
 40
4.634698857225229
100
AcDbArc
 50
303.6776670206812
 51
27.54286992719486
  0
ARC
  5
12CE
102
{ACAD_REACTORS
330
12D9
330
1316
102
}
330
1E
100
AcDbEntity
  8
SCHRAFF
100
AcDbCircle
 10
196.3717444113569
 20
375.5439036907854
 30
0.0
 40
4.773728726043204
100
AcDbArc
 50
157.3770280507804
 51
240.7169123166951
  0
HATCH
  5
12D9
330
1E
100
AcDbEntity
  8
SCHRAFF
100
AcDbHatch
 10
0.0
 20
0.0
 30
0.0
210
0.0
220
0.0
230
1.0
  2
_USER
 70
     0
 71
     1
 91
        2
 92
        7
 72
     1
 73
     1
 93
        3
 10
248.9653251579879
 20
377.3801921521632
 42
0.0
 10
246.965325157988
 20
374.3801921521632
 42
0.0763208340542233
 10
247.4259331438185
 20
371.3801921521633
 42
0.3831893572087294
 97
        3
330
FAA
330
FAE
330
12CC
 92
        7
 72
     1
 73
     1
 93
        3
 10
193.965325157988
 20
374.3801921521632
 42
0.0
 10
191.9653251579879
 20
377.3801921521632
 42
0.3805629609166436
 10
194.0367942677789
 20
371.3801921521633
 42
-0.0119098287208424
 97
        3
330
FB2
330
12CE
330
1004
 75
     0
 76
     0
 52
0.0
 41
0.1
 77
     0
 78
     1
 53
0.0
 43
0.0
 44
0.0
 45
0.0
 46
0.1
 79
     0
 47
0.1508857279975671
 98
        2
 10
248.4781467365942
 20
374.8308824235426
 10
192.7619339097768
 20
374.3782245949631
  0
ARC
  5
12DA
102
{ACAD_REACTORS
330
12EB
102
}
330
1E
100
AcDbEntity
  8
SCHRAFF
100
AcDbCircle
 10
290.4653251579878
 20
386.8801921521633
 30
0.0
 40
4.0
100
AcDbArc
 50
352.194987421844
 51
145.1500954209534
  0
ARC
  5
12DB
102
{ACAD_REACTORS
330
12EB
102
}
330
1E
100
AcDbEntity
  8
SCHRAFF
100
AcDbCircle
 10
290.4653251579878
 20
288.8801921521633
 30
0.0
 40
4.0
100
AcDbArc
 50
209.1695030550101
 51
7.80501257815679
  0
HATCH
  5
12EB
330
1E
100
AcDbEntity
  8
SCHRAFF
100
AcDbHatch
 10
0.0
 20
0.0
 30
0.0
210
0.0
220
0.0
230
1.0
  2
_USER
 70
     0
 71
     1
 91
        2
 92
        7
 72
     1
 73
     1
 93
        5
 10
287.1827179313946
 20
389.1659064378775
 42
0.0434373015947384
 10
290.4653251579878
 20
388.8801921521633
 42
0.0
 10
290.4653251579878
 20
386.8801921521633
 42
0.0
 10
291.2985398812234
 20
388.2461179279591
 42
0.0
 10
294.4282690118612
 20
386.33698315827
 42
0.7880188719729039
 97
        5
330
E41
330
F76
330
F78
330
F7B
330
12DA
 92
        7
 72
     1
 73
     1
 93
        5
 10
294.4282690118612
 20
289.4234011460565
 42
0.0
 10
291.2985398812235
 20
287.5142663763674
 42
0.0
 10
290.4653251579878
 20
288.8801921521633
 42
0.0
 10
290.4653251579878
 20
286.8801921521632
 42
-0.0072175049213817
 10
286.9725986472342
 20
286.9306123202304
 42
0.82900429398438
 97
        5
330
FFA
330
FF7
330
FF6
330
E40
330
12DB
 75
     0
 76
     0
 52
0.0
 41
0.1
 77
     0
 78
     1
 53
0.0
 43
0.0
 44
0.0
 45
0.0
 46
0.1
 79
     0
 47
0.2678465732106309
 98
        2
 10
292.4324928344467
 20
389.3671341044539
 10
291.8964202129428
 20
285.9783550491222
  0
HATCH
  5
1316
330
1E
100
AcDbEntity
  8
SCHRAFF
100
AcDbHatch
 10
0.0
 20
0.0
 30
0.0
210
0.0
220
0.0
230
1.0
  2
HONEY
 70
     0
 71
     1
 91
        2
 92
       23
 72
     1
 73
     1
 93
       21
 10
674.4653251579877
 20
380.7801921521631
 42
0.0
 10
304.285960296088
 20
380.7801921521632
 42
-0.1377973704969847
 10
297.2036351485863
 20
382.7698230578981
 42
0.0
 10
290.4653251579878
 20
386.8801921521633
 42
-0.4142135623730991
 10
269.4653251579875
 20
407.8801921521633
 42
0.0
 10
269.4653251579878
 20
464.8801921521631
 42
0.0
 10
262.565325157988
 20
464.8801921521631
 42
0.0
 10
262.5653251579879
 20
458.3184722003619
 42
-0.0933817694259922
 10
260.8761641664297
 20
449.2163974407756
 42
0.0926930603363559
 10
260.0653251579879
 20
444.8801921521631
 42
0.0
 10
260.0653251579879
 20
428.2689185695802
 42
-0.1420008527982293
 10
258.2053251579879
 20
421.8517229203889
 42
0.1420008527982354
 10
256.965325157988
 20
417.5735924875945
 42
0.0
 10
256.965325157988
 20
392.2868382743903
 42
-0.1480687391120051
 10
255.3530079836314
 20
386.9617163906288
 42
0.0
 10
248.9653251579879
 20
377.3801921521632
 42
-0.3831893572087294
 10
247.4259331438185
 20
371.3801921521633
 42
0.3275382217185427
 10
256.965325157988
 20
364.3801921521632
 42
0.0
 10
317.465325157988
 20
364.3801921521632
 42
-0.4568978256330288
 10
323.465325157988
 20
364.3801921521632
 42
0.0
 10
674.4653251579877
 20
364.3801921521632
 42
0.0
 97
       20
330
1012
330
F7A
330
F77
330
E3F
330
FBB
330
F89
330
F95
330
F8A
330
F8C
330
F92
330
F90
330
F8E
330
FC1
330
FAD
330
FAA
330
12CC
330
FAE
330
1011
330
12C1
330
E5D
 92
        7
 72
     1
 73
     1
 93
       21
 10
674.4653251579879
 20
311.3801921521632
 42
0.0
 10
323.4653251579878
 20
311.3801921521632
 42
-0.4568978256330022
 10
317.4653251579881
 20
311.3801921521632
 42
0.0
 10
256.965325157988
 20
311.3801921521632
 42
-0.4003288264487928
 10
194.0367942677789
 20
371.3801921521633
 42
-0.3805629609166436
 10
191.9653251579879
 20
377.3801921521632
 42
0.0
 10
185.5776423323445
 20
386.9617163906281
 42
-0.1480687391120241
 10
183.9653251579875
 20
392.2868382743902
 42
0.0
 10
183.9653251579875
 20
417.5735924875945
 42
0.1420008527982321
 10
182.7253251579876
 20
421.8517229203888
 42
-0.1420008527982317
 10
180.8653251579876
 20
428.2689185695802
 42
0.0
 10
180.8653251579876
 20
444.8801921521631
 42
0.0926930603363571
 10
180.0544861495458
 20
449.2163974407757
 42
-0.0933817694259401
 10
178.3653251579876
 20
458.3184722003568
 42
0.0
 10
178.3653251579876
 20
464.8801921521632
 42
0.0
 10
171.4653251579879
 20
464.8801921521631
 42
0.0
 10
171.4653251579877
 20
407.8801921521633
 42
0.4142135623730954
 10
290.4653251579878
 20
288.8801921521633
 42
0.0
 10
297.2036351485863
 20
292.9905612464284
 42
-0.1377973704969843
 10
304.285960296088
 20
294.9801921521632
 42
0.0
 10
674.4653251579877
 20
294.9801921521632
 42
0.0
 97
       20
330
1010
330
12C2
330
1004
330
12CE
330
FB2
330
FB4
330
FBE
330
F9E
330
FA0
330
FA2
330
F9C
330
F9A
330
FA4
330
F96
330
FBA
330
E3E
330
FF8
330
FFB
330
100F
330
ECE
 75
     0
 76
     1
 52
0.0
 41
25.0
 77
     0
 78
     3
 53
0.0
 43
0.0
 44
0.0
 45
4.6875
 46
2.706329374999999
 79
     2
 49
3.125
 49
-6.25
 53
120.0
 43
0.0
 44
0.0
 45
-4.687499989758061
 46
2.706329392739557
 79
     2
 49
3.125
 49
-6.25
 53
60.0
 43
0.0
 44
0.0
 45
0.0000000102419385
 46
5.412658767739556
 79
     2
 49
-6.25
 49
3.125
 47
0.7081171774464944
 98
        2
 10
536.4917481588472
 20
373.0942016637002
 10
431.6162839179751
 20
308.6555376070364
  0
HATCH
  5
132E
330
1E
100
AcDbEntity
  8
SCHRAFF
100
AcDbHatch
 10
0.0
 20
0.0
 30
0.0
210
0.0
220
0.0
230
1.0
  2
NET
 70
     0
 71
     1
 91
        2
 92
        7
 72
     1
 73
     1
 93
        5
 10
269.4653251579878
 20
477.8801921521631
 42
0.0
 10
260.2307224862633
 20
477.8801921521631
 42
-0.1093332246020738
 10
262.5653251579879
 20
467.3312697450445
 42
0.0
 10
262.5653251579879
 20
464.880192152163
 42
0.0
 10
269.4653251579878
 20
464.8801921521631
 42
0.0
 97
        5
330
FC4
330
F88
330
F95
330
F89
330
FBB
 92
        7
 72
     1
 73
     1
 93
        5
 10
180.6999278297123
 20
477.8801921521631
 42
0.0
 10
171.465325157988
 20
477.8801921521632
 42
0.0
 10
171.4653251579879
 20
464.8801921521632
 42
0.0
 10
178.3653251579876
 20
464.8801921521632
 42
0.0
 10
178.3653251579876
 20
467.3312697450445
 42
-0.109333224602075
 97
        5
330
FC4
330
FBA
330
F96
330
FA4
330
F98
 75
     0
 76
     1
 52
45.0
 41
15.0
 77
     0
 78
     2
 53
45.0
 43
0.0
 44
0.0
 45
-1.325825214724776
 46
1.325825214724776
 79
     0
 53
135.0
 43
0.0
 44
0.0
 45
-1.325825214724776
 46
-1.325825214724776
 79
     0
 47
0.7081171774464944
 98
        2
 10
265.7996682918069
 20
472.9387234467565
 10
175.8051828521907
 20
475.7711922887653
  0
LINE
  5
132F
330
1E
100
AcDbEntity
  8
HILF
100
AcDbLine
 10
253.1290806666024
 20
389.5049104469813
 30
0.0
 11
187.8015696493731
 21
389.5049104469814
 31
0.0
  0
LINE
  5
1330
330
1E
100
AcDbEntity
  8
HILF
100
AcDbLine
 10
253.9889869707782
 20
419.8006982327266
 30
0.0
 11
186.9416633451973
 21
419.8006982327266
 31
0.0
  0
LINE
  5
1331
330
1E
100
AcDbEntity
  8
HILF
100
AcDbLine
 10
256.2065781328069
 20
424.9282599518822
 30
0.0
 11
184.7240721831686
 21
424.9282599518822
 31
0.0
  0
LINE
  5
1339
330
1E
100
AcDbEntity
  8
HILF
100
AcDbLine
 10
257.026210624567
 20
447.0858743710357
 30
0.0
 11
183.9044396914085
 21
447.0858743710357
 31
0.0
  0
POINT
  5
13CD
330
1E
100
AcDbEntity
  8
STEMPEL
100
AcDbPoint
 10
692.4653251579877
 20
298.9160905370255
 30
0.0
  0
POINT
  5
13CE
330
1E
100
AcDbEntity
  8
STEMPEL
100
AcDbPoint
 10
692.4653251579877
 20
375.9160905370255
 30
0.0
  0
POINT
  5
13D3
330
1E
100
AcDbEntity
  8
STEMPEL
100
AcDbPoint
 10
687.9294267731254
 20
304.9160905370255
 30
0.0
  0
LINE
  5
13D6
102
{ACAD_REACTORS
330
140A
102
}
330
1E
100
AcDbEntity
  8
STEMPEL
100
AcDbLine
 10
690.4653251579877
 20
298.9160905370255
 30
0.0
 11
692.4653251579877
 21
298.9160905370255
 31
0.0
  0
LINE
  5
13D7
102
{ACAD_REACTORS
330
140A
102
}
330
1E
100
AcDbEntity
  8
STEMPEL
100
AcDbLine
 10
684.4653251579877
 20
306.9160905370256
 30
0.0
 11
690.4653251579877
 21
303.4519889218878
 31
0.0
  0
LINE
  5
13E3
102
{ACAD_REACTORS
330
140A
102
}
330
1E
100
AcDbEntity
  8
STEMPEL
100
AcDbLine
 10
690.4653251579877
 20
375.9160905370255
 30
0.0
 11
690.4653251579877
 21
364.3801921521632
 31
0.0
  0
LINE
  5
13E4
102
{ACAD_REACTORS
330
140A
102
}
330
1E
100
AcDbEntity
  8
STEMPEL
100
AcDbLine
 10
690.4653251579877
 20
375.9160905370255
 30
0.0
 11
692.4653251579877
 21
375.9160905370255
 31
0.0
  0
LINE
  5
13E5
102
{ACAD_REACTORS
330
140A
102
}
330
1E
100
AcDbEntity
  8
STEMPEL
100
AcDbLine
 10
684.4653251579877
 20
367.9160905370255
 30
0.0
 11
690.4653251579877
 21
371.3801921521633
 31
0.0
  0
LINE
  5
13EB
102
{ACAD_REACTORS
330
140A
102
}
330
1E
100
AcDbEntity
  8
STEMPEL
100
AcDbLine
 10
692.4653251579877
 20
382.3801921521632
 30
0.0
 11
692.4653251579878
 21
364.3801921521633
 31
0.0
  0
LINE
  5
13ED
102
{ACAD_REACTORS
330
140A
102
}
330
1E
100
AcDbEntity
  8
STEMPEL
100
AcDbLine
 10
692.4653251579878
 20
311.3801921521633
 30
0.0
 11
692.4653251579877
 21
293.3801921521632
 31
0.0
  0
LINE
  5
13EE
102
{ACAD_REACTORS
330
140A
102
}
330
1E
100
AcDbEntity
  8
STEMPEL
100
AcDbLine
 10
690.4653251579877
 20
311.3801921521632
 30
0.0
 11
690.4653251579877
 21
298.9160905370255
 31
0.0
  0
HATCH
  5
140A
330
1E
100
AcDbEntity
  8
SCHRAFF
100
AcDbHatch
 10
0.0
 20
0.0
 30
0.0
210
0.0
220
0.0
230
1.0
  2
NET
 70
     0
 71
     1
 91
        2
 92
        7
 72
     0
 73
     1
 93
       10
 10
690.4653251579877
 20
371.3801921521633
 10
690.4653251579877
 20
375.9160905370255
 10
692.4653251579878
 20
375.9160905370255
 10
692.4653251579877
 20
382.3801921521631
 10
690.4653251579873
 20
382.3801921521631
 10
690.4653251579875
 20
380.7801921521631
 10
674.4653251579876
 20
380.7801921521631
 10
674.4653251579877
 20
364.3801921521632
 10
684.4653251579877
 20
364.3801921521632
 10
684.4653251579877
 20
367.9160905370256
 97
       10
330
13E4
330
13EB
330
100E
330
E5E
330
1012
330
E5D
330
1011
330
E5F
330
13E5
330
13E3
 92
        7
 72
     0
 73
     1
 93
       10
 10
684.4653251579877
 20
306.9160905370256
 10
684.4653251579877
 20
311.3801921521632
 10
674.4653251579879
 20
311.3801921521632
 10
674.4653251579877
 20
294.9801921521633
 10
690.4653251579877
 20
294.9801921521632
 10
690.4653251579876
 20
293.3801921521632
 10
692.4653251579877
 20
293.3801921521631
 10
692.4653251579878
 20
298.9160905370255
 10
690.4653251579877
 20
298.9160905370255
 10
690.4653251579876
 20
303.4519889218878
 97
       10
330
EC6
330
1010
330
ECE
330
100F
330
ECD
330
100D
330
13ED
330
13D6
330
13EE
330
13D7
 75
     0
 76
     1
 52
45.0
 41
20.0
 77
     0
 78
     2
 53
45.0
 43
0.0
 44
0.0
 45
-1.767766952966368
 46
1.767766952966368
 79
     0
 53
135.0
 43
0.0
 44
0.0
 45
-1.767766952966368
 46
-1.767766952966368
 79
     0
 47
0.1837941526540889
 98
        2
 10
682.6071521527335
 20
372.1291527883057
 10
679.8485748761315
 20
304.8604913705078
  0
ENDSEC
  0
SECTION
  2
OBJECTS
  0
DICTIONARY
  5
C
330
0
100
AcDbDictionary
281
     1
  3
ACAD_COLOR
350
11A
  3
ACAD_GROUP
350
D
  3
ACAD_LAYOUT
350
19
  3
ACAD_MATERIAL
350
119
  3
ACAD_MLINESTYLE
350
16
  3
ACAD_PLOTSETTINGS
350
18
  3
ACAD_PLOTSTYLENAME
350
E
  3
AcDbVariableDictionary
350
125
  0
DICTIONARY
  5
DB
330
1E
100
AcDbDictionary
280
     1
281
     1
  3
ACAD_LAYOUTSELFREF
360
10F
  0
DICTIONARY
  5
DD
330
1A
100
AcDbDictionary
280
     1
281
     1
  3
ACAD_LAYOUTSELFREF
360
10E
  0
DICTIONARY
  5
11A
102
{ACAD_REACTORS
330
C
102
}
330
C
100
AcDbDictionary
281
     1
  0
DICTIONARY
  5
D
102
{ACAD_REACTORS
330
C
102
}
330
C
100
AcDbDictionary
281
     1
  0
DICTIONARY
  5
19
102
{ACAD_REACTORS
330
C
102
}
330
C
100
AcDbDictionary
281
     1
  3
Layout1
350
1D
  3
Model
350
21
  0
DICTIONARY
  5
119
102
{ACAD_REACTORS
330
C
102
}
330
C
100
AcDbDictionary
281
     1
  0
DICTIONARY
  5
16
102
{ACAD_REACTORS
330
C
102
}
330
C
100
AcDbDictionary
281
     1
  3
Standard
350
17
  0
DICTIONARY
  5
18
102
{ACAD_REACTORS
330
C
102
}
330
C
100
AcDbDictionary
281
     1
  0
ACDBDICTIONARYWDFLT
  5
E
102
{ACAD_REACTORS
330
C
102
}
330
C
100
AcDbDictionary
281
     1
  3
Normal
350
F
100
AcDbDictionaryWithDefault
340
F
  0
DICTIONARY
  5
125
102
{ACAD_REACTORS
330
C
102
}
330
C
100
AcDbDictionary
281
     1
  3
DIMASSOC
350
126
  3
PROJECTNAME
350
127
  0
XRECORD
  5
10F
102
{ACAD_REACTORS
330
DB
102
}
330
DB
100
AcDbXrecord
280
     1
340
1E
  0
XRECORD
  5
10E
102
{ACAD_REACTORS
330
DD
102
}
330
DD
100
AcDbXrecord
280
     1
340
1A
  0
LAYOUT
  5
1D
102
{ACAD_REACTORS
330
19
102
}
330
19
100
AcDbPlotSettings
  1

  2
\\NT_WORK01\HP LaserJet 5000 PCL 6
  4

  6

 40
0.0
 41
0.0
 42
0.0
 43
0.0
 44
0.0
 45
0.0
 46
0.0
 47
0.0
 48
0.0
 49
0.0
140
0.0
141
0.0
142
1.0
143
1.0
 70
   688
 72
     0
 73
     0
 74
     5
  7

 75
    16
147
1.0
 76
     0
 77
     2
 78
   300
148
0.0
149
0.0
100
AcDbLayout
  1
Layout1
 70
     0
 71
     1
 10
0.0
 20
0.0
 11
12.0
 21
9.0
 12
0.0
 22
0.0
 32
0.0
 14
1.000000000000000E+20
 24
1.000000000000000E+20
 34
1.000000000000000E+20
 15
-1.000000000000000E+20
 25
-1.000000000000000E+20
 35
-1.000000000000000E+20
146
0.0
 13
0.0
 23
0.0
 33
0.0
 16
1.0
 26
0.0
 36
0.0
 17
0.0
 27
1.0
 37
0.0
 76
     0
330
1A
  0
LAYOUT
  5
21
102
{ACAD_REACTORS
330
19
102
}
330
19
100
AcDbPlotSettings
  1

  2
none_device
  4
Letter_(8.50_x_11.00_Inches)
  6

 40
6.349999904632568
 41
6.349999904632568
 42
6.350006103515625
 43
6.350006103515625
 44
215.8999938964844
 45
279.3999938964844
 46
0.0
 47
0.0
 48
0.0
 49
0.0
140
0.0
141
0.0
142
1.0
143
1.0
 70
 11952
 72
     0
 73
     1
 74
     0
  7

 75
     0
147
1.0
 76
     0
 77
     2
 78
   300
148
-3042.480339739027
149
81.06623904798047
100
AcDbLayout
  1
Model
 70
     1
 71
     0
 10
0.0
 20
0.0
 11
12.0
 21
9.0
 12
0.0
 22
0.0
 32
0.0
 14
0.0
 24
0.0
 34
0.0
 15
0.0
 25
0.0
 35
0.0
146
0.0
 13
0.0
 23
0.0
 33
0.0
 16
1.0
 26
0.0
 36
0.0
 17
0.0
 27
1.0
 37
0.0
 76
     0
330
1E
  0
MLINESTYLE
  5
17
102
{ACAD_REACTORS
330
16
102
}
330
16
100
AcDbMlineStyle
  2
STANDARD
 70
     0
  3

 62
   256
 51
90.0
 52
90.0
 71
     2
 49
0.5
 62
   256
  6
BYLAYER
 49
-0.5
 62
   256
  6
BYLAYER
  0
ACDBPLACEHOLDER
  5
F
102
{ACAD_REACTORS
330
E
102
}
330
E
  0
DICTIONARYVAR
  5
126
102
{ACAD_REACTORS
330
125
102
}
330
125
100
DictionaryVariables
280
     0
  1
1
  0
DICTIONARYVAR
  5
127
102
{ACAD_REACTORS
330
125
102
}
330
125
100
DictionaryVariables
280
     0
  1

  0
ENDSEC
  0
EOF
