  0
SECTION
  2
HEADER
  9
$ACADVER
  1
AC1018
  9
$ACADMAINTVER
 70
     2
  9
$DWGCODEPAGE
  3
ANSI_1252
  9
$INSBASE
 10
0.0
 20
0.0
 30
0.0
  9
$EXTMIN
 10
-0.034606292180797
 20
-0.0339799624207444
 30
-0.0000000000000058
  9
$EXTMAX
 10
525.0200841998767
 20
742.5339937932995
 30
0.0000000000000104
  9
$LIMMIN
 10
0.0
 20
0.0
  9
$LIMMAX
 10
524.9999999999999
 20
742.4999999999999
  9
$ORTHOMODE
 70
     0
  9
$REGENMODE
 70
     1
  9
$FILLMODE
 70
     1
  9
$QTEXTMODE
 70
     0
  9
$MIRRTEXT
 70
     1
  9
$LTSCALE
 40
25.0
  9
$ATTMODE
 70
     1
  9
$TEXTSIZE
 40
3.5
  9
$TRACEWID
 40
0.5
  9
$TEXTSTYLE
  7
STANDARD
  9
$CLAYER
  8
SCHRAFF
  9
$CELTYPE
  6
ByLayer
  9
$CECOLOR
 62
   256
  9
$CELTSCALE
 40
1.0
  9
$DISPSILH
 70
     0
  9
$DIMSCALE
 40
2.5
  9
$DIMASZ
 40
3.5
  9
$DIMEXO
 40
1.0
  9
$DIMDLI
 40
7.0
  9
$DIMRND
 40
0.0
  9
$DIMDLE
 40
0.0
  9
$DIMEXE
 40
1.0
  9
$DIMTP
 40
0.0
  9
$DIMTM
 40
0.0
  9
$DIMTXT
 40
3.5
  9
$DIMCEN
 40
1.5
  9
$DIMTSZ
 40
0.0
  9
$DIMTOL
 70
     0
  9
$DIMLIM
 70
     0
  9
$DIMTIH
 70
     0
  9
$DIMTOH
 70
     0
  9
$DIMSE1
 70
     0
  9
$DIMSE2
 70
     0
  9
$DIMTAD
 70
     1
  9
$DIMZIN
 70
     8
  9
$DIMBLK
  1

  9
$DIMASO
 70
     1
  9
$DIMSHO
 70
     0
  9
$DIMPOST
  1

  9
$DIMAPOST
  1

  9
$DIMALT
 70
     0
  9
$DIMALTD
 70
     2
  9
$DIMALTF
 40
25.4
  9
$DIMLFAC
 40
1.0
  9
$DIMTOFL
 70
     1
  9
$DIMTVP
 40
0.0
  9
$DIMTIX
 70
     0
  9
$DIMSOXD
 70
     0
  9
$DIMSAH
 70
     0
  9
$DIMBLK1
  1

  9
$DIMBLK2
  1

  9
$DIMSTYLE
  2
Standard
  9
$DIMCLRD
 70
     0
  9
$DIMCLRE
 70
     0
  9
$DIMCLRT
 70
     1
  9
$DIMTFAC
 40
0.5142857142857144
  9
$DIMGAP
 40
1.5
  9
$DIMJUST
 70
     0
  9
$DIMSD1
 70
     0
  9
$DIMSD2
 70
     0
  9
$DIMTOLJ
 70
     1
  9
$DIMTZIN
 70
     8
  9
$DIMALTZ
 70
     8
  9
$DIMALTTZ
 70
     8
  9
$DIMUPT
 70
     0
  9
$DIMDEC
 70
     2
  9
$DIMTDEC
 70
     2
  9
$DIMALTU
 70
     2
  9
$DIMALTTD
 70
     2
  9
$DIMTXSTY
  7
STANDARD
  9
$DIMAUNIT
 70
     0
  9
$DIMADEC
 70
     2
  9
$DIMALTRND
 40
0.0
  9
$DIMAZIN
 70
     2
  9
$DIMDSEP
 70
    46
  9
$DIMATFIT
 70
     3
  9
$DIMFRAC
 70
     0
  9
$DIMLDRBLK
  1

  9
$DIMLUNIT
 70
     2
  9
$DIMLWD
 70
    -2
  9
$DIMLWE
 70
    -2
  9
$DIMTMOVE
 70
     0
  9
$LUNITS
 70
     2
  9
$LUPREC
 70
     2
  9
$SKETCHINC
 40
1.0
  9
$FILLETRAD
 40
0.0
  9
$AUNITS
 70
     0
  9
$AUPREC
 70
     0
  9
$MENU
  1
ACAD
  9
$ELEVATION
 40
0.0
  9
$PELEVATION
 40
0.0
  9
$THICKNESS
 40
0.0
  9
$LIMCHECK
 70
     0
  9
$CHAMFERA
 40
0.0
  9
$CHAMFERB
 40
0.0
  9
$CHAMFERC
 40
0.0
  9
$CHAMFERD
 40
0.0
  9
$SKPOLY
 70
     0
  9
$TDCREATE
 40
2455397.823042361
  9
$TDUCREATE
 40
2455397.781375695
  9
$TDUPDATE
 40
2455532.546622500
  9
$TDUUPDATE
 40
2455532.504955833
  9
$TDINDWG
 40
0.4498433565
  9
$TDUSRTIMER
 40
0.4498433565
  9
$USRTIMER
 70
     1
  9
$ANGBASE
 50
0.0
  9
$ANGDIR
 70
     0
  9
$PDMODE
 70
     0
  9
$PDSIZE
 40
0.0
  9
$PLINEWID
 40
0.0
  9
$SPLFRAME
 70
     0
  9
$SPLINETYPE
 70
     6
  9
$SPLINESEGS
 70
     8
  9
$HANDSEED
  5
2E22
  9
$SURFTAB1
 70
     6
  9
$SURFTAB2
 70
     6
  9
$SURFTYPE
 70
     6
  9
$SURFU
 70
     6
  9
$SURFV
 70
     6
  9
$UCSBASE
  2

  9
$UCSNAME
  2

  9
$UCSORG
 10
0.0
 20
0.0
 30
0.0
  9
$UCSXDIR
 10
1.0
 20
0.0
 30
0.0
  9
$UCSYDIR
 10
0.0
 20
1.0
 30
0.0
  9
$UCSORTHOREF
  2

  9
$UCSORTHOVIEW
 70
     0
  9
$UCSORGTOP
 10
0.0
 20
0.0
 30
0.0
  9
$UCSORGBOTTOM
 10
0.0
 20
0.0
 30
0.0
  9
$UCSORGLEFT
 10
0.0
 20
0.0
 30
0.0
  9
$UCSORGRIGHT
 10
0.0
 20
0.0
 30
0.0
  9
$UCSORGFRONT
 10
0.0
 20
0.0
 30
0.0
  9
$UCSORGBACK
 10
0.0
 20
0.0
 30
0.0
  9
$PUCSBASE
  2

  9
$PUCSNAME
  2

  9
$PUCSORG
 10
0.0
 20
0.0
 30
0.0
  9
$PUCSXDIR
 10
1.0
 20
0.0
 30
0.0
  9
$PUCSYDIR
 10
0.0
 20
1.0
 30
0.0
  9
$PUCSORTHOREF
  2

  9
$PUCSORTHOVIEW
 70
     0
  9
$PUCSORGTOP
 10
0.0
 20
0.0
 30
0.0
  9
$PUCSORGBOTTOM
 10
0.0
 20
0.0
 30
0.0
  9
$PUCSORGLEFT
 10
0.0
 20
0.0
 30
0.0
  9
$PUCSORGRIGHT
 10
0.0
 20
0.0
 30
0.0
  9
$PUCSORGFRONT
 10
0.0
 20
0.0
 30
0.0
  9
$PUCSORGBACK
 10
0.0
 20
0.0
 30
0.0
  9
$USERI1
 70
     0
  9
$USERI2
 70
     0
  9
$USERI3
 70
     0
  9
$USERI4
 70
     0
  9
$USERI5
 70
     0
  9
$USERR1
 40
0.0
  9
$USERR2
 40
0.0
  9
$USERR3
 40
0.0
  9
$USERR4
 40
0.0
  9
$USERR5
 40
0.0
  9
$WORLDVIEW
 70
     1
  9
$SHADEDGE
 70
     3
  9
$SHADEDIF
 70
    70
  9
$TILEMODE
 70
     1
  9
$MAXACTVP
 70
    16
  9
$PINSBASE
 10
0.0
 20
0.0
 30
0.0
  9
$PLIMCHECK
 70
     0
  9
$PEXTMIN
 10
1.000000000000000E+20
 20
1.000000000000000E+20
 30
1.000000000000000E+20
  9
$PEXTMAX
 10
-1.000000000000000E+20
 20
-1.000000000000000E+20
 30
-1.000000000000000E+20
  9
$PLIMMIN
 10
0.0
 20
0.0
  9
$PLIMMAX
 10
12.0
 20
9.0
  9
$UNITMODE
 70
     0
  9
$VISRETAIN
 70
     0
  9
$PLINEGEN
 70
     0
  9
$PSLTSCALE
 70
     0
  9
$TREEDEPTH
 70
  3020
  9
$CMLSTYLE
  2
Standard
  9
$CMLJUST
 70
     0
  9
$CMLSCALE
 40
1.0
  9
$PROXYGRAPHICS
 70
     1
  9
$MEASUREMENT
 70
     0
  9
$CELWEIGHT
370
    -1
  9
$ENDCAPS
280
     0
  9
$JOINSTYLE
280
     0
  9
$LWDISPLAY
290
     0
  9
$INSUNITS
 70
     0
  9
$HYPERLINKBASE
  1

  9
$STYLESHEET
  1
monochrome 1.ctb
  9
$XEDIT
290
     1
  9
$CEPSNTYPE
380
     0
  9
$PSTYLEMODE
290
     1
  9
$FINGERPRINTGUID
  2
{D68B0D02-A558-11D7-B632-000102183313}
  9
$VERSIONGUID
  2
{F3E0A4D4-BC78-4661-A3AE-86514F3C1D0C}
  9
$EXTNAMES
290
     1
  9
$PSVPSCALE
 40
0.0
  9
$OLESTARTUP
290
     0
  9
$SORTENTS
280
   127
  9
$INDEXCTL
280
     0
  9
$HIDETEXT
280
     0
  9
$XCLIPFRAME
290
     0
  9
$HALOGAP
280
     0
  9
$OBSCOLOR
 70
   257
  9
$OBSLTYPE
280
     0
  9
$INTERSECTIONDISPLAY
280
     0
  9
$INTERSECTIONCOLOR
 70
   257
  9
$DIMASSOC
280
     1
  9
$PROJECTNAME
  1

  0
ENDSEC
  0
SECTION
  2
CLASSES
  0
CLASS
  1
ACDBDICTIONARYWDFLT
  2
AcDbDictionaryWithDefault
  3
ObjectDBX Classes
 90
        0
 91
        1
280
     0
281
     0
  0
CLASS
  1
DICTIONARYVAR
  2
AcDbDictionaryVar
  3
ObjectDBX Classes
 90
        0
 91
        2
280
     0
281
     0
  0
ENDSEC
  0
SECTION
  2
TABLES
  0
TABLE
  2
VPORT
  5
8
330
0
100
AcDbSymbolTable
 70
     2
  0
VPORT
  5
2E21
330
8
100
AcDbSymbolTableRecord
100
AcDbViewportTableRecord
  2
*Active
 70
     0
 10
0.0
 20
0.0
 11
1.0
 21
1.0
 12
262.492738953848
 22
371.2500069154394
 13
0.0
 23
0.0
 14
1.0
 24
1.0
 15
10.0
 25
10.0
 16
0.0
 26
0.0
 36
1.0
 17
0.0
 27
0.0
 37
0.0
 40
748.9644374190156
 41
1.336927223719676
 42
50.0
 43
0.0
 44
0.0
 50
0.0
 51
0.0
 71
     0
 72
  1500
 73
     1
 74
     0
 75
     0
 76
     0
 77
     0
 78
     0
281
     0
 65
     1
110
0.0
120
0.0
130
0.0
111
1.0
121
0.0
131
0.0
112
0.0
122
1.0
132
0.0
 79
     0
146
0.0
  0
ENDTAB
  0
TABLE
  2
LTYPE
  5
5
330
0
100
AcDbSymbolTable
 70
     2
  0
LTYPE
  5
13
330
5
100
AcDbSymbolTableRecord
100
AcDbLinetypeTableRecord
  2
ByBlock
 70
     0
  3

 72
    65
 73
     0
 40
0.0
  0
LTYPE
  5
14
330
5
100
AcDbSymbolTableRecord
100
AcDbLinetypeTableRecord
  2
ByLayer
 70
     0
  3

 72
    65
 73
     0
 40
0.0
  0
LTYPE
  5
15
330
5
100
AcDbSymbolTableRecord
100
AcDbLinetypeTableRecord
  2
Continuous
 70
     0
  3
Solid line
 72
    65
 73
     0
 40
0.0
  0
LTYPE
  5
25
330
5
100
AcDbSymbolTableRecord
100
AcDbLinetypeTableRecord
  2
STRICHPUNKT
 70
     0
  3
__ . __ . __ . __ . __ . __ . __ . __ . __ . __
 72
    65
 73
     4
 40
1.0
 49
0.5
 74
     0
 49
-0.25
 74
     0
 49
0.0
 74
     0
 49
-0.25
 74
     0
  0
ENDTAB
  0
TABLE
  2
LAYER
  5
2
330
0
100
AcDbSymbolTable
 70
     9
  0
LAYER
  5
10
330
2
100
AcDbSymbolTableRecord
100
AcDbLayerTableRecord
  2
0
 70
     0
 62
     7
  6
Continuous
370
    -3
390
F
  0
LAYER
  5
2A
330
2
100
AcDbSymbolTableRecord
100
AcDbLayerTableRecord
  2
VOLL
 70
     0
 62
     1
  6
Continuous
370
    -3
390
F
  0
LAYER
  5
2B
330
2
100
AcDbSymbolTableRecord
100
AcDbLayerTableRecord
  2
HILF
 70
     0
 62
     2
  6
Continuous
370
    -3
390
F
  0
LAYER
  5
2C
330
2
100
AcDbSymbolTableRecord
100
AcDbLayerTableRecord
  2
MITTEL
 70
     0
 62
     2
  6
STRICHPUNKT
370
    -3
390
F
  0
LAYER
  5
2F
330
2
100
AcDbSymbolTableRecord
100
AcDbLayerTableRecord
  2
BEM
 70
     0
 62
     7
  6
Continuous
370
    -3
390
F
  0
LAYER
  5
30
330
2
100
AcDbSymbolTableRecord
100
AcDbLayerTableRecord
  2
STEMPEL
 70
     0
 62
     3
  6
Continuous
370
    -3
390
F
  0
LAYER
  5
31
330
2
100
AcDbSymbolTableRecord
100
AcDbLayerTableRecord
  2
TEXT
 70
     0
 62
     7
  6
Continuous
370
    -3
390
F
  0
LAYER
  5
171
330
2
100
AcDbSymbolTableRecord
100
AcDbLayerTableRecord
  2
Defpoints
 70
     0
 62
     7
  6
Continuous
290
     0
370
    -3
390
F
  0
LAYER
  5
19C
330
2
100
AcDbSymbolTableRecord
100
AcDbLayerTableRecord
  2
SCHRAFF
 70
     0
 62
     7
  6
Continuous
370
    -3
390
F
  0
ENDTAB
  0
TABLE
  2
STYLE
  5
3
330
0
100
AcDbSymbolTable
 70
     2
  0
STYLE
  5
11
330
3
100
AcDbSymbolTableRecord
100
AcDbTextStyleTableRecord
  2
STANDARD
 70
     0
 40
0.0
 41
0.8
 50
0.0
 71
     0
 42
3.5
  3
simplex.shx
  4

  0
STYLE
  5
24
330
3
100
AcDbSymbolTableRecord
100
AcDbTextStyleTableRecord
  2
GREEKS
 70
     0
 40
0.0
 41
0.8
 50
0.0
 71
     0
 42
2.5
  3
SIMPLEX.shx
  4

  0
ENDTAB
  0
TABLE
  2
VIEW
  5
6
330
0
100
AcDbSymbolTable
 70
     0
  0
ENDTAB
  0
TABLE
  2
UCS
  5
7
330
0
100
AcDbSymbolTable
 70
     0
  0
ENDTAB
  0
TABLE
  2
APPID
  5
9
330
0
100
AcDbSymbolTable
 70
     1
  0
APPID
  5
12
330
9
100
AcDbSymbolTableRecord
100
AcDbRegAppTableRecord
  2
ACAD
 70
     0
  0
ENDTAB
  0
TABLE
  2
DIMSTYLE
  5
A
330
0
100
AcDbSymbolTable
 70
     1
100
AcDbDimStyleTable
 71
     1
340
9D
  0
DIMSTYLE
105
9D
102
{ACAD_REACTORS
330
2AE7
330
2B77
330
2C17
330
2C2D
330
2C82
330
2E08
102
}
330
A
100
AcDbSymbolTableRecord
100
AcDbDimStyleTableRecord
  2
Standard
 70
     0
340
11
  0
ENDTAB
  0
TABLE
  2
BLOCK_RECORD
  5
1
330
0
100
AcDbSymbolTable
 70
     7
  0
BLOCK_RECORD
  5
1E
102
{ACAD_XDICTIONARY
360
A0
102
}
330
1
100
AcDbSymbolTableRecord
100
AcDbBlockTableRecord
  2
*Model_Space
340
21
  0
BLOCK_RECORD
  5
1A
102
{ACAD_XDICTIONARY
360
A2
102
}
330
1
100
AcDbSymbolTableRecord
100
AcDbBlockTableRecord
  2
*Paper_Space
340
1D
  0
BLOCK_RECORD
  5
22
330
1
100
AcDbSymbolTableRecord
100
AcDbBlockTableRecord
  2
LOGO
340
0
102
{BLKREFS
331
9B
102
}
  0
BLOCK_RECORD
  5
2AE9
330
1
100
AcDbSymbolTableRecord
100
AcDbBlockTableRecord
  2
*D1
340
0
  0
BLOCK_RECORD
  5
2B78
330
1
100
AcDbSymbolTableRecord
100
AcDbBlockTableRecord
  2
*D2
340
0
  0
BLOCK_RECORD
  5
2C18
330
1
100
AcDbSymbolTableRecord
100
AcDbBlockTableRecord
  2
*D3
340
0
  0
BLOCK_RECORD
  5
2C2E
330
1
100
AcDbSymbolTableRecord
100
AcDbBlockTableRecord
  2
*D4
340
0
  0
BLOCK_RECORD
  5
2C83
330
1
100
AcDbSymbolTableRecord
100
AcDbBlockTableRecord
  2
*D5
340
0
  0
BLOCK_RECORD
  5
2E09
330
1
100
AcDbSymbolTableRecord
100
AcDbBlockTableRecord
  2
*D6
340
0
  0
ENDTAB
  0
ENDSEC
  0
SECTION
  2
BLOCKS
  0
BLOCK
  5
35
330
1E
100
AcDbEntity
  8
0
100
AcDbBlockBegin
  2
*Model_Space
 70
     0
 10
0.0
 20
0.0
 30
0.0
  3
*Model_Space
  1

  0
ENDBLK
  5
36
330
1E
100
AcDbEntity
  8
0
100
AcDbBlockEnd
  0
BLOCK
  5
33
330
1A
100
AcDbEntity
 67
     1
  8
0
100
AcDbBlockBegin
  2
*Paper_Space
 70
     0
 10
0.0
 20
0.0
 30
0.0
  3
*Paper_Space
  1

  0
ENDBLK
  5
34
330
1A
100
AcDbEntity
 67
     1
  8
0
100
AcDbBlockEnd
  0
BLOCK
  5
37
330
22
100
AcDbEntity
  8
0
100
AcDbBlockBegin
  2
LOGO
 70
     0
 10
0.0
 20
0.0
 30
0.0
  3
LOGO
  1

  0
ARC
  5
38
330
22
100
AcDbEntity
  8
0
100
AcDbCircle
 10
11.59973089678112
 20
-9.271599258481501
 30
0.0
 40
4.5
100
AcDbArc
 50
270.0
 51
231.0575587310159
  0
LINE
  5
39
330
22
100
AcDbEntity
  8
0
100
AcDbLine
 10
3.599730896781125
 20
-4.771599258481529
 30
0.0
 11
3.599730896781153
 21
-11.77159925848133
 31
0.0
  0
LINE
  5
3A
330
22
100
AcDbEntity
  8
0
100
AcDbLine
 10
2.599730896781125
 20
-4.771599258481529
 30
0.0
 11
2.599730896781153
 21
-11.77159925848133
 31
0.0
  0
CIRCLE
  5
3B
330
22
100
AcDbEntity
  8
0
100
AcDbCircle
 10
11.59973089678112
 20
-9.271599258481501
 30
0.0
 40
3.5
  0
ARC
  5
3C
330
22
100
AcDbEntity
  8
0
100
AcDbCircle
 10
31.59973089678115
 20
-9.271599258481472
 30
0.0
 40
4.5
100
AcDbArc
 50
270.0
 51
231.0575587310182
  0
LINE
  5
3D
330
22
100
AcDbEntity
  8
0
100
AcDbLine
 10
17.59973089678112
 20
-4.771599258481472
 30
0.0
 11
17.59973089678115
 21
-13.77159925848147
 31
0.0
  0
ARC
  5
3E
330
22
100
AcDbEntity
  8
0
100
AcDbCircle
 10
22.59973089678116
 20
-7.271599258481472
 30
0.0
 40
2.5
100
AcDbArc
 50
293.1161887722295
 51
90.0
  0
CIRCLE
  5
3F
330
22
100
AcDbEntity
  8
0
100
AcDbCircle
 10
31.59973089678115
 20
-9.271599258481472
 30
0.0
 40
3.5
  0
ARC
  5
40
330
22
100
AcDbEntity
  8
0
100
AcDbCircle
 10
4.599730896781153
 20
-11.77159925848133
 30
0.0
 40
1.0
100
AcDbArc
 50
180.0
 51
270.0
  0
ARC
  5
41
330
22
100
AcDbEntity
  8
0
100
AcDbCircle
 10
4.599730896781153
 20
-11.77159925848133
 30
0.0
 40
2.0
100
AcDbArc
 50
179.9999999999992
 51
270.0
  0
LINE
  5
42
330
22
100
AcDbEntity
  8
0
100
AcDbLine
 10
11.59973089678115
 20
-13.77159925848144
 30
0.0
 11
4.599730896781153
 21
-13.77159925848147
 31
0.0
  0
LINE
  5
43
330
22
100
AcDbEntity
  8
0
100
AcDbLine
 10
8.771303772034769
 20
-12.77159925848136
 30
0.0
 11
4.599730896781153
 21
-12.77159925848133
 31
0.0
  0
LINE
  5
44
330
22
100
AcDbEntity
  8
0
100
AcDbLine
 10
31.59973089678115
 20
-13.77159925848147
 30
0.0
 11
23.6715276665056
 21
-13.77159925848144
 31
0.0
  0
LINE
  5
45
330
22
100
AcDbEntity
  8
0
100
AcDbLine
 10
23.56565672307022
 20
-9.51278021337896
 30
0.0
 11
24.4388546544846
 21
-12.77159925848144
 31
0.0
  0
LINE
  5
46
330
22
100
AcDbEntity
  8
0
100
AcDbLine
 10
22.59973089678116
 20
-9.771599258481472
 30
0.0
 11
18.59973089678112
 21
-9.771599258481472
 31
0.0
  0
LINE
  5
47
330
22
100
AcDbEntity
  8
0
100
AcDbLine
 10
18.59973089678115
 20
-13.77159925848144
 30
0.0
 11
17.59973089678115
 21
-13.77159925848144
 31
0.0
  0
LINE
  5
48
330
22
100
AcDbEntity
  8
0
100
AcDbLine
 10
18.59973089678115
 20
-9.771599258481472
 30
0.0
 11
18.59973089678115
 21
-13.77159925848144
 31
0.0
  0
LINE
  5
49
330
22
100
AcDbEntity
  8
0
100
AcDbLine
 10
22.59973089678116
 20
-9.771599258481472
 30
0.0
 11
23.67152766650562
 21
-13.77159925848147
 31
0.0
  0
ARC
  5
4A
330
22
100
AcDbEntity
  8
0
100
AcDbCircle
 10
22.59973089678116
 20
-7.271599258481472
 30
0.0
 40
2.5
100
AcDbArc
 50
270.0
 51
270.0000000000007
  0
LINE
  5
4B
330
22
100
AcDbEntity
  8
0
100
AcDbLine
 10
28.77130377203494
 20
-12.77159925848147
 30
0.0
 11
24.43885465448463
 21
-12.77159925848144
 31
0.0
  0
LINE
  5
4C
330
22
100
AcDbEntity
  8
0
100
AcDbLine
 10
3.599730896781125
 20
-4.771599258481472
 30
0.0
 11
2.599730896781125
 21
-4.771599258481472
 31
0.0
  0
LINE
  5
4D
330
22
100
AcDbEntity
  8
0
100
AcDbLine
 10
22.59973089678116
 20
-8.771599258481472
 30
0.0
 11
18.59973089678115
 21
-8.771599258481472
 31
0.0
  0
LINE
  5
4E
330
22
100
AcDbEntity
  8
0
100
AcDbLine
 10
22.59973089678116
 20
-5.771599258481472
 30
0.0
 11
18.59973089678115
 21
-5.771599258481472
 31
0.0
  0
LINE
  5
4F
330
22
100
AcDbEntity
  8
0
100
AcDbLine
 10
22.59973089678116
 20
-4.771599258481472
 30
0.0
 11
17.59973089678115
 21
-4.771599258481472
 31
0.0
  0
LINE
  5
50
330
22
100
AcDbEntity
  8
0
100
AcDbLine
 10
18.59973089678115
 20
-5.771599258481472
 30
0.0
 11
18.59973089678115
 21
-8.771599258481472
 31
0.0
  0
ARC
  5
51
330
22
100
AcDbEntity
  8
0
100
AcDbCircle
 10
22.59973089678116
 20
-7.271599258481472
 30
0.0
 40
1.5
100
AcDbArc
 50
270.0
 51
90.0
  0
ENDBLK
  5
52
330
22
100
AcDbEntity
  8
0
100
AcDbBlockEnd
  0
BLOCK
  5
2AF3
330
2AE9
100
AcDbEntity
  8
0
100
AcDbBlockBegin
  2
*D1
 70
     1
 10
0.0
 20
0.0
 30
0.0
  3
*D1
  1

  0
LINE
  5
2BC6
330
2AE9
100
AcDbEntity
  8
BEM
 62
     0
370
    -2
100
AcDbLine
 10
241.5676781522605
 20
576.7112345410421
 30
0.0
 11
251.316063062783
 21
613.0927023188458
 31
0.0
  0
LINE
  5
2BC7
330
2AE9
100
AcDbEntity
  8
BEM
 62
     0
370
    -2
100
AcDbLine
 10
370.0358130487066
 20
542.2883015424068
 30
0.0
 11
379.7841979592282
 21
578.6697693202072
 31
0.0
  0
LINE
  5
2BC8
330
2AE9
100
AcDbEntity
  8
BEM
 62
     0
370
    -2
100
AcDbLine
 10
259.1208664300559
 20
608.413221108476
 30
0.0
 11
370.6852993664426
 21
578.5196213991318
 31
0.0
  0
SOLID
  5
2BC9
330
2AE9
100
AcDbEntity
  8
BEM
 62
     0
100
AcDbTrace
 10
259.4983108708305
 20
609.821862938481
 30
0.0
 11
258.7434219892814
 21
607.0045792784712
 31
0.0
 12
250.6690154500266
 22
610.6778877531232
 32
0.0
 13
250.6690154500266
 23
610.6778877531232
 33
0.0
  0
SOLID
  5
2BCA
330
2AE9
100
AcDbEntity
  8
BEM
 62
     0
100
AcDbTrace
 10
371.0627438072171
 20
579.9282632291368
 30
0.0
 11
370.3078549256681
 21
577.110979569127
 31
0.0
 12
379.1371503464719
 22
576.2549547544846
 32
0.0
 13
379.1371503464719
 23
576.2549547544846
 33
0.0
  0
MTEXT
  5
2BCB
330
2AE9
100
AcDbEntity
  8
BEM
 62
     1
100
AcDbMText
 10
317.0059876397074
 20
601.3145685924026
 30
0.0
 40
8.75
 41
0.0
 71
     5
 72
     1
  1
\A1;%%c133
 11
0.9659258262890613
 21
-0.2588190451025462
 31
0.0
 73
     1
 44
1.0
  0
POINT
  5
2BCC
330
2AE9
100
AcDbEntity
  8
Defpoints
 62
     0
100
AcDbPoint
 10
240.9206305395041
 20
574.2964199753194
 30
0.0
  0
POINT
  5
2BCD
330
2AE9
100
AcDbEntity
  8
Defpoints
 62
     0
100
AcDbPoint
 10
369.3887654359503
 20
539.8734869766841
 30
0.0
  0
POINT
  5
2BCE
330
2AE9
100
AcDbEntity
  8
Defpoints
 62
     0
100
AcDbPoint
 10
379.1371503464719
 20
576.2549547544846
 30
0.0
  0
ENDBLK
  5
2AF4
330
2AE9
100
AcDbEntity
  8
0
100
AcDbBlockEnd
  0
BLOCK
  5
2B82
330
2B78
100
AcDbEntity
  8
0
100
AcDbBlockBegin
  2
*D2
 70
     1
 10
0.0
 20
0.0
 30
0.0
  3
*D2
  1

  0
LINE
  5
2BB4
330
2B78
100
AcDbEntity
  8
BEM
 62
     0
370
    -2
100
AcDbLine
 10
227.5261607626611
 20
339.5774001326882
 30
0.0
 11
227.5261607626611
 21
310.6042882904264
 31
0.0
  0
LINE
  5
2BB5
330
2B78
100
AcDbEntity
  8
BEM
 62
     0
370
    -2
100
AcDbLine
 10
316.526160762661
 20
339.5774001326889
 30
0.0
 11
316.526160762661
 21
310.6042882904264
 31
0.0
  0
LINE
  5
2BB6
330
2B78
100
AcDbEntity
  8
BEM
 62
     0
370
    -2
100
AcDbLine
 10
236.2761607626611
 20
313.1042882904264
 30
0.0
 11
307.776160762661
 21
313.1042882904264
 31
0.0
  0
SOLID
  5
2BB7
330
2B78
100
AcDbEntity
  8
BEM
 62
     0
100
AcDbTrace
 10
236.2761607626611
 20
314.5626216237598
 30
0.0
 11
236.2761607626611
 21
311.6459549570931
 31
0.0
 12
227.5261607626611
 22
313.1042882904264
 32
0.0
 13
227.5261607626611
 23
313.1042882904264
 33
0.0
  0
SOLID
  5
2BB8
330
2B78
100
AcDbEntity
  8
BEM
 62
     0
100
AcDbTrace
 10
307.776160762661
 20
314.5626216237598
 30
0.0
 11
307.776160762661
 21
311.6459549570931
 31
0.0
 12
316.526160762661
 22
313.1042882904264
 32
0.0
 13
316.526160762661
 23
313.1042882904264
 33
0.0
  0
MTEXT
  5
2BB9
330
2B78
100
AcDbEntity
  8
BEM
 62
     1
100
AcDbMText
 10
272.0261607626611
 20
321.2292882904264
 30
0.0
 40
8.75
 41
0.0
 71
     5
 72
     1
  1
\A1;%%C89
 73
     1
 44
1.0
  0
POINT
  5
2BBA
330
2B78
100
AcDbEntity
  8
Defpoints
 62
     0
100
AcDbPoint
 10
227.5261607626611
 20
342.0774001326882
 30
0.0
  0
POINT
  5
2BBB
330
2B78
100
AcDbEntity
  8
Defpoints
 62
     0
100
AcDbPoint
 10
316.526160762661
 20
342.0774001326889
 30
0.0
  0
POINT
  5
2BBC
330
2B78
100
AcDbEntity
  8
Defpoints
 62
     0
100
AcDbPoint
 10
316.526160762661
 20
313.1042882904264
 30
0.0
  0
ENDBLK
  5
2B83
330
2B78
100
AcDbEntity
  8
0
100
AcDbBlockEnd
  0
BLOCK
  5
2C22
330
2C18
100
AcDbEntity
  8
0
100
AcDbBlockBegin
  2
*D3
 70
     1
 10
0.0
 20
0.0
 30
0.0
  3
*D3
  1

  0
LINE
  5
2DED
330
2C18
100
AcDbEntity
  8
BEM
 62
     0
370
    -2
100
AcDbLine
 10
203.026160762661
 20
385.4487306001368
 30
0.0
 11
189.9436262715594
 21
385.4487306001368
 31
0.0
  0
LINE
  5
2DEE
330
2C18
100
AcDbEntity
  8
BEM
 62
     0
370
    -2
100
AcDbLine
 10
225.4636040802909
 20
335.4487306001368
 30
0.0
 11
189.9436262715594
 21
335.4487306001368
 31
0.0
  0
LINE
  5
2DEF
330
2C18
100
AcDbEntity
  8
BEM
 62
     0
370
    -2
100
AcDbLine
 10
192.4436262715594
 20
376.6987306001368
 30
0.0
 11
192.4436262715594
 21
344.1987306001369
 31
0.0
  0
SOLID
  5
2DF0
330
2C18
100
AcDbEntity
  8
BEM
 62
     0
100
AcDbTrace
 10
190.985292938226
 20
376.6987306001368
 30
0.0
 11
193.9019596048927
 21
376.6987306001368
 31
0.0
 12
192.4436262715594
 22
385.4487306001368
 32
0.0
 13
192.4436262715594
 23
385.4487306001368
 33
0.0
  0
SOLID
  5
2DF1
330
2C18
100
AcDbEntity
  8
BEM
 62
     0
100
AcDbTrace
 10
190.985292938226
 20
344.1987306001369
 30
0.0
 11
193.9019596048927
 21
344.1987306001369
 31
0.0
 12
192.4436262715594
 22
335.4487306001368
 32
0.0
 13
192.4436262715594
 23
335.4487306001368
 33
0.0
  0
MTEXT
  5
2DF2
330
2C18
100
AcDbEntity
  8
BEM
 62
     1
100
AcDbMText
 10
184.3186262715594
 20
360.4487306001369
 30
0.0
 40
8.75
 41
0.0
 71
     5
 72
     1
  1
\A1;50
 11
0.0000000000000001
 21
1.0
 31
0.0
 73
     1
 44
1.0
  0
POINT
  5
2DF3
330
2C18
100
AcDbEntity
  8
Defpoints
 62
     0
100
AcDbPoint
 10
205.526160762661
 20
385.4487306001368
 30
0.0
  0
POINT
  5
2DF4
330
2C18
100
AcDbEntity
  8
Defpoints
 62
     0
100
AcDbPoint
 10
227.9636040802909
 20
335.4487306001368
 30
0.0
  0
POINT
  5
2DF5
330
2C18
100
AcDbEntity
  8
Defpoints
 62
     0
100
AcDbPoint
 10
192.4436262715594
 20
335.4487306001368
 30
0.0
  0
ENDBLK
  5
2C23
330
2C18
100
AcDbEntity
  8
0
100
AcDbBlockEnd
  0
BLOCK
  5
2C38
330
2C2E
100
AcDbEntity
  8
0
100
AcDbBlockBegin
  2
*D4
 70
     1
 10
0.0
 20
0.0
 30
0.0
  3
*D4
  1

  0
LINE
  5
2DE4
330
2C2E
100
AcDbEntity
  8
BEM
 62
     0
370
    -2
100
AcDbLine
 10
269.526160762661
 20
433.4475693716176
 30
0.0
 11
172.2229870378273
 21
433.4475693716176
 31
0.0
  0
LINE
  5
2DE5
330
2C2E
100
AcDbEntity
  8
BEM
 62
     0
370
    -2
100
AcDbLine
 10
225.4636040802909
 20
335.4487306001368
 30
0.0
 11
172.2229870378273
 21
335.4487306001368
 31
0.0
  0
LINE
  5
2DE6
330
2C2E
100
AcDbEntity
  8
BEM
 62
     0
370
    -2
100
AcDbLine
 10
174.7229870378273
 20
424.6975693716176
 30
0.0
 11
174.7229870378273
 21
344.1987306001369
 31
0.0
  0
SOLID
  5
2DE7
330
2C2E
100
AcDbEntity
  8
BEM
 62
     0
100
AcDbTrace
 10
173.264653704494
 20
424.6975693716176
 30
0.0
 11
176.1813203711607
 21
424.6975693716176
 31
0.0
 12
174.7229870378273
 22
433.4475693716176
 32
0.0
 13
174.7229870378273
 23
433.4475693716176
 33
0.0
  0
SOLID
  5
2DE8
330
2C2E
100
AcDbEntity
  8
BEM
 62
     0
100
AcDbTrace
 10
173.264653704494
 20
344.1987306001369
 30
0.0
 11
176.1813203711607
 21
344.1987306001369
 31
0.0
 12
174.7229870378273
 22
335.4487306001368
 32
0.0
 13
174.7229870378273
 23
335.4487306001368
 33
0.0
  0
MTEXT
  5
2DE9
330
2C2E
100
AcDbEntity
  8
BEM
 62
     1
100
AcDbMText
 10
166.5979870378273
 20
384.4481499858773
 30
0.0
 40
8.75
 41
0.0
 71
     5
 72
     1
  1
\A1;98
 11
0.0000000000000001
 21
1.0
 31
0.0
 73
     1
 44
1.0
  0
POINT
  5
2DEA
330
2C2E
100
AcDbEntity
  8
Defpoints
 62
     0
100
AcDbPoint
 10
272.026160762661
 20
433.4475693716176
 30
0.0
  0
POINT
  5
2DEB
330
2C2E
100
AcDbEntity
  8
Defpoints
 62
     0
100
AcDbPoint
 10
227.9636040802909
 20
335.4487306001368
 30
0.0
  0
POINT
  5
2DEC
330
2C2E
100
AcDbEntity
  8
Defpoints
 62
     0
100
AcDbPoint
 10
174.7229870378273
 20
335.4487306001368
 30
0.0
  0
ENDBLK
  5
2C39
330
2C2E
100
AcDbEntity
  8
0
100
AcDbBlockEnd
  0
BLOCK
  5
2C8D
330
2C83
100
AcDbEntity
  8
0
100
AcDbBlockBegin
  2
*D5
 70
     1
 10
0.0
 20
0.0
 30
0.0
  3
*D5
  1

  0
LINE
  5
2DFF
330
2C83
100
AcDbEntity
  8
BEM
 62
     0
370
    -2
100
AcDbLine
 10
269.6113461969384
 20
434.094616984374
 30
0.0
 11
175.9084540777762
 21
459.2022312561641
 31
0.0
  0
LINE
  5
2E00
330
2C83
100
AcDbEntity
  8
BEM
 62
     0
370
    -2
100
AcDbLine
 10
238.5058159737815
 20
574.943467588076
 30
0.0
 11
209.0369913028425
 21
582.8396153605484
 31
0.0
  0
LINE
  5
2E01
330
2C83
100
AcDbEntity
  8
BEM
 62
     0
370
    -2
100
AcDbLine
 10
180.5879352881459
 20
467.007034623437
 30
0.0
 11
209.187139223918
 21
573.7407167677628
 31
0.0
  0
SOLID
  5
2E02
330
2C83
100
AcDbEntity
  8
BEM
 62
     0
100
AcDbTrace
 10
179.179293458141
 20
467.3844790642116
 30
0.0
 11
181.9965771181508
 21
466.6295901826626
 31
0.0
 12
178.3232686434988
 22
458.5551836434077
 32
0.0
 13
178.3232686434988
 23
458.5551836434077
 33
0.0
  0
SOLID
  5
2E03
330
2C83
100
AcDbEntity
  8
BEM
 62
     0
100
AcDbTrace
 10
207.7784973939132
 20
574.1181612085373
 30
0.0
 11
210.595781053923
 21
573.3632723269883
 31
0.0
 12
211.4518058685651
 22
582.1925677477922
 32
0.0
 13
211.4518058685651
 23
582.1925677477922
 33
0.0
  0
MTEXT
  5
2E04
330
2C83
100
AcDbEntity
  8
BEM
 62
     1
100
AcDbMText
 10
187.0393899174334
 20
522.4767804370578
 30
0.0
 40
8.75
 41
0.0
 71
     5
 72
     1
  1
\A1;128
 11
0.2588190451025203
 21
0.9659258262890684
 31
0.0
 73
     1
 44
1.0
  0
POINT
  5
2E05
330
2C83
100
AcDbEntity
  8
Defpoints
 62
     0
100
AcDbPoint
 10
272.0261607626611
 20
433.4475693716178
 30
0.0
  0
POINT
  5
2E06
330
2C83
100
AcDbEntity
  8
Defpoints
 62
     0
100
AcDbPoint
 10
240.9206305395042
 20
574.2964199753197
 30
0.0
  0
POINT
  5
2E07
330
2C83
100
AcDbEntity
  8
Defpoints
 62
     0
100
AcDbPoint
 10
211.4518058685651
 20
582.1925677477922
 30
0.0
  0
ENDBLK
  5
2C8E
330
2C83
100
AcDbEntity
  8
0
100
AcDbBlockEnd
  0
BLOCK
  5
2E15
330
2E09
100
AcDbEntity
  8
0
100
AcDbBlockBegin
  2
*D6
 70
     1
 10
0.0
 20
0.0
 30
0.0
  3
*D6
  1

  0
LINE
  5
2E0A
330
2E09
100
AcDbEntity
  8
SCHRAFF
 62
     0
370
    -2
100
AcDbLine
 10
307.0958408259961
 20
564.3293971731699
 30
0.0
 11
310.9865267733386
 21
578.8496348049464
 31
0.0
  0
LINE
  5
2E0B
330
2E09
100
AcDbEntity
  8
SCHRAFF
 62
     0
370
    -2
100
AcDbLine
 10
272.026160762661
 20
435.9475693716176
 30
0.0
 11
272.026160762661
 21
583.9788642971711
 31
0.0
  0
ARC
  5
2E0C
330
2E09
100
AcDbEntity
  8
SCHRAFF
 62
     0
370
    -2
100
AcDbCircle
 10
272.026160762661
 20
433.4475693716177
 30
0.0
 40
148.0312949255535
100
AcDbArc
 50
78.38719649672902
 51
86.61280350327102
  0
SOLID
  5
2E0D
330
2E09
100
AcDbEntity
  8
SCHRAFF
 62
     0
100
AcDbTrace
 10
302.1600367551585
 20
579.8678885530599
 30
0.0
 11
301.4887412158291
 21
577.0295251613638
 31
0.0
 12
310.3394791605823
 22
576.4348202392238
 32
0.0
 13
310.3394791605823
 23
576.4348202392238
 33
0.0
  0
SOLID
  5
2E0E
330
2E09
100
AcDbEntity
  8
SCHRAFF
 62
     0
100
AcDbTrace
 10
280.7292380852808
 20
579.7625655971739
 30
0.0
 11
280.8154388894627
 21
582.6779581720773
 31
0.0
 12
272.0261607626611
 22
581.4788642971713
 32
0.0
 13
272.0261607626611
 23
581.4788642971713
 33
0.0
  0
MTEXT
  5
2E0F
330
2E09
100
AcDbEntity
  8
SCHRAFF
 62
     1
100
AcDbMText
 10
292.4086473304848
 20
588.2679255467309
 30
0.0
 40
8.75
 41
0.0
 71
     5
 72
     1
  1
\A1;15°
 11
0.9914448613738105
 21
-0.1305261922200512
 31
0.0
 73
     1
 44
1.0
  0
POINT
  5
2E10
330
2E09
100
AcDbEntity
  8
Defpoints
 62
     0
100
AcDbPoint
 10
297.7315253641592
 20
579.2299363027394
 30
0.0
  0
POINT
  5
2E11
330
2E09
100
AcDbEntity
  8
Defpoints
 62
     0
100
AcDbPoint
 10
272.026160762661
 20
433.4475693716177
 30
0.0
  0
POINT
  5
2E12
330
2E09
100
AcDbEntity
  8
Defpoints
 62
     0
100
AcDbPoint
 10
306.4487932132399
 20
561.9145826074474
 30
0.0
  0
POINT
  5
2E13
330
2E09
100
AcDbEntity
  8
Defpoints
 62
     0
100
AcDbPoint
 10
272.026160762661
 20
433.4475693716177
 30
0.0
  0
POINT
  5
2E14
330
2E09
100
AcDbEntity
  8
Defpoints
 62
     0
100
AcDbPoint
 10
272.026160762661
 20
330.4487306001369
 30
0.0
  0
ENDBLK
  5
2E16
330
2E09
100
AcDbEntity
  8
0
100
AcDbBlockEnd
  0
ENDSEC
  0
SECTION
  2
ENTITIES
  0
LINE
  5
57
330
1E
100
AcDbEntity
  8
STEMPEL
100
AcDbLine
 10
512.5
 20
137.5
 30
0.0
 11
49.99999999999996
 21
137.5
 31
0.0
  0
LINE
  5
58
330
1E
100
AcDbEntity
  8
STEMPEL
100
AcDbLine
 10
182.5000000000001
 20
137.4999999999999
 30
0.0
 11
182.5
 21
12.49999999999996
 31
0.0
  0
LINE
  5
59
330
1E
100
AcDbEntity
  8
STEMPEL
100
AcDbLine
 10
287.5
 20
137.5
 30
0.0
 11
287.5
 21
12.49999999999996
 31
0.0
  0
LINE
  5
5A
330
1E
100
AcDbEntity
  8
STEMPEL
100
AcDbLine
 10
415.0
 20
137.4999999999997
 30
0.0
 11
415.0
 21
50.0
 31
0.0
  0
LINE
  5
5B
330
1E
100
AcDbEntity
  8
STEMPEL
100
AcDbLine
 10
182.4999999999998
 20
37.49999999999996
 30
0.0
 11
49.99999999999996
 21
37.49999999999996
 31
0.0
  0
LINE
  5
5C
330
1E
100
AcDbEntity
  8
STEMPEL
100
AcDbLine
 10
512.5
 20
50.0
 30
0.0
 11
182.5000000000001
 21
49.99999999999996
 31
0.0
  0
LINE
  5
5D
330
1E
100
AcDbEntity
  8
STEMPEL
100
AcDbLine
 10
512.5
 20
100.0
 30
0.0
 11
182.5000000000001
 21
99.99999999999992
 31
0.0
  0
LINE
  5
5E
330
1E
100
AcDbEntity
  8
VOLL
100
AcDbLine
 10
67.50000000000011
 20
137.5
 30
0.0
 11
67.49999999999997
 21
12.49999999999996
 31
0.0
  0
LINE
  5
5F
330
1E
100
AcDbEntity
  8
VOLL
100
AcDbLine
 10
130.0000000000001
 20
137.4999999999999
 30
0.0
 11
130.0
 21
12.49999999999996
 31
0.0
  0
LINE
  5
60
330
1E
100
AcDbEntity
  8
VOLL
100
AcDbLine
 10
155.0000000000001
 20
137.4999999999999
 30
0.0
 11
155.0
 21
12.49999999999996
 31
0.0
  0
LINE
  5
61
330
1E
100
AcDbEntity
  8
VOLL
100
AcDbLine
 10
205.0000000000002
 20
99.99999999999992
 30
0.0
 11
205.0000000000002
 21
49.99999999999996
 31
0.0
  0
LINE
  5
62
330
1E
100
AcDbEntity
  8
VOLL
100
AcDbLine
 10
237.5000000000001
 20
137.4999999999998
 30
0.0
 11
237.5
 21
49.99999999999996
 31
0.0
  0
LINE
  5
63
330
1E
100
AcDbEntity
  8
HILF
100
AcDbLine
 10
50.0000000000001
 20
125.0
 30
0.0
 11
182.5000000000001
 21
125.0
 31
0.0
  0
LINE
  5
64
330
1E
100
AcDbEntity
  8
HILF
100
AcDbLine
 10
50.0000000000001
 20
112.5
 30
0.0
 11
182.5000000000001
 21
112.5
 31
0.0
  0
LINE
  5
65
330
1E
100
AcDbEntity
  8
HILF
100
AcDbLine
 10
50.0000000000001
 20
99.99999999999992
 30
0.0
 11
182.5000000000001
 21
99.99999999999992
 31
0.0
  0
LINE
  5
66
330
1E
100
AcDbEntity
  8
HILF
100
AcDbLine
 10
50.0000000000001
 20
87.49999999999992
 30
0.0
 11
182.5000000000001
 21
87.49999999999992
 31
0.0
  0
LINE
  5
67
330
1E
100
AcDbEntity
  8
HILF
100
AcDbLine
 10
50.0000000000001
 20
74.99999999999997
 30
0.0
 11
182.5000000000001
 21
74.99999999999997
 31
0.0
  0
LINE
  5
68
330
1E
100
AcDbEntity
  8
HILF
100
AcDbLine
 10
50.0000000000001
 20
62.49999999999996
 30
0.0
 11
182.5000000000001
 21
62.49999999999996
 31
0.0
  0
LINE
  5
69
330
1E
100
AcDbEntity
  8
HILF
100
AcDbLine
 10
50.0000000000001
 20
49.99999999999996
 30
0.0
 11
182.5000000000001
 21
49.99999999999996
 31
0.0
  0
LINE
  5
6A
330
1E
100
AcDbEntity
  8
HILF
100
AcDbLine
 10
182.5000000000001
 20
87.49999999999992
 30
0.0
 11
287.5
 21
87.49999999999992
 31
0.0
  0
LINE
  5
6B
330
1E
100
AcDbEntity
  8
HILF
100
AcDbLine
 10
182.5000000000001
 20
74.99999999999997
 30
0.0
 11
287.5
 21
74.99999999999997
 31
0.0
  0
LINE
  5
6C
330
1E
100
AcDbEntity
  8
HILF
100
AcDbLine
 10
182.5000000000001
 20
62.49999999999996
 30
0.0
 11
287.5
 21
62.49999999999996
 31
0.0
  0
LINE
  5
6D
330
1E
100
AcDbEntity
  8
HILF
100
AcDbLine
 10
293.4671001371185
 20
105.0469780945517
 30
0.0
 11
406.0442395695388
 21
105.0469780945517
 31
0.0
  0
LINE
  5
6E
330
1E
100
AcDbEntity
  8
HILF
100
AcDbLine
 10
293.4671001371185
 20
87.49999999999992
 30
0.0
 11
406.0442395695387
 21
87.49999999999992
 31
0.0
  0
LINE
  5
6F
330
1E
100
AcDbEntity
  8
HILF
100
AcDbLine
 10
293.4671001371185
 20
74.99999999999997
 30
0.0
 11
406.0442395695387
 21
74.99999999999997
 31
0.0
  0
LINE
  5
70
330
1E
100
AcDbEntity
  8
HILF
100
AcDbLine
 10
293.4671001371185
 20
62.49999999999996
 30
0.0
 11
406.0442395695387
 21
62.49999999999996
 31
0.0
  0
LINE
  5
71
330
1E
100
AcDbEntity
  8
VOLL
100
AcDbLine
 10
415.0
 20
75.0
 30
0.0
 11
512.5
 21
75.0
 31
0.0
  0
LINE
  5
72
330
1E
100
AcDbEntity
  8
HILF
100
AcDbLine
 10
420.9048270371241
 20
104.7247954619478
 30
0.0
 11
506.073604915841
 21
104.7247954619478
 31
0.0
  0
LINE
  5
73
330
1E
100
AcDbEntity
  8
HILF
100
AcDbLine
 10
291.8637124112356
 20
18.61747822535392
 30
0.0
 11
506.073604915841
 21
18.61747822535392
 31
0.0
  0
TEXT
  5
74
330
1E
100
AcDbEntity
  8
TEXT
100
AcDbText
 10
84.74387371862629
 20
23.34227368730165
 30
0.0
 40
5.0
  1
Änderung
 41
0.8
  7
GREEKS
 72
     1
 11
98.17244514719773
 21
23.34227368730165
 31
0.0
100
AcDbText
  0
TEXT
  5
75
330
1E
100
AcDbEntity
  8
TEXT
100
AcDbText
 10
191.8954465187971
 20
128.0776118858861
 30
0.0
 40
6.25
  1
Maßstab
 41
0.8
  7
GREEKS
100
AcDbText
  0
TEXT
  5
76
330
1E
100
AcDbEntity
  8
TEXT
100
AcDbText
 10
242.8573693417564
 20
128.0230210543524
 30
0.0
 40
6.25
  1
Zul. Abw.
 41
0.8
  7
GREEKS
100
AcDbText
  0
TEXT
  5
77
330
1E
100
AcDbEntity
  8
TEXT
100
AcDbText
 10
293.5974254761262
 20
128.1861660014724
 30
0.0
 40
6.25
  1
Benennung
 41
0.8
  7
GREEKS
100
AcDbText
  0
TEXT
  5
78
330
1E
100
AcDbEntity
  8
TEXT
100
AcDbText
 10
420.2234436970425
 20
127.891504317142
 30
0.0
 40
6.25
  1
Zeichnungs Nr.
 41
0.8
  7
GREEKS
100
AcDbText
  0
TEXT
  5
79
330
1E
100
AcDbEntity
  8
TEXT
100
AcDbText
 10
293.42779798892
 20
38.55700712741321
 30
0.0
 40
6.25
  1
Bauvorhaben
 41
0.8
  7
GREEKS
100
AcDbText
  0
TEXT
  5
7A
330
1E
100
AcDbEntity
  8
TEXT
100
AcDbText
 10
420.9048270371241
 20
91.47647796374961
 30
0.0
 40
6.25
  1
Ersatz für:
 41
0.8
  7
GREEKS
100
AcDbText
  0
TEXT
  5
7B
330
1E
100
AcDbEntity
  8
TEXT
100
AcDbText
 10
60.33301383807195
 20
17.06832307533989
 30
0.0
 40
5.0
  1
Index
 50
90.0
 41
0.8
  7
GREEKS
100
AcDbText
  0
TEXT
  5
7C
330
1E
100
AcDbEntity
  8
TEXT
100
AcDbText
 10
138.3732649044237
 20
23.33945336674763
 30
0.0
 40
5.0
  1
Tag
 41
0.8
  7
GREEKS
 72
     1
 11
143.0399315710903
 21
23.33945336674763
 31
0.0
100
AcDbText
  0
TEXT
  5
7D
330
1E
100
AcDbEntity
  8
TEXT
100
AcDbText
 10
161.2653430483241
 20
23.2415527120801
 30
0.0
 40
5.0
  1
Name
 41
0.8
  7
GREEKS
 72
     1
 11
169.170104953086
 21
23.2415527120801
 31
0.0
100
AcDbText
  0
TEXT
  5
7E
330
1E
100
AcDbEntity
  8
TEXT
100
AcDbText
 10
215.4139591442064
 20
91.64850626537408
 30
0.0
 40
5.0
  1
Tag
 41
0.8
  7
GREEKS
100
AcDbText
  0
TEXT
  5
7F
330
1E
100
AcDbEntity
  8
TEXT
100
AcDbText
 10
253.0783230282869
 20
91.63701364894031
 30
0.0
 40
5.0
  1
Name
 41
0.8
  7
GREEKS
100
AcDbText
  0
TEXT
  5
80
330
1E
100
AcDbEntity
  8
TEXT
100
AcDbText
 10
184.4795158959519
 20
79.53737962022455
 30
0.0
 40
5.0
  1
Gez.
 41
0.8
  7
GREEKS
100
AcDbText
  0
TEXT
  5
81
330
1E
100
AcDbEntity
  8
TEXT
100
AcDbText
 10
184.439385821459
 20
67.11157864285471
 30
0.0
 40
5.0
  1
Gepr.
 41
0.8
  7
GREEKS
100
AcDbText
  0
TEXT
  5
82
330
1E
100
AcDbEntity
  8
TEXT
100
AcDbText
 10
184.5008471734129
 20
54.41182987062259
 30
0.0
 40
5.0
  1
Norm.
 41
0.8
  7
GREEKS
100
AcDbText
  0
LINE
  5
83
330
1E
100
AcDbEntity
  8
STEMPEL
100
AcDbLine
 10
62.49999999999985
 20
12.5
 30
0.0
 11
512.5
 21
12.5
 31
0.0
  0
TEXT
  5
84
330
1E
100
AcDbEntity
  8
TEXT
100
AcDbText
 10
421.5501076871257
 20
65.09270222348252
 30
0.0
 40
6.25
  1
ersetzt durch:
 41
0.8
  7
GREEKS
100
AcDbText
  0
LINE
  5
85
330
1E
100
AcDbEntity
  8
STEMPEL
100
AcDbLine
 10
512.5
 20
12.5
 30
0.0
 11
49.99999999999985
 21
12.5
 31
0.0
  0
LINE
  5
86
330
1E
100
AcDbEntity
  8
STEMPEL
100
AcDbLine
 10
512.5
 20
12.5
 30
0.0
 11
512.5
 21
730.0
 31
0.0
  0
LINE
  5
87
330
1E
100
AcDbEntity
  8
STEMPEL
100
AcDbLine
 10
50.0
 20
12.5
 30
0.0
 11
49.99999999999985
 21
730.0
 31
0.0
  0
LINE
  5
88
330
1E
100
AcDbEntity
  8
STEMPEL
100
AcDbLine
 10
512.5
 20
730.0
 30
0.0
 11
49.99999999999985
 21
730.0
 31
0.0
  0
LINE
  5
89
330
1E
100
AcDbEntity
  8
HILF
100
AcDbLine
 10
0.0
 20
0.0
 30
0.0
 11
-0.0000000000001421
 21
742.4999999999999
 31
0.0
  0
LINE
  5
8A
330
1E
100
AcDbEntity
  8
HILF
100
AcDbLine
 10
524.9999999999999
 20
742.5000000000002
 30
0.0
 11
0.0
 21
742.4999999999999
 31
0.0
  0
LINE
  5
8B
330
1E
100
AcDbEntity
  8
HILF
100
AcDbLine
 10
525.0
 20
0.0
 30
0.0
 11
0.0
 21
0.0
 31
0.0
  0
LINE
  5
8C
330
1E
100
AcDbEntity
  8
HILF
100
AcDbLine
 10
38.8595891964232
 20
371.2500000000001
 30
0.0
 11
0.0000000000001421
 21
371.2500000000001
 31
0.0
  0
LINE
  5
8E
330
1E
100
AcDbEntity
  8
HILF
100
AcDbLine
 10
525.0
 20
-0.0000000000001421
 30
0.0
 11
524.9999999999999
 21
742.4999999999999
 31
0.0
  0
TEXT
  5
8F
330
1E
100
AcDbEntity
  8
VOLL
100
AcDbText
 10
78.07675471698113
 20
31.02594776470585
 30
0.0
 40
1.8
  1

  7
GREEKS
100
AcDbText
  0
TEXT
  5
90
330
1E
100
AcDbEntity
  8
TEXT
100
AcDbText
 10
52.31887438722093
 20
139.5899999999999
 30
0.0
 40
6.25
  1
Erstellt mit AUTOCAD 2004
 41
0.8
  7
GREEKS
100
AcDbText
  0
TEXT
  5
91
330
1E
100
AcDbEntity
  8
TEXT
100
AcDbText
 10
255.5270060726571
 20
78.86204899654387
 30
0.0
 40
5.0
  1
Koeh
 41
0.8
  7
GREEKS
 72
     1
 11
262.0984346440857
 21
78.86204899654387
 31
0.0
100
AcDbText
  0
TEXT
  5
92
330
1E
100
AcDbEntity
  8
TEXT
 62
     1
100
AcDbText
 10
433.4705259188434
 20
110.1862678614245
 30
0.0
 40
8.75
  1
58034080W
 41
0.8
  7
GREEKS
 72
     1
 11
463.4705259188434
 21
110.1862678614245
 31
0.0
100
AcDbText
  0
TEXT
  5
93
330
1E
100
AcDbEntity
  8
TEXT
 62
     1
100
AcDbText
 10
200.6257883102358
 20
110.1862678614245
 30
0.0
 40
8.75
  1
1:2.5
 41
0.8
  7
GREEKS
100
AcDbText
  0
TEXT
  5
95
330
1E
100
AcDbEntity
  8
TEXT
 62
     1
100
AcDbText
 10
296.1169663821753
 20
109.2718598656722
 30
0.0
 40
8.75
  1
Verbundrohr DN80
 41
0.8
  7
GREEKS
100
AcDbText
  0
TEXT
  5
98
330
1E
100
AcDbEntity
  8
TEXT
100
AcDbText
 10
293.9120488906644
 20
64.55014928802699
 30
0.0
 40
6.25
  1
EDV-Art.Nr. 58034.080X
 41
0.8
  7
GREEKS
100
AcDbText
  0
TEXT
  5
99
330
1E
100
AcDbEntity
  8
TEXT
100
AcDbText
 10
293.7296876972284
 20
53.28717691278291
 30
0.0
 40
5.0
  1
58034080W.DWG
 41
0.8
  7
GREEKS
100
AcDbText
  0
TEXT
  5
9A
330
1E
100
AcDbEntity
  8
TEXT
100
AcDbText
 10
240.782665260105
 20
113.4545480127878
 30
0.0
 40
5.0
  1
DIN EN1123-2
 41
0.8
  7
GREEKS
 72
     1
 11
262.0207604982003
 21
113.4545480127878
 31
0.0
100
AcDbText
  0
INSERT
  5
9B
330
1E
100
AcDbEntity
  8
STEMPEL
100
AcDbBlockReference
  2
LOGO
 10
188.7444356822243
 20
56.27631595560402
 30
0.0
 41
2.5
 42
2.5
 43
2.5
  0
TEXT
  5
2C0
330
1E
100
AcDbEntity
  8
BEM
100
AcDbText
 10
521.6278654821457
 20
12.70987634998576
 30
0.0
 40
5.0
  1
Diese Zeichnung ist urheberrechtlich geschützt und bleibt unser Eigentum. Sie darf weder ganz noch teilweise verfielfältigt und nicht an Dritte weitergegeben werden.
 50
90.0
 41
0.8
  7
GREEKS
100
AcDbText
  0
TEXT
  5
77A
330
1E
100
AcDbEntity
  8
TEXT
100
AcDbText
 10
293.9120488906644
 20
89.55014928802695
 30
0.0
 40
6.25
  1
Bogen 15°
 41
0.8
  7
GREEKS
100
AcDbText
  0
TEXT
  5
78C
330
1E
100
AcDbEntity
  8
TEXT
 62
     1
100
AcDbText
 10
318.7876613940725
 20
162.1777724661328
 30
0.0
 40
8.75
  1
und innenbeschichtet
 41
0.8
  7
GREEKS
100
AcDbText
  0
TEXT
  5
78D
330
1E
100
AcDbEntity
  8
TEXT
 62
     1
100
AcDbText
 10
253.7590621666965
 20
146.8247093859629
 30
0.0
 40
8.75
  1
Dämmung: 2 K-PU-Schaum
 41
0.8
  7
GREEKS
100
AcDbText
  0
TEXT
  5
78E
330
1E
100
AcDbEntity
  8
TEXT
 62
     1
100
AcDbText
 10
259.2195002990553
 20
176.264089765165
 30
0.0
 40
8.75
  1
Innenrohr: E195 EN10305 feuerverzinkt
 41
0.8
  7
GREEKS
100
AcDbText
  0
TEXT
  5
78F
330
1E
100
AcDbEntity
  8
TEXT
 62
     1
100
AcDbText
 10
254.5042285854753
 20
190.4554248106087
 30
0.0
 40
8.75
  1
Außenrohr: E195 EN10305 feuerverzinkt
 41
0.8
  7
GREEKS
100
AcDbText
  0
TEXT
  5
188F
330
1E
100
AcDbEntity
  8
TEXT
 62
     1
100
AcDbText
 10
335.2638862967839
 20
327.3807153931575
 30
0.0
 40
8.75
  1
Rohrende leicht eingezogen
 41
0.8
  7
GREEKS
100
AcDbText
  0
ARC
  5
2A29
102
{ACAD_REACTORS
330
2D36
330
2D95
102
}
330
1E
100
AcDbEntity
  8
STEMPEL
100
AcDbCircle
 10
405.526160762661
 20
415.8719609437004
 30
0.0
 40
89.0
100
AcDbArc
 50
164.9999999999999
 51
180.0000000000001
  0
ARC
  5
2A2A
102
{ACAD_REACTORS
330
2D36
330
2D95
102
}
330
1E
100
AcDbEntity
  8
STEMPEL
100
AcDbCircle
 10
405.526160762661
 20
415.8719609437004
 30
0.0
 40
178.0
100
AcDbArc
 50
165.0
 51
180.0
  0
TEXT
  5
2A2B
330
1E
100
AcDbEntity
  8
VOLL
100
AcDbText
 10
290.2626444822836
 20
533.991417412047
 30
0.0
 40
7.0
  1
DN80
 50
74.99999999999926
 41
0.8
  7
GREEKS
100
AcDbText
  0
ARC
  5
2A2C
330
1E
100
AcDbEntity
  8
MITTEL
100
AcDbCircle
 10
405.526160762661
 20
415.8719609437004
 30
0.0
 40
133.5
100
AcDbArc
 50
164.9999999999992
 51
180.0
  0
LINE
  5
2A2D
102
{ACAD_REACTORS
330
2D36
102
}
330
1E
100
AcDbEntity
  8
STEMPEL
100
AcDbLine
 10
316.5261607626609
 20
340.4487306001369
 30
0.0
 11
316.088717445031
 21
335.4487306001368
 31
0.0
  0
LINE
  5
2A2E
102
{ACAD_REACTORS
330
2D36
102
}
330
1E
100
AcDbEntity
  8
STEMPEL
100
AcDbLine
 10
227.5261607626612
 20
340.4487306001369
 30
0.0
 11
227.9636040802909
 21
335.4487306001368
 31
0.0
  0
LINE
  5
2A2F
330
1E
100
AcDbEntity
  8
HILF
100
AcDbLine
 10
313.3139372825222
 20
340.448730600137
 30
0.0
 11
230.7383842428
 21
340.4487306001369
 31
0.0
  0
LINE
  5
2A30
330
1E
100
AcDbEntity
  8
MITTEL
100
AcDbLine
 10
272.026160762661
 20
433.4475693716176
 30
0.0
 11
272.026160762661
 21
330.4487306001369
 31
0.0
  0
LINE
  5
2A31
102
{ACAD_REACTORS
330
2D36
330
2D95
102
}
330
1E
100
AcDbEntity
  8
STEMPEL
100
AcDbLine
 10
316.5261607626611
 20
415.8719609437002
 30
0.0
 11
316.5261607626612
 21
340.4487306001369
 31
0.0
  0
LINE
  5
2A32
102
{ACAD_REACTORS
330
2D36
330
2D95
102
}
330
1E
100
AcDbEntity
  8
STEMPEL
100
AcDbLine
 10
227.5261607626612
 20
415.8719609437004
 30
0.0
 11
227.5261607626612
 21
340.4487306001369
 31
0.0
  0
LINE
  5
2A33
102
{ACAD_REACTORS
330
2D36
102
}
330
1E
100
AcDbEntity
  8
STEMPEL
100
AcDbLine
 10
316.088717445031
 20
335.4487306001368
 30
0.0
 11
227.9636040802909
 21
335.4487306001368
 31
0.0
  0
LINE
  5
2A34
102
{ACAD_REACTORS
330
2D36
330
2D76
102
}
330
1E
100
AcDbEntity
  8
STEMPEL
100
AcDbLine
 10
351.2925359619572
 20
544.7223570502889
 30
0.0
 11
351.7156533711906
 21
542.3227389797391
 31
0.0
  0
ARC
  5
2A35
102
{ACAD_REACTORS
330
2D36
330
2D76
102
}
330
1E
100
AcDbEntity
  8
STEMPEL
100
AcDbCircle
 10
327.4893826470905
 20
538.0509938091327
 30
0.0
 40
24.6
100
AcDbArc
 50
344.9999999999993
 51
9.999999999988984
  0
LINE
  5
2A36
102
{ACAD_REACTORS
330
2D36
330
2D76
102
}
330
1E
100
AcDbEntity
  8
STEMPEL
100
AcDbLine
 10
259.0168600134975
 20
569.4475499017147
 30
0.0
 11
257.450620553043
 21
567.5809783978553
 31
0.0
  0
ARC
  5
2A37
102
{ACAD_REACTORS
330
2D36
330
2D76
102
}
330
1E
100
AcDbEntity
  8
STEMPEL
100
AcDbCircle
 10
276.29531385377
 20
551.7684031995664
 30
0.0
 40
24.6
100
AcDbArc
 50
140.000000000009
 51
164.9999999999992
  0
LINE
  5
2A38
102
{ACAD_REACTORS
330
2D36
330
2D48
330
2D76
102
}
330
1E
100
AcDbEntity
  8
STEMPEL
100
AcDbLine
 10
369.3887654359502
 20
539.873486976684
 30
0.0
 11
240.9206305395042
 21
574.2964199753195
 31
0.0
  0
ARC
  5
2A39
102
{ACAD_REACTORS
330
2D36
330
2D95
102
}
330
1E
100
AcDbEntity
  8
STEMPEL
100
AcDbCircle
 10
325.2842640915647
 20
531.3668606452599
 30
0.0
 40
25.00009324312574
100
AcDbArc
 50
319.9670575584365
 51
345.1564859543465
  0
ARC
  5
2A3A
102
{ACAD_REACTORS
330
2D36
330
2D95
102
}
330
1E
100
AcDbEntity
  8
STEMPEL
100
AcDbCircle
 10
353.5771777413438
 20
507.5233911576592
 30
0.0
 40
12.0
100
AcDbArc
 50
139.6922769019823
 51
164.9999999999992
  0
ARC
  5
2A3B
102
{ACAD_REACTORS
330
2D36
330
2D95
102
}
330
1E
100
AcDbEntity
  8
STEMPEL
100
AcDbCircle
 10
338.9632121038273
 20
480.4156223649918
 30
0.0
 40
8.0
100
AcDbArc
 50
132.67193587784
 51
164.9999999999992
  0
ARC
  5
2A3C
102
{ACAD_REACTORS
330
2D36
330
2D95
102
}
330
1E
100
AcDbEntity
  8
STEMPEL
100
AcDbCircle
 10
325.4072197231417
 20
495.1205559103972
 30
0.0
 40
12.0
100
AcDbArc
 50
312.6719358778399
 51
344.9999999999993
  0
LINE
  5
2A3D
102
{ACAD_REACTORS
330
2D36
330
2D95
102
}
330
1E
100
AcDbEntity
  8
STEMPEL
100
AcDbLine
 10
341.9860678258749
 20
510.6292196988895
 30
0.0
 11
336.9983296386104
 21
492.0147273691669
 31
0.0
  0
ARC
  5
2A3E
102
{ACAD_REACTORS
330
2D36
330
2D95
102
}
330
1E
100
AcDbEntity
  8
STEMPEL
100
AcDbCircle
 10
274.8629359592753
 20
544.8772147996113
 30
0.0
 40
25.00009324312574
100
AcDbArc
 50
164.8435140456513
 51
190.0329424415662
  0
ARC
  5
2A3F
102
{ACAD_REACTORS
330
2D36
330
2D95
102
}
330
1E
100
AcDbEntity
  8
STEMPEL
100
AcDbCircle
 10
238.4388192476868
 20
538.3746213338797
 30
0.0
 40
12.0
100
AcDbArc
 50
344.9999999999993
 51
10.30772309802383
  0
ARC
  5
2A40
102
{ACAD_REACTORS
330
2D36
330
2D95
102
}
330
1E
100
AcDbEntity
  8
STEMPEL
100
AcDbCircle
 10
237.5410003434752
 20
507.5916221007564
 30
0.0
 40
8.0
100
AcDbArc
 50
344.9999999999993
 51
17.32806412216179
  0
ARC
  5
2A41
102
{ACAD_REACTORS
330
2D36
330
2D95
102
}
330
1E
100
AcDbEntity
  8
STEMPEL
100
AcDbCircle
 10
256.63330089136
 20
513.5484719216966
 30
0.0
 40
12.0
100
AcDbArc
 50
164.9999999999992
 51
197.3280641221618
  0
LINE
  5
2A42
102
{ACAD_REACTORS
330
2D36
330
2D95
102
}
330
1E
100
AcDbEntity
  8
STEMPEL
100
AcDbLine
 10
250.0299291631554
 20
535.2687927926495
 30
0.0
 11
245.042190975891
 21
516.6543004629271
 31
0.0
  0
LINE
  5
2A43
330
1E
100
AcDbEntity
  8
HILF
100
AcDbLine
 10
253.6070629699983
 20
537.392591608996
 30
0.0
 11
339.9500784845863
 21
514.2570503297944
 31
0.0
  0
LINE
  5
2A44
330
1E
100
AcDbEntity
  8
HILF
100
AcDbLine
 10
247.8570275009635
 20
512.9026969012618
 30
0.0
 11
332.6848079195649
 21
490.1731616423727
 31
0.0
  0
LINE
  5
2A45
330
1E
100
AcDbEntity
  8
HILF
100
AcDbLine
 10
248.7385644891478
 20
507.3580472657551
 30
0.0
 11
329.1490496756684
 21
485.8121226970324
 31
0.0
  0
LINE
  5
2A46
102
{ACAD_REACTORS
330
2D36
330
2D95
102
}
330
1E
100
AcDbEntity
  8
STEMPEL
100
AcDbLine
 10
245.2684069537875
 20
505.5210697399361
 30
0.0
 11
233.5913636832069
 21
461.941750971949
 31
0.0
  0
LINE
  5
2A47
102
{ACAD_REACTORS
330
2D36
330
2D95
102
}
330
1E
100
AcDbEntity
  8
STEMPEL
100
AcDbLine
 10
331.2358054935146
 20
482.4861747258117
 30
0.0
 11
319.558762222934
 21
438.9068559578247
 31
0.0
  0
LINE
  5
2A48
330
1E
100
AcDbEntity
  8
MITTEL
100
AcDbLine
 10
306.4487932132398
 20
561.9145826074473
 30
0.0
 11
272.026160762661
 21
433.4475693716176
 31
0.0
  0
LINE
  5
2A49
102
{ACAD_REACTORS
330
2D36
330
2D76
330
2D95
102
}
330
1E
100
AcDbEntity
  8
STEMPEL
100
AcDbLine
 10
252.5335385270586
 20
558.1353517090884
 30
0.0
 11
250.7324624789203
 21
551.4136443891406
 31
0.0
  0
LINE
  5
2A4A
102
{ACAD_REACTORS
330
2D36
330
2D76
330
2D95
102
}
330
1E
100
AcDbEntity
  8
STEMPEL
100
AcDbLine
 10
351.2511579738015
 20
531.6840452996108
 30
0.0
 11
349.4500819256632
 21
524.962337979663
 31
0.0
  0
DIMENSION
  5
2AE7
330
1E
100
AcDbEntity
  8
BEM
100
AcDbDimension
  2
*D1
 10
379.1371503464719
 20
576.2549547544846
 30
0.0
 11
317.0059876397074
 21
601.3145685924026
 31
0.0
 70
    32
  1
%%c<>
 71
     5
 42
133.0
  3
Standard
100
AcDbAlignedDimension
 13
240.9206305395041
 23
574.2964199753195
 33
0.0
 14
369.3887654359503
 24
539.8734869766842
 34
0.0
 50
164.9999999999984
100
AcDbRotatedDimension
1001
ACAD
1000
DSTYLE
1002
{
1070
    40
1040
2.5
1070
    41
1040
3.5
1070
    42
1040
1.0
1070
    43
1040
7.0
1070
    44
1040
1.0
1070
    73
1070
     0
1070
    74
1070
     0
1070
    77
1070
     1
1070
    78
1070
     8
1070
    79
1070
     2
1070
   140
1040
3.5
1070
   141
1040
1.5
1070
   146
1040
0.5142857142857144
1070
   147
1040
1.5
1070
   172
1070
     1
1070
   178
1070
     1
1070
   179
1070
     2
1070
   271
1070
     2
1070
   272
1070
     2
1070
   284
1070
     8
1070
   285
1070
     8
1070
   286
1070
     8
1002
}
  0
LINE
  5
2B66
330
1E
100
AcDbEntity
  8
STEMPEL
100
AcDbLine
 10
321.026160762661
 20
391.4487306001369
 30
0.0
 11
316.5261607626608
 21
391.4487306001369
 31
0.0
  0
LINE
  5
2B67
102
{ACAD_REACTORS
330
2D95
102
}
330
1E
100
AcDbEntity
  8
STEMPEL
100
AcDbLine
 10
336.026160762661
 20
385.4487306001368
 30
0.0
 11
335.5372274441982
 21
399.4499489460988
 31
0.0
  0
LINE
  5
2B68
102
{ACAD_REACTORS
330
2D95
102
}
330
1E
100
AcDbEntity
  8
STEMPEL
100
AcDbLine
 10
335.5372274441982
 20
399.4499489460988
 30
0.0
 11
333.467428450793
 21
401.4487306001369
 31
0.0
  0
LINE
  5
2B69
102
{ACAD_REACTORS
330
2D3F
102
}
330
1E
100
AcDbEntity
  8
STEMPEL
100
AcDbLine
 10
338.526160762661
 20
385.4487306001368
 30
0.0
 11
336.026160762661
 21
385.4487306001369
 31
0.0
  0
LINE
  5
2B6A
102
{ACAD_REACTORS
330
2D95
102
}
330
1E
100
AcDbEntity
  8
STEMPEL
100
AcDbLine
 10
333.467428450793
 20
401.4487306001369
 30
0.0
 11
316.526160762661
 21
401.4487306001369
 31
0.0
  0
LINE
  5
2B6C
102
{ACAD_REACTORS
330
2CA1
330
2D3F
102
}
330
1E
100
AcDbEntity
  8
STEMPEL
100
AcDbLine
 10
338.5261607626609
 20
424.6926782820559
 30
0.0
 11
338.5261607626609
 21
383.4487306001368
 31
0.0
  0
LINE
  5
2B6D
102
{ACAD_REACTORS
330
2D3F
330
2D95
102
}
330
1E
100
AcDbEntity
  8
STEMPEL
100
AcDbLine
 10
336.0261607626611
 20
425.0218095260244
 30
0.0
 11
336.026160762661
 21
385.4487306001368
 31
0.0
  0
LINE
  5
2B6F
330
1E
100
AcDbEntity
  8
STEMPEL
100
AcDbLine
 10
223.0261607626612
 20
391.4487306001369
 30
0.0
 11
227.5261607626612
 21
391.4487306001369
 31
0.0
  0
LINE
  5
2B70
102
{ACAD_REACTORS
330
2D95
102
}
330
1E
100
AcDbEntity
  8
STEMPEL
100
AcDbLine
 10
210.584893074529
 20
401.4487306001369
 30
0.0
 11
227.5261607626612
 21
401.4487306001369
 31
0.0
  0
LINE
  5
2B71
102
{ACAD_REACTORS
330
2D3F
102
}
330
1E
100
AcDbEntity
  8
STEMPEL
100
AcDbLine
 10
208.026160762661
 20
385.4487306001368
 30
0.0
 11
205.526160762661
 21
385.4487306001368
 31
0.0
  0
LINE
  5
2B72
102
{ACAD_REACTORS
330
2D95
102
}
330
1E
100
AcDbEntity
  8
STEMPEL
100
AcDbLine
 10
208.0261607626612
 20
385.4487306001368
 30
0.0
 11
208.515094081124
 21
399.4499489460988
 31
0.0
  0
LINE
  5
2B73
102
{ACAD_REACTORS
330
2D95
102
}
330
1E
100
AcDbEntity
  8
STEMPEL
100
AcDbLine
 10
208.515094081124
 20
399.4499489460988
 30
0.0
 11
210.584893074529
 21
401.4487306001369
 31
0.0
  0
LINE
  5
2B74
102
{ACAD_REACTORS
330
2CA1
330
2D3F
102
}
330
1E
100
AcDbEntity
  8
STEMPEL
100
AcDbLine
 10
205.5261607626611
 20
442.2024604611796
 30
0.0
 11
205.526160762661
 21
383.4487306001369
 31
0.0
  0
LINE
  5
2B75
102
{ACAD_REACTORS
330
2D3F
330
2D95
102
}
330
1E
100
AcDbEntity
  8
STEMPEL
100
AcDbLine
 10
208.026160762661
 20
441.8733292172112
 30
0.0
 11
208.026160762661
 21
385.4487306001368
 31
0.0
  0
DIMENSION
  5
2B77
330
1E
100
AcDbEntity
  8
BEM
100
AcDbDimension
  2
*D2
 10
316.526160762661
 20
313.1042882904264
 30
0.0
 11
272.0261607626611
 21
321.2292882904264
 31
0.0
 70
    32
  1
%%C<>
 71
     5
 42
88.99999999999989
  3
Standard
100
AcDbAlignedDimension
 13
227.5261607626611
 23
342.0774001326882
 33
0.0
 14
316.526160762661
 24
342.0774001326889
 34
0.0
 50
180.0
100
AcDbRotatedDimension
1001
ACAD
1000
DSTYLE
1002
{
1070
    40
1040
2.5
1070
    41
1040
3.5
1070
    42
1040
1.0
1070
    43
1040
7.0
1070
    44
1040
1.0
1070
    73
1070
     0
1070
    74
1070
     0
1070
    77
1070
     1
1070
    78
1070
     8
1070
    79
1070
     2
1070
   140
1040
3.5
1070
   141
1040
1.5
1070
   146
1040
0.5142857142857144
1070
   147
1040
1.5
1070
   172
1070
     1
1070
   178
1070
     1
1070
   179
1070
     2
1070
   271
1070
     2
1070
   272
1070
     2
1070
   284
1070
     8
1070
   285
1070
     8
1070
   286
1070
     8
1002
}
  0
LINE
  5
2BEE
102
{ACAD_REACTORS
330
2CA1
330
2D48
102
}
330
1E
100
AcDbEntity
  8
STEMPEL
100
AcDbLine
 10
240.9206305395042
 20
574.2964199753195
 30
0.0
 11
205.5261607626611
 21
442.2024604611796
 31
0.0
  0
LINE
  5
2BEF
102
{ACAD_REACTORS
330
2CA1
330
2D48
102
}
330
1E
100
AcDbEntity
  8
STEMPEL
100
AcDbLine
 10
369.3887654359502
 20
539.873486976684
 30
0.0
 11
338.5261607626609
 21
424.6926782820559
 31
0.0
  0
LINE
  5
2BF0
102
{ACAD_REACTORS
330
2D48
330
2D76
330
2D95
102
}
330
1E
100
AcDbEntity
  8
STEMPEL
100
AcDbLine
 10
366.9739508702276
 20
540.5205345894404
 30
0.0
 11
336.0261607626611
 21
425.0218095260244
 31
0.0
  0
LINE
  5
2BF1
102
{ACAD_REACTORS
330
2D48
330
2D76
330
2D95
102
}
330
1E
100
AcDbEntity
  8
STEMPEL
100
AcDbLine
 10
243.3354451052269
 20
573.6493723625633
 30
0.0
 11
208.026160762661
 21
441.8733292172112
 31
0.0
  0
LINE
  5
2BF2
102
{ACAD_REACTORS
330
2D3F
330
2D48
102
}
330
1E
100
AcDbEntity
  8
STEMPEL
100
AcDbLine
 10
205.5261607626611
 20
442.2024604611796
 30
0.0
 11
208.026160762661
 21
441.873329217211
 31
0.0
  0
LINE
  5
2BF3
102
{ACAD_REACTORS
330
2D3F
330
2D48
102
}
330
1E
100
AcDbEntity
  8
STEMPEL
100
AcDbLine
 10
336.0261607626611
 20
425.0218095260244
 30
0.0
 11
338.5261607626609
 21
424.6926782820559
 31
0.0
  0
DIMENSION
  5
2C17
330
1E
100
AcDbEntity
  8
BEM
100
AcDbDimension
  2
*D3
 10
192.4436262715594
 20
335.4487306001368
 30
0.0
 11
184.3186262715594
 21
360.4487306001369
 31
0.0
 70
    32
 71
     5
 42
50.0
  3
Standard
100
AcDbAlignedDimension
 13
205.526160762661
 23
385.4487306001368
 33
0.0
 14
227.9636040802909
 24
335.4487306001368
 34
0.0
 50
90.0
100
AcDbRotatedDimension
1001
ACAD
1000
DSTYLE
1002
{
1070
   279
1070
     1
1070
    40
1040
2.5
1070
    41
1040
3.5
1070
    42
1040
1.0
1070
    43
1040
7.0
1070
    44
1040
1.0
1070
    73
1070
     0
1070
    74
1070
     0
1070
    77
1070
     1
1070
    78
1070
     8
1070
    79
1070
     2
1070
   140
1040
3.5
1070
   141
1040
1.5
1070
   146
1040
0.5142857142857144
1070
   147
1040
1.5
1070
   172
1070
     1
1070
   178
1070
     1
1070
   179
1070
     2
1070
   271
1070
     2
1070
   272
1070
     2
1070
   284
1070
     8
1070
   285
1070
     8
1070
   286
1070
     8
1002
}
  0
DIMENSION
  5
2C2D
330
1E
100
AcDbEntity
  8
BEM
100
AcDbDimension
  2
*D4
 10
174.7229870378273
 20
335.4487306001368
 30
0.0
 11
166.5979870378273
 21
384.4481499858773
 31
0.0
 70
    32
 71
     5
 42
97.99883877148079
  3
Standard
100
AcDbAlignedDimension
 13
272.026160762661
 23
433.4475693716176
 33
0.0
 14
227.9636040802909
 24
335.4487306001368
 34
0.0
 50
90.0
100
AcDbRotatedDimension
1001
ACAD
1000
DSTYLE
1002
{
1070
    40
1040
2.5
1070
    41
1040
3.5
1070
    42
1040
1.0
1070
    43
1040
7.0
1070
    44
1040
1.0
1070
    73
1070
     0
1070
    74
1070
     0
1070
    77
1070
     1
1070
    78
1070
     8
1070
    79
1070
     2
1070
   140
1040
3.5
1070
   141
1040
1.5
1070
   146
1040
0.5142857142857144
1070
   147
1040
1.5
1070
   172
1070
     1
1070
   178
1070
     1
1070
   179
1070
     2
1070
   271
1070
     2
1070
   272
1070
     2
1070
   284
1070
     8
1070
   285
1070
     8
1070
   286
1070
     8
1002
}
  0
DIMENSION
  5
2C82
330
1E
100
AcDbEntity
  8
BEM
100
AcDbDimension
  2
*D5
 10
211.4518058685651
 20
582.1925677477922
 30
0.0
 11
187.0393899174333
 21
522.4767804370579
 31
0.0
 70
    32
 71
     5
 42
127.9988387714813
 51
285.0
  3
Standard
100
AcDbAlignedDimension
 13
272.026160762661
 23
433.4475693716176
 33
0.0
 14
240.9206305395041
 24
574.2964199753195
 34
0.0
 50
75.00000000000004
100
AcDbRotatedDimension
1001
ACAD
1000
DSTYLE
1002
{
1070
    40
1040
2.5
1070
    41
1040
3.5
1070
    42
1040
1.0
1070
    43
1040
7.0
1070
    44
1040
1.0
1070
    73
1070
     0
1070
    74
1070
     0
1070
    77
1070
     1
1070
    78
1070
     8
1070
    79
1070
     2
1070
   140
1040
3.5
1070
   141
1040
1.5
1070
   146
1040
0.5142857142857144
1070
   147
1040
1.5
1070
   172
1070
     1
1070
   178
1070
     1
1070
   179
1070
     2
1070
   271
1070
     2
1070
   272
1070
     2
1070
   284
1070
     8
1070
   285
1070
     8
1070
   286
1070
     8
1002
}
  0
ARC
  5
2C91
102
{ACAD_REACTORS
330
2CA1
102
}
330
1E
100
AcDbEntity
  8
SCHRAFF
100
AcDbCircle
 10
336.3603918925875
 20
424.9778071629982
 30
0.0
 40
4.801341929592575
100
AcDbArc
 50
296.8127233647154
 51
48.18727663528398
  0
ARC
  5
2C92
102
{ACAD_REACTORS
330
2CA1
102
}
330
1E
100
AcDbEntity
  8
SCHRAFF
100
AcDbCircle
 10
207.3602077044119
 20
441.9610036006056
 30
0.0
 40
4.182149532892299
100
AcDbArc
 50
101.0108724594766
 51
243.9891275405232
  0
HATCH
  5
2CA1
330
1E
100
AcDbEntity
  8
SCHRAFF
100
AcDbHatch
 10
0.0
 20
0.0
 30
0.0
210
0.0
220
0.0
230
1.0
  2
_USER
 70
     0
 71
     1
 91
        2
 92
        7
 72
     1
 73
     1
 93
        3
 10
338.5261607626609
 20
420.692678282056
 42
0.5282139325253859
 10
339.5614369430711
 20
428.5563815872122
 42
0.0
 10
338.5261607626609
 20
424.6926782820558
 42
0.0
 97
        3
330
2BEF
330
2B6C
330
2C91
 92
        7
 72
     1
 73
     1
 93
        3
 10
206.5614369430711
 20
446.0661637663358
 42
0.7197529465491264
 10
205.5261607626611
 20
438.2024604611797
 42
0.0
 10
205.5261607626611
 20
442.2024604611796
 42
0.0
 97
        3
330
2C92
330
2B74
330
2BEE
 75
     0
 76
     0
 52
0.0
 41
0.1
 77
     0
 78
     1
 53
0.0
 43
0.0
 44
0.0
 45
0.0
 46
0.1
 79
     0
 47
0.2502293676532075
 98
        2
 10
339.5725157216816
 20
424.4237413181028
 10
205.3547103018404
 20
443.441173084542
  0
LINE
  5
2CA3
102
{ACAD_REACTORS
330
2D36
102
}
330
1E
100
AcDbEntity
  8
STEMPEL
100
AcDbLine
 10
314.9261607626611
 20
415.8719609437002
 30
0.0
 11
314.9261607626612
 21
340.5185881087944
 31
0.0
  0
LINE
  5
2CA4
102
{ACAD_REACTORS
330
2D36
102
}
330
1E
100
AcDbEntity
  8
STEMPEL
100
AcDbLine
 10
229.1261607626612
 20
415.8719609437004
 30
0.0
 11
229.1261607626612
 21
340.5185881087909
 31
0.0
  0
LINE
  5
2CA5
102
{ACAD_REACTORS
330
2D36
102
}
330
1E
100
AcDbEntity
  8
STEMPEL
100
AcDbLine
 10
314.9261607626612
 20
340.5185881087944
 30
0.0
 11
314.4826057049617
 21
335.4487306001368
 31
0.0
  0
LINE
  5
2CA7
102
{ACAD_REACTORS
330
2D36
102
}
330
1E
100
AcDbEntity
  8
STEMPEL
100
AcDbLine
 10
229.1261607626612
 20
340.5185881087909
 30
0.0
 11
229.5697158203602
 21
335.4487306001368
 31
0.0
  0
ARC
  5
2CA9
102
{ACAD_REACTORS
330
2D36
102
}
330
1E
100
AcDbEntity
  8
STEMPEL
100
AcDbCircle
 10
405.526160762661
 20
415.8719609437004
 30
0.0
 40
90.6
100
AcDbArc
 50
164.9999999999999
 51
180.0000000000001
  0
ARC
  5
2CAA
102
{ACAD_REACTORS
330
2D36
102
}
330
1E
100
AcDbEntity
  8
STEMPEL
100
AcDbCircle
 10
405.526160762661
 20
415.8719609437004
 30
0.0
 40
176.4
100
AcDbArc
 50
165.0
 51
180.0
  0
LINE
  5
2CAB
102
{ACAD_REACTORS
330
2D36
102
}
330
1E
100
AcDbEntity
  8
STEMPEL
100
AcDbLine
 10
329.6903241714521
 20
482.900285197976
 30
0.0
 11
318.0132809008715
 21
439.3209664299889
 31
0.0
  0
ARC
  5
2CAC
102
{ACAD_REACTORS
330
2D36
102
}
330
1E
100
AcDbEntity
  8
STEMPEL
100
AcDbCircle
 10
338.9632121038273
 20
480.4156223649918
 30
0.0
 40
9.599999999999999
100
AcDbArc
 50
132.6719358778379
 51
164.9999999999999
  0
ARC
  5
2CAE
102
{ACAD_REACTORS
330
2D36
102
}
330
1E
100
AcDbEntity
  8
STEMPEL
100
AcDbCircle
 10
325.4072197231417
 20
495.1205559103972
 30
0.0
 40
10.4
100
AcDbArc
 50
312.6719358778378
 51
344.9999999999997
  0
LINE
  5
2CB0
102
{ACAD_REACTORS
330
2D36
102
}
330
1E
100
AcDbEntity
  8
STEMPEL
100
AcDbLine
 10
340.4405865038124
 20
511.0433301710536
 30
0.0
 11
335.4528483165478
 21
492.4288378413309
 31
0.0
  0
ARC
  5
2CB1
102
{ACAD_REACTORS
330
2D36
102
}
330
1E
100
AcDbEntity
  8
STEMPEL
100
AcDbCircle
 10
353.5771777413438
 20
507.5233911576592
 30
0.0
 40
13.6
100
AcDbArc
 50
139.7092129457106
 51
164.9999999999996
  0
ARC
  5
2CB3
102
{ACAD_REACTORS
330
2D36
102
}
330
1E
100
AcDbEntity
  8
STEMPEL
100
AcDbCircle
 10
325.2842640915647
 20
531.3668606452599
 30
0.0
 40
23.40009324312573
100
AcDbArc
 50
319.9760028073912
 51
345.1617474307929
  0
LINE
  5
2CB4
102
{ACAD_REACTORS
330
2D36
102
}
330
1E
100
AcDbEntity
  8
STEMPEL
100
AcDbLine
 10
349.7056766517391
 20
532.098155771775
 30
0.0
 11
347.9040257451586
 21
525.3743030509136
 31
0.0
  0
ARC
  5
2CB5
102
{ACAD_REACTORS
330
2D36
102
}
330
1E
100
AcDbEntity
  8
STEMPEL
100
AcDbCircle
 10
327.4893826470905
 20
538.0509938091327
 30
0.0
 40
23.0
100
AcDbArc
 50
345.0000000000009
 51
9.999999999994507
  0
LINE
  5
2CB6
102
{ACAD_REACTORS
330
2D36
102
}
330
1E
100
AcDbEntity
  8
STEMPEL
100
AcDbLine
 10
349.5872859970246
 20
545.1792774012857
 30
0.0
 11
350.1399609663714
 21
542.0449018954697
 31
0.0
  0
LINE
  5
2CB7
102
{ACAD_REACTORS
330
2D36
102
}
330
1E
100
AcDbEntity
  8
STEMPEL
100
AcDbLine
 10
246.81388827585
 20
505.1069592677722
 30
0.0
 11
235.1368450052694
 21
461.5276404997849
 31
0.0
  0
ARC
  5
2CB8
102
{ACAD_REACTORS
330
2D36
102
}
330
1E
100
AcDbEntity
  8
STEMPEL
100
AcDbCircle
 10
237.5410003434752
 20
507.5916221007564
 30
0.0
 40
9.599999999999999
100
AcDbArc
 50
344.9999999999999
 51
17.32806412216181
  0
ARC
  5
2CBA
102
{ACAD_REACTORS
330
2D36
102
}
330
1E
100
AcDbEntity
  8
STEMPEL
100
AcDbCircle
 10
256.63330089136
 20
513.5484719216966
 30
0.0
 40
10.4
100
AcDbArc
 50
165.0000000000003
 51
197.328064122162
  0
LINE
  5
2CBC
102
{ACAD_REACTORS
330
2D36
102
}
330
1E
100
AcDbEntity
  8
STEMPEL
100
AcDbLine
 10
251.575410485218
 20
534.8546823204855
 30
0.0
 11
246.5876722979535
 21
516.2401899907629
 31
0.0
  0
ARC
  5
2CBD
102
{ACAD_REACTORS
330
2D36
102
}
330
1E
100
AcDbEntity
  8
STEMPEL
100
AcDbCircle
 10
238.4388192476868
 20
538.3746213338797
 30
0.0
 40
13.6
100
AcDbArc
 50
345.0000000000001
 51
10.29078705429183
  0
ARC
  5
2CBF
102
{ACAD_REACTORS
330
2D36
102
}
330
1E
100
AcDbEntity
  8
STEMPEL
100
AcDbCircle
 10
274.8629359592753
 20
544.8772147996113
 30
0.0
 40
23.40009324312573
100
AcDbArc
 50
164.8382525694171
 51
190.0239971926071
  0
LINE
  5
2CC0
102
{ACAD_REACTORS
330
2D36
102
}
330
1E
100
AcDbEntity
  8
STEMPEL
100
AcDbLine
 10
254.079019849121
 20
557.7212412369241
 30
0.0
 11
252.2773689425185
 21
550.9973885159804
 31
0.0
  0
ARC
  5
2CC1
102
{ACAD_REACTORS
330
2D36
102
}
330
1E
100
AcDbEntity
  8
STEMPEL
100
AcDbCircle
 10
276.29531385377
 20
551.7684031995664
 30
0.0
 40
23.0
100
AcDbArc
 50
139.9999999999977
 51
165.0000000000011
  0
LINE
  5
2CC2
102
{ACAD_REACTORS
330
2D36
102
}
330
1E
100
AcDbEntity
  8
STEMPEL
100
AcDbLine
 10
260.7221099784303
 20
568.9906295507178
 30
0.0
 11
258.676291662034
 21
566.5525182223578
 31
0.0
  0
HATCH
  5
2D36
330
1E
100
AcDbEntity
  8
SCHRAFF
100
AcDbHatch
 10
0.0
 20
0.0
 30
0.0
210
0.0
220
0.0
230
1.0
  2
_USER
 70
     0
 71
     1
 91
        2
 92
        7
 72
     1
 73
     1
 93
       26
 10
316.5261607626611
 20
415.8719609437002
 42
-0.0655434628152387
 10
319.558762222934
 20
438.9068559578247
 42
0.0
 10
331.2358054935146
 20
482.4861747258117
 42
-0.1420008527982282
 10
333.5408151515529
 20
486.2975957831538
 42
0.1420008527982323
 10
336.9983296386104
 20
492.0147273691669
 42
0.0
 10
341.9860678258749
 20
510.6292196988895
 42
-0.1108768121412766
 10
344.4262040647465
 20
515.2861020739708
 42
0.1089723179973029
 10
349.4147375719156
 20
524.8304310557164
 42
0.0
 10
351.2511579738015
 20
531.6840452996108
 42
0.1095178116832399
 10
351.7156533711906
 20
542.3227389797391
 42
0.0
 10
351.2925359619572
 20
544.7223570502886
 42
0.0
 10
349.5872859970246
 20
545.1792774012854
 42
0.0
 10
350.1399609663714
 20
542.0449018954697
 42
-0.1095178116832212
 10
349.7056766517388
 20
532.0981557717742
 42
0.0
 10
347.9040257451586
 20
525.3743030509136
 42
-0.111204330826653
 10
343.151856596057
 20
516.2568142561719
 42
0.1093117521960876
 10
340.4405865038123
 20
511.0433301710534
 42
0.0
 10
335.4528483165478
 20
492.4288378413309
 42
-0.1420008527982256
 10
332.4563357610982
 20
487.4739904667864
 42
0.1420008527982308
 10
329.6903241714521
 20
482.900285197976
 42
0.0
 10
318.0132809008715
 20
439.3209664299889
 42
0.0655434628152393
 10
314.9261607626611
 20
415.8719609437001
 42
0.0
 10
314.9261607626611
 20
340.5185881087942
 42
0.0
 10
314.4826057049618
 20
335.4487306001368
 42
0.0
 10
316.0887174450311
 20
335.4487306001368
 42
0.0
 10
316.5261607626612
 20
340.448730600141
 42
0.0
 97
       26
330
2A29
330
2A47
330
2A3B
330
2A3C
330
2A3D
330
2A3A
330
2A39
330
2A4A
330
2A35
330
2A34
330
2A38
330
2CB6
330
2CB5
330
2CB4
330
2CB3
330
2CB1
330
2CB0
330
2CAE
330
2CAC
330
2CAB
330
2CA9
330
2CA3
330
2CA5
330
2A33
330
2A2D
330
2A31
 92
        7
 72
     1
 73
     1
 93
       26
 10
229.1261607626612
 20
415.8719609437004
 42
-0.065543462815238
 10
235.1368450052694
 20
461.5276404997849
 42
0.0
 10
246.81388827585
 20
505.1069592677722
 42
0.1420008527982341
 10
246.7053046064598
 20
510.4509100148079
 42
-0.1420008527982244
 10
246.5876722979535
 20
516.2401899907629
 42
0.0
 10
251.575410485218
 20
534.8546823204855
 42
0.1093117521962322
 10
251.8341237513712
 20
540.7253270265539
 42
-0.111204330825639
 10
252.2773689425185
 20
550.9973885159804
 42
0.0
 10
254.079019849121
 20
557.7212412369241
 42
-0.1095178116832587
 10
258.676291662034
 20
566.5525182223578
 42
0.0
 10
260.7221099784302
 20
568.9906295507178
 42
0.0
 10
259.0168600134975
 20
569.4475499017146
 42
0.0
 10
257.450620553043
 20
567.5809783978553
 42
0.1095178116832426
 10
252.5335385270586
 20
558.1353517090884
 42
0.0
 10
250.6971181251941
 20
551.2817374652735
 42
0.1089723179981776
 10
250.2451503791393
 20
540.5218393513376
 42
-0.1108768121411876
 10
250.0299291631554
 20
535.2687927926495
 42
0.0
 10
245.042190975891
 20
516.6543004629271
 42
0.1420008527982295
 10
245.1779205626291
 20
509.9743620291327
 42
-0.1420008527982326
 10
245.2684069537875
 20
505.5210697399363
 42
0.0
 10
233.5913636832069
 20
461.941750971949
 42
0.0655434628152384
 10
227.5261607626612
 20
415.8719609437001
 42
0.0
 10
227.5261607626612
 20
340.4487306001373
 42
0.0
 10
227.9636040802909
 20
335.4487306001368
 42
0.0
 10
229.5697158203602
 20
335.4487306001368
 42
0.0
 10
229.1261607626613
 20
340.5185881087912
 42
0.0
 97
       26
330
2CAA
330
2CB7
330
2CB8
330
2CBA
330
2CBC
330
2CBD
330
2CBF
330
2CC0
330
2CC1
330
2CC2
330
2A38
330
2A36
330
2A37
330
2A49
330
2A3E
330
2A3F
330
2A42
330
2A41
330
2A40
330
2A46
330
2A2A
330
2A32
330
2A2E
330
2A33
330
2CA7
330
2CA4
 75
     0
 76
     0
 52
135.0
 41
2.0
 77
     0
 78
     1
 53
135.0
 43
0.0
 44
0.0
 45
-1.414213562373095
 46
-1.414213562373094
 79
     0
 47
0.5123982262214141
 98
        2
 10
315.9622325263822
 20
386.0105619185144
 10
228.7929254573255
 20
389.5973509010259
  0
HATCH
  5
2D3F
330
1E
100
AcDbEntity
  8
SCHRAFF
100
AcDbHatch
 10
0.0
 20
0.0
 30
0.0
210
0.0
220
0.0
230
1.0
  2
_USER
 70
     0
 71
     1
 91
        2
 92
        7
 72
     0
 73
     1
 93
        4
 10
338.5261607626609
 20
424.6926782820558
 10
336.0261607626611
 20
425.0218095260246
 10
336.026160762661
 20
385.4487306001369
 10
338.5261607626609
 20
385.4487306001368
 97
        4
330
2BF3
330
2B6D
330
2B69
330
2B6C
 92
        7
 72
     0
 73
     1
 93
        4
 10
208.026160762661
 20
441.873329217211
 10
205.526160762661
 20
442.2024604611795
 10
205.526160762661
 20
385.4487306001368
 10
208.026160762661
 20
385.4487306001368
 97
        4
330
2BF2
330
2B74
330
2B71
330
2B75
 75
     0
 76
     0
 52
45.0
 41
2.0
 77
     0
 78
     1
 53
45.0
 43
0.0
 44
0.0
 45
-1.414213562373094
 46
1.414213562373095
 79
     0
 47
0.5123982262214141
 98
        2
 10
337.4981766001579
 20
405.9940935336646
 10
206.7442176813997
 20
419.3164473602901
  0
HATCH
  5
2D48
330
1E
100
AcDbEntity
  8
SCHRAFF
100
AcDbHatch
 10
0.0
 20
0.0
 30
0.0
210
0.0
220
0.0
230
1.0
  2
_USER
 70
     0
 71
     1
 91
        2
 92
        7
 72
     0
 73
     1
 93
        4
 10
336.0261607626611
 20
425.0218095260244
 10
338.5261607626609
 20
424.6926782820558
 10
369.3887654359502
 20
539.8734869766839
 10
366.9739508702276
 20
540.5205345894402
 97
        4
330
2A38
330
2BF0
330
2BF3
330
2BEF
 92
        7
 72
     0
 73
     1
 93
        4
 10
205.5261607626611
 20
442.2024604611796
 10
208.026160762661
 20
441.8733292172111
 10
243.3354451052268
 20
573.6493723625632
 10
240.9206305395041
 20
574.2964199753195
 97
        4
330
2A38
330
2BEE
330
2BF2
330
2BF1
 75
     0
 76
     0
 52
120.0
 41
2.0
 77
     0
 78
     1
 53
120.0
 43
0.0
 44
0.0
 45
-1.732050807568877
 46
-0.9999999999999996
 79
     0
 47
0.4105008495351726
 98
        2
 10
358.0304555883377
 20
502.8300810351665
 10
228.2204379979753
 20
523.3551223955124
  0
LINE
  5
2D51
102
{ACAD_REACTORS
330
2D36
330
2D48
330
2D76
330
2D95
102
}
330
1E
100
AcDbEntity
  8
STEMPEL
100
AcDbLine
 10
363.3504842387923
 20
526.9975730213933
 30
0.0
 11
350.8900410796634
 21
530.3363387032158
 31
0.0
  0
LINE
  5
2D52
102
{ACAD_REACTORS
330
2D76
330
2D95
102
}
330
1E
100
AcDbEntity
  8
STEMPEL
100
AcDbLine
 10
252.1724216329205
 20
556.7876451126935
 30
0.0
 11
239.7119784737915
 21
560.1264107945162
 31
0.0
  0
HATCH
  5
2D76
330
1E
100
AcDbEntity
  8
SCHRAFF
100
AcDbHatch
 10
0.0
 20
0.0
 30
0.0
210
0.0
220
0.0
230
1.0
  2
NET
 70
     0
 71
     1
 91
        2
 92
        7
 72
     1
 73
     1
 93
        6
 10
366.9739508702276
 20
540.5205345894403
 42
0.0
 10
351.2925359619573
 20
544.7223570502886
 42
0.0
 10
351.7156533711906
 20
542.3227389797391
 42
-0.1095178116832448
 10
351.2511579738013
 20
531.6840452996103
 42
0.0
 10
350.8900410796633
 20
530.3363387032159
 42
0.0
 10
363.3504842387922
 20
526.9975730213932
 42
0.0
 97
        6
330
2A38
330
2A34
330
2A35
330
2A4A
330
2D51
330
2BF0
 92
        7
 72
     1
 73
     1
 93
        6
 10
257.450620553043
 20
567.5809783978553
 42
0.0
 10
259.0168600134973
 20
569.4475499017146
 42
0.0
 10
243.3354451052268
 20
573.6493723625632
 42
0.0
 10
239.7119784737915
 20
560.1264107945162
 42
0.0
 10
252.1724216329205
 20
556.7876451126935
 42
0.0
 10
252.5335385270586
 20
558.1353517090884
 42
-0.1095178116832426
 97
        6
330
2A36
330
2A38
330
2BF1
330
2D52
330
2A49
330
2A37
 75
     0
 76
     1
 52
30.0
 41
20.0
 77
     0
 78
     2
 53
30.0
 43
0.0
 44
0.0
 45
-1.249999999999999
 46
2.165063509461096
 79
     0
 53
120.0
 43
0.0
 44
0.0
 45
-2.165063509461096
 46
-1.249999999999999
 79
     0
 47
0.5885641788387294
 98
        2
 10
358.8810473768035
 20
539.3550034079626
 10
247.563741118373
 20
565.8403926238038
  0
HATCH
  5
2D95
330
1E
100
AcDbEntity
  8
SCHRAFF
100
AcDbHatch
 10
0.0
 20
0.0
 30
0.0
210
0.0
220
0.0
230
1.0
  2
HONEY
 70
     0
 71
     1
 91
        2
 92
        7
 72
     1
 73
     1
 93
       15
 10
363.3504842387923
 20
526.9975730213935
 42
0.0
 10
350.8900410796633
 20
530.3363387032158
 42
0.0
 10
349.4500819256632
 20
524.962337979663
 42
-0.1111415761502652
 10
344.3760875649346
 20
515.2266333040276
 42
0.1092369723640846
 10
341.9860678258749
 20
510.6292196988895
 42
0.0
 10
336.9983296386104
 20
492.0147273691669
 42
-0.1420008527982172
 10
333.5408151515534
 20
486.2975957831542
 42
0.1420008527982466
 10
331.2358054935146
 20
482.4861747258118
 42
0.0
 10
319.558762222934
 20
438.9068559578247
 42
0.0655434628152393
 10
316.5261607626611
 20
415.8719609437
 42
0.0
 10
316.5261607626611
 20
401.4487306001369
 42
0.0
 10
333.4674284507931
 20
401.4487306001369
 42
0.0
 10
335.537227444198
 20
399.4499489460988
 42
0.0
 10
336.0261607626609
 20
385.4487306001374
 42
0.0
 10
336.0261607626611
 20
425.0218095260241
 42
0.0
 97
       15
330
2D51
330
2A4A
330
2A39
330
2A3A
330
2A3D
330
2A3C
330
2A3B
330
2A47
330
2A29
330
2A31
330
2B6A
330
2B68
330
2B67
330
2B6D
330
2BF0
 92
        7
 72
     1
 73
     1
 93
       15
 10
245.2684069537875
 20
505.5210697399361
 42
0.1420008527982401
 10
245.177920562629
 20
509.9743620291327
 42
-0.1420008527982295
 10
245.042190975891
 20
516.6543004629271
 42
0.0
 10
250.0299291631554
 20
535.2687927926495
 42
0.1092369723639118
 10
250.2588181561542
 20
540.445279635925
 42
-0.1111415761503467
 10
250.7324624789203
 20
551.4136443891406
 42
0.0
 10
252.1724216329205
 20
556.7876451126935
 42
0.0
 10
239.7119784737916
 20
560.1264107945161
 42
0.0
 10
208.026160762661
 20
441.8733292172112
 42
0.0
 10
208.026160762661
 20
385.4487306001299
 42
0.0
 10
208.5150940811241
 20
399.4499489460987
 42
0.0
 10
210.584893074529
 20
401.4487306001369
 42
0.0
 10
227.5261607626612
 20
401.4487306001369
 42
0.0
 10
227.5261607626612
 20
415.8719609437004
 42
-0.065543462815238
 10
233.5913636832069
 20
461.941750971949
 42
0.0
 97
       15
330
2A40
330
2A41
330
2A42
330
2A3F
330
2A3E
330
2A49
330
2D52
330
2BF1
330
2B75
330
2B72
330
2B73
330
2B70
330
2A32
330
2A2A
330
2A46
 75
     0
 76
     1
 52
0.0
 41
30.0
 77
     0
 78
     3
 53
0.0
 43
0.0
 44
0.0
 45
5.625
 46
3.247595249999999
 79
     2
 49
3.75
 49
-7.5
 53
120.0
 43
0.0
 44
0.0
 45
-5.624999987709673
 46
3.247595271287468
 79
     2
 49
3.75
 49
-7.5
 53
60.0
 43
0.0
 44
0.0
 45
0.0000000122903263
 46
6.495190521287468
 79
     2
 49
-7.5
 49
3.75
 47
0.5885641788387294
 98
        2
 10
330.6099860582526
 20
457.5445823254074
 10
226.3604426022189
 20
468.7273023332354
  0
TEXT
  5
2DBF
330
1E
100
AcDbEntity
  8
TEXT
100
AcDbText
 10
185.77763727763
 20
91.42531838939582
 30
0.0
 40
5.0
  1
2007
 41
0.8
  7
GREEKS
100
AcDbText
  0
TEXT
  5
2DC0
330
1E
100
AcDbEntity
  8
TEXT
100
AcDbText
 10
212.9987463852951
 20
78.88456301032164
 30
0.0
 40
5.0
  1
28.09.
 41
0.8
  7
GREEKS
 72
     1
 11
221.7606511471998
 21
78.88456301032164
 31
0.0
100
AcDbText
  0
HATCH
  5
2DD0
330
1E
100
AcDbEntity
  8
SCHRAFF
100
AcDbHatch
 10
0.0
 20
0.0
 30
0.0
210
0.0
220
0.0
230
1.0
  2
NET
 70
     0
 71
     0
 91
        2
 92
        7
 72
     0
 73
     1
 93
       11
 10
335.5372274441982
 20
399.4499489460989
 10
333.4674284507932
 20
401.4487306001369
 10
316.526160762661
 20
401.4487306001369
 10
316.526160762661
 20
391.4487306001369
 10
321.026160762661
 20
391.4487306001368
 10
324.4902623777987
 20
385.4487306001368
 10
331.5261607626612
 20
385.4487306001368
 10
331.5261607626612
 20
383.4487306001369
 10
338.5261607626611
 20
383.4487306001368
 10
338.5261607626611
 20
385.4487306001368
 10
336.0261607626609
 20
385.4487306001368
 97
        0
 92
        7
 72
     0
 73
     1
 93
       11
 10
227.526160762661
 20
401.4487306001368
 10
210.584893074529
 20
401.4487306001368
 10
208.5150940811241
 20
399.4499489460988
 10
208.0261607626613
 20
385.4487306001369
 10
205.526160762661
 20
385.4487306001368
 10
205.526160762661
 20
383.4487306001369
 10
212.5261607626613
 20
383.4487306001369
 10
212.5261607626612
 20
385.4487306001368
 10
219.5620591475235
 20
385.4487306001368
 10
223.0261607626613
 20
391.4487306001369
 10
227.526160762661
 20
391.4487306001369
 97
        0
 75
     0
 76
     1
 52
45.0
 41
20.0
 77
     0
 78
     2
 53
45.0
 43
47.06152566155719
 44
118.4841744300132
 45
-1.767766952966368
 46
1.767766952966368
 79
     0
 53
135.0
 43
47.06152566155719
 44
118.4841744300132
 45
-1.767766952966368
 46
-1.767766952966368
 79
     0
 47
0.2159429178754844
 98
        2
 10
327.6326149123709
 20
392.5347322513766
 10
213.5459717847982
 20
392.7506751113229
  0
LINE
  5
2DD1
330
1E
100
AcDbEntity
  8
STEMPEL
100
AcDbLine
 10
331.5261607626612
 20
385.4487306001368
 30
0.0
 11
331.5261607626612
 21
383.4487306001368
 31
0.0
  0
POINT
  5
2DD2
330
1E
100
AcDbEntity
  8
STEMPEL
100
AcDbPoint
 10
331.5261607626612
 20
383.4487306001368
 30
0.0
  0
LINE
  5
2DD3
330
1E
100
AcDbEntity
  8
STEMPEL
100
AcDbLine
 10
338.5261607626611
 20
383.4487306001369
 30
0.0
 11
316.526160762661
 21
383.4487306001369
 31
0.0
  0
LINE
  5
2DD4
330
1E
100
AcDbEntity
  8
STEMPEL
100
AcDbLine
 10
331.5261607626612
 20
385.4487306001368
 30
0.0
 11
316.526160762661
 21
385.4487306001368
 31
0.0
  0
LINE
  5
2DD5
330
1E
100
AcDbEntity
  8
STEMPEL
100
AcDbLine
 10
321.026160762661
 20
391.4487306001369
 30
0.0
 11
324.4902623777987
 21
385.4487306001368
 31
0.0
  0
LINE
  5
2DD6
330
1E
100
AcDbEntity
  8
STEMPEL
100
AcDbLine
 10
227.526160762661
 20
383.4487306001368
 30
0.0
 11
205.526160762661
 21
383.4487306001369
 31
0.0
  0
LINE
  5
2DD7
330
1E
100
AcDbEntity
  8
STEMPEL
100
AcDbLine
 10
227.526160762661
 20
385.4487306001368
 30
0.0
 11
212.5261607626612
 21
385.4487306001368
 31
0.0
  0
LINE
  5
2DD8
330
1E
100
AcDbEntity
  8
STEMPEL
100
AcDbLine
 10
212.5261607626612
 20
385.4487306001368
 30
0.0
 11
212.5261607626612
 21
383.4487306001368
 31
0.0
  0
LINE
  5
2DD9
330
1E
100
AcDbEntity
  8
STEMPEL
100
AcDbLine
 10
223.0261607626612
 20
391.4487306001369
 30
0.0
 11
219.5620591475235
 21
385.4487306001368
 31
0.0
  0
DIMENSION
  5
2E08
330
1E
100
AcDbEntity
  8
SCHRAFF
100
AcDbDimension
  2
*D6
 10
272.026160762661
 20
330.4487306001369
 30
0.0
 11
292.4086473304848
 21
588.2679255467308
 31
0.0
 70
    34
 71
     5
 42
0.2617993877991487
  3
Standard
100
AcDb2LineAngularDimension
 13
306.4487932132398
 23
561.9145826074473
 33
0.0
 14
272.026160762661
 24
433.4475693716176
 34
0.0
 15
272.026160762661
 25
433.4475693716176
 35
0.0
 16
297.7315253641592
 26
579.2299363027394
 36
0.0
1001
ACAD
1000
DSTYLE
1002
{
1070
    40
1040
2.5
1070
    41
1040
3.5
1070
    42
1040
1.0
1070
    43
1040
7.0
1070
    44
1040
1.0
1070
    73
1070
     0
1070
    74
1070
     0
1070
    77
1070
     1
1070
    78
1070
     8
1070
    79
1070
     2
1070
   140
1040
3.5
1070
   141
1040
1.5
1070
   146
1040
0.5142857142857144
1070
   147
1040
1.5
1070
   172
1070
     1
1070
   178
1070
     1
1070
   179
1070
     2
1070
   271
1070
     2
1070
   272
1070
     2
1070
   284
1070
     8
1070
   285
1070
     8
1070
   286
1070
     8
1002
}
  0
ENDSEC
  0
SECTION
  2
OBJECTS
  0
DICTIONARY
  5
C
330
0
100
AcDbDictionary
281
     1
  3
ACAD_COLOR
350
DF
  3
ACAD_GROUP
350
D
  3
ACAD_LAYOUT
350
19
  3
ACAD_MATERIAL
350
DE
  3
ACAD_MLINESTYLE
350
16
  3
ACAD_PLOTSETTINGS
350
18
  3
ACAD_PLOTSTYLENAME
350
E
  3
AcDbVariableDictionary
350
25E
  0
DICTIONARY
  5
A0
330
1E
100
AcDbDictionary
280
     1
281
     1
  3
ACAD_LAYOUTSELFREF
360
D4
  0
DICTIONARY
  5
A2
330
1A
100
AcDbDictionary
280
     1
281
     1
  3
ACAD_LAYOUTSELFREF
360
D3
  0
DICTIONARY
  5
DF
102
{ACAD_REACTORS
330
C
102
}
330
C
100
AcDbDictionary
281
     1
  0
DICTIONARY
  5
D
102
{ACAD_REACTORS
330
C
102
}
330
C
100
AcDbDictionary
281
     1
  0
DICTIONARY
  5
19
102
{ACAD_REACTORS
330
C
102
}
330
C
100
AcDbDictionary
281
     1
  3
Layout1
350
1D
  3
Model
350
21
  0
DICTIONARY
  5
DE
102
{ACAD_REACTORS
330
C
102
}
330
C
100
AcDbDictionary
281
     1
  0
DICTIONARY
  5
16
102
{ACAD_REACTORS
330
C
102
}
330
C
100
AcDbDictionary
281
     1
  3
Standard
350
17
  0
DICTIONARY
  5
18
102
{ACAD_REACTORS
330
C
102
}
330
C
100
AcDbDictionary
281
     1
  0
ACDBDICTIONARYWDFLT
  5
E
102
{ACAD_REACTORS
330
C
102
}
330
C
100
AcDbDictionary
281
     1
  3
Normal
350
F
100
AcDbDictionaryWithDefault
340
F
  0
DICTIONARY
  5
25E
102
{ACAD_REACTORS
330
C
102
}
330
C
100
AcDbDictionary
281
     1
  3
DIMASSOC
350
25F
  3
PROJECTNAME
350
260
  0
XRECORD
  5
D4
102
{ACAD_REACTORS
330
A0
102
}
330
A0
100
AcDbXrecord
280
     1
340
1E
  0
XRECORD
  5
D3
102
{ACAD_REACTORS
330
A2
102
}
330
A2
100
AcDbXrecord
280
     1
340
1A
  0
LAYOUT
  5
1D
102
{ACAD_REACTORS
330
19
102
}
330
19
100
AcDbPlotSettings
  1

  2
\\NT_WORK01\HP LaserJet 5000 PCL 6
  4

  6

 40
0.0
 41
0.0
 42
0.0
 43
0.0
 44
0.0
 45
0.0
 46
0.0
 47
0.0
 48
0.0
 49
0.0
140
0.0
141
0.0
142
1.0
143
1.0
 70
   688
 72
     0
 73
     0
 74
     5
  7

 75
    16
147
1.0
 76
     0
 77
     2
 78
   300
148
0.0
149
0.0
100
AcDbLayout
  1
Layout1
 70
     0
 71
     1
 10
0.0
 20
0.0
 11
12.0
 21
9.0
 12
0.0
 22
0.0
 32
0.0
 14
1.000000000000000E+20
 24
1.000000000000000E+20
 34
1.000000000000000E+20
 15
-1.000000000000000E+20
 25
-1.000000000000000E+20
 35
-1.000000000000000E+20
146
0.0
 13
0.0
 23
0.0
 33
0.0
 16
1.0
 26
0.0
 36
0.0
 17
0.0
 27
1.0
 37
0.0
 76
     0
330
1A
  0
LAYOUT
  5
21
102
{ACAD_REACTORS
330
19
102
}
330
19
100
AcDbPlotSettings
  1

  2
RICOH Aficio 2027 PCL 6
  4
A4
  6

 40
5.027083
 41
5.027084999999999
 42
5.027084
 43
5.027069
 44
209.973328
 45
296.925995
 46
0.0
 47
2.06
 48
0.0
 49
0.0
140
0.0
141
0.0
142
1.0
143
2.100849152723284
 70
 11956
 72
     1
 73
     0
 74
     2
  7
monochrome1.ctb
 75
     0
147
0.4759980023809526
 76
     1
 77
     2
 78
   300
148
0.0
149
0.0
100
AcDbLayout
  1
Model
 70
     1
 71
     0
 10
0.0
 20
0.0
 11
12.0
 21
9.0
 12
0.0
 22
0.0
 32
0.0
 14
0.0
 24
0.0
 34
0.0
 15
0.0
 25
0.0
 35
0.0
146
0.0
 13
0.0
 23
0.0
 33
0.0
 16
1.0
 26
0.0
 36
0.0
 17
0.0
 27
1.0
 37
0.0
 76
     0
330
1E
  0
MLINESTYLE
  5
17
102
{ACAD_REACTORS
330
16
102
}
330
16
100
AcDbMlineStyle
  2
STANDARD
 70
     0
  3

 62
   256
 51
90.0
 52
90.0
 71
     2
 49
0.5
 62
   256
  6
BYLAYER
 49
-0.5
 62
   256
  6
BYLAYER
  0
ACDBPLACEHOLDER
  5
F
102
{ACAD_REACTORS
330
E
102
}
330
E
  0
DICTIONARYVAR
  5
25F
102
{ACAD_REACTORS
330
25E
102
}
330
25E
100
DictionaryVariables
280
     0
  1
1
  0
DICTIONARYVAR
  5
260
102
{ACAD_REACTORS
330
25E
102
}
330
25E
100
DictionaryVariables
280
     0
  1

  0
ENDSEC
  0
EOF
