  0
SECTION
  2
HEADER
  9
$ACADVER
  1
AC1018
  9
$ACADMAINTVER
 70
     2
  9
$DWGCODEPAGE
  3
ANSI_1252
  9
$INSBASE
 10
0.0
 20
0.0
 30
0.0
  9
$EXTMIN
 10
-0.0087651800129152
 20
-0.0452838860169322
 30
-0.0000000000000053
  9
$EXTMAX
 10
420.0214811132622
 20
594.0408007806827
 30
0.0000000000000099
  9
$LIMMIN
 10
0.0
 20
0.0
  9
$LIMMAX
 10
419.9999999999999
 20
594.0000000000002
  9
$ORTHOMODE
 70
     0
  9
$REGENMODE
 70
     1
  9
$FILLMODE
 70
     1
  9
$QTEXTMODE
 70
     0
  9
$MIRRTEXT
 70
     1
  9
$LTSCALE
 40
20.0
  9
$ATTMODE
 70
     1
  9
$TEXTSIZE
 40
3.5
  9
$TRACEWID
 40
0.5
  9
$TEXTSTYLE
  7
STANDARD
  9
$CLAYER
  8
BEM
  9
$CELTYPE
  6
ByLayer
  9
$CECOLOR
 62
   256
  9
$CELTSCALE
 40
1.0
  9
$DISPSILH
 70
     0
  9
$DIMSCALE
 40
2.0
  9
$DIMASZ
 40
3.5
  9
$DIMEXO
 40
1.0
  9
$DIMDLI
 40
7.0
  9
$DIMRND
 40
0.0
  9
$DIMDLE
 40
0.0
  9
$DIMEXE
 40
1.0
  9
$DIMTP
 40
0.0
  9
$DIMTM
 40
0.0
  9
$DIMTXT
 40
3.5
  9
$DIMCEN
 40
1.5
  9
$DIMTSZ
 40
0.0
  9
$DIMTOL
 70
     0
  9
$DIMLIM
 70
     0
  9
$DIMTIH
 70
     0
  9
$DIMTOH
 70
     0
  9
$DIMSE1
 70
     0
  9
$DIMSE2
 70
     0
  9
$DIMTAD
 70
     1
  9
$DIMZIN
 70
     8
  9
$DIMBLK
  1

  9
$DIMASO
 70
     1
  9
$DIMSHO
 70
     0
  9
$DIMPOST
  1

  9
$DIMAPOST
  1

  9
$DIMALT
 70
     0
  9
$DIMALTD
 70
     2
  9
$DIMALTF
 40
25.4
  9
$DIMLFAC
 40
1.0
  9
$DIMTOFL
 70
     1
  9
$DIMTVP
 40
0.0
  9
$DIMTIX
 70
     0
  9
$DIMSOXD
 70
     0
  9
$DIMSAH
 70
     0
  9
$DIMBLK1
  1

  9
$DIMBLK2
  1

  9
$DIMSTYLE
  2
Standard
  9
$DIMCLRD
 70
     0
  9
$DIMCLRE
 70
     0
  9
$DIMCLRT
 70
     1
  9
$DIMTFAC
 40
0.5142857142857144
  9
$DIMGAP
 40
1.5
  9
$DIMJUST
 70
     0
  9
$DIMSD1
 70
     0
  9
$DIMSD2
 70
     0
  9
$DIMTOLJ
 70
     1
  9
$DIMTZIN
 70
     8
  9
$DIMALTZ
 70
     8
  9
$DIMALTTZ
 70
     8
  9
$DIMUPT
 70
     0
  9
$DIMDEC
 70
     2
  9
$DIMTDEC
 70
     2
  9
$DIMALTU
 70
     2
  9
$DIMALTTD
 70
     2
  9
$DIMTXSTY
  7
STANDARD
  9
$DIMAUNIT
 70
     0
  9
$DIMADEC
 70
     2
  9
$DIMALTRND
 40
0.0
  9
$DIMAZIN
 70
     2
  9
$DIMDSEP
 70
    46
  9
$DIMATFIT
 70
     3
  9
$DIMFRAC
 70
     0
  9
$DIMLDRBLK
  1

  9
$DIMLUNIT
 70
     2
  9
$DIMLWD
 70
    -2
  9
$DIMLWE
 70
    -2
  9
$DIMTMOVE
 70
     0
  9
$LUNITS
 70
     2
  9
$LUPREC
 70
     2
  9
$SKETCHINC
 40
1.0
  9
$FILLETRAD
 40
0.0
  9
$AUNITS
 70
     0
  9
$AUPREC
 70
     0
  9
$MENU
  1
ACAD
  9
$ELEVATION
 40
0.0
  9
$PELEVATION
 40
0.0
  9
$THICKNESS
 40
0.0
  9
$LIMCHECK
 70
     0
  9
$CHAMFERA
 40
0.0
  9
$CHAMFERB
 40
0.0
  9
$CHAMFERC
 40
0.0
  9
$CHAMFERD
 40
0.0
  9
$SKPOLY
 70
     0
  9
$TDCREATE
 40
2455397.823042361
  9
$TDUCREATE
 40
2455397.781375695
  9
$TDUPDATE
 40
2455532.544834410
  9
$TDUUPDATE
 40
2455532.503167743
  9
$TDINDWG
 40
0.2887694444
  9
$TDUSRTIMER
 40
0.2887694444
  9
$USRTIMER
 70
     1
  9
$ANGBASE
 50
0.0
  9
$ANGDIR
 70
     0
  9
$PDMODE
 70
     0
  9
$PDSIZE
 40
0.0
  9
$PLINEWID
 40
0.0
  9
$SPLFRAME
 70
     0
  9
$SPLINETYPE
 70
     6
  9
$SPLINESEGS
 70
     8
  9
$HANDSEED
  5
1CA9
  9
$SURFTAB1
 70
     6
  9
$SURFTAB2
 70
     6
  9
$SURFTYPE
 70
     6
  9
$SURFU
 70
     6
  9
$SURFV
 70
     6
  9
$UCSBASE
  2

  9
$UCSNAME
  2

  9
$UCSORG
 10
0.0
 20
0.0
 30
0.0
  9
$UCSXDIR
 10
1.0
 20
0.0
 30
0.0
  9
$UCSYDIR
 10
0.0
 20
1.0
 30
0.0
  9
$UCSORTHOREF
  2

  9
$UCSORTHOVIEW
 70
     0
  9
$UCSORGTOP
 10
0.0
 20
0.0
 30
0.0
  9
$UCSORGBOTTOM
 10
0.0
 20
0.0
 30
0.0
  9
$UCSORGLEFT
 10
0.0
 20
0.0
 30
0.0
  9
$UCSORGRIGHT
 10
0.0
 20
0.0
 30
0.0
  9
$UCSORGFRONT
 10
0.0
 20
0.0
 30
0.0
  9
$UCSORGBACK
 10
0.0
 20
0.0
 30
0.0
  9
$PUCSBASE
  2

  9
$PUCSNAME
  2

  9
$PUCSORG
 10
0.0
 20
0.0
 30
0.0
  9
$PUCSXDIR
 10
1.0
 20
0.0
 30
0.0
  9
$PUCSYDIR
 10
0.0
 20
1.0
 30
0.0
  9
$PUCSORTHOREF
  2

  9
$PUCSORTHOVIEW
 70
     0
  9
$PUCSORGTOP
 10
0.0
 20
0.0
 30
0.0
  9
$PUCSORGBOTTOM
 10
0.0
 20
0.0
 30
0.0
  9
$PUCSORGLEFT
 10
0.0
 20
0.0
 30
0.0
  9
$PUCSORGRIGHT
 10
0.0
 20
0.0
 30
0.0
  9
$PUCSORGFRONT
 10
0.0
 20
0.0
 30
0.0
  9
$PUCSORGBACK
 10
0.0
 20
0.0
 30
0.0
  9
$USERI1
 70
     0
  9
$USERI2
 70
     0
  9
$USERI3
 70
     0
  9
$USERI4
 70
     0
  9
$USERI5
 70
     0
  9
$USERR1
 40
0.0
  9
$USERR2
 40
0.0
  9
$USERR3
 40
0.0
  9
$USERR4
 40
0.0
  9
$USERR5
 40
0.0
  9
$WORLDVIEW
 70
     1
  9
$SHADEDGE
 70
     3
  9
$SHADEDIF
 70
    70
  9
$TILEMODE
 70
     1
  9
$MAXACTVP
 70
    16
  9
$PINSBASE
 10
0.0
 20
0.0
 30
0.0
  9
$PLIMCHECK
 70
     0
  9
$PEXTMIN
 10
1.000000000000000E+20
 20
1.000000000000000E+20
 30
1.000000000000000E+20
  9
$PEXTMAX
 10
-1.000000000000000E+20
 20
-1.000000000000000E+20
 30
-1.000000000000000E+20
  9
$PLIMMIN
 10
0.0
 20
0.0
  9
$PLIMMAX
 10
12.0
 20
9.0
  9
$UNITMODE
 70
     0
  9
$VISRETAIN
 70
     0
  9
$PLINEGEN
 70
     0
  9
$PSLTSCALE
 70
     0
  9
$TREEDEPTH
 70
  3020
  9
$CMLSTYLE
  2
Standard
  9
$CMLJUST
 70
     0
  9
$CMLSCALE
 40
1.0
  9
$PROXYGRAPHICS
 70
     1
  9
$MEASUREMENT
 70
     0
  9
$CELWEIGHT
370
    -1
  9
$ENDCAPS
280
     0
  9
$JOINSTYLE
280
     0
  9
$LWDISPLAY
290
     0
  9
$INSUNITS
 70
     0
  9
$HYPERLINKBASE
  1

  9
$STYLESHEET
  1
monochrome 1.ctb
  9
$XEDIT
290
     1
  9
$CEPSNTYPE
380
     0
  9
$PSTYLEMODE
290
     1
  9
$FINGERPRINTGUID
  2
{D68B0D02-A558-11D7-B632-000102183313}
  9
$VERSIONGUID
  2
{746257BE-96B1-4F0C-823A-04F6A710FDF8}
  9
$EXTNAMES
290
     1
  9
$PSVPSCALE
 40
0.0
  9
$OLESTARTUP
290
     0
  9
$SORTENTS
280
   127
  9
$INDEXCTL
280
     0
  9
$HIDETEXT
280
     0
  9
$XCLIPFRAME
290
     0
  9
$HALOGAP
280
     0
  9
$OBSCOLOR
 70
   257
  9
$OBSLTYPE
280
     0
  9
$INTERSECTIONDISPLAY
280
     0
  9
$INTERSECTIONCOLOR
 70
   257
  9
$DIMASSOC
280
     1
  9
$PROJECTNAME
  1

  0
ENDSEC
  0
SECTION
  2
CLASSES
  0
CLASS
  1
ACDBDICTIONARYWDFLT
  2
AcDbDictionaryWithDefault
  3
ObjectDBX Classes
 90
        0
 91
        1
280
     0
281
     0
  0
CLASS
  1
DICTIONARYVAR
  2
AcDbDictionaryVar
  3
ObjectDBX Classes
 90
        0
 91
        2
280
     0
281
     0
  0
ENDSEC
  0
SECTION
  2
TABLES
  0
TABLE
  2
VPORT
  5
8
330
0
100
AcDbSymbolTable
 70
     2
  0
VPORT
  5
1CA8
330
8
100
AcDbSymbolTableRecord
100
AcDbViewportTableRecord
  2
*Active
 70
     0
 10
0.0
 20
0.0
 11
1.0
 21
1.0
 12
210.0063579666246
 22
296.997758447333
 13
0.0
 23
0.0
 14
1.0
 24
1.0
 15
10.0
 25
10.0
 16
0.0
 26
0.0
 36
1.0
 17
0.0
 27
0.0
 37
0.0
 40
599.2035287091895
 41
1.336927223719676
 42
50.0
 43
0.0
 44
0.0
 50
0.0
 51
0.0
 71
     0
 72
  1500
 73
     1
 74
     0
 75
     0
 76
     0
 77
     0
 78
     0
281
     0
 65
     1
110
0.0
120
0.0
130
0.0
111
1.0
121
0.0
131
0.0
112
0.0
122
1.0
132
0.0
 79
     0
146
0.0
  0
ENDTAB
  0
TABLE
  2
LTYPE
  5
5
330
0
100
AcDbSymbolTable
 70
     2
  0
LTYPE
  5
13
330
5
100
AcDbSymbolTableRecord
100
AcDbLinetypeTableRecord
  2
ByBlock
 70
     0
  3

 72
    65
 73
     0
 40
0.0
  0
LTYPE
  5
14
330
5
100
AcDbSymbolTableRecord
100
AcDbLinetypeTableRecord
  2
ByLayer
 70
     0
  3

 72
    65
 73
     0
 40
0.0
  0
LTYPE
  5
15
330
5
100
AcDbSymbolTableRecord
100
AcDbLinetypeTableRecord
  2
Continuous
 70
     0
  3
Solid line
 72
    65
 73
     0
 40
0.0
  0
LTYPE
  5
25
330
5
100
AcDbSymbolTableRecord
100
AcDbLinetypeTableRecord
  2
STRICHPUNKT
 70
     0
  3
__ . __ . __ . __ . __ . __ . __ . __ . __ . __
 72
    65
 73
     4
 40
1.0
 49
0.5
 74
     0
 49
-0.25
 74
     0
 49
0.0
 74
     0
 49
-0.25
 74
     0
  0
ENDTAB
  0
TABLE
  2
LAYER
  5
2
330
0
100
AcDbSymbolTable
 70
     9
  0
LAYER
  5
10
330
2
100
AcDbSymbolTableRecord
100
AcDbLayerTableRecord
  2
0
 70
     0
 62
     7
  6
Continuous
370
    -3
390
F
  0
LAYER
  5
2A
330
2
100
AcDbSymbolTableRecord
100
AcDbLayerTableRecord
  2
VOLL
 70
     0
 62
     1
  6
Continuous
370
    -3
390
F
  0
LAYER
  5
2B
330
2
100
AcDbSymbolTableRecord
100
AcDbLayerTableRecord
  2
HILF
 70
     0
 62
     2
  6
Continuous
370
    -3
390
F
  0
LAYER
  5
2C
330
2
100
AcDbSymbolTableRecord
100
AcDbLayerTableRecord
  2
MITTEL
 70
     0
 62
     2
  6
STRICHPUNKT
370
    -3
390
F
  0
LAYER
  5
2F
330
2
100
AcDbSymbolTableRecord
100
AcDbLayerTableRecord
  2
BEM
 70
     0
 62
     7
  6
Continuous
370
    -3
390
F
  0
LAYER
  5
30
330
2
100
AcDbSymbolTableRecord
100
AcDbLayerTableRecord
  2
STEMPEL
 70
     0
 62
     3
  6
Continuous
370
    -3
390
F
  0
LAYER
  5
31
330
2
100
AcDbSymbolTableRecord
100
AcDbLayerTableRecord
  2
TEXT
 70
     0
 62
     7
  6
Continuous
370
    -3
390
F
  0
LAYER
  5
171
330
2
100
AcDbSymbolTableRecord
100
AcDbLayerTableRecord
  2
Defpoints
 70
     0
 62
     7
  6
Continuous
290
     0
370
    -3
390
F
  0
LAYER
  5
19C
330
2
100
AcDbSymbolTableRecord
100
AcDbLayerTableRecord
  2
SCHRAFF
 70
     0
 62
     7
  6
Continuous
370
    -3
390
F
  0
ENDTAB
  0
TABLE
  2
STYLE
  5
3
330
0
100
AcDbSymbolTable
 70
     2
  0
STYLE
  5
11
330
3
100
AcDbSymbolTableRecord
100
AcDbTextStyleTableRecord
  2
STANDARD
 70
     0
 40
0.0
 41
0.8
 50
0.0
 71
     0
 42
3.5
  3
simplex.shx
  4

  0
STYLE
  5
24
330
3
100
AcDbSymbolTableRecord
100
AcDbTextStyleTableRecord
  2
GREEKS
 70
     0
 40
0.0
 41
0.8
 50
0.0
 71
     0
 42
2.5
  3
SIMPLEX.shx
  4

  0
ENDTAB
  0
TABLE
  2
VIEW
  5
6
330
0
100
AcDbSymbolTable
 70
     0
  0
ENDTAB
  0
TABLE
  2
UCS
  5
7
330
0
100
AcDbSymbolTable
 70
     0
  0
ENDTAB
  0
TABLE
  2
APPID
  5
9
330
0
100
AcDbSymbolTable
 70
     1
  0
APPID
  5
12
330
9
100
AcDbSymbolTableRecord
100
AcDbRegAppTableRecord
  2
ACAD
 70
     0
  0
ENDTAB
  0
TABLE
  2
DIMSTYLE
  5
A
330
0
100
AcDbSymbolTable
 70
     1
100
AcDbDimStyleTable
 71
     1
340
9D
  0
DIMSTYLE
105
9D
102
{ACAD_REACTORS
330
1822
330
192A
330
19D1
330
19D3
330
1A83
330
1B65
330
1C80
102
}
330
A
100
AcDbSymbolTableRecord
100
AcDbDimStyleTableRecord
  2
Standard
 70
     0
340
11
  0
ENDTAB
  0
TABLE
  2
BLOCK_RECORD
  5
1
330
0
100
AcDbSymbolTable
 70
     8
  0
BLOCK_RECORD
  5
1E
102
{ACAD_XDICTIONARY
360
A0
102
}
330
1
100
AcDbSymbolTableRecord
100
AcDbBlockTableRecord
  2
*Model_Space
340
21
  0
BLOCK_RECORD
  5
1A
102
{ACAD_XDICTIONARY
360
A2
102
}
330
1
100
AcDbSymbolTableRecord
100
AcDbBlockTableRecord
  2
*Paper_Space
340
1D
  0
BLOCK_RECORD
  5
22
330
1
100
AcDbSymbolTableRecord
100
AcDbBlockTableRecord
  2
LOGO
340
0
102
{BLKREFS
331
9B
102
}
  0
BLOCK_RECORD
  5
1876
330
1
100
AcDbSymbolTableRecord
100
AcDbBlockTableRecord
  2
*D1
340
0
  0
BLOCK_RECORD
  5
192B
330
1
100
AcDbSymbolTableRecord
100
AcDbBlockTableRecord
  2
*D2
340
0
  0
BLOCK_RECORD
  5
19D4
330
1
100
AcDbSymbolTableRecord
100
AcDbBlockTableRecord
  2
*D3
340
0
  0
BLOCK_RECORD
  5
19E8
330
1
100
AcDbSymbolTableRecord
100
AcDbBlockTableRecord
  2
*D4
340
0
  0
BLOCK_RECORD
  5
1A84
330
1
100
AcDbSymbolTableRecord
100
AcDbBlockTableRecord
  2
*D5
340
0
  0
BLOCK_RECORD
  5
1B66
330
1
100
AcDbSymbolTableRecord
100
AcDbBlockTableRecord
  2
*D6
340
0
  0
BLOCK_RECORD
  5
1C81
330
1
100
AcDbSymbolTableRecord
100
AcDbBlockTableRecord
  2
*D7
340
0
  0
ENDTAB
  0
ENDSEC
  0
SECTION
  2
BLOCKS
  0
BLOCK
  5
35
330
1E
100
AcDbEntity
  8
0
100
AcDbBlockBegin
  2
*Model_Space
 70
     0
 10
0.0
 20
0.0
 30
0.0
  3
*Model_Space
  1

  0
ENDBLK
  5
36
330
1E
100
AcDbEntity
  8
0
100
AcDbBlockEnd
  0
BLOCK
  5
33
330
1A
100
AcDbEntity
 67
     1
  8
0
100
AcDbBlockBegin
  2
*Paper_Space
 70
     0
 10
0.0
 20
0.0
 30
0.0
  3
*Paper_Space
  1

  0
ENDBLK
  5
34
330
1A
100
AcDbEntity
 67
     1
  8
0
100
AcDbBlockEnd
  0
BLOCK
  5
37
330
22
100
AcDbEntity
  8
0
100
AcDbBlockBegin
  2
LOGO
 70
     0
 10
0.0
 20
0.0
 30
0.0
  3
LOGO
  1

  0
ARC
  5
38
330
22
100
AcDbEntity
  8
0
100
AcDbCircle
 10
11.59973089678112
 20
-9.271599258481501
 30
0.0
 40
4.5
100
AcDbArc
 50
270.0
 51
231.0575587310159
  0
LINE
  5
39
330
22
100
AcDbEntity
  8
0
100
AcDbLine
 10
3.599730896781125
 20
-4.771599258481529
 30
0.0
 11
3.599730896781153
 21
-11.77159925848133
 31
0.0
  0
LINE
  5
3A
330
22
100
AcDbEntity
  8
0
100
AcDbLine
 10
2.599730896781125
 20
-4.771599258481529
 30
0.0
 11
2.599730896781153
 21
-11.77159925848133
 31
0.0
  0
CIRCLE
  5
3B
330
22
100
AcDbEntity
  8
0
100
AcDbCircle
 10
11.59973089678112
 20
-9.271599258481501
 30
0.0
 40
3.5
  0
ARC
  5
3C
330
22
100
AcDbEntity
  8
0
100
AcDbCircle
 10
31.59973089678115
 20
-9.271599258481472
 30
0.0
 40
4.5
100
AcDbArc
 50
270.0
 51
231.0575587310182
  0
LINE
  5
3D
330
22
100
AcDbEntity
  8
0
100
AcDbLine
 10
17.59973089678112
 20
-4.771599258481472
 30
0.0
 11
17.59973089678115
 21
-13.77159925848147
 31
0.0
  0
ARC
  5
3E
330
22
100
AcDbEntity
  8
0
100
AcDbCircle
 10
22.59973089678116
 20
-7.271599258481472
 30
0.0
 40
2.5
100
AcDbArc
 50
293.1161887722295
 51
90.0
  0
CIRCLE
  5
3F
330
22
100
AcDbEntity
  8
0
100
AcDbCircle
 10
31.59973089678115
 20
-9.271599258481472
 30
0.0
 40
3.5
  0
ARC
  5
40
330
22
100
AcDbEntity
  8
0
100
AcDbCircle
 10
4.599730896781153
 20
-11.77159925848133
 30
0.0
 40
1.0
100
AcDbArc
 50
180.0
 51
270.0
  0
ARC
  5
41
330
22
100
AcDbEntity
  8
0
100
AcDbCircle
 10
4.599730896781153
 20
-11.77159925848133
 30
0.0
 40
2.0
100
AcDbArc
 50
179.9999999999992
 51
270.0
  0
LINE
  5
42
330
22
100
AcDbEntity
  8
0
100
AcDbLine
 10
11.59973089678115
 20
-13.77159925848144
 30
0.0
 11
4.599730896781153
 21
-13.77159925848147
 31
0.0
  0
LINE
  5
43
330
22
100
AcDbEntity
  8
0
100
AcDbLine
 10
8.771303772034769
 20
-12.77159925848136
 30
0.0
 11
4.599730896781153
 21
-12.77159925848133
 31
0.0
  0
LINE
  5
44
330
22
100
AcDbEntity
  8
0
100
AcDbLine
 10
31.59973089678115
 20
-13.77159925848147
 30
0.0
 11
23.6715276665056
 21
-13.77159925848144
 31
0.0
  0
LINE
  5
45
330
22
100
AcDbEntity
  8
0
100
AcDbLine
 10
23.56565672307022
 20
-9.51278021337896
 30
0.0
 11
24.4388546544846
 21
-12.77159925848144
 31
0.0
  0
LINE
  5
46
330
22
100
AcDbEntity
  8
0
100
AcDbLine
 10
22.59973089678116
 20
-9.771599258481472
 30
0.0
 11
18.59973089678112
 21
-9.771599258481472
 31
0.0
  0
LINE
  5
47
330
22
100
AcDbEntity
  8
0
100
AcDbLine
 10
18.59973089678115
 20
-13.77159925848144
 30
0.0
 11
17.59973089678115
 21
-13.77159925848144
 31
0.0
  0
LINE
  5
48
330
22
100
AcDbEntity
  8
0
100
AcDbLine
 10
18.59973089678115
 20
-9.771599258481472
 30
0.0
 11
18.59973089678115
 21
-13.77159925848144
 31
0.0
  0
LINE
  5
49
330
22
100
AcDbEntity
  8
0
100
AcDbLine
 10
22.59973089678116
 20
-9.771599258481472
 30
0.0
 11
23.67152766650562
 21
-13.77159925848147
 31
0.0
  0
ARC
  5
4A
330
22
100
AcDbEntity
  8
0
100
AcDbCircle
 10
22.59973089678116
 20
-7.271599258481472
 30
0.0
 40
2.5
100
AcDbArc
 50
270.0
 51
270.0000000000007
  0
LINE
  5
4B
330
22
100
AcDbEntity
  8
0
100
AcDbLine
 10
28.77130377203494
 20
-12.77159925848147
 30
0.0
 11
24.43885465448463
 21
-12.77159925848144
 31
0.0
  0
LINE
  5
4C
330
22
100
AcDbEntity
  8
0
100
AcDbLine
 10
3.599730896781125
 20
-4.771599258481472
 30
0.0
 11
2.599730896781125
 21
-4.771599258481472
 31
0.0
  0
LINE
  5
4D
330
22
100
AcDbEntity
  8
0
100
AcDbLine
 10
22.59973089678116
 20
-8.771599258481472
 30
0.0
 11
18.59973089678115
 21
-8.771599258481472
 31
0.0
  0
LINE
  5
4E
330
22
100
AcDbEntity
  8
0
100
AcDbLine
 10
22.59973089678116
 20
-5.771599258481472
 30
0.0
 11
18.59973089678115
 21
-5.771599258481472
 31
0.0
  0
LINE
  5
4F
330
22
100
AcDbEntity
  8
0
100
AcDbLine
 10
22.59973089678116
 20
-4.771599258481472
 30
0.0
 11
17.59973089678115
 21
-4.771599258481472
 31
0.0
  0
LINE
  5
50
330
22
100
AcDbEntity
  8
0
100
AcDbLine
 10
18.59973089678115
 20
-5.771599258481472
 30
0.0
 11
18.59973089678115
 21
-8.771599258481472
 31
0.0
  0
ARC
  5
51
330
22
100
AcDbEntity
  8
0
100
AcDbCircle
 10
22.59973089678116
 20
-7.271599258481472
 30
0.0
 40
1.5
100
AcDbArc
 50
270.0
 51
90.0
  0
ENDBLK
  5
52
330
22
100
AcDbEntity
  8
0
100
AcDbBlockEnd
  0
BLOCK
  5
1880
330
1876
100
AcDbEntity
  8
0
100
AcDbBlockBegin
  2
*D1
 70
     1
 10
0.0
 20
0.0
 30
0.0
  3
*D1
  1

  0
LINE
  5
1AE1
330
1876
100
AcDbEntity
  8
BEM
 62
     0
370
    -2
100
AcDbLine
 10
196.5780955361965
 20
266.3034755107209
 30
0.0
 11
196.5780955361965
 21
240.7547309871648
 31
0.0
  0
LINE
  5
1AE2
330
1876
100
AcDbEntity
  8
BEM
 62
     0
370
    -2
100
AcDbLine
 10
249.5780955361912
 20
266.3034755108953
 30
0.0
 11
249.5780955361912
 21
240.7547309871648
 31
0.0
  0
LINE
  5
1AE3
330
1876
100
AcDbEntity
  8
BEM
 62
     0
370
    -2
100
AcDbLine
 10
203.5780955361965
 20
242.7547309871648
 30
0.0
 11
242.5780955361912
 21
242.7547309871648
 31
0.0
  0
SOLID
  5
1AE4
330
1876
100
AcDbEntity
  8
BEM
 62
     0
100
AcDbTrace
 10
203.5780955361965
 20
243.9213976538314
 30
0.0
 11
203.5780955361965
 21
241.5880643204981
 31
0.0
 12
196.5780955361965
 22
242.7547309871648
 32
0.0
 13
196.5780955361965
 23
242.7547309871648
 33
0.0
  0
SOLID
  5
1AE5
330
1876
100
AcDbEntity
  8
BEM
 62
     0
100
AcDbTrace
 10
242.5780955361912
 20
243.9213976538314
 30
0.0
 11
242.5780955361912
 21
241.5880643204981
 31
0.0
 12
249.5780955361912
 22
242.7547309871648
 32
0.0
 13
249.5780955361912
 23
242.7547309871648
 33
0.0
  0
MTEXT
  5
1AE6
330
1876
100
AcDbEntity
  8
BEM
 62
     1
100
AcDbMText
 10
223.0780955361939
 20
249.2547309871648
 30
0.0
 40
7.0
 41
0.0
 71
     5
 72
     1
  1
\A1;%%C53
 73
     1
 44
1.0
  0
POINT
  5
1AE7
330
1876
100
AcDbEntity
  8
Defpoints
 62
     0
100
AcDbPoint
 10
196.5780955361965
 20
268.3034755107209
 30
0.0
  0
POINT
  5
1AE8
330
1876
100
AcDbEntity
  8
Defpoints
 62
     0
100
AcDbPoint
 10
249.5780955361912
 20
268.3034755108953
 30
0.0
  0
POINT
  5
1AE9
330
1876
100
AcDbEntity
  8
Defpoints
 62
     0
100
AcDbPoint
 10
249.5780955361912
 20
242.7547309871648
 30
0.0
  0
ENDBLK
  5
1881
330
1876
100
AcDbEntity
  8
0
100
AcDbBlockEnd
  0
BLOCK
  5
1935
330
192B
100
AcDbEntity
  8
0
100
AcDbBlockBegin
  2
*D2
 70
     1
 10
0.0
 20
0.0
 30
0.0
  3
*D2
  1

  0
LINE
  5
1C95
330
192B
100
AcDbEntity
  8
BEM
 62
     0
370
    -2
100
AcDbLine
 10
204.1571845723759
 20
445.6517235181787
 30
0.0
 11
216.1286041737854
 21
490.3296697093734
 31
0.0
  0
LINE
  5
1C96
330
192B
100
AcDbEntity
  8
BEM
 62
     0
370
    -2
100
AcDbLine
 10
290.124583112103
 20
422.6168285040544
 30
0.0
 11
302.0960027135136
 21
467.2947746952533
 31
0.0
  0
LINE
  5
1C97
330
192B
100
AcDbEntity
  8
BEM
 62
     0
370
    -2
100
AcDbLine
 10
222.372446867604
 20
486.586084741078
 30
0.0
 11
294.8168838392851
 21
467.1746563583924
 31
0.0
  0
SOLID
  5
1C98
330
192B
100
AcDbEntity
  8
BEM
 62
     0
100
AcDbTrace
 10
222.6744024202236
 20
487.7129982050818
 30
0.0
 11
222.0704913149845
 21
485.4591712770741
 31
0.0
 12
215.6109660835805
 22
488.3978180567953
 32
0.0
 13
215.6109660835805
 23
488.3978180567953
 33
0.0
  0
SOLID
  5
1C99
330
192B
100
AcDbEntity
  8
BEM
 62
     0
100
AcDbTrace
 10
295.1188393919046
 20
468.3015698223963
 30
0.0
 11
294.5149282866656
 21
466.0477428943885
 31
0.0
 12
301.5783646233087
 22
465.3629230426751
 32
0.0
 13
301.5783646233087
 23
465.3629230426751
 33
0.0
  0
MTEXT
  5
1C9A
330
192B
100
AcDbEntity
  8
BEM
 62
     1
100
AcDbMText
 10
260.2769891466107
 20
483.1588884206142
 30
0.0
 40
7.0
 41
0.0
 71
     5
 72
     1
  1
\A1;%%c89
  7
GREEKS
 11
0.9659258262890807
 21
-0.2588190451024741
 31
0.0
 73
     1
 44
1.0
  0
POINT
  5
1C9B
330
192B
100
AcDbEntity
  8
Defpoints
 62
     0
100
AcDbPoint
 10
203.639546482171
 20
443.7198718656005
 30
0.0
  0
POINT
  5
1C9C
330
192B
100
AcDbEntity
  8
Defpoints
 62
     0
100
AcDbPoint
 10
289.6069450218981
 20
420.6849768514762
 30
0.0
  0
POINT
  5
1C9D
330
192B
100
AcDbEntity
  8
Defpoints
 62
     0
100
AcDbPoint
 10
301.5783646233087
 20
465.3629230426751
 30
0.0
  0
ENDBLK
  5
1936
330
192B
100
AcDbEntity
  8
0
100
AcDbBlockEnd
  0
BLOCK
  5
19DE
330
19D4
100
AcDbEntity
  8
0
100
AcDbBlockBegin
  2
*D3
 70
     1
 10
0.0
 20
0.0
 30
0.0
  3
*D3
  1

  0
LINE
  5
1ABB
330
19D4
100
AcDbEntity
  8
BEM
 62
     0
370
    -2
100
AcDbLine
 10
176.5780955361914
 20
293.3034755107172
 30
0.0
 11
157.6240509963958
 21
293.3034755107172
 31
0.0
  0
LINE
  5
1ABC
330
19D4
100
AcDbEntity
  8
BEM
 62
     0
370
    -2
100
AcDbLine
 10
195.0098090975058
 20
263.3034755107171
 30
0.0
 11
157.6240509963958
 21
263.3034755107171
 31
0.0
  0
LINE
  5
1ABD
330
19D4
100
AcDbEntity
  8
BEM
 62
     0
370
    -2
100
AcDbLine
 10
159.6240509963958
 20
286.3034755107173
 30
0.0
 11
159.6240509963958
 21
270.3034755107172
 31
0.0
  0
SOLID
  5
1ABE
330
19D4
100
AcDbEntity
  8
BEM
 62
     0
100
AcDbTrace
 10
158.4573843297291
 20
286.3034755107173
 30
0.0
 11
160.7907176630624
 21
286.3034755107173
 31
0.0
 12
159.6240509963958
 22
293.3034755107172
 32
0.0
 13
159.6240509963958
 23
293.3034755107172
 33
0.0
  0
SOLID
  5
1ABF
330
19D4
100
AcDbEntity
  8
BEM
 62
     0
100
AcDbTrace
 10
158.4573843297291
 20
270.3034755107172
 30
0.0
 11
160.7907176630624
 21
270.3034755107172
 31
0.0
 12
159.6240509963958
 22
263.3034755107171
 32
0.0
 13
159.6240509963958
 23
263.3034755107171
 33
0.0
  0
MTEXT
  5
1AC0
330
19D4
100
AcDbEntity
  8
BEM
 62
     1
100
AcDbMText
 10
153.1240509963957
 20
278.3034755107173
 30
0.0
 40
7.0
 41
0.0
 71
     5
 72
     1
  1
\A1;30
 11
0.0000000000000001
 21
1.0
 31
0.0
 73
     1
 44
1.0
  0
POINT
  5
1AC1
330
19D4
100
AcDbEntity
  8
Defpoints
 62
     0
100
AcDbPoint
 10
178.5780955361914
 20
293.3034755107172
 30
0.0
  0
POINT
  5
1AC2
330
19D4
100
AcDbEntity
  8
Defpoints
 62
     0
100
AcDbPoint
 10
197.0098090975058
 20
263.3034755107171
 30
0.0
  0
POINT
  5
1AC3
330
19D4
100
AcDbEntity
  8
Defpoints
 62
     0
100
AcDbPoint
 10
159.6240509963958
 20
263.3034755107171
 30
0.0
  0
ENDBLK
  5
19DF
330
19D4
100
AcDbEntity
  8
0
100
AcDbBlockEnd
  0
BLOCK
  5
19F2
330
19E8
100
AcDbEntity
  8
0
100
AcDbBlockBegin
  2
*D4
 70
     1
 10
0.0
 20
0.0
 30
0.0
  3
*D4
  1

  0
LINE
  5
1AA7
330
19E8
100
AcDbEntity
  8
BEM
 62
     0
370
    -2
100
AcDbLine
 10
196.5780955361991
 20
266.2379840962612
 30
0.0
 11
196.5780955361991
 21
241.0168814035114
 31
0.0
  0
LINE
  5
1AA8
330
19E8
100
AcDbEntity
  8
BEM
 62
     0
370
    -2
100
AcDbLine
 10
249.5780955361911
 20
266.2379840963487
 30
0.0
 11
249.5780955361911
 21
241.0168814035114
 31
0.0
  0
LINE
  5
1AA9
330
19E8
100
AcDbEntity
  8
BEM
 62
     0
370
    -2
100
AcDbLine
 10
203.5780955361992
 20
243.0168814035114
 30
0.0
 11
242.5780955361911
 21
243.0168814035114
 31
0.0
  0
SOLID
  5
1AAA
330
19E8
100
AcDbEntity
  8
BEM
 62
     0
100
AcDbTrace
 10
203.5780955361992
 20
244.1835480701781
 30
0.0
 11
203.5780955361992
 21
241.8502147368448
 31
0.0
 12
196.5780955361991
 22
243.0168814035114
 32
0.0
 13
196.5780955361991
 23
243.0168814035114
 33
0.0
  0
SOLID
  5
1AAB
330
19E8
100
AcDbEntity
  8
BEM
 62
     0
100
AcDbTrace
 10
242.5780955361911
 20
244.1835480701781
 30
0.0
 11
242.5780955361911
 21
241.8502147368448
 31
0.0
 12
249.5780955361911
 22
243.0168814035114
 32
0.0
 13
249.5780955361911
 23
243.0168814035114
 33
0.0
  0
MTEXT
  5
1AAC
330
19E8
100
AcDbEntity
  8
BEM
 62
     1
100
AcDbMText
 10
223.0780955361951
 20
249.5168814035114
 30
0.0
 40
7.0
 41
0.0
 71
     5
 72
     1
  1
\A1;%%c53
  7
GREEKS
 73
     1
 44
1.0
  0
POINT
  5
1AAD
330
19E8
100
AcDbEntity
  8
Defpoints
 62
     0
100
AcDbPoint
 10
196.5780955361991
 20
268.2379840962612
 30
0.0
  0
POINT
  5
1AAE
330
19E8
100
AcDbEntity
  8
Defpoints
 62
     0
100
AcDbPoint
 10
249.5780955361911
 20
268.2379840963487
 30
0.0
  0
POINT
  5
1AAF
330
19E8
100
AcDbEntity
  8
Defpoints
 62
     0
100
AcDbPoint
 10
249.5780955361911
 20
243.0168814035114
 30
0.0
  0
ENDBLK
  5
19F3
330
19E8
100
AcDbEntity
  8
0
100
AcDbBlockEnd
  0
BLOCK
  5
1A8E
330
1A84
100
AcDbEntity
  8
0
100
AcDbBlockBegin
  2
*D5
 70
     1
 10
0.0
 20
0.0
 30
0.0
  3
*D5
  1

  0
LINE
  5
1AEA
330
1A84
100
AcDbEntity
  8
BEM
 62
     0
370
    -2
100
AcDbLine
 10
221.0780955361911
 20
344.3036710712011
 30
0.0
 11
143.5445229007446
 21
344.3036710712011
 31
0.0
  0
LINE
  5
1AEB
330
1A84
100
AcDbEntity
  8
BEM
 62
     0
370
    -2
100
AcDbLine
 10
194.7090251440424
 20
263.3034755107171
 30
0.0
 11
143.5445229007446
 21
263.3034755107171
 31
0.0
  0
LINE
  5
1AEC
330
1A84
100
AcDbEntity
  8
BEM
 62
     0
370
    -2
100
AcDbLine
 10
145.5445229007446
 20
337.303671071201
 30
0.0
 11
145.5445229007446
 21
270.3034755107172
 31
0.0
  0
SOLID
  5
1AED
330
1A84
100
AcDbEntity
  8
BEM
 62
     0
100
AcDbTrace
 10
144.3778562340779
 20
337.303671071201
 30
0.0
 11
146.7111895674113
 21
337.303671071201
 31
0.0
 12
145.5445229007446
 22
344.3036710712011
 32
0.0
 13
145.5445229007446
 23
344.3036710712011
 33
0.0
  0
SOLID
  5
1AEE
330
1A84
100
AcDbEntity
  8
BEM
 62
     0
100
AcDbTrace
 10
144.3778562340779
 20
270.3034755107172
 30
0.0
 11
146.7111895674112
 21
270.3034755107172
 31
0.0
 12
145.5445229007446
 22
263.3034755107171
 32
0.0
 13
145.5445229007446
 23
263.3034755107171
 33
0.0
  0
MTEXT
  5
1AEF
330
1A84
100
AcDbEntity
  8
BEM
 62
     1
100
AcDbMText
 10
139.0445229007445
 20
303.8035732909591
 30
0.0
 40
7.0
 41
0.0
 71
     5
 72
     1
  1
\A1;81
 11
0.0000000000000001
 21
1.0
 31
0.0
 73
     1
 44
1.0
  0
POINT
  5
1AF0
330
1A84
100
AcDbEntity
  8
Defpoints
 62
     0
100
AcDbPoint
 10
223.0780955361911
 20
344.3036710712011
 30
0.0
  0
POINT
  5
1AF1
330
1A84
100
AcDbEntity
  8
Defpoints
 62
     0
100
AcDbPoint
 10
196.7090251440424
 20
263.3034755107171
 30
0.0
  0
POINT
  5
1AF2
330
1A84
100
AcDbEntity
  8
Defpoints
 62
     0
100
AcDbPoint
 10
145.5445229007446
 20
263.3034755107171
 30
0.0
  0
ENDBLK
  5
1A8F
330
1A84
100
AcDbEntity
  8
0
100
AcDbBlockEnd
  0
BLOCK
  5
1B70
330
1B66
100
AcDbEntity
  8
0
100
AcDbBlockBegin
  2
*D6
 70
     1
 10
0.0
 20
0.0
 30
0.0
  3
*D6
  1

  0
LINE
  5
1B72
330
1B66
100
AcDbEntity
  8
BEM
 62
     0
370
    -2
100
AcDbLine
 10
221.1462040545328
 20
344.8211604943747
 30
0.0
 11
147.7646875239743
 21
364.4776262024873
 31
0.0
  0
LINE
  5
1B73
330
1B66
100
AcDbEntity
  8
BEM
 62
     0
370
    -2
100
AcDbLine
 10
201.7056452767546
 20
444.2298590974179
 30
0.0
 11
171.3087142130901
 21
452.3721851399161
 31
0.0
  0
LINE
  5
1B74
330
1B66
100
AcDbEntity
  8
BEM
 62
     0
370
    -2
100
AcDbLine
 10
151.5077919867404
 20
370.7217569651172
 30
0.0
 11
171.4293927136404
 21
445.0930755309389
 31
0.0
  0
SOLID
  5
1B75
330
1B66
100
AcDbEntity
  8
BEM
 62
     0
100
AcDbTrace
 10
150.3808552891064
 20
371.0236257953018
 30
0.0
 11
152.6347286843743
 21
370.4198881349325
 31
0.0
 12
149.6965790056325
 22
363.9601367793137
 32
0.0
 13
149.6965790056325
 23
363.9601367793137
 33
0.0
  0
SOLID
  5
1B76
330
1B66
100
AcDbEntity
  8
BEM
 62
     0
100
AcDbTrace
 10
170.3024560160065
 20
445.3949443611235
 30
0.0
 11
172.5563294112743
 21
444.7912067007543
 31
0.0
 12
173.2406056947482
 22
451.8546957167425
 32
0.0
 13
173.2406056947482
 23
451.8546957167425
 33
0.0
  0
MTEXT
  5
1B77
330
1B66
100
AcDbEntity
  8
BEM
 62
     1
100
AcDbMText
 10
155.1899450348013
 20
409.5892568733425
 30
0.0
 40
7.0
 41
0.0
 71
     5
 72
     1
  1
\A1;91
 11
0.2587447115868402
 21
0.9659457408290814
 31
0.0
 73
     1
 44
1.0
  0
POINT
  5
1B78
330
1B66
100
AcDbEntity
  8
Defpoints
 62
     0
100
AcDbPoint
 10
223.078095536191
 20
344.303671071201
 30
0.0
  0
POINT
  5
1B79
330
1B66
100
AcDbEntity
  8
Defpoints
 62
     0
100
AcDbPoint
 10
203.6375367584128
 20
443.7123696742442
 30
0.0
  0
POINT
  5
1B7A
330
1B66
100
AcDbEntity
  8
Defpoints
 62
     0
100
AcDbPoint
 10
173.2406056947482
 20
451.8546957167425
 30
0.0
  0
ENDBLK
  5
1B71
330
1B66
100
AcDbEntity
  8
0
100
AcDbBlockEnd
  0
BLOCK
  5
1C8D
330
1C81
100
AcDbEntity
  8
0
100
AcDbBlockBegin
  2
*D7
 70
     1
 10
0.0
 20
0.0
 30
0.0
  3
*D7
  1

  0
LINE
  5
1C82
330
1C81
100
AcDbEntity
  8
BEM
 62
     0
370
    -2
100
AcDbLine
 10
248.4344587393015
 20
438.9640445673349
 30
0.0
 11
254.6278686521218
 21
462.0852820597169
 31
0.0
  0
LINE
  5
1C83
330
1C81
100
AcDbEntity
  8
BEM
 62
     0
370
    -2
100
AcDbLine
 10
223.0780955361911
 20
346.3036710712011
 30
0.0
 11
223.0780955361906
 21
466.2376534990573
 31
0.0
  0
ARC
  5
1C84
330
1C81
100
AcDbEntity
  8
BEM
 62
     0
370
    -2
100
AcDbCircle
 10
223.0780955361911
 20
344.3036710712011
 30
0.0
 40
119.9339824278563
100
AcDbArc
 50
78.34897757622482
 51
86.65543161618257
  0
SOLID
  5
1C85
330
1C81
100
AcDbEntity
  8
BEM
 62
     0
100
AcDbTrace
 10
247.5676359185996
 20
462.9017757559408
 30
0.0
 11
247.0299295533594
 21
460.6312435916179
 31
0.0
 12
254.1103792289481
 22
460.1533905780587
 32
0.0
 13
254.1103792289481
 23
460.1533905780587
 33
0.0
  0
SOLID
  5
1C86
330
1C81
100
AcDbEntity
  8
BEM
 62
     0
100
AcDbTrace
 10
230.0410676836544
 20
462.8672046730319
 30
0.0
 11
230.1091607003403
 21
465.1995442249675
 31
0.0
 12
223.0780955361906
 22
464.2376534990574
 32
0.0
 13
223.0780955361906
 23
464.2376534990574
 33
0.0
  0
MTEXT
  5
1C87
330
1C81
100
AcDbEntity
  8
BEM
 62
     1
100
AcDbMText
 10
239.5762185782334
 20
469.6566281510286
 30
0.0
 40
7.0
 41
0.0
 71
     5
 72
     1
  1
\A1;15°
 11
0.9914498829565424
 21
-0.1304880438410312
 31
0.0
 73
     1
 44
1.0
  0
POINT
  5
1C88
330
1C81
100
AcDbEntity
  8
Defpoints
 62
     0
100
AcDbPoint
 10
243.8983534686534
 20
462.4166551188115
 30
0.0
  0
POINT
  5
1C89
330
1C81
100
AcDbEntity
  8
Defpoints
 62
     0
100
AcDbPoint
 10
223.0780955361911
 20
344.3036710712011
 30
0.0
  0
POINT
  5
1C8A
330
1C81
100
AcDbEntity
  8
Defpoints
 62
     0
100
AcDbPoint
 10
247.9169693161278
 20
437.0321530856767
 30
0.0
  0
POINT
  5
1C8B
330
1C81
100
AcDbEntity
  8
Defpoints
 62
     0
100
AcDbPoint
 10
223.0780955361911
 20
344.3036710712011
 30
0.0
  0
POINT
  5
1C8C
330
1C81
100
AcDbEntity
  8
Defpoints
 62
     0
100
AcDbPoint
 10
223.0780955361914
 20
258.3034755107171
 30
0.0
  0
ENDBLK
  5
1C8E
330
1C81
100
AcDbEntity
  8
0
100
AcDbBlockEnd
  0
ENDSEC
  0
SECTION
  2
ENTITIES
  0
LINE
  5
57
330
1E
100
AcDbEntity
  8
STEMPEL
100
AcDbLine
 10
410.0
 20
110.0
 30
0.0
 11
39.99999999999997
 21
110.0
 31
0.0
  0
LINE
  5
58
330
1E
100
AcDbEntity
  8
STEMPEL
100
AcDbLine
 10
146.0000000000001
 20
109.9999999999999
 30
0.0
 11
146.0
 21
9.999999999999971
 31
0.0
  0
LINE
  5
59
330
1E
100
AcDbEntity
  8
STEMPEL
100
AcDbLine
 10
230.0
 20
110.0
 30
0.0
 11
230.0
 21
9.999999999999971
 31
0.0
  0
LINE
  5
5A
330
1E
100
AcDbEntity
  8
STEMPEL
100
AcDbLine
 10
332.0
 20
109.9999999999997
 30
0.0
 11
332.0
 21
40.0
 31
0.0
  0
LINE
  5
5B
330
1E
100
AcDbEntity
  8
STEMPEL
100
AcDbLine
 10
145.9999999999999
 20
29.99999999999997
 30
0.0
 11
39.99999999999997
 21
29.99999999999997
 31
0.0
  0
LINE
  5
5C
330
1E
100
AcDbEntity
  8
STEMPEL
100
AcDbLine
 10
410.0
 20
40.0
 30
0.0
 11
146.0000000000001
 21
39.99999999999997
 31
0.0
  0
LINE
  5
5D
330
1E
100
AcDbEntity
  8
STEMPEL
100
AcDbLine
 10
410.0
 20
80.0
 30
0.0
 11
146.0000000000001
 21
79.99999999999994
 31
0.0
  0
LINE
  5
5E
330
1E
100
AcDbEntity
  8
VOLL
100
AcDbLine
 10
54.00000000000009
 20
110.0
 30
0.0
 11
53.99999999999997
 21
9.999999999999971
 31
0.0
  0
LINE
  5
5F
330
1E
100
AcDbEntity
  8
VOLL
100
AcDbLine
 10
104.0000000000001
 20
109.9999999999999
 30
0.0
 11
104.0
 21
9.999999999999971
 31
0.0
  0
LINE
  5
60
330
1E
100
AcDbEntity
  8
VOLL
100
AcDbLine
 10
124.0000000000001
 20
109.9999999999999
 30
0.0
 11
124.0
 21
9.999999999999971
 31
0.0
  0
LINE
  5
61
330
1E
100
AcDbEntity
  8
VOLL
100
AcDbLine
 10
164.0000000000001
 20
79.99999999999994
 30
0.0
 11
164.0000000000001
 21
39.99999999999997
 31
0.0
  0
LINE
  5
62
330
1E
100
AcDbEntity
  8
VOLL
100
AcDbLine
 10
190.0000000000001
 20
109.9999999999998
 30
0.0
 11
190.0
 21
39.99999999999997
 31
0.0
  0
LINE
  5
63
330
1E
100
AcDbEntity
  8
HILF
100
AcDbLine
 10
40.00000000000008
 20
100.0
 30
0.0
 11
146.0000000000001
 21
100.0
 31
0.0
  0
LINE
  5
64
330
1E
100
AcDbEntity
  8
HILF
100
AcDbLine
 10
40.00000000000008
 20
90.00000000000005
 30
0.0
 11
146.0000000000001
 21
90.00000000000005
 31
0.0
  0
LINE
  5
65
330
1E
100
AcDbEntity
  8
HILF
100
AcDbLine
 10
40.00000000000008
 20
79.99999999999994
 30
0.0
 11
146.0000000000001
 21
79.99999999999994
 31
0.0
  0
LINE
  5
66
330
1E
100
AcDbEntity
  8
HILF
100
AcDbLine
 10
40.00000000000008
 20
69.99999999999994
 30
0.0
 11
146.0000000000001
 21
69.99999999999994
 31
0.0
  0
LINE
  5
67
330
1E
100
AcDbEntity
  8
HILF
100
AcDbLine
 10
40.00000000000008
 20
59.99999999999997
 30
0.0
 11
146.0000000000001
 21
59.99999999999997
 31
0.0
  0
LINE
  5
68
330
1E
100
AcDbEntity
  8
HILF
100
AcDbLine
 10
40.00000000000008
 20
49.99999999999997
 30
0.0
 11
146.0000000000001
 21
49.99999999999997
 31
0.0
  0
LINE
  5
69
330
1E
100
AcDbEntity
  8
HILF
100
AcDbLine
 10
40.00000000000008
 20
39.99999999999997
 30
0.0
 11
146.0000000000001
 21
39.99999999999997
 31
0.0
  0
LINE
  5
6A
330
1E
100
AcDbEntity
  8
HILF
100
AcDbLine
 10
146.0000000000001
 20
69.99999999999994
 30
0.0
 11
230.0
 21
69.99999999999994
 31
0.0
  0
LINE
  5
6B
330
1E
100
AcDbEntity
  8
HILF
100
AcDbLine
 10
146.0000000000001
 20
59.99999999999997
 30
0.0
 11
230.0
 21
59.99999999999997
 31
0.0
  0
LINE
  5
6C
330
1E
100
AcDbEntity
  8
HILF
100
AcDbLine
 10
146.0000000000001
 20
49.99999999999997
 30
0.0
 11
230.0
 21
49.99999999999997
 31
0.0
  0
LINE
  5
6D
330
1E
100
AcDbEntity
  8
HILF
100
AcDbLine
 10
234.7736801096947
 20
84.03758247564139
 30
0.0
 11
324.8353916556311
 21
84.03758247564139
 31
0.0
  0
LINE
  5
6E
330
1E
100
AcDbEntity
  8
HILF
100
AcDbLine
 10
234.7736801096947
 20
69.99999999999994
 30
0.0
 11
324.835391655631
 21
69.99999999999994
 31
0.0
  0
LINE
  5
6F
330
1E
100
AcDbEntity
  8
HILF
100
AcDbLine
 10
234.7736801096947
 20
59.99999999999997
 30
0.0
 11
324.835391655631
 21
59.99999999999997
 31
0.0
  0
LINE
  5
70
330
1E
100
AcDbEntity
  8
HILF
100
AcDbLine
 10
234.7736801096947
 20
49.99999999999997
 30
0.0
 11
324.835391655631
 21
49.99999999999997
 31
0.0
  0
LINE
  5
71
330
1E
100
AcDbEntity
  8
VOLL
100
AcDbLine
 10
332.0
 20
60.0
 30
0.0
 11
410.0
 21
60.0
 31
0.0
  0
LINE
  5
72
330
1E
100
AcDbEntity
  8
HILF
100
AcDbLine
 10
336.7238616296993
 20
83.77983636955827
 30
0.0
 11
404.8588839326728
 21
83.77983636955827
 31
0.0
  0
LINE
  5
73
330
1E
100
AcDbEntity
  8
HILF
100
AcDbLine
 10
233.4909699289885
 20
14.89398258028314
 30
0.0
 11
404.8588839326728
 21
14.89398258028314
 31
0.0
  0
TEXT
  5
74
330
1E
100
AcDbEntity
  8
TEXT
100
AcDbText
 10
67.79509897490102
 20
18.67381894984132
 30
0.0
 40
4.0
  1
Änderung
 41
0.8
  7
GREEKS
 72
     1
 11
78.53795611775817
 21
18.67381894984132
 31
0.0
100
AcDbText
  0
TEXT
  5
75
330
1E
100
AcDbEntity
  8
TEXT
100
AcDbText
 10
153.5163572150377
 20
102.4620895087088
 30
0.0
 40
5.0
  1
Maßstab
 41
0.8
  7
GREEKS
100
AcDbText
  0
TEXT
  5
76
330
1E
100
AcDbEntity
  8
TEXT
100
AcDbText
 10
194.2858954734051
 20
102.4184168434819
 30
0.0
 40
5.0
  1
Zul. Abw.
 41
0.8
  7
GREEKS
100
AcDbText
  0
TEXT
  5
77
330
1E
100
AcDbEntity
  8
TEXT
100
AcDbText
 10
234.877940380901
 20
102.5489328011779
 30
0.0
 40
5.0
  1
Benennung
 41
0.8
  7
GREEKS
100
AcDbText
  0
TEXT
  5
78
330
1E
100
AcDbEntity
  8
TEXT
100
AcDbText
 10
336.178754957634
 20
102.3132034537136
 30
0.0
 40
5.0
  1
Zeichnungs Nr.
 41
0.8
  7
GREEKS
100
AcDbText
  0
TEXT
  5
79
330
1E
100
AcDbEntity
  8
TEXT
100
AcDbText
 10
234.742238391136
 20
30.84560570193057
 30
0.0
 40
5.0
  1
Bauvorhaben
 41
0.8
  7
GREEKS
100
AcDbText
  0
TEXT
  5
7A
330
1E
100
AcDbEntity
  8
TEXT
100
AcDbText
 10
336.7238616296993
 20
73.1811823709997
 30
0.0
 40
5.0
  1
Ersatz für:
 41
0.8
  7
GREEKS
100
AcDbText
  0
TEXT
  5
7B
330
1E
100
AcDbEntity
  8
TEXT
100
AcDbText
 10
48.26641107045756
 20
13.65465846027192
 30
0.0
 40
4.0
  1
Index
 50
90.0
 41
0.8
  7
GREEKS
100
AcDbText
  0
TEXT
  5
7C
330
1E
100
AcDbEntity
  8
TEXT
100
AcDbText
 10
110.6986119235389
 20
18.6715626933981
 30
0.0
 40
4.0
  1
Tag
 41
0.8
  7
GREEKS
 72
     1
 11
114.4319452568723
 21
18.6715626933981
 31
0.0
100
AcDbText
  0
TEXT
  5
7D
330
1E
100
AcDbEntity
  8
TEXT
100
AcDbText
 10
129.0122744386592
 20
18.59324216966408
 30
0.0
 40
4.0
  1
Name
 41
0.8
  7
GREEKS
 72
     1
 11
135.3360839624688
 21
18.59324216966408
 31
0.0
100
AcDbText
  0
TEXT
  5
7E
330
1E
100
AcDbEntity
  8
TEXT
100
AcDbText
 10
172.331167315365
 20
73.31880501229926
 30
0.0
 40
4.0
  1
Tag
 41
0.8
  7
GREEKS
100
AcDbText
  0
TEXT
  5
7F
330
1E
100
AcDbEntity
  8
TEXT
100
AcDbText
 10
202.4626584226295
 20
73.30961091915225
 30
0.0
 40
4.0
  1
Name
 41
0.8
  7
GREEKS
100
AcDbText
  0
TEXT
  5
80
330
1E
100
AcDbEntity
  8
TEXT
100
AcDbText
 10
147.5836127167615
 20
63.62990369617964
 30
0.0
 40
4.0
  1
Gez.
 41
0.8
  7
GREEKS
100
AcDbText
  0
TEXT
  5
81
330
1E
100
AcDbEntity
  8
TEXT
100
AcDbText
 10
147.5515086571672
 20
53.68926291428377
 30
0.0
 40
4.0
  1
Gepr.
 41
0.8
  7
GREEKS
100
AcDbText
  0
TEXT
  5
82
330
1E
100
AcDbEntity
  8
TEXT
100
AcDbText
 10
147.6006777387303
 20
43.52946389649807
 30
0.0
 40
4.0
  1
Norm.
 41
0.8
  7
GREEKS
100
AcDbText
  0
LINE
  5
83
330
1E
100
AcDbEntity
  8
STEMPEL
100
AcDbLine
 10
49.99999999999989
 20
10.0
 30
0.0
 11
410.0
 21
10.0
 31
0.0
  0
TEXT
  5
84
330
1E
100
AcDbEntity
  8
TEXT
100
AcDbText
 10
337.2400861497006
 20
52.07416177878602
 30
0.0
 40
5.0
  1
ersetzt durch:
 41
0.8
  7
GREEKS
100
AcDbText
  0
LINE
  5
85
330
1E
100
AcDbEntity
  8
STEMPEL
100
AcDbLine
 10
410.0
 20
10.0
 30
0.0
 11
39.99999999999989
 21
10.0
 31
0.0
  0
LINE
  5
86
330
1E
100
AcDbEntity
  8
STEMPEL
100
AcDbLine
 10
410.0
 20
10.0
 30
0.0
 11
410.0
 21
584.0
 31
0.0
  0
LINE
  5
87
330
1E
100
AcDbEntity
  8
STEMPEL
100
AcDbLine
 10
40.0
 20
10.0
 30
0.0
 11
39.99999999999989
 21
584.0
 31
0.0
  0
LINE
  5
88
330
1E
100
AcDbEntity
  8
STEMPEL
100
AcDbLine
 10
410.0
 20
584.0
 30
0.0
 11
39.99999999999989
 21
584.0
 31
0.0
  0
LINE
  5
89
330
1E
100
AcDbEntity
  8
HILF
100
AcDbLine
 10
0.0
 20
0.0
 30
0.0
 11
-0.0000000000001137
 21
594.0
 31
0.0
  0
LINE
  5
8A
330
1E
100
AcDbEntity
  8
HILF
100
AcDbLine
 10
419.9999999999999
 20
594.0000000000002
 30
0.0
 11
0.0
 21
594.0
 31
0.0
  0
LINE
  5
8B
330
1E
100
AcDbEntity
  8
HILF
100
AcDbLine
 10
420.0
 20
0.0
 30
0.0
 11
0.0
 21
0.0
 31
0.0
  0
LINE
  5
8C
330
1E
100
AcDbEntity
  8
HILF
100
AcDbLine
 10
31.08767135713856
 20
297.0
 30
0.0
 11
0.0000000000001137
 21
297.0
 31
0.0
  0
LINE
  5
8E
330
1E
100
AcDbEntity
  8
HILF
100
AcDbLine
 10
420.0
 20
-0.0000000000001137
 30
0.0
 11
419.9999999999999
 21
594.0
 31
0.0
  0
TEXT
  5
8F
330
1E
100
AcDbEntity
  8
VOLL
100
AcDbText
 10
78.07675471698113
 20
31.02594776470585
 30
0.0
 40
1.8
  1

  7
GREEKS
100
AcDbText
  0
TEXT
  5
90
330
1E
100
AcDbEntity
  8
TEXT
100
AcDbText
 10
41.85509950977674
 20
111.6719999999999
 30
0.0
 40
5.0
  1
Erstellt mit AUTOCAD 2004
 41
0.8
  7
GREEKS
100
AcDbText
  0
TEXT
  5
91
330
1E
100
AcDbEntity
  8
TEXT
100
AcDbText
 10
204.4216048581257
 20
63.0896391972351
 30
0.0
 40
4.0
  1
Koeh
 41
0.8
  7
GREEKS
 72
     1
 11
209.6787477152686
 21
63.0896391972351
 31
0.0
100
AcDbText
  0
TEXT
  5
92
330
1E
100
AcDbEntity
  8
TEXT
 62
     1
100
AcDbText
 10
346.7764207350748
 20
88.14901428913959
 30
0.0
 40
7.0
  1
58034050W
 41
0.8
  7
GREEKS
 72
     1
 11
370.7764207350748
 21
88.14901428913959
 31
0.0
100
AcDbText
  0
TEXT
  5
93
330
1E
100
AcDbEntity
  8
TEXT
 62
     1
100
AcDbText
 10
160.5006306481887
 20
88.14901428913959
 30
0.0
 40
7.0
  1
1:2
 41
0.8
  7
GREEKS
100
AcDbText
  0
TEXT
  5
95
330
1E
100
AcDbEntity
  8
TEXT
 62
     1
100
AcDbText
 10
236.8935731057402
 20
87.41748789253779
 30
0.0
 40
7.0
  1
Verbundrohr DN50
 41
0.8
  7
GREEKS
100
AcDbText
  0
TEXT
  5
98
330
1E
100
AcDbEntity
  8
TEXT
100
AcDbText
 10
235.1296391125315
 20
51.64011943042158
 30
0.0
 40
5.0
  1
EDV-Art.Nr. 58034.050X
 41
0.8
  7
GREEKS
100
AcDbText
  0
TEXT
  5
99
330
1E
100
AcDbEntity
  8
TEXT
100
AcDbText
 10
234.9837501577827
 20
42.62974153022632
 30
0.0
 40
4.0
  1
58034050W.DWG
 41
0.8
  7
GREEKS
100
AcDbText
  0
TEXT
  5
9A
330
1E
100
AcDbEntity
  8
TEXT
100
AcDbText
 10
192.626132208084
 20
90.76363841023022
 30
0.0
 40
4.0
  1
DIN EN1123-2
 41
0.8
  7
GREEKS
 72
     1
 11
209.6166083985602
 21
90.76363841023022
 31
0.0
100
AcDbText
  0
INSERT
  5
9B
330
1E
100
AcDbEntity
  8
STEMPEL
100
AcDbBlockReference
  2
LOGO
 10
150.9955485457794
 20
45.02105276448322
 30
0.0
 41
2.0
 42
2.0
 43
2.0
  0
TEXT
  5
210
330
1E
100
AcDbEntity
  8
TEXT
 62
     1
100
AcDbText
 10
239.2340373785028
 20
213.5366850842379
 30
0.0
 40
7.0
  1
Rohrende leicht eingezogen
 41
0.8
  7
GREEKS
100
AcDbText
  0
TEXT
  5
2C0
330
1E
100
AcDbEntity
  8
BEM
100
AcDbText
 10
417.3022923857165
 20
10.16790107998861
 30
0.0
 40
4.0
  1
Diese Zeichnung ist urheberrechtlich geschützt und bleibt unser Eigentum. Sie darf weder ganz noch teilweise verfielfältigt und nicht an Dritte weitergegeben werden.
 50
90.0
 41
0.8
  7
GREEKS
100
AcDbText
  0
TEXT
  5
77A
330
1E
100
AcDbEntity
  8
TEXT
100
AcDbText
 10
235.1296391125315
 20
71.64011943042154
 30
0.0
 40
5.0
  1
Bogen 15°
 41
0.8
  7
GREEKS
100
AcDbText
  0
TEXT
  5
78C
330
1E
100
AcDbEntity
  8
TEXT
 62
     1
100
AcDbText
 10
255.030129115258
 20
129.7422179729062
 30
0.0
 40
7.0
  1
und innenbeschichtet
 41
0.8
  7
GREEKS
100
AcDbText
  0
TEXT
  5
78D
330
1E
100
AcDbEntity
  8
TEXT
 62
     1
100
AcDbText
 10
203.5552044830163
 20
117.4297988529122
 30
0.0
 40
7.0
  1
Dämmung: 2 K-PU-Schaum
 41
0.8
  7
GREEKS
100
AcDbText
  0
TEXT
  5
78E
330
1E
100
AcDbEntity
  8
TEXT
 62
     1
100
AcDbText
 10
207.3756002392443
 20
141.011271812132
 30
0.0
 40
7.0
  1
Innenrohr: E195 EN10305 feuerverzinkt
 41
0.8
  7
GREEKS
100
AcDbText
  0
TEXT
  5
78F
330
1E
100
AcDbEntity
  8
TEXT
 62
     1
100
AcDbText
 10
203.6033828683802
 20
152.364339848487
 30
0.0
 40
7.0
  1
Außenrohr: E195 EN10305 feuerverzinkt
 41
0.8
  7
GREEKS
100
AcDbText
  0
TEXT
  5
181F
330
1E
100
AcDbEntity
  8
VOLL
100
AcDbText
 10
243.4147546418319
 20
361.3706111557639
 30
0.0
 40
7.0
  1
DN50
 50
75.01000000000087
 41
0.8
  7
GREEKS
100
AcDbText
  0
DIMENSION
  5
1822
330
1E
100
AcDbEntity
  8
BEM
100
AcDbDimension
  2
*D1
 10
249.5780955361912
 20
242.7547309871648
 30
0.0
 11
223.0780955361939
 21
249.2547309871648
 31
0.0
 70
    32
  1
%%C<>
 71
     5
 42
52.99999999999466
  3
Standard
100
AcDbAlignedDimension
 13
196.5780955361965
 23
268.3034755107209
 33
0.0
 14
249.5780955361912
 24
268.3034755108953
 34
0.0
100
AcDbRotatedDimension
1001
ACAD
1000
DSTYLE
1002
{
1070
    40
1040
2.0
1070
    41
1040
3.5
1070
    42
1040
1.0
1070
    43
1040
7.0
1070
    44
1040
1.0
1070
    73
1070
     0
1070
    74
1070
     0
1070
    77
1070
     1
1070
    78
1070
     8
1070
    79
1070
     2
1070
   140
1040
3.5
1070
   141
1040
1.5
1070
   146
1040
0.5142857142857144
1070
   147
1040
1.5
1070
   172
1070
     1
1070
   178
1070
     1
1070
   179
1070
     2
1070
   271
1070
     2
1070
   272
1070
     2
1070
   284
1070
     8
1070
   285
1070
     8
1070
   286
1070
     8
1002
}
  0
LINE
  5
1825
102
{ACAD_REACTORS
330
1C26
102
}
330
1E
100
AcDbEntity
  8
STEMPEL
100
AcDbLine
 10
249.5780955361912
 20
268.3034755108953
 30
0.0
 11
249.4471659283406
 21
263.3034755107171
 31
0.0
  0
LINE
  5
1826
102
{ACAD_REACTORS
330
1C26
102
}
330
1E
100
AcDbEntity
  8
STEMPEL
100
AcDbLine
 10
196.5780955361965
 20
268.3034755107209
 30
0.0
 11
196.7090251440424
 21
263.3034755107171
 31
0.0
  0
LINE
  5
1827
330
1E
100
AcDbEntity
  8
HILF
  6
Continuous
100
AcDbLine
 10
246.5770671587137
 20
268.3034755107171
 30
0.0
 11
199.5791239136691
 21
268.3034755107171
 31
0.0
  0
ARC
  5
1828
102
{ACAD_REACTORS
330
1C26
102
}
330
1E
100
AcDbEntity
  8
STEMPEL
100
AcDbCircle
 10
305.5780955361912
 20
333.4538987567398
 30
0.0
 40
56.0
100
AcDbArc
 50
164.9775232338477
 51
180.0
  0
ARC
  5
1829
102
{ACAD_REACTORS
330
1C26
102
}
330
1E
100
AcDbEntity
  8
STEMPEL
100
AcDbCircle
 10
305.5780955361912
 20
333.4538987567398
 30
0.0
 40
109.0
100
AcDbArc
 50
164.9775232316553
 51
180.0
  0
ARC
  5
182A
330
1E
100
AcDbEntity
  8
MITTEL
100
AcDbCircle
 10
305.5780955361912
 20
333.4538987567398
 30
0.0
 40
82.5
100
AcDbArc
 50
164.5904852728361
 51
180.0
  0
LINE
  5
182B
102
{ACAD_REACTORS
330
1C26
102
}
330
1E
100
AcDbEntity
  8
STEMPEL
100
AcDbLine
 10
196.5780955361938
 20
333.453898756733
 30
0.0
 11
196.5780955361965
 21
268.3034755107209
 31
0.0
  0
LINE
  5
182C
330
1E
100
AcDbEntity
  8
MITTEL
100
AcDbLine
 10
223.0780955361911
 20
344.3036710712011
 30
0.0
 11
223.0780955361914
 21
258.3034755107171
 31
0.0
  0
LINE
  5
182D
102
{ACAD_REACTORS
330
1C26
102
}
330
1E
100
AcDbEntity
  8
STEMPEL
100
AcDbLine
 10
249.5780955361912
 20
333.4538987567398
 30
0.0
 11
249.5780955361912
 21
268.3034755108953
 31
0.0
  0
LINE
  5
182E
102
{ACAD_REACTORS
330
1C26
102
}
330
1E
100
AcDbEntity
  8
STEMPEL
  6
Continuous
100
AcDbLine
 10
249.4471659283406
 20
263.3034755107171
 30
0.0
 11
196.7090251440424
 21
263.3034755107171
 31
0.0
  0
LINE
  5
1830
102
{ACAD_REACTORS
330
1A43
330
1C26
102
}
330
1E
100
AcDbEntity
  8
STEMPEL
  6
Continuous
100
AcDbLine
 10
274.8836652474704
 20
415.9575557530387
 30
0.0
 11
273.7416037437078
 21
411.6923466571652
 31
0.0
  0
ARC
  5
1831
102
{ACAD_REACTORS
330
1A43
330
1C26
102
}
330
1E
100
AcDbEntity
  8
STEMPEL
  6
Continuous
100
AcDbCircle
 10
249.5819738906056
 20
418.1199347132342
 30
0.0
 40
25.00003205712822
100
AcDbArc
 50
325.5469005553124
 51
345.1017549917601
  0
ARC
  5
1832
102
{ACAD_REACTORS
330
1A43
330
1C26
102
}
330
1E
100
AcDbEntity
  8
STEMPEL
  6
Continuous
100
AcDbCircle
 10
256.0472310590416
 20
421.0012396314153
 30
0.0
 40
19.5
100
AcDbArc
 50
345.0099999999988
 51
10.46942856880364
  0
LINE
  5
1833
102
{ACAD_REACTORS
330
1C26
102
}
330
1E
100
AcDbEntity
  8
STEMPEL
  6
Continuous
100
AcDbLine
 10
268.7829249133868
 20
400.9058206256386
 30
0.0
 11
266.6900099853352
 21
393.0894992115943
 31
0.0
  0
LINE
  5
1834
102
{ACAD_REACTORS
330
1C26
102
}
330
1E
100
AcDbEntity
  8
STEMPEL
100
AcDbLine
 10
261.0670453931967
 20
383.6883147545402
 30
0.0
 11
251.48372043096
 21
347.9383242536154
 31
0.0
  0
ARC
  5
1835
102
{ACAD_REACTORS
330
1C26
102
}
330
1E
100
AcDbEntity
  8
STEMPEL
  6
Continuous
100
AcDbCircle
 10
268.7948132653726
 20
381.6191111121295
 30
0.0
 40
8.0
100
AcDbArc
 50
133.2216693829485
 51
165.0100000000004
  0
ARC
  5
1836
102
{ACAD_REACTORS
330
1C26
102
}
330
1E
100
AcDbEntity
  8
STEMPEL
  6
Continuous
100
AcDbCircle
 10
255.0983581770713
 20
396.1933046752102
 30
0.0
 40
12.0
100
AcDbArc
 50
313.2216693829485
 51
345.0099999999988
  0
LINE
  5
1837
330
1E
100
AcDbEntity
  8
MITTEL
100
AcDbLine
 10
247.9169693161278
 20
437.0321530856767
 30
0.0
 11
223.0780955361911
 21
344.3036710712011
 31
0.0
  0
ARC
  5
1838
102
{ACAD_REACTORS
330
1C26
102
}
330
1E
100
AcDbEntity
  8
STEMPEL
  6
Continuous
100
AcDbCircle
 10
278.4426347536067
 20
398.3193160726252
 30
0.0
 40
10.0
100
AcDbArc
 50
145.5469005553124
 51
165.0100000000004
  0
LINE
  5
183A
102
{ACAD_REACTORS
330
1A43
330
1C26
102
}
330
1E
100
AcDbEntity
  8
STEMPEL
  6
Continuous
100
AcDbLine
 10
214.0274932540854
 20
432.2525344370236
 30
0.0
 11
212.8854317503227
 21
427.9873253411502
 31
0.0
  0
ARC
  5
183B
102
{ACAD_REACTORS
330
1A43
330
1C26
102
}
330
1E
100
AcDbEntity
  8
STEMPEL
  6
Continuous
100
AcDbCircle
 10
237.0243510983196
 20
421.4823906321515
 30
0.0
 40
25.00003205712822
100
AcDbArc
 50
164.9182450082391
 51
184.4730994446884
  0
ARC
  5
183C
102
{ACAD_REACTORS
330
1A43
330
1C26
102
}
330
1E
100
AcDbEntity
  8
STEMPEL
  6
Continuous
100
AcDbCircle
 10
232.8639274425141
 20
427.2088505586476
 30
0.0
 40
19.5
100
AcDbArc
 50
139.5505714311892
 51
165.0100000000004
  0
LINE
  5
183D
102
{ACAD_REACTORS
330
1C26
102
}
330
1E
100
AcDbEntity
  8
STEMPEL
  6
Continuous
100
AcDbLine
 10
211.7906368560897
 20
416.1661974884179
 30
0.0
 11
209.6977219280382
 21
408.3498760743737
 31
0.0
  0
LINE
  5
183E
102
{ACAD_REACTORS
330
1C26
102
}
330
1E
100
AcDbEntity
  8
STEMPEL
100
AcDbLine
 10
209.8705832400312
 20
397.3967888855116
 30
0.0
 11
200.287258277794
 21
361.64679838458
 31
0.0
  0
ARC
  5
183F
102
{ACAD_REACTORS
330
1C26
102
}
330
1E
100
AcDbEntity
  8
STEMPEL
  6
Continuous
100
AcDbCircle
 10
202.1428153678553
 20
399.4659925279226
 30
0.0
 40
8.0
100
AcDbArc
 50
345.0099999999988
 51
16.79833061705206
  0
ARC
  5
1840
102
{ACAD_REACTORS
330
1C26
102
}
330
1E
100
AcDbEntity
  8
STEMPEL
  6
Continuous
100
AcDbCircle
 10
221.289373736302
 20
405.2460706107576
 30
0.0
 40
12.0
100
AcDbArc
 50
165.0100000000004
 51
196.7983306170521
  0
ARC
  5
1841
102
{ACAD_REACTORS
330
1C26
102
}
330
1E
100
AcDbEntity
  8
STEMPEL
  6
Continuous
100
AcDbCircle
 10
202.1309270158696
 20
418.7527020414316
 30
0.0
 40
10.0
100
AcDbArc
 50
345.0099999999988
 51
4.473099444688457
  0
LINE
  5
1842
102
{ACAD_REACTORS
330
1A43
330
1C26
330
1C38
102
}
330
1E
100
AcDbEntity
  8
STEMPEL
  6
Continuous
100
AcDbLine
 10
289.6089547456564
 20
420.6924790428325
 30
0.0
 11
203.6375367584128
 21
443.7123696742443
 31
0.0
  0
LINE
  5
1843
330
1E
100
AcDbEntity
  8
HILF
  6
Continuous
100
AcDbLine
 10
213.1399448899812
 20
399.214711264022
 30
0.0
 11
259.1435362875831
 21
386.8966913055506
 31
0.0
  0
LINE
  5
1844
330
1E
100
AcDbEntity
  8
HILF
  6
Continuous
100
AcDbLine
 10
212.3075596387699
 20
404.674217904744
 30
0.0
 11
262.5926510413894
 21
391.2097743538586
 31
0.0
  0
LINE
  5
1845
330
1E
100
AcDbEntity
  8
HILF
  6
Continuous
100
AcDbLine
 10
215.0501525534266
 20
417.3057702843212
 30
0.0
 11
266.5289746651467
 21
403.5216908473445
 31
0.0
  0
LINE
  5
1909
102
{ACAD_REACTORS
330
1C26
102
}
330
1E
100
AcDbEntity
  8
STEMPEL
100
AcDbLine
 10
248.0780955361912
 20
333.4538987567398
 30
0.0
 11
248.0780955361912
 21
268.3231115865222
 31
0.0
  0
LINE
  5
190A
102
{ACAD_REACTORS
330
1C26
102
}
330
1E
100
AcDbEntity
  8
STEMPEL
100
AcDbLine
 10
198.0780955361938
 20
333.4538987567331
 30
0.0
 11
198.0780955361965
 21
268.3231115863489
 31
0.0
  0
ARC
  5
190B
102
{ACAD_REACTORS
330
1C26
102
}
330
1E
100
AcDbEntity
  8
STEMPEL
100
AcDbCircle
 10
305.5780955361912
 20
333.4538987567398
 30
0.0
 40
107.5
100
AcDbArc
 50
164.9775232316553
 51
180.0
  0
LINE
  5
190C
102
{ACAD_REACTORS
330
1C26
102
}
330
1E
100
AcDbEntity
  8
STEMPEL
100
AcDbLine
 10
211.319429986056
 20
397.0084036302127
 30
0.0
 11
201.7361050238187
 21
361.2584131292811
 31
0.0
  0
LINE
  5
190D
102
{ACAD_REACTORS
330
1C26
102
}
330
1E
100
AcDbEntity
  8
STEMPEL
100
AcDbLine
 10
259.6181461101032
 20
384.0765040236112
 30
0.0
 11
250.043125712304
 21
348.3574931775477
 31
0.0
  0
ARC
  5
190E
102
{ACAD_REACTORS
330
1C26
102
}
330
1E
100
AcDbEntity
  8
STEMPEL
100
AcDbCircle
 10
305.5780955361912
 20
333.4538987567398
 30
0.0
 40
57.5
100
AcDbArc
 50
164.9778201595106
 51
180.0
  0
LINE
  5
190F
102
{ACAD_REACTORS
330
1C26
102
}
330
1E
100
AcDbEntity
  8
STEMPEL
100
AcDbLine
 10
198.0780955361965
 20
268.3231115863489
 30
0.0
 11
198.2095393327788
 21
263.3034755107171
 31
0.0
  0
LINE
  5
1911
102
{ACAD_REACTORS
330
1C26
102
}
330
1E
100
AcDbEntity
  8
STEMPEL
100
AcDbLine
 10
248.0780955361912
 20
268.3231115865222
 30
0.0
 11
247.9466517396044
 21
263.3034755107171
 31
0.0
  0
ARC
  5
1913
102
{ACAD_REACTORS
330
1C26
102
}
330
1E
100
AcDbEntity
  8
STEMPEL
  6
Continuous
100
AcDbCircle
 10
202.1428153678553
 20
399.4659925279226
 30
0.0
 40
9.5
100
AcDbArc
 50
345.0099999999988
 51
16.79833061705206
  0
ARC
  5
1915
102
{ACAD_REACTORS
330
1C26
102
}
330
1E
100
AcDbEntity
  8
STEMPEL
  6
Continuous
100
AcDbCircle
 10
221.289373736302
 20
405.2460706107576
 30
0.0
 40
10.5
100
AcDbArc
 50
165.0100000000004
 51
196.7983306170521
  0
LINE
  5
1917
102
{ACAD_REACTORS
330
1C26
102
}
330
1E
100
AcDbEntity
  8
STEMPEL
  6
Continuous
100
AcDbLine
 10
213.2395933321227
 20
415.7782218054657
 30
0.0
 11
211.1466784040711
 21
407.9619003914217
 31
0.0
  0
ARC
  5
1918
102
{ACAD_REACTORS
330
1C26
102
}
330
1E
100
AcDbEntity
  8
STEMPEL
  6
Continuous
100
AcDbCircle
 10
202.1309270158696
 20
418.7527020414316
 30
0.0
 40
11.5
100
AcDbArc
 50
345.0099999999988
 51
4.473099444688457
  0
ARC
  5
191A
102
{ACAD_REACTORS
330
1C26
102
}
330
1E
100
AcDbEntity
  8
STEMPEL
  6
Continuous
100
AcDbCircle
 10
237.0243510983196
 20
421.4823906321515
 30
0.0
 40
23.50003205712821
100
AcDbArc
 50
164.9182450082391
 51
184.4730994446884
  0
LINE
  5
191B
102
{ACAD_REACTORS
330
1C26
102
}
330
1E
100
AcDbEntity
  8
STEMPEL
  6
Continuous
100
AcDbLine
 10
215.4764497301183
 20
431.8645587540715
 30
0.0
 11
214.3343882263557
 21
427.5993496581982
 31
0.0
  0
ARC
  5
191C
102
{ACAD_REACTORS
330
1C26
102
}
330
1E
100
AcDbEntity
  8
STEMPEL
  6
Continuous
100
AcDbCircle
 10
232.8639274425141
 20
427.2088505586476
 30
0.0
 40
18.0
100
AcDbArc
 50
137.2548206083862
 51
165.0100000000004
  0
ARC
  5
191D
102
{ACAD_REACTORS
330
1C26
102
}
330
1E
100
AcDbEntity
  8
STEMPEL
  6
Continuous
100
AcDbCircle
 10
268.7948132653726
 20
381.6191111121295
 30
0.0
 40
9.5
100
AcDbArc
 50
133.2216693829496
 51
165.0086664499404
  0
ARC
  5
191F
102
{ACAD_REACTORS
330
1C26
102
}
330
1E
100
AcDbEntity
  8
STEMPEL
  6
Continuous
100
AcDbCircle
 10
255.0983581770713
 20
396.1933046752102
 30
0.0
 40
10.5
100
AcDbArc
 50
313.2216693829493
 51
345.0099999999999
  0
LINE
  5
1921
102
{ACAD_REACTORS
330
1C26
102
}
330
1E
100
AcDbEntity
  8
STEMPEL
  6
Continuous
100
AcDbLine
 10
267.3339684373537
 20
401.2937963085907
 30
0.0
 11
265.2410535093021
 21
393.4774748945461
 31
0.0
  0
ARC
  5
1922
102
{ACAD_REACTORS
330
1C26
102
}
330
1E
100
AcDbEntity
  8
STEMPEL
  6
Continuous
100
AcDbCircle
 10
278.4426347536067
 20
398.3193160726252
 30
0.0
 40
11.5
100
AcDbArc
 50
145.5469005553107
 51
165.0099999999996
  0
ARC
  5
1924
102
{ACAD_REACTORS
330
1C26
102
}
330
1E
100
AcDbEntity
  8
STEMPEL
  6
Continuous
100
AcDbCircle
 10
249.5819738906056
 20
418.1199347132342
 30
0.0
 40
23.50003205712821
100
AcDbArc
 50
325.5469005553109
 51
345.1017549917601
  0
LINE
  5
1925
102
{ACAD_REACTORS
330
1C26
102
}
330
1E
100
AcDbEntity
  8
STEMPEL
  6
Continuous
100
AcDbLine
 10
273.4347087714374
 20
416.3455314359908
 30
0.0
 11
272.2923318052248
 21
412.0791441957644
 31
0.0
  0
ARC
  5
1926
102
{ACAD_REACTORS
330
1C26
102
}
330
1E
100
AcDbEntity
  8
STEMPEL
  6
Continuous
100
AcDbCircle
 10
256.0472310590416
 20
421.0012396314153
 30
0.0
 40
18.0
100
AcDbArc
 50
345.0099999999999
 51
12.7651793916137
  0
DIMENSION
  5
192A
330
1E
100
AcDbEntity
  8
BEM
100
AcDbDimension
  2
*D2
 10
301.5783646233087
 20
465.3629230426751
 30
0.0
 11
260.2769891466107
 21
483.1588884206142
 31
0.0
 70
    32
  1
%%c<>
 71
     5
 42
89.00000000000003
  3
Standard
100
AcDbAlignedDimension
 13
203.639546482171
 23
443.7198718656005
 33
0.0
 14
289.6069450218981
 24
420.6849768514762
 34
0.0
 50
345.0000000000028
100
AcDbRotatedDimension
1001
ACAD
1000
DSTYLE
1002
{
1070
    40
1040
2.0
1070
    41
1040
3.5
1070
    42
1040
1.0
1070
    43
1040
7.0
1070
    44
1040
1.0
1070
    73
1070
     0
1070
    74
1070
     0
1070
    77
1070
     1
1070
    78
1070
     8
1070
    79
1070
     2
1070
   140
1040
3.5
1070
   141
1040
1.5
1070
   146
1040
0.5142857142857144
1070
   147
1040
1.5
1070
   172
1070
     1
1070
   178
1070
     1
1070
   179
1070
     2
1070
   271
1070
     2
1070
   272
1070
     2
1070
   284
1070
     8
1070
   285
1070
     8
1070
   286
1070
     8
1070
   289
1070
     0
1070
   340
1005
24
1002
}
  0
LINE
  5
19B2
102
{ACAD_REACTORS
330
1A70
330
1C38
102
}
330
1E
100
AcDbEntity
  8
STEMPEL
100
AcDbLine
 10
203.6375367584128
 20
443.7123696742443
 30
0.0
 11
178.5780955361914
 21
350.1604652982694
 31
0.0
  0
LINE
  5
19B3
102
{ACAD_REACTORS
330
1A70
330
1C38
102
}
330
1E
100
AcDbEntity
  8
STEMPEL
100
AcDbLine
 10
289.6089547456564
 20
420.6924790428325
 30
0.0
 11
267.5780955361914
 21
338.4468768441349
 31
0.0
  0
LINE
  5
19B4
102
{ACAD_REACTORS
330
1A43
330
1C38
102
}
330
1E
100
AcDbEntity
  8
STEMPEL
100
AcDbLine
 10
288.0634415603299
 20
421.1064705813714
 30
0.0
 11
265.978095536191
 21
338.6574582096013
 31
0.0
  0
LINE
  5
19B5
102
{ACAD_REACTORS
330
1A43
330
1C38
102
}
330
1E
100
AcDbEntity
  8
STEMPEL
100
AcDbLine
 10
205.1830499437393
 20
443.2983781357053
 30
0.0
 11
180.1780955361911
 21
349.949883932801
 31
0.0
  0
LINE
  5
19B9
330
1E
100
AcDbEntity
  8
STEMPEL
100
AcDbLine
 10
265.9780955361914
 20
293.3034755107172
 30
0.0
 11
265.4193632243234
 21
309.3034755107171
 31
0.0
  0
LINE
  5
19BB
330
1E
100
AcDbEntity
  8
STEMPEL
100
AcDbLine
 10
253.5780955361914
 20
299.3034755107171
 30
0.0
 11
249.5780955361915
 21
299.3034755107171
 31
0.0
  0
LINE
  5
19BC
330
1E
100
AcDbEntity
  8
STEMPEL
100
AcDbLine
 10
267.5780955361905
 20
293.3034755107169
 30
0.0
 11
265.9780955361913
 21
293.3034755107169
 31
0.0
  0
LINE
  5
19BD
330
1E
100
AcDbEntity
  8
STEMPEL
100
AcDbLine
 10
265.4193632243234
 20
309.3034755107171
 30
0.0
 11
249.5780955361915
 21
309.3034755107171
 31
0.0
  0
LINE
  5
19BE
330
1E
100
AcDbEntity
  8
STEMPEL
100
AcDbLine
 10
265.9780955361914
 20
293.3034755107172
 30
0.0
 11
265.4193632243234
 21
309.3034755107171
 31
0.0
  0
LINE
  5
19C0
330
1E
100
AcDbEntity
  8
STEMPEL
100
AcDbLine
 10
253.5780955361914
 20
299.3034755107171
 30
0.0
 11
249.5780955361915
 21
299.3034755107171
 31
0.0
  0
LINE
  5
19C1
102
{ACAD_REACTORS
330
1C2F
102
}
330
1E
100
AcDbEntity
  8
STEMPEL
100
AcDbLine
 10
267.5780955361905
 20
293.3034755107169
 30
0.0
 11
265.9780955361913
 21
293.3034755107169
 31
0.0
  0
LINE
  5
19C2
330
1E
100
AcDbEntity
  8
STEMPEL
100
AcDbLine
 10
265.4193632243234
 20
309.3034755107171
 30
0.0
 11
249.5780955361915
 21
309.3034755107171
 31
0.0
  0
LINE
  5
19C3
102
{ACAD_REACTORS
330
1A70
330
1C2F
102
}
330
1E
100
AcDbEntity
  8
STEMPEL
100
AcDbLine
 10
267.5780955361914
 20
338.4468768441349
 30
0.0
 11
267.5780955361913
 21
291.3034755107167
 31
0.0
  0
LINE
  5
19C4
102
{ACAD_REACTORS
330
1C2F
102
}
330
1E
100
AcDbEntity
  8
STEMPEL
100
AcDbLine
 10
265.978095536191
 20
338.6574582096013
 30
0.0
 11
265.9780955361913
 21
293.3034755107169
 31
0.0
  0
LINE
  5
19C5
330
1E
100
AcDbEntity
  8
STEMPEL
100
AcDbLine
 10
192.5780955361914
 20
299.3034755107171
 30
0.0
 11
196.5780955361914
 21
299.3034755107171
 31
0.0
  0
LINE
  5
19C6
330
1E
100
AcDbEntity
  8
STEMPEL
100
AcDbLine
 10
180.1780955361914
 20
293.3034755107172
 30
0.0
 11
180.7368278480594
 21
309.3034755107171
 31
0.0
  0
LINE
  5
19C7
330
1E
100
AcDbEntity
  8
STEMPEL
100
AcDbLine
 10
180.1780955361915
 20
293.3034755107173
 30
0.0
 11
178.5780955361906
 21
293.3034755107172
 31
0.0
  0
LINE
  5
19C9
330
1E
100
AcDbEntity
  8
STEMPEL
100
AcDbLine
 10
180.7368278480594
 20
309.3034755107171
 30
0.0
 11
196.5780955361914
 21
309.3034755107171
 31
0.0
  0
LINE
  5
19CA
330
1E
100
AcDbEntity
  8
STEMPEL
100
AcDbLine
 10
192.5780955361914
 20
299.3034755107171
 30
0.0
 11
196.5780955361914
 21
299.3034755107171
 31
0.0
  0
LINE
  5
19CB
330
1E
100
AcDbEntity
  8
STEMPEL
100
AcDbLine
 10
180.1780955361914
 20
293.3034755107172
 30
0.0
 11
180.7368278480594
 21
309.3034755107171
 31
0.0
  0
LINE
  5
19CC
102
{ACAD_REACTORS
330
1C2F
102
}
330
1E
100
AcDbEntity
  8
STEMPEL
100
AcDbLine
 10
180.1780955361915
 20
293.3034755107173
 30
0.0
 11
178.5780955361906
 21
293.3034755107172
 31
0.0
  0
LINE
  5
19CE
330
1E
100
AcDbEntity
  8
STEMPEL
100
AcDbLine
 10
180.7368278480594
 20
309.3034755107171
 30
0.0
 11
196.5780955361914
 21
309.3034755107171
 31
0.0
  0
LINE
  5
19CF
102
{ACAD_REACTORS
330
1A70
330
1C2F
102
}
330
1E
100
AcDbEntity
  8
STEMPEL
100
AcDbLine
 10
178.5780955361914
 20
350.1604652982694
 30
0.0
 11
178.5780955361914
 21
291.3034755107172
 31
0.0
  0
LINE
  5
19D0
102
{ACAD_REACTORS
330
1C2F
102
}
330
1E
100
AcDbEntity
  8
STEMPEL
100
AcDbLine
 10
180.1780955361911
 20
349.949883932801
 30
0.0
 11
180.1780955361914
 21
293.3034755107172
 31
0.0
  0
DIMENSION
  5
19D1
330
1E
100
AcDbEntity
  8
BEM
100
AcDbDimension
  2
*D3
 10
159.6240509963958
 20
263.3034755107171
 30
0.0
 11
153.1240509963957
 21
278.3034755107173
 31
0.0
 70
    32
 71
     5
 42
30.00000000000011
  3
Standard
100
AcDbAlignedDimension
 13
178.5780955361914
 23
293.3034755107172
 33
0.0
 14
197.0098090975058
 24
263.3034755107171
 34
0.0
 50
90.0
100
AcDbRotatedDimension
1001
ACAD
1000
DSTYLE
1002
{
1070
   279
1070
     1
1070
    40
1040
2.0
1070
    41
1040
3.5
1070
    42
1040
1.0
1070
    43
1040
7.0
1070
    44
1040
1.0
1070
    73
1070
     0
1070
    74
1070
     0
1070
    77
1070
     1
1070
    78
1070
     8
1070
    79
1070
     2
1070
   140
1040
3.5
1070
   141
1040
1.5
1070
   146
1040
0.5142857142857144
1070
   147
1040
1.5
1070
   172
1070
     1
1070
   178
1070
     1
1070
   179
1070
     2
1070
   271
1070
     2
1070
   272
1070
     2
1070
   284
1070
     8
1070
   285
1070
     8
1070
   286
1070
     8
1002
}
  0
DIMENSION
  5
19D3
330
1E
100
AcDbEntity
  8
BEM
100
AcDbDimension
  2
*D4
 10
249.5780955361911
 20
243.0168814035114
 30
0.0
 11
223.0780955361951
 21
249.5168814035114
 31
0.0
 70
    32
  1
%%c<>
 71
     5
 42
52.99999999999193
  3
Standard
100
AcDbAlignedDimension
 13
196.5780955361991
 23
268.2379840962612
 33
0.0
 14
249.5780955361911
 24
268.2379840963487
 34
0.0
100
AcDbRotatedDimension
1001
ACAD
1000
DSTYLE
1002
{
1070
    40
1040
2.0
1070
    41
1040
3.5
1070
    42
1040
1.0
1070
    43
1040
7.0
1070
    44
1040
1.0
1070
    73
1070
     0
1070
    74
1070
     0
1070
    77
1070
     1
1070
    78
1070
     8
1070
    79
1070
     2
1070
   140
1040
3.5
1070
   141
1040
1.5
1070
   146
1040
0.5142857142857144
1070
   147
1040
1.5
1070
   172
1070
     1
1070
   178
1070
     1
1070
   179
1070
     2
1070
   271
1070
     2
1070
   272
1070
     2
1070
   284
1070
     8
1070
   285
1070
     8
1070
   286
1070
     8
1070
   289
1070
     0
1070
   340
1005
24
1002
}
  0
LINE
  5
1A2D
102
{ACAD_REACTORS
330
1C2F
330
1C38
102
}
330
1E
100
AcDbEntity
  8
STEMPEL
100
AcDbLine
 10
267.5780955361914
 20
338.4468768441349
 30
0.0
 11
265.978095536191
 21
338.6574582096026
 31
0.0
  0
LINE
  5
1A2E
102
{ACAD_REACTORS
330
1C2F
330
1C38
102
}
330
1E
100
AcDbEntity
  8
STEMPEL
100
AcDbLine
 10
180.1780955361912
 20
349.9498839328019
 30
0.0
 11
178.5780955361914
 21
350.1604652982694
 31
0.0
  0
LINE
  5
1A2F
102
{ACAD_REACTORS
330
1A43
102
}
330
1E
100
AcDbEntity
  8
STEMPEL
  6
Continuous
100
AcDbLine
 10
284.4409751844022
 20
407.5830793372972
 30
0.0
 11
273.4046276271596
 21
410.5381953477794
 31
0.0
  0
LINE
  5
1A30
102
{ACAD_REACTORS
330
1A43
102
}
330
1E
100
AcDbEntity
  8
STEMPEL
  6
Continuous
100
AcDbLine
 10
212.600593703645
 20
426.8192134307387
 30
0.0
 11
201.5606643607447
 21
429.7752885078043
 31
0.0
  0
HATCH
  5
1A43
330
1E
100
AcDbEntity
  8
SCHRAFF
100
AcDbHatch
 10
0.0
 20
0.0
 30
0.0
210
0.0
220
0.0
230
1.0
  2
NET
 70
     0
 71
     1
 91
        2
 92
        7
 72
     1
 73
     1
 93
        6
 10
288.0634011638633
 20
421.1063197732849
 42
0.0
 10
275.2225951251681
 20
424.5446014435232
 42
-0.1115469390821204
 10
274.8836652474705
 20
415.957555753039
 42
0.0
 10
273.7416037437078
 20
411.6923466571652
 42
-0.0120251093634708
 10
273.4046276271595
 20
410.5381953477794
 42
0.0
 10
284.4409751844022
 20
407.5830793372972
 42
0.0
 97
        6
330
1842
330
1832
330
1830
330
1831
330
1A2F
330
19B4
 92
        7
 72
     1
 73
     1
 93
        6
 10
214.0274932540853
 20
432.2525344370238
 42
-0.111546939082124
 10
218.0248389540743
 20
439.8599948876107
 42
0.0
 10
205.1830903402059
 20
443.2985289437919
 42
0.0
 10
201.5606643607447
 20
429.7752885078042
 42
0.0
 10
212.600593703645
 20
426.8192134307387
 42
-0.0120251093634694
 10
212.8854317503227
 20
427.9873253411502
 42
0.0
 97
        6
330
1842
330
19B5
330
1A30
330
183B
330
183A
330
183C
 75
     0
 76
     1
 52
30.0
 41
15.0
 77
     0
 78
     2
 53
30.0
 43
-323.2522275548454
 44
2.366474356088474
 45
-0.9374999999999998
 46
1.623797632095822
 79
     0
 53
120.0
 43
-323.2522275548454
 44
2.366474356088474
 45
-1.623797632095822
 46
-0.9374999999999998
 79
     0
 47
0.3610271053391696
 98
        2
 10
281.9775979476017
 20
413.7224766455317
 10
209.3598251047474
 20
433.9399940980165
  0
HATCH
  5
1A64
330
1E
100
AcDbEntity
  8
SCHRAFF
100
AcDbHatch
 10
0.0
 20
0.0
 30
0.0
210
0.0
220
0.0
230
1.0
  2
HONEY
 70
     0
 71
     0
 91
        2
 92
        7
 72
     1
 73
     1
 93
       13
 10
251.4837204309698
 20
347.9383242536521
 42
0.065499642263418
 10
249.5780955361912
 20
333.4538987567398
 42
0.0
 10
249.5780955361913
 20
309.3034755107172
 42
0.0
 10
265.4193632243235
 20
309.3034755107171
 42
0.0
 10
265.9780955361912
 20
293.3034755107197
 42
0.0
 10
265.978095536191
 20
338.6574582096018
 42
0.0
 10
284.4409751844022
 20
407.5830793372972
 42
0.0
 10
273.4046276271596
 20
410.5381953477794
 42
-0.073431177183844
 10
270.1967392024562
 20
403.9766305025925
 42
0.0851285408962669
 10
268.7829249133868
 20
400.9058206256388
 42
0.0
 10
266.6900099853352
 20
393.0894992115943
 42
-0.1395991324168661
 10
263.3162312300519
 20
387.4487885373616
 42
0.1394550419331095
 10
261.0682164642054
 20
383.692683361219
 42
0.0
 97
        0
 92
        7
 72
     1
 73
     1
 93
       13
 10
209.8705832400312
 20
397.3967888855116
 42
0.1395991324168627
 10
209.801438715234
 20
401.7780237610565
 42
-0.1395991324168623
 10
209.6977219280382
 20
408.3498760743737
 42
0.0
 10
211.7906368560897
 20
416.1661974884179
 42
0.0851285408962399
 10
212.1004676224313
 20
419.532612353017
 42
-0.0734311771838606
 10
212.6005937036451
 20
426.8192134307387
 42
0.0
 10
201.5606643607448
 20
429.7752885078043
 42
0.0
 10
180.1780955361912
 20
349.9498839328011
 42
0.0
 10
180.1780955361914
 20
293.3034755107168
 42
0.0
 10
180.7368278480593
 20
309.3034755107171
 42
0.0
 10
196.5780955361947
 20
309.3034755107171
 42
0.0
 10
196.5780955361938
 20
333.453898756733
 42
-0.0656415888682461
 10
200.3032141194777
 20
361.7063206475602
 42
0.0
 97
        0
 75
     0
 76
     1
 52
0.0
 41
25.0
 77
     0
 78
     3
 53
0.0
 43
-323.2522275548454
 44
2.366474356088474
 45
4.6875
 46
2.706329374999999
 79
     2
 49
3.125
 49
-6.25
 53
120.0
 43
-323.2522275548454
 44
2.366474356088474
 45
-4.687499989758061
 46
2.706329392739557
 79
     2
 49
3.124999999999999
 49
-6.249999999999999
 53
60.0
 43
-323.2522275548454
 44
2.366474356088474
 45
0.0000000102419385
 46
5.412658767739556
 79
     2
 49
-6.25
 49
3.125
 47
0.3610271053391696
 98
        2
 10
263.5521928581834
 20
372.9264129390344
 10
197.4375024417336
 20
374.7315486481455
  0
ARC
  5
1A66
102
{ACAD_REACTORS
330
1A70
102
}
330
1E
100
AcDbEntity
  8
SCHRAFF
100
AcDbCircle
 10
264.7484430661271
 20
338.8192968947254
 30
0.0
 40
5.208165723183875
100
AcDbArc
 50
302.9093022113954
 51
42.09510698101204
  0
ARC
  5
1A68
102
{ACAD_REACTORS
330
1A70
102
}
330
1E
100
AcDbEntity
  8
SCHRAFF
100
AcDbCircle
 10
181.0678178744854
 20
349.8327845922489
 30
0.0
 40
4.436738252222306
100
AcDbArc
 50
109.1405025756789
 51
235.863906616728
  0
HATCH
  5
1A70
330
1E
100
AcDbEntity
  8
SCHRAFF
100
AcDbHatch
 10
0.0
 20
0.0
 30
0.0
210
0.0
220
0.0
230
1.0
  2
_USER
 70
     0
 71
     1
 91
        2
 92
        7
 72
     1
 73
     1
 93
        3
 10
267.5780955361914
 20
338.4468768441349
 42
0.0
 10
267.5780955361914
 20
334.4468768441347
 42
0.4619897095086911
 10
268.6130743825388
 20
342.3106598074513
 42
0.0
 97
        3
330
19B3
330
19C3
330
1A66
 92
        7
 72
     1
 73
     1
 93
        3
 10
178.5780955361914
 20
350.1604652982694
 42
0.0
 10
179.6130743825387
 20
354.0242482615858
 42
0.6171509862553415
 10
178.5780955361914
 20
346.1604652982696
 42
0.0
 97
        3
330
1A68
330
19CF
330
19B2
 75
     0
 76
     0
 52
0.0
 41
0.1
 77
     0
 78
     1
 53
0.0
 43
-323.2522275548454
 44
2.366474356088474
 45
0.0
 46
0.1
 79
     0
 47
0.1508926267036994
 98
        2
 10
268.3932898514681
 20
338.0218732835133
 10
177.7936784789035
 20
350.6968539860877
  0
DIMENSION
  5
1A83
330
1E
100
AcDbEntity
  8
BEM
100
AcDbDimension
  2
*D5
 10
145.5445229007446
 20
263.3034755107171
 30
0.0
 11
139.0445229007445
 21
303.8035732909591
 31
0.0
 70
    32
 71
     5
 42
81.00019556048392
  3
Standard
100
AcDbAlignedDimension
 13
223.0780955361911
 23
344.3036710712011
 33
0.0
 14
196.7090251440424
 24
263.3034755107171
 34
0.0
 50
90.0
100
AcDbRotatedDimension
1001
ACAD
1000
DSTYLE
1002
{
1070
    40
1040
2.0
1070
    41
1040
3.5
1070
    42
1040
1.0
1070
    43
1040
7.0
1070
    44
1040
1.0
1070
    73
1070
     0
1070
    74
1070
     0
1070
    77
1070
     1
1070
    78
1070
     8
1070
    79
1070
     2
1070
   140
1040
3.5
1070
   141
1040
1.5
1070
   146
1040
0.5142857142857144
1070
   147
1040
1.5
1070
   172
1070
     1
1070
   178
1070
     1
1070
   179
1070
     2
1070
   271
1070
     2
1070
   272
1070
     2
1070
   284
1070
     8
1070
   285
1070
     8
1070
   286
1070
     8
1002
}
  0
DIMENSION
  5
1B65
330
1E
100
AcDbEntity
  8
BEM
100
AcDbDimension
  2
*D6
 10
173.2406056947482
 20
451.8546957167425
 30
0.0
 11
155.1899450348014
 21
409.5892568733425
 31
0.0
 70
    32
  1
91
 71
     5
 42
90.9932672429282
 51
284.9955908075927
  3
Standard
100
AcDbAlignedDimension
 13
223.0780955361911
 23
344.3036710712011
 33
0.0
 14
203.6375367584128
 24
443.7123696742443
 34
0.0
 50
75.00440919240723
100
AcDbRotatedDimension
1001
ACAD
1000
DSTYLE
1002
{
1070
    40
1040
2.0
1070
    41
1040
3.5
1070
    42
1040
1.0
1070
    43
1040
7.0
1070
    44
1040
1.0
1070
    73
1070
     0
1070
    74
1070
     0
1070
    77
1070
     1
1070
    78
1070
     8
1070
    79
1070
     2
1070
   140
1040
3.5
1070
   141
1040
1.5
1070
   146
1040
0.5142857142857144
1070
   147
1040
1.5
1070
   172
1070
     1
1070
   178
1070
     1
1070
   179
1070
     2
1070
   271
1070
     2
1070
   272
1070
     2
1070
   284
1070
     8
1070
   285
1070
     8
1070
   286
1070
     8
1002
}
  0
HATCH
  5
1C26
330
1E
100
AcDbEntity
  8
SCHRAFF
100
AcDbHatch
 10
0.0
 20
0.0
 30
0.0
210
0.0
220
0.0
230
1.0
  2
_USER
 70
     0
 71
     1
 91
        2
 92
        7
 72
     1
 73
     1
 93
       24
 10
249.5780955361912
 20
333.4538987567398
 42
-0.0656415888603664
 10
251.4919179271497
 20
347.9689044971185
 42
0.0
 10
261.0670453931967
 20
383.6883147545402
 42
-0.139599132416863
 10
263.3162312300521
 20
387.4487885373619
 42
0.1395991324168588
 10
266.6900099853352
 20
393.0894992115943
 42
0.0
 10
268.7829249133868
 20
400.9058206256386
 42
-0.0851285408962463
 10
270.1967392024557
 20
403.9766305025917
 42
0.0847252966072364
 10
273.7208932385836
 20
411.6150000041653
 42
0.0
 10
274.8836652474704
 20
415.9575557530387
 42
0.1115469390821243
 10
275.2225951251681
 20
424.5446014435231
 42
0.0
 10
273.6023397619655
 20
424.9784444826296
 42
-0.1217003665640529
 10
273.4347087714374
 20
416.345531435991
 42
0.0
 10
272.2923318051991
 20
412.0791441956686
 42
-0.0855444844076495
 10
268.9598548697832
 20
404.8252276670869
 42
0.0851285408962486
 10
267.3339684373538
 20
401.2937963085908
 42
0.0
 10
265.2410535093021
 20
393.4774748945461
 42
-0.1395991324168553
 10
262.2889970984295
 20
388.5418530545928
 42
0.1394609738317116
 10
259.6194222550487
 20
384.0812646019971
 42
0.0
 10
250.0348191536938
 20
348.3265060835506
 42
0.0655005741100838
 10
248.0780955361912
 20
333.4538987567396
 42
0.0
 10
248.0780955361912
 20
268.3231115865222
 42
0.0
 10
247.9466517396043
 20
263.3034755107171
 42
0.0
 10
249.4471659283406
 20
263.3034755107171
 42
0.0
 10
249.5780955361912
 20
268.3034755108953
 42
0.0
 97
       24
330
1828
330
1834
330
1835
330
1836
330
1833
330
1838
330
1831
330
1830
330
1832
330
1842
330
1926
330
1925
330
1924
330
1922
330
1921
330
191F
330
191D
330
190D
330
190E
330
1909
330
1911
330
182E
330
1825
330
182D
 92
        7
 72
     1
 73
     1
 93
       24
 10
198.0780955361938
 20
333.4538987567331
 42
-0.0656420823198162
 10
201.7520057813515
 20
361.3177299043039
 42
0.0
 10
211.3194825229214
 20
397.0085996156821
 42
0.1396050645471162
 10
211.2374305928675
 20
402.2115296172692
 42
-0.1395991324168567
 10
211.1466784040711
 20
407.9619003914217
 42
0.0
 10
213.2395933321227
 20
415.7782218054657
 42
0.085128540896243
 10
213.5958987134156
 20
419.6495988997551
 42
-0.0855444844073112
 10
214.3340727638716
 20
427.5981715137182
 42
0.0
 10
215.4764497301183
 20
431.8645587540715
 42
-0.1217003665640598
 10
219.6450943172768
 20
439.4261518485042
 42
0.0
 10
218.0248389540743
 20
439.8599948876107
 42
0.1115469390821142
 10
214.0274932540856
 20
432.2525344370244
 42
0.0
 10
212.8647212452031
 20
427.9099786881678
 42
0.084725296607418
 10
212.1004676224313
 20
419.5326123530177
 42
-0.0851285408962498
 10
211.7906368560898
 20
416.1661974884181
 42
0.0
 10
209.6977219280382
 20
408.3498760743737
 42
0.1395991324168598
 10
209.801438715234
 20
401.7780237610566
 42
-0.1397432285592776
 10
209.8694121692459
 20
397.3924202796659
 42
0.0
 10
200.2872582767983
 20
361.6467983808655
 42
0.0654996422543835
 10
196.5780955361938
 20
333.4538987567352
 42
0.0
 10
196.5780955361966
 20
268.3034755107211
 42
0.0
 10
196.7090251440424
 20
263.3034755107171
 42
0.0
 10
198.2095393327788
 20
263.3034755107171
 42
0.0
 10
198.0780955361965
 20
268.3231115863498
 42
0.0
 97
       24
330
190B
330
190C
330
1913
330
1915
330
1917
330
1918
330
191A
330
191B
330
191C
330
1842
330
183C
330
183A
330
183B
330
1841
330
183D
330
1840
330
183F
330
183E
330
1829
330
182B
330
1826
330
182E
330
190F
330
190A
 75
     0
 76
     0
 52
135.0
 41
2.0
 77
     0
 78
     1
 53
135.0
 43
0.0
 44
0.0
 45
-1.414213562373095
 46
-1.414213562373094
 79
     0
 47
0.3843191784957253
 98
        2
 10
248.8934598782189
 20
323.5029667903138
 10
197.3582660760312
 20
325.0402440270386
  0
HATCH
  5
1C2F
330
1E
100
AcDbEntity
  8
SCHRAFF
100
AcDbHatch
 10
0.0
 20
0.0
 30
0.0
210
0.0
220
0.0
230
1.0
  2
_USER
 70
     0
 71
     1
 91
        2
 92
        7
 72
     0
 73
     1
 93
        4
 10
267.5780955361914
 20
338.4468768441349
 10
265.978095536191
 20
338.6574582096025
 10
265.9780955361913
 20
293.3034755107169
 10
267.5780955361913
 20
293.3034755107169
 97
        4
330
1A2D
330
19C4
330
19C1
330
19C3
 92
        7
 72
     0
 73
     1
 93
        4
 10
180.1780955361911
 20
349.9498839328019
 10
178.5780955361914
 20
350.1604652982694
 10
178.5780955361914
 20
293.3034755107173
 10
180.1780955361914
 20
293.3034755107172
 97
        4
330
1A2E
330
19CF
330
19CC
330
19D0
 75
     0
 76
     0
 52
45.0
 41
2.0
 77
     0
 78
     1
 53
45.0
 43
0.0
 44
0.0
 45
-1.414213562373094
 46
1.414213562373095
 79
     0
 47
0.3843191784957253
 98
        2
 10
266.9692371664883
 20
320.8127323175895
 10
179.2824887877623
 20
316.2009019905031
  0
HATCH
  5
1C38
330
1E
100
AcDbEntity
  8
SCHRAFF
100
AcDbHatch
 10
0.0
 20
0.0
 30
0.0
210
0.0
220
0.0
230
1.0
  2
_USER
 70
     0
 71
     1
 91
        2
 92
        7
 72
     0
 73
     1
 93
        4
 10
289.6089547456564
 20
420.6924790428326
 10
288.0634011638633
 20
421.1063197732848
 10
265.9780955361914
 20
338.6574582096026
 10
267.5780955361914
 20
338.4468768441349
 97
        4
330
1842
330
19B4
330
1A2D
330
19B3
 92
        7
 72
     0
 73
     1
 93
        4
 10
205.1830903402059
 20
443.2985289437919
 10
203.6375367584128
 20
443.7123696742443
 10
178.5780955361914
 20
350.1604652982694
 10
180.1780955361913
 20
349.9498839328018
 97
        4
330
1842
330
19B2
330
1A2E
330
19B5
 75
     0
 76
     0
 52
120.0
 41
2.0
 77
     0
 78
     1
 53
120.0
 43
0.0
 44
0.0
 45
-1.732050807568877
 46
-0.9999999999999996
 79
     0
 47
0.3843191784957253
 98
        2
 10
280.4299221545598
 20
389.2215472224359
 10
191.204808788264
 20
394.6020147847969
  0
TEXT
  5
1C4A
330
1E
100
AcDbEntity
  8
TEXT
100
AcDbText
 10
170.398997108236
 20
63.10765040825732
 30
0.0
 40
4.0
  1
28.09.
 41
0.8
  7
GREEKS
 72
     1
 11
177.4085209177598
 21
63.10765040825732
 31
0.0
100
AcDbText
  0
TEXT
  5
1C4B
330
1E
100
AcDbEntity
  8
TEXT
100
AcDbText
 10
148.622109822104
 20
73.14025471151666
 30
0.0
 40
4.0
  1
2007
 41
0.8
  7
GREEKS
100
AcDbText
  0
HATCH
  5
1C5F
330
1E
100
AcDbEntity
  8
SCHRAFF
100
AcDbHatch
 10
0.0
 20
0.0
 30
0.0
210
0.0
220
0.0
230
1.0
  2
NET
 70
     0
 71
     0
 91
        2
 92
        7
 72
     0
 73
     1
 93
       10
 10
265.4193632243234
 20
309.3034755107171
 10
249.5780955361911
 20
309.3034755107171
 10
249.5780955361911
 20
299.3034755107171
 10
253.5780955361914
 20
299.3034755107171
 10
257.0421971513293
 20
293.303475510717
 10
261.5780955361905
 20
293.303475510717
 10
261.5780955361905
 20
291.3034755107168
 10
267.5780955361913
 20
291.3034755107167
 10
267.5780955361912
 20
293.3034755107169
 10
265.9780955361914
 20
293.303475510717
 97
        0
 92
        7
 72
     0
 73
     1
 93
       10
 10
196.5780955361967
 20
309.3034755107172
 10
180.7368278480594
 20
309.3034755107173
 10
180.1780955361914
 20
293.3034755107172
 10
178.5780955361914
 20
293.3034755107173
 10
178.5780955361914
 20
291.3034755107172
 10
184.5780955361904
 20
291.3034755107172
 10
184.5780955361904
 20
293.3034755107172
 10
189.1139939210537
 20
293.3034755107172
 10
192.5780955361914
 20
299.3034755107171
 10
196.5780955361973
 20
299.3034755107171
 97
        0
 75
     0
 76
     1
 52
45.0
 41
20.0
 77
     0
 78
     2
 53
45.0
 43
-1.921904463808857
 44
-28.5715185484687
 45
-1.767766952966368
 46
1.767766952966368
 79
     0
 53
135.0
 43
-1.921904463808857
 44
-28.5715185484687
 45
-1.767766952966368
 46
-1.767766952966368
 79
     0
 47
0.1255994509103582
 98
        2
 10
257.1564761408404
 20
304.5868015318604
 10
191.3026582173721
 20
305.5915974440927
  0
LINE
  5
1C60
330
1E
100
AcDbEntity
  8
STEMPEL
100
AcDbLine
 10
261.5780955361905
 20
293.303475510717
 30
0.0
 11
249.5780955361911
 21
293.303475510717
 31
0.0
  0
POINT
  5
1C61
330
1E
100
AcDbEntity
  8
STEMPEL
100
AcDbPoint
 10
261.5780955361905
 20
291.303475510717
 30
0.0
  0
LINE
  5
1C62
330
1E
100
AcDbEntity
  8
STEMPEL
100
AcDbLine
 10
261.5780955361905
 20
293.303475510717
 30
0.0
 11
261.5780955361905
 21
291.303475510717
 31
0.0
  0
LINE
  5
1C63
330
1E
100
AcDbEntity
  8
STEMPEL
100
AcDbLine
 10
267.5780955361913
 20
291.3034755107167
 30
0.0
 11
249.5780955361911
 21
291.3034755107169
 31
0.0
  0
LINE
  5
1C64
330
1E
100
AcDbEntity
  8
STEMPEL
100
AcDbLine
 10
253.5780955361914
 20
299.3034755107171
 30
0.0
 11
257.0421971513292
 21
293.3034755107172
 31
0.0
  0
LINE
  5
1C65
330
1E
100
AcDbEntity
  8
STEMPEL
100
AcDbLine
 10
253.5780955361914
 20
299.3034755107171
 30
0.0
 11
257.0421971513292
 21
293.3034755107172
 31
0.0
  0
LINE
  5
1C66
330
1E
100
AcDbEntity
  8
STEMPEL
100
AcDbLine
 10
196.5780955361978
 20
291.3034755107172
 30
0.0
 11
178.5780955361914
 21
291.3034755107172
 31
0.0
  0
POINT
  5
1C67
330
1E
100
AcDbEntity
  8
STEMPEL
100
AcDbPoint
 10
184.5780955361904
 20
291.303475510717
 30
0.0
  0
LINE
  5
1C68
330
1E
100
AcDbEntity
  8
STEMPEL
100
AcDbLine
 10
184.5780955361904
 20
293.303475510717
 30
0.0
 11
184.5780955361904
 21
291.303475510717
 31
0.0
  0
LINE
  5
1C69
330
1E
100
AcDbEntity
  8
STEMPEL
100
AcDbLine
 10
196.5780955361976
 20
293.3034755107172
 30
0.0
 11
184.5780955361904
 21
293.3034755107172
 31
0.0
  0
LINE
  5
1C6A
330
1E
100
AcDbEntity
  8
STEMPEL
100
AcDbLine
 10
192.5780955361914
 20
299.3034755107171
 30
0.0
 11
189.1139939210536
 21
293.3034755107172
 31
0.0
  0
LINE
  5
1C6B
330
1E
100
AcDbEntity
  8
STEMPEL
100
AcDbLine
 10
196.5780955361976
 20
293.3034755107172
 30
0.0
 11
184.5780955361904
 21
293.3034755107172
 31
0.0
  0
LINE
  5
1C6C
330
1E
100
AcDbEntity
  8
STEMPEL
100
AcDbLine
 10
192.5780955361914
 20
299.3034755107171
 30
0.0
 11
189.1139939210536
 21
293.3034755107172
 31
0.0
  0
DIMENSION
  5
1C80
330
1E
100
AcDbEntity
  8
BEM
100
AcDbDimension
  2
*D7
 10
223.0780955361914
 20
258.3034755107171
 30
0.0
 11
239.5762185782333
 21
469.6566281510285
 31
0.0
 70
    34
 71
     5
 42
0.2617224328742942
  3
Standard
100
AcDb2LineAngularDimension
 13
247.9169693161278
 23
437.0321530856767
 33
0.0
 14
223.0780955361911
 24
344.3036710712011
 34
0.0
 15
223.0780955361911
 25
344.3036710712011
 35
0.0
 16
243.8983534686534
 26
462.4166551188115
 36
0.0
1001
ACAD
1000
DSTYLE
1002
{
1070
    40
1040
2.0
1070
    41
1040
3.5
1070
    42
1040
1.0
1070
    43
1040
7.0
1070
    44
1040
1.0
1070
    73
1070
     0
1070
    74
1070
     0
1070
    77
1070
     1
1070
    78
1070
     8
1070
    79
1070
     2
1070
   140
1040
3.5
1070
   141
1040
1.5
1070
   146
1040
0.5142857142857144
1070
   147
1040
1.5
1070
   172
1070
     1
1070
   178
1070
     1
1070
   179
1070
     2
1070
   271
1070
     2
1070
   272
1070
     2
1070
   284
1070
     8
1070
   285
1070
     8
1070
   286
1070
     8
1002
}
  0
ENDSEC
  0
SECTION
  2
OBJECTS
  0
DICTIONARY
  5
C
330
0
100
AcDbDictionary
281
     1
  3
ACAD_COLOR
350
DF
  3
ACAD_GROUP
350
D
  3
ACAD_LAYOUT
350
19
  3
ACAD_MATERIAL
350
DE
  3
ACAD_MLINESTYLE
350
16
  3
ACAD_PLOTSETTINGS
350
18
  3
ACAD_PLOTSTYLENAME
350
E
  3
AcDbVariableDictionary
350
25E
  0
DICTIONARY
  5
A0
330
1E
100
AcDbDictionary
280
     1
281
     1
  3
ACAD_LAYOUTSELFREF
360
D4
  0
DICTIONARY
  5
A2
330
1A
100
AcDbDictionary
280
     1
281
     1
  3
ACAD_LAYOUTSELFREF
360
D3
  0
DICTIONARY
  5
DF
102
{ACAD_REACTORS
330
C
102
}
330
C
100
AcDbDictionary
281
     1
  0
DICTIONARY
  5
D
102
{ACAD_REACTORS
330
C
102
}
330
C
100
AcDbDictionary
281
     1
  0
DICTIONARY
  5
19
102
{ACAD_REACTORS
330
C
102
}
330
C
100
AcDbDictionary
281
     1
  3
Layout1
350
1D
  3
Model
350
21
  0
DICTIONARY
  5
DE
102
{ACAD_REACTORS
330
C
102
}
330
C
100
AcDbDictionary
281
     1
  0
DICTIONARY
  5
16
102
{ACAD_REACTORS
330
C
102
}
330
C
100
AcDbDictionary
281
     1
  3
Standard
350
17
  0
DICTIONARY
  5
18
102
{ACAD_REACTORS
330
C
102
}
330
C
100
AcDbDictionary
281
     1
  0
ACDBDICTIONARYWDFLT
  5
E
102
{ACAD_REACTORS
330
C
102
}
330
C
100
AcDbDictionary
281
     1
  3
Normal
350
F
100
AcDbDictionaryWithDefault
340
F
  0
DICTIONARY
  5
25E
102
{ACAD_REACTORS
330
C
102
}
330
C
100
AcDbDictionary
281
     1
  3
DIMASSOC
350
25F
  3
PROJECTNAME
350
260
  0
XRECORD
  5
D4
102
{ACAD_REACTORS
330
A0
102
}
330
A0
100
AcDbXrecord
280
     1
340
1E
  0
XRECORD
  5
D3
102
{ACAD_REACTORS
330
A2
102
}
330
A2
100
AcDbXrecord
280
     1
340
1A
  0
LAYOUT
  5
1D
102
{ACAD_REACTORS
330
19
102
}
330
19
100
AcDbPlotSettings
  1

  2
\\NT_WORK01\HP LaserJet 5000 PCL 6
  4

  6

 40
0.0
 41
0.0
 42
0.0
 43
0.0
 44
0.0
 45
0.0
 46
0.0
 47
0.0
 48
0.0
 49
0.0
140
0.0
141
0.0
142
1.0
143
1.0
 70
   688
 72
     0
 73
     0
 74
     5
  7

 75
    16
147
1.0
 76
     0
 77
     2
 78
   300
148
0.0
149
0.0
100
AcDbLayout
  1
Layout1
 70
     0
 71
     1
 10
0.0
 20
0.0
 11
12.0
 21
9.0
 12
0.0
 22
0.0
 32
0.0
 14
1.000000000000000E+20
 24
1.000000000000000E+20
 34
1.000000000000000E+20
 15
-1.000000000000000E+20
 25
-1.000000000000000E+20
 35
-1.000000000000000E+20
146
0.0
 13
0.0
 23
0.0
 33
0.0
 16
1.0
 26
0.0
 36
0.0
 17
0.0
 27
1.0
 37
0.0
 76
     0
330
1A
  0
LAYOUT
  5
21
102
{ACAD_REACTORS
330
19
102
}
330
19
100
AcDbPlotSettings
  1

  2
RICOH Aficio 2027 PCL 6
  4
A4
  6

 40
5.027083
 41
5.027084999999999
 42
5.027084
 43
5.027069
 44
209.973328
 45
296.925995
 46
0.0
 47
2.06
 48
0.0
 49
0.0
140
0.0
141
0.0
142
1.0
143
2.100849152723284
 70
 11956
 72
     1
 73
     0
 74
     2
  7
monochrome1.ctb
 75
     0
147
0.4759980023809526
 76
     1
 77
     2
 78
   300
148
0.0
149
0.0
100
AcDbLayout
  1
Model
 70
     1
 71
     0
 10
0.0
 20
0.0
 11
12.0
 21
9.0
 12
0.0
 22
0.0
 32
0.0
 14
0.0
 24
0.0
 34
0.0
 15
0.0
 25
0.0
 35
0.0
146
0.0
 13
0.0
 23
0.0
 33
0.0
 16
1.0
 26
0.0
 36
0.0
 17
0.0
 27
1.0
 37
0.0
 76
     0
330
1E
  0
MLINESTYLE
  5
17
102
{ACAD_REACTORS
330
16
102
}
330
16
100
AcDbMlineStyle
  2
STANDARD
 70
     0
  3

 62
   256
 51
90.0
 52
90.0
 71
     2
 49
0.5
 62
   256
  6
BYLAYER
 49
-0.5
 62
   256
  6
BYLAYER
  0
ACDBPLACEHOLDER
  5
F
102
{ACAD_REACTORS
330
E
102
}
330
E
  0
DICTIONARYVAR
  5
25F
102
{ACAD_REACTORS
330
25E
102
}
330
25E
100
DictionaryVariables
280
     0
  1
1
  0
DICTIONARYVAR
  5
260
102
{ACAD_REACTORS
330
25E
102
}
330
25E
100
DictionaryVariables
280
     0
  1

  0
ENDSEC
  0
EOF
