  0
SECTION
  2
HEADER
  9
$ACADVER
  1
AC1018
  9
$ACADMAINTVER
 70
     2
  9
$DWGCODEPAGE
  3
ANSI_1252
  9
$INSBASE
 10
0.0
 20
0.0
 30
0.0
  9
$EXTMIN
 10
-0.0028344340512376
 20
-0.0520862930463864
 30
-0.0000000000000053
  9
$EXTMAX
 10
525.0114013782572
 20
742.5215426059553
 30
0.0000000000000099
  9
$LIMMIN
 10
0.0
 20
0.0
  9
$LIMMAX
 10
524.9999999999999
 20
742.4999999999999
  9
$ORTHOMODE
 70
     0
  9
$REGENMODE
 70
     1
  9
$FILLMODE
 70
     1
  9
$QTEXTMODE
 70
     0
  9
$MIRRTEXT
 70
     1
  9
$LTSCALE
 40
25.0
  9
$ATTMODE
 70
     1
  9
$TEXTSIZE
 40
3.5
  9
$TRACEWID
 40
0.5
  9
$TEXTSTYLE
  7
STANDARD
  9
$CLAYER
  8
SCHRAFF
  9
$CELTYPE
  6
ByLayer
  9
$CECOLOR
 62
   256
  9
$CELTSCALE
 40
1.0
  9
$DISPSILH
 70
     0
  9
$DIMSCALE
 40
2.5
  9
$DIMASZ
 40
3.5
  9
$DIMEXO
 40
1.0
  9
$DIMDLI
 40
7.0
  9
$DIMRND
 40
0.0
  9
$DIMDLE
 40
0.0
  9
$DIMEXE
 40
1.0
  9
$DIMTP
 40
0.0
  9
$DIMTM
 40
0.0
  9
$DIMTXT
 40
3.5
  9
$DIMCEN
 40
1.5
  9
$DIMTSZ
 40
0.0
  9
$DIMTOL
 70
     0
  9
$DIMLIM
 70
     0
  9
$DIMTIH
 70
     0
  9
$DIMTOH
 70
     0
  9
$DIMSE1
 70
     0
  9
$DIMSE2
 70
     0
  9
$DIMTAD
 70
     1
  9
$DIMZIN
 70
     8
  9
$DIMBLK
  1

  9
$DIMASO
 70
     1
  9
$DIMSHO
 70
     0
  9
$DIMPOST
  1

  9
$DIMAPOST
  1

  9
$DIMALT
 70
     0
  9
$DIMALTD
 70
     2
  9
$DIMALTF
 40
25.4
  9
$DIMLFAC
 40
1.0
  9
$DIMTOFL
 70
     1
  9
$DIMTVP
 40
0.0
  9
$DIMTIX
 70
     0
  9
$DIMSOXD
 70
     0
  9
$DIMSAH
 70
     0
  9
$DIMBLK1
  1

  9
$DIMBLK2
  1

  9
$DIMSTYLE
  2
Standard
  9
$DIMCLRD
 70
     0
  9
$DIMCLRE
 70
     0
  9
$DIMCLRT
 70
     1
  9
$DIMTFAC
 40
0.5142857142857144
  9
$DIMGAP
 40
1.5
  9
$DIMJUST
 70
     0
  9
$DIMSD1
 70
     0
  9
$DIMSD2
 70
     0
  9
$DIMTOLJ
 70
     1
  9
$DIMTZIN
 70
     8
  9
$DIMALTZ
 70
     8
  9
$DIMALTTZ
 70
     8
  9
$DIMUPT
 70
     0
  9
$DIMDEC
 70
     2
  9
$DIMTDEC
 70
     2
  9
$DIMALTU
 70
     2
  9
$DIMALTTD
 70
     2
  9
$DIMTXSTY
  7
STANDARD
  9
$DIMAUNIT
 70
     0
  9
$DIMADEC
 70
     2
  9
$DIMALTRND
 40
0.0
  9
$DIMAZIN
 70
     2
  9
$DIMDSEP
 70
    46
  9
$DIMATFIT
 70
     3
  9
$DIMFRAC
 70
     0
  9
$DIMLDRBLK
  1

  9
$DIMLUNIT
 70
     2
  9
$DIMLWD
 70
    -2
  9
$DIMLWE
 70
    -2
  9
$DIMTMOVE
 70
     0
  9
$LUNITS
 70
     2
  9
$LUPREC
 70
     2
  9
$SKETCHINC
 40
1.0
  9
$FILLETRAD
 40
0.0
  9
$AUNITS
 70
     0
  9
$AUPREC
 70
     0
  9
$MENU
  1
ACAD
  9
$ELEVATION
 40
0.0
  9
$PELEVATION
 40
0.0
  9
$THICKNESS
 40
0.0
  9
$LIMCHECK
 70
     0
  9
$CHAMFERA
 40
0.0
  9
$CHAMFERB
 40
0.0
  9
$CHAMFERC
 40
0.0
  9
$CHAMFERD
 40
0.0
  9
$SKPOLY
 70
     0
  9
$TDCREATE
 40
2455397.823042361
  9
$TDUCREATE
 40
2455397.781375695
  9
$TDUPDATE
 40
2455532.539615695
  9
$TDUUPDATE
 40
2455532.497949028
  9
$TDINDWG
 40
0.4310561343
  9
$TDUSRTIMER
 40
0.4310561343
  9
$USRTIMER
 70
     1
  9
$ANGBASE
 50
0.0
  9
$ANGDIR
 70
     0
  9
$PDMODE
 70
     0
  9
$PDSIZE
 40
0.0
  9
$PLINEWID
 40
0.0
  9
$SPLFRAME
 70
     0
  9
$SPLINETYPE
 70
     6
  9
$SPLINESEGS
 70
     8
  9
$HANDSEED
  5
2A2D
  9
$SURFTAB1
 70
     6
  9
$SURFTAB2
 70
     6
  9
$SURFTYPE
 70
     6
  9
$SURFU
 70
     6
  9
$SURFV
 70
     6
  9
$UCSBASE
  2

  9
$UCSNAME
  2

  9
$UCSORG
 10
0.0
 20
0.0
 30
0.0
  9
$UCSXDIR
 10
1.0
 20
0.0
 30
0.0
  9
$UCSYDIR
 10
0.0
 20
1.0
 30
0.0
  9
$UCSORTHOREF
  2

  9
$UCSORTHOVIEW
 70
     0
  9
$UCSORGTOP
 10
0.0
 20
0.0
 30
0.0
  9
$UCSORGBOTTOM
 10
0.0
 20
0.0
 30
0.0
  9
$UCSORGLEFT
 10
0.0
 20
0.0
 30
0.0
  9
$UCSORGRIGHT
 10
0.0
 20
0.0
 30
0.0
  9
$UCSORGFRONT
 10
0.0
 20
0.0
 30
0.0
  9
$UCSORGBACK
 10
0.0
 20
0.0
 30
0.0
  9
$PUCSBASE
  2

  9
$PUCSNAME
  2

  9
$PUCSORG
 10
0.0
 20
0.0
 30
0.0
  9
$PUCSXDIR
 10
1.0
 20
0.0
 30
0.0
  9
$PUCSYDIR
 10
0.0
 20
1.0
 30
0.0
  9
$PUCSORTHOREF
  2

  9
$PUCSORTHOVIEW
 70
     0
  9
$PUCSORGTOP
 10
0.0
 20
0.0
 30
0.0
  9
$PUCSORGBOTTOM
 10
0.0
 20
0.0
 30
0.0
  9
$PUCSORGLEFT
 10
0.0
 20
0.0
 30
0.0
  9
$PUCSORGRIGHT
 10
0.0
 20
0.0
 30
0.0
  9
$PUCSORGFRONT
 10
0.0
 20
0.0
 30
0.0
  9
$PUCSORGBACK
 10
0.0
 20
0.0
 30
0.0
  9
$USERI1
 70
     0
  9
$USERI2
 70
     0
  9
$USERI3
 70
     0
  9
$USERI4
 70
     0
  9
$USERI5
 70
     0
  9
$USERR1
 40
0.0
  9
$USERR2
 40
0.0
  9
$USERR3
 40
0.0
  9
$USERR4
 40
0.0
  9
$USERR5
 40
0.0
  9
$WORLDVIEW
 70
     1
  9
$SHADEDGE
 70
     3
  9
$SHADEDIF
 70
    70
  9
$TILEMODE
 70
     1
  9
$MAXACTVP
 70
    16
  9
$PINSBASE
 10
0.0
 20
0.0
 30
0.0
  9
$PLIMCHECK
 70
     0
  9
$PEXTMIN
 10
1.000000000000000E+20
 20
1.000000000000000E+20
 30
1.000000000000000E+20
  9
$PEXTMAX
 10
-1.000000000000000E+20
 20
-1.000000000000000E+20
 30
-1.000000000000000E+20
  9
$PLIMMIN
 10
0.0
 20
0.0
  9
$PLIMMAX
 10
12.0
 20
9.0
  9
$UNITMODE
 70
     0
  9
$VISRETAIN
 70
     0
  9
$PLINEGEN
 70
     0
  9
$PSLTSCALE
 70
     0
  9
$TREEDEPTH
 70
  3020
  9
$CMLSTYLE
  2
Standard
  9
$CMLJUST
 70
     0
  9
$CMLSCALE
 40
1.0
  9
$PROXYGRAPHICS
 70
     1
  9
$MEASUREMENT
 70
     0
  9
$CELWEIGHT
370
    -1
  9
$ENDCAPS
280
     0
  9
$JOINSTYLE
280
     0
  9
$LWDISPLAY
290
     0
  9
$INSUNITS
 70
     0
  9
$HYPERLINKBASE
  1

  9
$STYLESHEET
  1
monochrome 1.ctb
  9
$XEDIT
290
     1
  9
$CEPSNTYPE
380
     0
  9
$PSTYLEMODE
290
     1
  9
$FINGERPRINTGUID
  2
{D68B0D02-A558-11D7-B632-000102183313}
  9
$VERSIONGUID
  2
{EE3E1C6E-A3AE-49AF-BB29-AB5AED8B0F14}
  9
$EXTNAMES
290
     1
  9
$PSVPSCALE
 40
0.0
  9
$OLESTARTUP
290
     0
  9
$SORTENTS
280
   127
  9
$INDEXCTL
280
     0
  9
$HIDETEXT
280
     0
  9
$XCLIPFRAME
290
     0
  9
$HALOGAP
280
     0
  9
$OBSCOLOR
 70
   257
  9
$OBSLTYPE
280
     0
  9
$INTERSECTIONDISPLAY
280
     0
  9
$INTERSECTIONCOLOR
 70
   257
  9
$DIMASSOC
280
     1
  9
$PROJECTNAME
  1

  0
ENDSEC
  0
SECTION
  2
CLASSES
  0
CLASS
  1
ACDBDICTIONARYWDFLT
  2
AcDbDictionaryWithDefault
  3
ObjectDBX Classes
 90
        0
 91
        1
280
     0
281
     0
  0
CLASS
  1
DICTIONARYVAR
  2
AcDbDictionaryVar
  3
ObjectDBX Classes
 90
        0
 91
        2
280
     0
281
     0
  0
ENDSEC
  0
SECTION
  2
TABLES
  0
TABLE
  2
VPORT
  5
8
330
0
100
AcDbSymbolTable
 70
     2
  0
VPORT
  5
2A2C
330
8
100
AcDbSymbolTableRecord
100
AcDbViewportTableRecord
  2
*Active
 70
     0
 10
0.0
 20
0.0
 11
1.0
 21
1.0
 12
262.504283472103
 22
371.2347281564544
 13
0.0
 23
0.0
 14
1.0
 24
1.0
 15
10.0
 25
10.0
 16
0.0
 26
0.0
 36
1.0
 17
0.0
 27
0.0
 37
0.0
 40
748.5701857945521
 41
1.336927223719676
 42
50.0
 43
0.0
 44
0.0
 50
0.0
 51
0.0
 71
     0
 72
  1500
 73
     1
 74
     0
 75
     0
 76
     0
 77
     0
 78
     0
281
     0
 65
     1
110
0.0
120
0.0
130
0.0
111
1.0
121
0.0
131
0.0
112
0.0
122
1.0
132
0.0
 79
     0
146
0.0
  0
ENDTAB
  0
TABLE
  2
LTYPE
  5
5
330
0
100
AcDbSymbolTable
 70
     2
  0
LTYPE
  5
13
330
5
100
AcDbSymbolTableRecord
100
AcDbLinetypeTableRecord
  2
ByBlock
 70
     0
  3

 72
    65
 73
     0
 40
0.0
  0
LTYPE
  5
14
330
5
100
AcDbSymbolTableRecord
100
AcDbLinetypeTableRecord
  2
ByLayer
 70
     0
  3

 72
    65
 73
     0
 40
0.0
  0
LTYPE
  5
15
330
5
100
AcDbSymbolTableRecord
100
AcDbLinetypeTableRecord
  2
Continuous
 70
     0
  3
Solid line
 72
    65
 73
     0
 40
0.0
  0
LTYPE
  5
25
330
5
100
AcDbSymbolTableRecord
100
AcDbLinetypeTableRecord
  2
STRICHPUNKT
 70
     0
  3
__ . __ . __ . __ . __ . __ . __ . __ . __ . __
 72
    65
 73
     4
 40
1.0
 49
0.5
 74
     0
 49
-0.25
 74
     0
 49
0.0
 74
     0
 49
-0.25
 74
     0
  0
ENDTAB
  0
TABLE
  2
LAYER
  5
2
330
0
100
AcDbSymbolTable
 70
     9
  0
LAYER
  5
10
330
2
100
AcDbSymbolTableRecord
100
AcDbLayerTableRecord
  2
0
 70
     0
 62
     7
  6
Continuous
370
    -3
390
F
  0
LAYER
  5
2A
330
2
100
AcDbSymbolTableRecord
100
AcDbLayerTableRecord
  2
VOLL
 70
     0
 62
     1
  6
Continuous
370
    -3
390
F
  0
LAYER
  5
2B
330
2
100
AcDbSymbolTableRecord
100
AcDbLayerTableRecord
  2
HILF
 70
     0
 62
     2
  6
Continuous
370
    -3
390
F
  0
LAYER
  5
2C
330
2
100
AcDbSymbolTableRecord
100
AcDbLayerTableRecord
  2
MITTEL
 70
     0
 62
     2
  6
STRICHPUNKT
370
    -3
390
F
  0
LAYER
  5
2F
330
2
100
AcDbSymbolTableRecord
100
AcDbLayerTableRecord
  2
BEM
 70
     0
 62
     7
  6
Continuous
370
    -3
390
F
  0
LAYER
  5
30
330
2
100
AcDbSymbolTableRecord
100
AcDbLayerTableRecord
  2
STEMPEL
 70
     0
 62
     3
  6
Continuous
370
    -3
390
F
  0
LAYER
  5
31
330
2
100
AcDbSymbolTableRecord
100
AcDbLayerTableRecord
  2
TEXT
 70
     0
 62
     7
  6
Continuous
370
    -3
390
F
  0
LAYER
  5
171
330
2
100
AcDbSymbolTableRecord
100
AcDbLayerTableRecord
  2
Defpoints
 70
     0
 62
     7
  6
Continuous
290
     0
370
    -3
390
F
  0
LAYER
  5
19C
330
2
100
AcDbSymbolTableRecord
100
AcDbLayerTableRecord
  2
SCHRAFF
 70
     0
 62
     7
  6
Continuous
370
    -3
390
F
  0
ENDTAB
  0
TABLE
  2
STYLE
  5
3
330
0
100
AcDbSymbolTable
 70
     2
  0
STYLE
  5
11
330
3
100
AcDbSymbolTableRecord
100
AcDbTextStyleTableRecord
  2
STANDARD
 70
     0
 40
0.0
 41
0.8
 50
0.0
 71
     0
 42
3.5
  3
simplex.shx
  4

  0
STYLE
  5
24
330
3
100
AcDbSymbolTableRecord
100
AcDbTextStyleTableRecord
  2
GREEKS
 70
     0
 40
0.0
 41
0.8
 50
0.0
 71
     0
 42
2.5
  3
SIMPLEX.shx
  4

  0
ENDTAB
  0
TABLE
  2
VIEW
  5
6
330
0
100
AcDbSymbolTable
 70
     0
  0
ENDTAB
  0
TABLE
  2
UCS
  5
7
330
0
100
AcDbSymbolTable
 70
     0
  0
ENDTAB
  0
TABLE
  2
APPID
  5
9
330
0
100
AcDbSymbolTable
 70
     1
  0
APPID
  5
12
330
9
100
AcDbSymbolTableRecord
100
AcDbRegAppTableRecord
  2
ACAD
 70
     0
  0
ENDTAB
  0
TABLE
  2
DIMSTYLE
  5
A
330
0
100
AcDbSymbolTable
 70
     1
100
AcDbDimStyleTable
 71
     1
340
9D
  0
DIMSTYLE
105
9D
102
{ACAD_REACTORS
330
2675
330
26B2
330
27E7
330
27F4
330
2801
102
}
330
A
100
AcDbSymbolTableRecord
100
AcDbDimStyleTableRecord
  2
Standard
 70
     0
340
11
  0
ENDTAB
  0
TABLE
  2
BLOCK_RECORD
  5
1
330
0
100
AcDbSymbolTable
 70
     6
  0
BLOCK_RECORD
  5
1E
102
{ACAD_XDICTIONARY
360
A0
102
}
330
1
100
AcDbSymbolTableRecord
100
AcDbBlockTableRecord
  2
*Model_Space
340
21
  0
BLOCK_RECORD
  5
1A
102
{ACAD_XDICTIONARY
360
A2
102
}
330
1
100
AcDbSymbolTableRecord
100
AcDbBlockTableRecord
  2
*Paper_Space
340
1D
  0
BLOCK_RECORD
  5
22
330
1
100
AcDbSymbolTableRecord
100
AcDbBlockTableRecord
  2
LOGO
340
0
102
{BLKREFS
331
9B
102
}
  0
BLOCK_RECORD
  5
2692
330
1
100
AcDbSymbolTableRecord
100
AcDbBlockTableRecord
  2
*D1
340
0
  0
BLOCK_RECORD
  5
26F3
330
1
100
AcDbSymbolTableRecord
100
AcDbBlockTableRecord
  2
*D2
340
0
  0
BLOCK_RECORD
  5
27E8
330
1
100
AcDbSymbolTableRecord
100
AcDbBlockTableRecord
  2
*D3
340
0
  0
BLOCK_RECORD
  5
27F5
330
1
100
AcDbSymbolTableRecord
100
AcDbBlockTableRecord
  2
*D4
340
0
  0
BLOCK_RECORD
  5
2802
330
1
100
AcDbSymbolTableRecord
100
AcDbBlockTableRecord
  2
*D5
340
0
  0
ENDTAB
  0
ENDSEC
  0
SECTION
  2
BLOCKS
  0
BLOCK
  5
35
330
1E
100
AcDbEntity
  8
0
100
AcDbBlockBegin
  2
*Model_Space
 70
     0
 10
0.0
 20
0.0
 30
0.0
  3
*Model_Space
  1

  0
ENDBLK
  5
36
330
1E
100
AcDbEntity
  8
0
100
AcDbBlockEnd
  0
BLOCK
  5
33
330
1A
100
AcDbEntity
 67
     1
  8
0
100
AcDbBlockBegin
  2
*Paper_Space
 70
     0
 10
0.0
 20
0.0
 30
0.0
  3
*Paper_Space
  1

  0
ENDBLK
  5
34
330
1A
100
AcDbEntity
 67
     1
  8
0
100
AcDbBlockEnd
  0
BLOCK
  5
37
330
22
100
AcDbEntity
  8
0
100
AcDbBlockBegin
  2
LOGO
 70
     0
 10
0.0
 20
0.0
 30
0.0
  3
LOGO
  1

  0
ARC
  5
38
330
22
100
AcDbEntity
  8
0
100
AcDbCircle
 10
11.59973089678112
 20
-9.271599258481501
 30
0.0
 40
4.5
100
AcDbArc
 50
270.0
 51
231.0575587310159
  0
LINE
  5
39
330
22
100
AcDbEntity
  8
0
100
AcDbLine
 10
3.599730896781125
 20
-4.771599258481529
 30
0.0
 11
3.599730896781153
 21
-11.77159925848133
 31
0.0
  0
LINE
  5
3A
330
22
100
AcDbEntity
  8
0
100
AcDbLine
 10
2.599730896781125
 20
-4.771599258481529
 30
0.0
 11
2.599730896781153
 21
-11.77159925848133
 31
0.0
  0
CIRCLE
  5
3B
330
22
100
AcDbEntity
  8
0
100
AcDbCircle
 10
11.59973089678112
 20
-9.271599258481501
 30
0.0
 40
3.5
  0
ARC
  5
3C
330
22
100
AcDbEntity
  8
0
100
AcDbCircle
 10
31.59973089678115
 20
-9.271599258481472
 30
0.0
 40
4.5
100
AcDbArc
 50
270.0
 51
231.0575587310182
  0
LINE
  5
3D
330
22
100
AcDbEntity
  8
0
100
AcDbLine
 10
17.59973089678112
 20
-4.771599258481472
 30
0.0
 11
17.59973089678115
 21
-13.77159925848147
 31
0.0
  0
ARC
  5
3E
330
22
100
AcDbEntity
  8
0
100
AcDbCircle
 10
22.59973089678116
 20
-7.271599258481472
 30
0.0
 40
2.5
100
AcDbArc
 50
293.1161887722295
 51
90.0
  0
CIRCLE
  5
3F
330
22
100
AcDbEntity
  8
0
100
AcDbCircle
 10
31.59973089678115
 20
-9.271599258481472
 30
0.0
 40
3.5
  0
ARC
  5
40
330
22
100
AcDbEntity
  8
0
100
AcDbCircle
 10
4.599730896781153
 20
-11.77159925848133
 30
0.0
 40
1.0
100
AcDbArc
 50
180.0
 51
270.0
  0
ARC
  5
41
330
22
100
AcDbEntity
  8
0
100
AcDbCircle
 10
4.599730896781153
 20
-11.77159925848133
 30
0.0
 40
2.0
100
AcDbArc
 50
179.9999999999992
 51
270.0
  0
LINE
  5
42
330
22
100
AcDbEntity
  8
0
100
AcDbLine
 10
11.59973089678115
 20
-13.77159925848144
 30
0.0
 11
4.599730896781153
 21
-13.77159925848147
 31
0.0
  0
LINE
  5
43
330
22
100
AcDbEntity
  8
0
100
AcDbLine
 10
8.771303772034769
 20
-12.77159925848136
 30
0.0
 11
4.599730896781153
 21
-12.77159925848133
 31
0.0
  0
LINE
  5
44
330
22
100
AcDbEntity
  8
0
100
AcDbLine
 10
31.59973089678115
 20
-13.77159925848147
 30
0.0
 11
23.6715276665056
 21
-13.77159925848144
 31
0.0
  0
LINE
  5
45
330
22
100
AcDbEntity
  8
0
100
AcDbLine
 10
23.56565672307022
 20
-9.51278021337896
 30
0.0
 11
24.4388546544846
 21
-12.77159925848144
 31
0.0
  0
LINE
  5
46
330
22
100
AcDbEntity
  8
0
100
AcDbLine
 10
22.59973089678116
 20
-9.771599258481472
 30
0.0
 11
18.59973089678112
 21
-9.771599258481472
 31
0.0
  0
LINE
  5
47
330
22
100
AcDbEntity
  8
0
100
AcDbLine
 10
18.59973089678115
 20
-13.77159925848144
 30
0.0
 11
17.59973089678115
 21
-13.77159925848144
 31
0.0
  0
LINE
  5
48
330
22
100
AcDbEntity
  8
0
100
AcDbLine
 10
18.59973089678115
 20
-9.771599258481472
 30
0.0
 11
18.59973089678115
 21
-13.77159925848144
 31
0.0
  0
LINE
  5
49
330
22
100
AcDbEntity
  8
0
100
AcDbLine
 10
22.59973089678116
 20
-9.771599258481472
 30
0.0
 11
23.67152766650562
 21
-13.77159925848147
 31
0.0
  0
ARC
  5
4A
330
22
100
AcDbEntity
  8
0
100
AcDbCircle
 10
22.59973089678116
 20
-7.271599258481472
 30
0.0
 40
2.5
100
AcDbArc
 50
270.0
 51
270.0000000000007
  0
LINE
  5
4B
330
22
100
AcDbEntity
  8
0
100
AcDbLine
 10
28.77130377203494
 20
-12.77159925848147
 30
0.0
 11
24.43885465448463
 21
-12.77159925848144
 31
0.0
  0
LINE
  5
4C
330
22
100
AcDbEntity
  8
0
100
AcDbLine
 10
3.599730896781125
 20
-4.771599258481472
 30
0.0
 11
2.599730896781125
 21
-4.771599258481472
 31
0.0
  0
LINE
  5
4D
330
22
100
AcDbEntity
  8
0
100
AcDbLine
 10
22.59973089678116
 20
-8.771599258481472
 30
0.0
 11
18.59973089678115
 21
-8.771599258481472
 31
0.0
  0
LINE
  5
4E
330
22
100
AcDbEntity
  8
0
100
AcDbLine
 10
22.59973089678116
 20
-5.771599258481472
 30
0.0
 11
18.59973089678115
 21
-5.771599258481472
 31
0.0
  0
LINE
  5
4F
330
22
100
AcDbEntity
  8
0
100
AcDbLine
 10
22.59973089678116
 20
-4.771599258481472
 30
0.0
 11
17.59973089678115
 21
-4.771599258481472
 31
0.0
  0
LINE
  5
50
330
22
100
AcDbEntity
  8
0
100
AcDbLine
 10
18.59973089678115
 20
-5.771599258481472
 30
0.0
 11
18.59973089678115
 21
-8.771599258481472
 31
0.0
  0
ARC
  5
51
330
22
100
AcDbEntity
  8
0
100
AcDbCircle
 10
22.59973089678116
 20
-7.271599258481472
 30
0.0
 40
1.5
100
AcDbArc
 50
270.0
 51
90.0
  0
ENDBLK
  5
52
330
22
100
AcDbEntity
  8
0
100
AcDbBlockEnd
  0
BLOCK
  5
269C
330
2692
100
AcDbEntity
  8
0
100
AcDbBlockBegin
  2
*D1
 70
     1
 10
0.0
 20
0.0
 30
0.0
  3
*D1
  1

  0
LINE
  5
2997
330
2692
100
AcDbEntity
  8
BEM
 62
     0
370
    -2
100
AcDbLine
 10
230.5049815729793
 20
324.7927760069199
 30
0.0
 11
230.5049815729793
 21
295.8196641646582
 31
0.0
  0
LINE
  5
2998
330
2692
100
AcDbEntity
  8
BEM
 62
     0
370
    -2
100
AcDbLine
 10
319.5049815729792
 20
324.7927760069206
 30
0.0
 11
319.5049815729792
 21
295.8196641646582
 31
0.0
  0
LINE
  5
2999
330
2692
100
AcDbEntity
  8
BEM
 62
     0
370
    -2
100
AcDbLine
 10
239.2549815729793
 20
298.3196641646582
 30
0.0
 11
310.7549815729792
 21
298.3196641646582
 31
0.0
  0
SOLID
  5
299A
330
2692
100
AcDbEntity
  8
BEM
 62
     0
100
AcDbTrace
 10
239.2549815729793
 20
299.7779974979914
 30
0.0
 11
239.2549815729793
 21
296.8613308313248
 31
0.0
 12
230.5049815729793
 22
298.3196641646582
 32
0.0
 13
230.5049815729793
 23
298.3196641646582
 33
0.0
  0
SOLID
  5
299B
330
2692
100
AcDbEntity
  8
BEM
 62
     0
100
AcDbTrace
 10
310.7549815729792
 20
299.7779974979914
 30
0.0
 11
310.7549815729792
 21
296.8613308313248
 31
0.0
 12
319.5049815729792
 22
298.3196641646582
 32
0.0
 13
319.5049815729792
 23
298.3196641646582
 33
0.0
  0
MTEXT
  5
299C
330
2692
100
AcDbEntity
  8
BEM
 62
     1
100
AcDbMText
 10
275.0049815729793
 20
306.4446641646581
 30
0.0
 40
8.75
 41
0.0
 71
     5
 72
     1
  1
\A1;%%C89
 73
     1
 44
1.0
  0
POINT
  5
299D
330
2692
100
AcDbEntity
  8
Defpoints
 62
     0
100
AcDbPoint
 10
230.5049815729793
 20
327.29277600692
 30
0.0
  0
POINT
  5
299E
330
2692
100
AcDbEntity
  8
Defpoints
 62
     0
100
AcDbPoint
 10
319.5049815729792
 20
327.2927760069206
 30
0.0
  0
POINT
  5
299F
330
2692
100
AcDbEntity
  8
Defpoints
 62
     0
100
AcDbPoint
 10
319.5049815729792
 20
298.3196641646582
 30
0.0
  0
ENDBLK
  5
269D
330
2692
100
AcDbEntity
  8
0
100
AcDbBlockEnd
  0
BLOCK
  5
26FD
330
26F3
100
AcDbEntity
  8
0
100
AcDbBlockBegin
  2
*D2
 70
     1
 10
0.0
 20
0.0
 30
0.0
  3
*D2
  1

  0
LINE
  5
29E8
330
26F3
100
AcDbEntity
  8
BEM
 62
     0
370
    -2
100
AcDbLine
 10
291.6665159878732
 20
598.5271781461408
 30
0.0
 11
299.5318040028778
 21
612.1502566042908
 31
0.0
  0
LINE
  5
29E9
330
26F3
100
AcDbEntity
  8
BEM
 62
     0
370
    -2
100
AcDbLine
 10
406.8478946912035
 20
532.0271781461407
 30
0.0
 11
414.7131827062073
 21
545.6502566042894
 31
0.0
  0
LINE
  5
29EA
330
26F3
100
AcDbEntity
  8
BEM
 62
     0
370
    -2
100
AcDbLine
 10
305.8595262859916
 20
605.6101930948297
 30
0.0
 11
405.8854604230935
 21
547.8601930948284
 31
0.0
  0
SOLID
  5
29EB
330
26F3
100
AcDbEntity
  8
BEM
 62
     0
100
AcDbTrace
 10
306.5886929526582
 20
606.8731468086821
 30
0.0
 11
305.1303596193248
 21
604.3472393809773
 31
0.0
 12
298.2818040028778
 22
609.9851930948299
 32
0.0
 13
298.2818040028778
 23
609.9851930948299
 33
0.0
  0
SOLID
  5
29EC
330
26F3
100
AcDbEntity
  8
BEM
 62
     0
100
AcDbTrace
 10
406.6146270897602
 20
549.1231468086807
 30
0.0
 11
405.1562937564268
 21
546.5972393809761
 31
0.0
 12
413.4631827062073
 22
543.4851930948284
 32
0.0
 13
413.4631827062073
 23
543.4851930948284
 33
0.0
  0
MTEXT
  5
29ED
330
26F3
100
AcDbEntity
  8
BEM
 62
     1
100
AcDbMText
 10
359.9349933545426
 20
583.7716495005776
 30
0.0
 40
8.75
 41
0.0
 71
     5
 72
     1
  1
\A1;%%c133
 11
0.8660254037844325
 21
-0.5000000000000111
 31
0.0
 73
     1
 44
1.0
  0
POINT
  5
29EE
330
26F3
100
AcDbEntity
  8
Defpoints
 62
     0
100
AcDbPoint
 10
290.4165159878732
 20
596.3621146366797
 30
0.0
  0
POINT
  5
29EF
330
26F3
100
AcDbEntity
  8
Defpoints
 62
     0
100
AcDbPoint
 10
405.5978946912035
 20
529.8621146366797
 30
0.0
  0
POINT
  5
29F0
330
26F3
100
AcDbEntity
  8
Defpoints
 62
     0
100
AcDbPoint
 10
413.4631827062073
 20
543.4851930948284
 30
0.0
  0
ENDBLK
  5
26FE
330
26F3
100
AcDbEntity
  8
0
100
AcDbBlockEnd
  0
BLOCK
  5
27F2
330
27E8
100
AcDbEntity
  8
0
100
AcDbBlockBegin
  2
*D3
 70
     1
 10
0.0
 20
0.0
 30
0.0
  3
*D3
  1

  0
LINE
  5
29DF
330
27E8
100
AcDbEntity
  8
BEM
 62
     0
370
    -2
100
AcDbLine
 10
272.5049815729792
 20
436.6685540074867
 30
0.0
 11
165.7882472389917
 21
436.6685540074867
 31
0.0
  0
LINE
  5
29E0
330
27E8
100
AcDbEntity
  8
BEM
 62
     0
370
    -2
100
AcDbLine
 10
229.0548455352904
 20
320.6641064743686
 30
0.0
 11
165.7882472389917
 21
320.6641064743686
 31
0.0
  0
LINE
  5
29E1
330
27E8
100
AcDbEntity
  8
BEM
 62
     0
370
    -2
100
AcDbLine
 10
168.2882472389917
 20
427.9185540074868
 30
0.0
 11
168.2882472389917
 21
329.4141064743686
 31
0.0
  0
SOLID
  5
29E2
330
27E8
100
AcDbEntity
  8
BEM
 62
     0
100
AcDbTrace
 10
166.8299139056584
 20
427.9185540074868
 30
0.0
 11
169.7465805723251
 21
427.9185540074868
 31
0.0
 12
168.2882472389917
 22
436.6685540074867
 32
0.0
 13
168.2882472389917
 23
436.6685540074867
 33
0.0
  0
SOLID
  5
29E3
330
27E8
100
AcDbEntity
  8
BEM
 62
     0
100
AcDbTrace
 10
166.8299139056584
 20
329.4141064743686
 30
0.0
 11
169.7465805723251
 21
329.4141064743686
 31
0.0
 12
168.2882472389917
 22
320.6641064743686
 32
0.0
 13
168.2882472389917
 23
320.6641064743686
 33
0.0
  0
MTEXT
  5
29E4
330
27E8
100
AcDbEntity
  8
BEM
 62
     1
100
AcDbMText
 10
160.1632472389917
 20
378.6663302409278
 30
0.0
 40
8.75
 41
0.0
 71
     5
 72
     1
  1
\A1;116
 11
0.0000000000000001
 21
1.0
 31
0.0
 73
     1
 44
1.0
  0
POINT
  5
29E5
330
27E8
100
AcDbEntity
  8
Defpoints
 62
     0
100
AcDbPoint
 10
275.0049815729792
 20
436.6685540074867
 30
0.0
  0
POINT
  5
29E6
330
27E8
100
AcDbEntity
  8
Defpoints
 62
     0
100
AcDbPoint
 10
231.5548455352904
 20
320.6641064743686
 30
0.0
  0
POINT
  5
29E7
330
27E8
100
AcDbEntity
  8
Defpoints
 62
     0
100
AcDbPoint
 10
168.2882472389917
 20
320.6641064743686
 30
0.0
  0
ENDBLK
  5
27F3
330
27E8
100
AcDbEntity
  8
0
100
AcDbBlockEnd
  0
BLOCK
  5
27FF
330
27F5
100
AcDbEntity
  8
0
100
AcDbBlockBegin
  2
*D4
 70
     1
 10
0.0
 20
0.0
 30
0.0
  3
*D4
  1

  0
LINE
  5
29D6
330
27F5
100
AcDbEntity
  8
BEM
 62
     0
370
    -2
100
AcDbLine
 10
206.0049815729792
 20
370.6641064743686
 30
0.0
 11
188.5099185434715
 21
370.6641064743686
 31
0.0
  0
LINE
  5
29D7
330
27F5
100
AcDbEntity
  8
BEM
 62
     0
370
    -2
100
AcDbLine
 10
229.0548455352904
 20
320.6641064743686
 30
0.0
 11
188.5099185434715
 21
320.6641064743686
 31
0.0
  0
LINE
  5
29D8
330
27F5
100
AcDbEntity
  8
BEM
 62
     0
370
    -2
100
AcDbLine
 10
191.0099185434715
 20
361.9141064743686
 30
0.0
 11
191.0099185434715
 21
329.4141064743686
 31
0.0
  0
SOLID
  5
29D9
330
27F5
100
AcDbEntity
  8
BEM
 62
     0
100
AcDbTrace
 10
189.5515852101381
 20
361.9141064743686
 30
0.0
 11
192.4682518768048
 21
361.9141064743686
 31
0.0
 12
191.0099185434715
 22
370.6641064743686
 32
0.0
 13
191.0099185434715
 23
370.6641064743686
 33
0.0
  0
SOLID
  5
29DA
330
27F5
100
AcDbEntity
  8
BEM
 62
     0
100
AcDbTrace
 10
189.5515852101381
 20
329.4141064743686
 30
0.0
 11
192.4682518768048
 21
329.4141064743686
 31
0.0
 12
191.0099185434715
 22
320.6641064743686
 32
0.0
 13
191.0099185434715
 23
320.6641064743686
 33
0.0
  0
MTEXT
  5
29DB
330
27F5
100
AcDbEntity
  8
BEM
 62
     1
100
AcDbMText
 10
182.8849185434714
 20
345.6641064743686
 30
0.0
 40
8.75
 41
0.0
 71
     5
 72
     1
  1
\A1;50
 11
0.0000000000000001
 21
1.0
 31
0.0
 73
     1
 44
1.0
  0
POINT
  5
29DC
330
27F5
100
AcDbEntity
  8
Defpoints
 62
     0
100
AcDbPoint
 10
208.5049815729792
 20
370.6641064743686
 30
0.0
  0
POINT
  5
29DD
330
27F5
100
AcDbEntity
  8
Defpoints
 62
     0
100
AcDbPoint
 10
231.5548455352904
 20
320.6641064743686
 30
0.0
  0
POINT
  5
29DE
330
27F5
100
AcDbEntity
  8
Defpoints
 62
     0
100
AcDbPoint
 10
191.0099185434715
 20
320.6641064743686
 30
0.0
  0
ENDBLK
  5
2800
330
27F5
100
AcDbEntity
  8
0
100
AcDbBlockEnd
  0
BLOCK
  5
280C
330
2802
100
AcDbEntity
  8
0
100
AcDbBlockBegin
  2
*D5
 70
     1
 10
0.0
 20
0.0
 30
0.0
  3
*D5
  1

  0
LINE
  5
29F1
330
2802
100
AcDbEntity
  8
BEM
 62
     0
370
    -2
100
AcDbLine
 10
272.8399180635181
 20
437.9185540074868
 30
0.0
 11
183.0740232113419
 21
489.7449175644383
 31
0.0
  0
LINE
  5
29F2
330
2802
100
AcDbEntity
  8
BEM
 62
     0
370
    -2
100
AcDbLine
 10
288.2514524784119
 20
597.61211463668
 30
0.0
 11
256.0762469779012
 21
616.1884781936314
 31
0.0
  0
LINE
  5
29F3
330
2802
100
AcDbEntity
  8
BEM
 62
     0
370
    -2
100
AcDbLine
 10
189.614086720803
 20
496.0726398475522
 30
0.0
 11
253.8663104873623
 21
607.3607559105176
 31
0.0
  0
SOLID
  5
29F4
330
2802
100
AcDbEntity
  8
BEM
 62
     0
100
AcDbTrace
 10
188.3511330069507
 20
496.8018065142188
 30
0.0
 11
190.8770404346553
 21
495.3434731808855
 31
0.0
 12
185.239086720803
 22
488.4949175644383
 32
0.0
 13
185.239086720803
 23
488.4949175644383
 33
0.0
  0
SOLID
  5
29F5
330
2802
100
AcDbEntity
  8
BEM
 62
     0
100
AcDbTrace
 10
252.60335677351
 20
608.0899225771842
 30
0.0
 11
255.1292642012146
 21
606.631589243851
 31
0.0
 12
258.2413104873623
 22
614.9384781936314
 32
0.0
 13
258.2413104873623
 23
614.9384781936314
 33
0.0
  0
MTEXT
  5
29F6
330
2802
100
AcDbEntity
  8
BEM
 62
     1
100
AcDbMText
 10
214.7037421983341
 20
555.7791978790349
 30
0.0
 40
8.75
 41
0.0
 71
     5
 72
     1
  1
\A1;146
 11
0.4999999999999993
 21
0.866025403784439
 31
0.0
 73
     1
 44
1.0
  0
POINT
  5
29F7
330
2802
100
AcDbEntity
  8
Defpoints
 62
     0
100
AcDbPoint
 10
275.0049815729792
 20
436.6685540074867
 30
0.0
  0
POINT
  5
29F8
330
2802
100
AcDbEntity
  8
Defpoints
 62
     0
100
AcDbPoint
 10
290.416515987873
 20
596.3621146366801
 30
0.0
  0
POINT
  5
29F9
330
2802
100
AcDbEntity
  8
Defpoints
 62
     0
100
AcDbPoint
 10
258.2413104873623
 20
614.9384781936314
 30
0.0
  0
ENDBLK
  5
280D
330
2802
100
AcDbEntity
  8
0
100
AcDbBlockEnd
  0
ENDSEC
  0
SECTION
  2
ENTITIES
  0
LINE
  5
57
330
1E
100
AcDbEntity
  8
STEMPEL
100
AcDbLine
 10
512.5
 20
137.5
 30
0.0
 11
49.99999999999996
 21
137.5
 31
0.0
  0
LINE
  5
58
330
1E
100
AcDbEntity
  8
STEMPEL
100
AcDbLine
 10
182.5000000000001
 20
137.4999999999999
 30
0.0
 11
182.5
 21
12.49999999999996
 31
0.0
  0
LINE
  5
59
330
1E
100
AcDbEntity
  8
STEMPEL
100
AcDbLine
 10
287.5
 20
137.5
 30
0.0
 11
287.5
 21
12.49999999999996
 31
0.0
  0
LINE
  5
5A
330
1E
100
AcDbEntity
  8
STEMPEL
100
AcDbLine
 10
415.0
 20
137.4999999999997
 30
0.0
 11
415.0
 21
50.0
 31
0.0
  0
LINE
  5
5B
330
1E
100
AcDbEntity
  8
STEMPEL
100
AcDbLine
 10
182.4999999999998
 20
37.49999999999996
 30
0.0
 11
49.99999999999996
 21
37.49999999999996
 31
0.0
  0
LINE
  5
5C
330
1E
100
AcDbEntity
  8
STEMPEL
100
AcDbLine
 10
512.5
 20
50.0
 30
0.0
 11
182.5000000000001
 21
49.99999999999996
 31
0.0
  0
LINE
  5
5D
330
1E
100
AcDbEntity
  8
STEMPEL
100
AcDbLine
 10
512.5
 20
100.0
 30
0.0
 11
182.5000000000001
 21
99.99999999999992
 31
0.0
  0
LINE
  5
5E
330
1E
100
AcDbEntity
  8
VOLL
100
AcDbLine
 10
67.50000000000011
 20
137.5
 30
0.0
 11
67.49999999999997
 21
12.49999999999996
 31
0.0
  0
LINE
  5
5F
330
1E
100
AcDbEntity
  8
VOLL
100
AcDbLine
 10
130.0000000000001
 20
137.4999999999999
 30
0.0
 11
130.0
 21
12.49999999999996
 31
0.0
  0
LINE
  5
60
330
1E
100
AcDbEntity
  8
VOLL
100
AcDbLine
 10
155.0000000000001
 20
137.4999999999999
 30
0.0
 11
155.0
 21
12.49999999999996
 31
0.0
  0
LINE
  5
61
330
1E
100
AcDbEntity
  8
VOLL
100
AcDbLine
 10
205.0000000000002
 20
99.99999999999992
 30
0.0
 11
205.0000000000002
 21
49.99999999999996
 31
0.0
  0
LINE
  5
62
330
1E
100
AcDbEntity
  8
VOLL
100
AcDbLine
 10
237.5000000000001
 20
137.4999999999998
 30
0.0
 11
237.5
 21
49.99999999999996
 31
0.0
  0
LINE
  5
63
330
1E
100
AcDbEntity
  8
HILF
100
AcDbLine
 10
50.0000000000001
 20
125.0
 30
0.0
 11
182.5000000000001
 21
125.0
 31
0.0
  0
LINE
  5
64
330
1E
100
AcDbEntity
  8
HILF
100
AcDbLine
 10
50.0000000000001
 20
112.5
 30
0.0
 11
182.5000000000001
 21
112.5
 31
0.0
  0
LINE
  5
65
330
1E
100
AcDbEntity
  8
HILF
100
AcDbLine
 10
50.0000000000001
 20
99.99999999999992
 30
0.0
 11
182.5000000000001
 21
99.99999999999992
 31
0.0
  0
LINE
  5
66
330
1E
100
AcDbEntity
  8
HILF
100
AcDbLine
 10
50.0000000000001
 20
87.49999999999992
 30
0.0
 11
182.5000000000001
 21
87.49999999999992
 31
0.0
  0
LINE
  5
67
330
1E
100
AcDbEntity
  8
HILF
100
AcDbLine
 10
50.0000000000001
 20
74.99999999999997
 30
0.0
 11
182.5000000000001
 21
74.99999999999997
 31
0.0
  0
LINE
  5
68
330
1E
100
AcDbEntity
  8
HILF
100
AcDbLine
 10
50.0000000000001
 20
62.49999999999996
 30
0.0
 11
182.5000000000001
 21
62.49999999999996
 31
0.0
  0
LINE
  5
69
330
1E
100
AcDbEntity
  8
HILF
100
AcDbLine
 10
50.0000000000001
 20
49.99999999999996
 30
0.0
 11
182.5000000000001
 21
49.99999999999996
 31
0.0
  0
LINE
  5
6A
330
1E
100
AcDbEntity
  8
HILF
100
AcDbLine
 10
182.5000000000001
 20
87.49999999999992
 30
0.0
 11
287.5
 21
87.49999999999992
 31
0.0
  0
LINE
  5
6B
330
1E
100
AcDbEntity
  8
HILF
100
AcDbLine
 10
182.5000000000001
 20
74.99999999999997
 30
0.0
 11
287.5
 21
74.99999999999997
 31
0.0
  0
LINE
  5
6C
330
1E
100
AcDbEntity
  8
HILF
100
AcDbLine
 10
182.5000000000001
 20
62.49999999999996
 30
0.0
 11
287.5
 21
62.49999999999996
 31
0.0
  0
LINE
  5
6D
330
1E
100
AcDbEntity
  8
HILF
100
AcDbLine
 10
293.4671001371185
 20
105.0469780945517
 30
0.0
 11
406.0442395695388
 21
105.0469780945517
 31
0.0
  0
LINE
  5
6E
330
1E
100
AcDbEntity
  8
HILF
100
AcDbLine
 10
293.4671001371185
 20
87.49999999999992
 30
0.0
 11
406.0442395695387
 21
87.49999999999992
 31
0.0
  0
LINE
  5
6F
330
1E
100
AcDbEntity
  8
HILF
100
AcDbLine
 10
293.4671001371185
 20
74.99999999999997
 30
0.0
 11
406.0442395695387
 21
74.99999999999997
 31
0.0
  0
LINE
  5
70
330
1E
100
AcDbEntity
  8
HILF
100
AcDbLine
 10
293.4671001371185
 20
62.49999999999996
 30
0.0
 11
406.0442395695387
 21
62.49999999999996
 31
0.0
  0
LINE
  5
71
330
1E
100
AcDbEntity
  8
VOLL
100
AcDbLine
 10
415.0
 20
75.0
 30
0.0
 11
512.5
 21
75.0
 31
0.0
  0
LINE
  5
72
330
1E
100
AcDbEntity
  8
HILF
100
AcDbLine
 10
420.9048270371241
 20
104.7247954619478
 30
0.0
 11
506.073604915841
 21
104.7247954619478
 31
0.0
  0
LINE
  5
73
330
1E
100
AcDbEntity
  8
HILF
100
AcDbLine
 10
291.8637124112356
 20
18.61747822535392
 30
0.0
 11
506.073604915841
 21
18.61747822535392
 31
0.0
  0
TEXT
  5
74
330
1E
100
AcDbEntity
  8
TEXT
100
AcDbText
 10
84.74387371862629
 20
23.34227368730165
 30
0.0
 40
5.0
  1
Änderung
 41
0.8
  7
GREEKS
 72
     1
 11
98.17244514719773
 21
23.34227368730165
 31
0.0
100
AcDbText
  0
TEXT
  5
75
330
1E
100
AcDbEntity
  8
TEXT
100
AcDbText
 10
191.8954465187971
 20
128.0776118858861
 30
0.0
 40
6.25
  1
Maßstab
 41
0.8
  7
GREEKS
100
AcDbText
  0
TEXT
  5
76
330
1E
100
AcDbEntity
  8
TEXT
100
AcDbText
 10
242.8573693417564
 20
128.0230210543524
 30
0.0
 40
6.25
  1
Zul. Abw.
 41
0.8
  7
GREEKS
100
AcDbText
  0
TEXT
  5
77
330
1E
100
AcDbEntity
  8
TEXT
100
AcDbText
 10
293.5974254761262
 20
128.1861660014724
 30
0.0
 40
6.25
  1
Benennung
 41
0.8
  7
GREEKS
100
AcDbText
  0
TEXT
  5
78
330
1E
100
AcDbEntity
  8
TEXT
100
AcDbText
 10
420.2234436970425
 20
127.891504317142
 30
0.0
 40
6.25
  1
Zeichnungs Nr.
 41
0.8
  7
GREEKS
100
AcDbText
  0
TEXT
  5
79
330
1E
100
AcDbEntity
  8
TEXT
100
AcDbText
 10
293.42779798892
 20
38.55700712741321
 30
0.0
 40
6.25
  1
Bauvorhaben
 41
0.8
  7
GREEKS
100
AcDbText
  0
TEXT
  5
7A
330
1E
100
AcDbEntity
  8
TEXT
100
AcDbText
 10
420.9048270371241
 20
91.47647796374961
 30
0.0
 40
6.25
  1
Ersatz für:
 41
0.8
  7
GREEKS
100
AcDbText
  0
TEXT
  5
7B
330
1E
100
AcDbEntity
  8
TEXT
100
AcDbText
 10
60.33301383807195
 20
17.06832307533989
 30
0.0
 40
5.0
  1
Index
 50
90.0
 41
0.8
  7
GREEKS
100
AcDbText
  0
TEXT
  5
7C
330
1E
100
AcDbEntity
  8
TEXT
100
AcDbText
 10
138.3732649044237
 20
23.33945336674763
 30
0.0
 40
5.0
  1
Tag
 41
0.8
  7
GREEKS
 72
     1
 11
143.0399315710903
 21
23.33945336674763
 31
0.0
100
AcDbText
  0
TEXT
  5
7D
330
1E
100
AcDbEntity
  8
TEXT
100
AcDbText
 10
161.2653430483241
 20
23.2415527120801
 30
0.0
 40
5.0
  1
Name
 41
0.8
  7
GREEKS
 72
     1
 11
169.170104953086
 21
23.2415527120801
 31
0.0
100
AcDbText
  0
TEXT
  5
7E
330
1E
100
AcDbEntity
  8
TEXT
100
AcDbText
 10
215.4139591442064
 20
91.64850626537408
 30
0.0
 40
5.0
  1
Tag
 41
0.8
  7
GREEKS
100
AcDbText
  0
TEXT
  5
7F
330
1E
100
AcDbEntity
  8
TEXT
100
AcDbText
 10
253.0783230282869
 20
91.63701364894031
 30
0.0
 40
5.0
  1
Name
 41
0.8
  7
GREEKS
100
AcDbText
  0
TEXT
  5
80
330
1E
100
AcDbEntity
  8
TEXT
100
AcDbText
 10
184.4795158959519
 20
79.53737962022455
 30
0.0
 40
5.0
  1
Gez.
 41
0.8
  7
GREEKS
100
AcDbText
  0
TEXT
  5
81
330
1E
100
AcDbEntity
  8
TEXT
100
AcDbText
 10
184.439385821459
 20
67.11157864285471
 30
0.0
 40
5.0
  1
Gepr.
 41
0.8
  7
GREEKS
100
AcDbText
  0
TEXT
  5
82
330
1E
100
AcDbEntity
  8
TEXT
100
AcDbText
 10
184.5008471734129
 20
54.41182987062259
 30
0.0
 40
5.0
  1
Norm.
 41
0.8
  7
GREEKS
100
AcDbText
  0
LINE
  5
83
330
1E
100
AcDbEntity
  8
STEMPEL
100
AcDbLine
 10
62.49999999999985
 20
12.5
 30
0.0
 11
512.5
 21
12.5
 31
0.0
  0
TEXT
  5
84
330
1E
100
AcDbEntity
  8
TEXT
100
AcDbText
 10
421.5501076871257
 20
65.09270222348252
 30
0.0
 40
6.25
  1
ersetzt durch:
 41
0.8
  7
GREEKS
100
AcDbText
  0
LINE
  5
85
330
1E
100
AcDbEntity
  8
STEMPEL
100
AcDbLine
 10
512.5
 20
12.5
 30
0.0
 11
49.99999999999985
 21
12.5
 31
0.0
  0
LINE
  5
86
330
1E
100
AcDbEntity
  8
STEMPEL
100
AcDbLine
 10
512.5
 20
12.5
 30
0.0
 11
512.5
 21
730.0
 31
0.0
  0
LINE
  5
87
330
1E
100
AcDbEntity
  8
STEMPEL
100
AcDbLine
 10
50.0
 20
12.5
 30
0.0
 11
49.99999999999985
 21
730.0
 31
0.0
  0
LINE
  5
88
330
1E
100
AcDbEntity
  8
STEMPEL
100
AcDbLine
 10
512.5
 20
730.0
 30
0.0
 11
49.99999999999985
 21
730.0
 31
0.0
  0
LINE
  5
89
330
1E
100
AcDbEntity
  8
HILF
100
AcDbLine
 10
0.0
 20
0.0
 30
0.0
 11
-0.0000000000001421
 21
742.4999999999999
 31
0.0
  0
LINE
  5
8A
330
1E
100
AcDbEntity
  8
HILF
100
AcDbLine
 10
524.9999999999999
 20
742.5000000000002
 30
0.0
 11
0.0
 21
742.4999999999999
 31
0.0
  0
LINE
  5
8B
330
1E
100
AcDbEntity
  8
HILF
100
AcDbLine
 10
525.0
 20
0.0
 30
0.0
 11
0.0
 21
0.0
 31
0.0
  0
LINE
  5
8C
330
1E
100
AcDbEntity
  8
HILF
100
AcDbLine
 10
38.8595891964232
 20
371.2500000000001
 30
0.0
 11
0.0000000000001421
 21
371.2500000000001
 31
0.0
  0
LINE
  5
8E
330
1E
100
AcDbEntity
  8
HILF
100
AcDbLine
 10
525.0
 20
-0.0000000000001421
 30
0.0
 11
524.9999999999999
 21
742.4999999999999
 31
0.0
  0
TEXT
  5
8F
330
1E
100
AcDbEntity
  8
VOLL
100
AcDbText
 10
78.07675471698113
 20
31.02594776470585
 30
0.0
 40
1.8
  1

  7
GREEKS
100
AcDbText
  0
TEXT
  5
90
330
1E
100
AcDbEntity
  8
TEXT
100
AcDbText
 10
52.31887438722093
 20
139.5899999999999
 30
0.0
 40
6.25
  1
Erstellt mit AUTOCAD 2004
 41
0.8
  7
GREEKS
100
AcDbText
  0
TEXT
  5
91
330
1E
100
AcDbEntity
  8
TEXT
100
AcDbText
 10
255.5270060726571
 20
78.86204899654387
 30
0.0
 40
5.0
  1
Koeh
 41
0.8
  7
GREEKS
 72
     1
 11
262.0984346440857
 21
78.86204899654387
 31
0.0
100
AcDbText
  0
TEXT
  5
92
330
1E
100
AcDbEntity
  8
TEXT
 62
     1
100
AcDbText
 10
433.4705259188434
 20
110.1862678614245
 30
0.0
 40
8.75
  1
58033080W
 41
0.8
  7
GREEKS
 72
     1
 11
463.4705259188434
 21
110.1862678614245
 31
0.0
100
AcDbText
  0
TEXT
  5
93
330
1E
100
AcDbEntity
  8
TEXT
 62
     1
100
AcDbText
 10
200.6257883102358
 20
110.1862678614245
 30
0.0
 40
8.75
  1
1:2.5
 41
0.8
  7
GREEKS
100
AcDbText
  0
TEXT
  5
95
330
1E
100
AcDbEntity
  8
TEXT
 62
     1
100
AcDbText
 10
296.1169663821753
 20
109.2718598656722
 30
0.0
 40
8.75
  1
Verbundrohr DN80
 41
0.8
  7
GREEKS
100
AcDbText
  0
TEXT
  5
98
330
1E
100
AcDbEntity
  8
TEXT
100
AcDbText
 10
293.9120488906644
 20
64.55014928802699
 30
0.0
 40
6.25
  1
EDV-Art.Nr. 58033.080X
 41
0.8
  7
GREEKS
100
AcDbText
  0
TEXT
  5
99
330
1E
100
AcDbEntity
  8
TEXT
100
AcDbText
 10
293.7296876972284
 20
53.28717691278291
 30
0.0
 40
5.0
  1
58033080W.DWG
 41
0.8
  7
GREEKS
100
AcDbText
  0
TEXT
  5
9A
330
1E
100
AcDbEntity
  8
TEXT
100
AcDbText
 10
240.782665260105
 20
113.4545480127878
 30
0.0
 40
5.0
  1
DIN EN1123-2
 41
0.8
  7
GREEKS
 72
     1
 11
262.0207604982003
 21
113.4545480127878
 31
0.0
100
AcDbText
  0
INSERT
  5
9B
330
1E
100
AcDbEntity
  8
STEMPEL
100
AcDbBlockReference
  2
LOGO
 10
188.7444356822243
 20
56.27631595560402
 30
0.0
 41
2.5
 42
2.5
 43
2.5
  0
TEXT
  5
2C0
330
1E
100
AcDbEntity
  8
BEM
100
AcDbText
 10
521.6278654821457
 20
12.70987634998576
 30
0.0
 40
5.0
  1
Diese Zeichnung ist urheberrechtlich geschützt und bleibt unser Eigentum. Sie darf weder ganz noch teilweise verfielfältigt und nicht an Dritte weitergegeben werden.
 50
90.0
 41
0.8
  7
GREEKS
100
AcDbText
  0
TEXT
  5
77A
330
1E
100
AcDbEntity
  8
TEXT
100
AcDbText
 10
293.9120488906644
 20
89.55014928802695
 30
0.0
 40
6.25
  1
Bogen 30°
 41
0.8
  7
GREEKS
100
AcDbText
  0
TEXT
  5
78C
330
1E
100
AcDbEntity
  8
TEXT
 62
     1
100
AcDbText
 10
318.7876613940725
 20
162.1777724661328
 30
0.0
 40
8.75
  1
und innenbeschichtet
 41
0.8
  7
GREEKS
100
AcDbText
  0
TEXT
  5
78D
330
1E
100
AcDbEntity
  8
TEXT
 62
     1
100
AcDbText
 10
253.7590621666965
 20
146.8247093859629
 30
0.0
 40
8.75
  1
Dämmung: 2 K-PU-Schaum
 41
0.8
  7
GREEKS
100
AcDbText
  0
TEXT
  5
78E
330
1E
100
AcDbEntity
  8
TEXT
 62
     1
100
AcDbText
 10
259.2195002990553
 20
176.264089765165
 30
0.0
 40
8.75
  1
Innenrohr: E195 EN10305 feuerverzinkt
 41
0.8
  7
GREEKS
100
AcDbText
  0
TEXT
  5
78F
330
1E
100
AcDbEntity
  8
TEXT
 62
     1
100
AcDbText
 10
254.5042285854753
 20
190.4554248106087
 30
0.0
 40
8.75
  1
Außenrohr: E195 EN10305 feuerverzinkt
 41
0.8
  7
GREEKS
100
AcDbText
  0
TEXT
  5
188F
330
1E
100
AcDbEntity
  8
TEXT
 62
     1
100
AcDbText
 10
335.2638862967839
 20
327.3807153931575
 30
0.0
 40
8.75
  1
Rohrende leicht eingezogen
 41
0.8
  7
GREEKS
100
AcDbText
  0
ARC
  5
25DE
102
{ACAD_REACTORS
330
2899
102
}
330
1E
100
AcDbEntity
  8
STEMPEL
100
AcDbCircle
 10
408.5049815729791
 20
400.897336817932
 30
0.0
 40
89.0
100
AcDbArc
 50
149.9999999999996
 51
180.0
  0
ARC
  5
25DF
102
{ACAD_REACTORS
330
2899
102
}
330
1E
100
AcDbEntity
  8
STEMPEL
100
AcDbCircle
 10
408.5049815729791
 20
400.897336817932
 30
0.0
 40
178.0
100
AcDbArc
 50
150.0000000000003
 51
180.0
  0
TEXT
  5
25E0
330
1E
100
AcDbEntity
  8
VOLL
100
AcDbText
 10
325.3080286763315
 20
546.5971442795846
 30
0.0
 40
7.0
  1
DN80
 50
59.99999999999946
 41
0.8
  7
GREEKS
100
AcDbText
  0
ARC
  5
25E1
330
1E
100
AcDbEntity
  8
MITTEL
100
AcDbCircle
 10
408.5049815729791
 20
400.897336817932
 30
0.0
 40
133.5
100
AcDbArc
 50
149.9999999999994
 51
180.0
  0
LINE
  5
25E5
330
1E
100
AcDbEntity
  8
MITTEL
100
AcDbLine
 10
275.0049815729792
 20
436.6685540074867
 30
0.0
 11
275.0049815729792
 21
315.6641064743685
 31
0.0
  0
LINE
  5
25FD
330
1E
100
AcDbEntity
  8
MITTEL
100
AcDbLine
 10
350.5072053395385
 20
567.442241655602
 30
0.0
 11
275.0049815729792
 21
436.6685540074867
 31
0.0
  0
LINE
  5
2669
102
{ACAD_REACTORS
330
28AD
102
}
330
1E
100
AcDbEntity
  8
STEMPEL
100
AcDbLine
 10
339.0049815729792
 20
419.5198056918949
 30
0.0
 11
339.0049815729792
 21
370.6641064743686
 31
0.0
  0
LINE
  5
266A
102
{ACAD_REACTORS
330
2858
330
28AD
102
}
330
1E
100
AcDbEntity
  8
STEMPEL
100
AcDbLine
 10
341.5049815729792
 20
418.8499327108168
 30
0.0
 11
341.5049815729791
 21
368.6641064743686
 31
0.0
  0
LINE
  5
266C
330
1E
100
AcDbEntity
  8
STEMPEL
100
AcDbLine
 10
336.4462492611112
 20
386.6641064743686
 30
0.0
 11
319.5049815729792
 21
386.6641064743686
 31
0.0
  0
LINE
  5
266D
102
{ACAD_REACTORS
330
28AD
102
}
330
1E
100
AcDbEntity
  8
STEMPEL
100
AcDbLine
 10
341.5049815729792
 20
370.6641064743686
 30
0.0
 11
339.0049815729792
 21
370.6641064743686
 31
0.0
  0
LINE
  5
266E
330
1E
100
AcDbEntity
  8
STEMPEL
100
AcDbLine
 10
338.5160482545164
 20
384.6653248203304
 30
0.0
 11
336.4462492611112
 21
386.6641064743686
 31
0.0
  0
LINE
  5
266F
330
1E
100
AcDbEntity
  8
STEMPEL
100
AcDbLine
 10
339.0049815729792
 20
370.6641064743686
 30
0.0
 11
338.5160482545164
 21
384.6653248203304
 31
0.0
  0
LINE
  5
2670
330
1E
100
AcDbEntity
  8
STEMPEL
100
AcDbLine
 10
324.0049815729792
 20
376.6641064743686
 30
0.0
 11
319.504981572979
 21
376.6641064743686
 31
0.0
  0
LINE
  5
2671
102
{ACAD_REACTORS
330
2899
102
}
330
1E
100
AcDbEntity
  8
STEMPEL
100
AcDbLine
 10
319.5049815729792
 20
400.897336817932
 30
0.0
 11
319.5049815729792
 21
327.2927760069206
 31
0.0
  0
LINE
  5
2672
102
{ACAD_REACTORS
330
2899
102
}
330
1E
100
AcDbEntity
  8
STEMPEL
100
AcDbLine
 10
317.9049815729792
 20
400.897336817932
 30
0.0
 11
317.9049815729793
 21
327.4186970613777
 31
0.0
  0
LINE
  5
2673
102
{ACAD_REACTORS
330
2899
102
}
330
1E
100
AcDbEntity
  8
STEMPEL
100
AcDbLine
 10
317.9049815729793
 20
327.4186970613777
 30
0.0
 11
316.8351739437647
 21
320.6641064743686
 31
0.0
  0
LINE
  5
2674
102
{ACAD_REACTORS
330
2899
102
}
330
1E
100
AcDbEntity
  8
STEMPEL
100
AcDbLine
 10
319.5049815729792
 20
327.2927760069206
 30
0.0
 11
318.455117610668
 21
320.6641064743686
 31
0.0
  0
DIMENSION
  5
2675
330
1E
100
AcDbEntity
  8
BEM
100
AcDbDimension
  2
*D1
 10
319.5049815729792
 20
298.3196641646582
 30
0.0
 11
275.0049815729793
 21
306.4446641646581
 31
0.0
 70
    32
  1
%%C<>
 71
     5
 42
88.99999999999989
  3
Standard
100
AcDbAlignedDimension
 13
230.5049815729793
 23
327.29277600692
 33
0.0
 14
319.5049815729792
 24
327.2927760069206
 34
0.0
 50
180.0
100
AcDbRotatedDimension
1001
ACAD
1000
DSTYLE
1002
{
1070
    40
1040
2.5
1070
    41
1040
3.5
1070
    42
1040
1.0
1070
    43
1040
7.0
1070
    44
1040
1.0
1070
    73
1070
     0
1070
    74
1070
     0
1070
    77
1070
     1
1070
    78
1070
     8
1070
    79
1070
     2
1070
   140
1040
3.5
1070
   141
1040
1.5
1070
   146
1040
0.5142857142857144
1070
   147
1040
1.5
1070
   172
1070
     1
1070
   178
1070
     1
1070
   179
1070
     2
1070
   271
1070
     2
1070
   272
1070
     2
1070
   284
1070
     8
1070
   285
1070
     8
1070
   286
1070
     8
1002
}
  0
LINE
  5
2676
102
{ACAD_REACTORS
330
2899
102
}
330
1E
100
AcDbEntity
  8
STEMPEL
100
AcDbLine
 10
318.455117610668
 20
320.6641064743686
 30
0.0
 11
231.5548455352904
 21
320.6641064743686
 31
0.0
  0
POINT
  5
2677
330
1E
100
AcDbEntity
  8
STEMPEL
100
AcDbPoint
 10
318.4551176106682
 20
320.6641064743686
 30
0.0
  0
LINE
  5
2678
330
1E
100
AcDbEntity
  8
HILF
100
AcDbLine
 10
316.2650942391722
 20
327.2927760069198
 30
0.0
 11
233.7448689067863
 21
327.2927760069198
 31
0.0
  0
LINE
  5
2679
102
{ACAD_REACTORS
330
2899
102
}
330
1E
100
AcDbEntity
  8
STEMPEL
100
AcDbLine
 10
232.1049815729793
 20
327.418697061377
 30
0.0
 11
233.174789202194
 21
320.6641064743686
 31
0.0
  0
LINE
  5
267A
102
{ACAD_REACTORS
330
2899
102
}
330
1E
100
AcDbEntity
  8
STEMPEL
100
AcDbLine
 10
230.5049815729793
 20
327.29277600692
 30
0.0
 11
231.5548455352904
 21
320.6641064743686
 31
0.0
  0
LINE
  5
267B
102
{ACAD_REACTORS
330
2899
102
}
330
1E
100
AcDbEntity
  8
STEMPEL
100
AcDbLine
 10
232.1049815729796
 20
400.8973368179323
 30
0.0
 11
232.1049815729793
 21
327.418697061377
 31
0.0
  0
LINE
  5
267C
102
{ACAD_REACTORS
330
2899
102
}
330
1E
100
AcDbEntity
  8
STEMPEL
100
AcDbLine
 10
230.5049815729793
 20
400.897336817932
 30
0.0
 11
230.5049815729793
 21
327.29277600692
 31
0.0
  0
LINE
  5
267E
102
{ACAD_REACTORS
330
28AD
102
}
330
1E
100
AcDbEntity
  8
STEMPEL
100
AcDbLine
 10
211.0049815729792
 20
453.8173023230786
 30
0.0
 11
211.0049815729792
 21
370.6641064743686
 31
0.0
  0
LINE
  5
267F
102
{ACAD_REACTORS
330
2858
330
28AD
102
}
330
1E
100
AcDbEntity
  8
STEMPEL
100
AcDbLine
 10
208.5049815729792
 20
454.4871753041569
 30
0.0
 11
208.5049815729792
 21
368.6641064743686
 31
0.0
  0
LINE
  5
2680
330
1E
100
AcDbEntity
  8
STEMPEL
100
AcDbLine
 10
211.4939148914423
 20
384.6653248203304
 30
0.0
 11
213.5637138848472
 21
386.6641064743686
 31
0.0
  0
LINE
  5
2681
330
1E
100
AcDbEntity
  8
STEMPEL
100
AcDbLine
 10
211.0049815729794
 20
370.6641064743686
 30
0.0
 11
211.4939148914423
 21
384.6653248203304
 31
0.0
  0
LINE
  5
2682
102
{ACAD_REACTORS
330
28AD
102
}
330
1E
100
AcDbEntity
  8
STEMPEL
100
AcDbLine
 10
211.0049815729792
 20
370.6641064743686
 30
0.0
 11
208.5049815729792
 21
370.6641064743686
 31
0.0
  0
LINE
  5
2683
330
1E
100
AcDbEntity
  8
STEMPEL
100
AcDbLine
 10
213.5637138848472
 20
386.6641064743686
 30
0.0
 11
230.5049815729794
 21
386.6641064743686
 31
0.0
  0
LINE
  5
2684
330
1E
100
AcDbEntity
  8
STEMPEL
100
AcDbLine
 10
226.0049815729794
 20
376.6641064743686
 30
0.0
 11
230.5049815729794
 21
376.6641064743686
 31
0.0
  0
LINE
  5
26B0
102
{ACAD_REACTORS
330
28C1
102
}
330
1E
100
AcDbEntity
  8
STEMPEL
100
AcDbLine
 10
403.4328311817424
 20
531.1121146366799
 30
0.0
 11
339.0049815729792
 21
419.5198056918949
 31
0.0
  0
LINE
  5
26B1
102
{ACAD_REACTORS
330
2858
330
28C1
102
}
330
1E
100
AcDbEntity
  8
STEMPEL
100
AcDbLine
 10
405.5978946912035
 20
529.8621146366797
 30
0.0
 11
341.5049815729792
 21
418.8499327108168
 31
0.0
  0
DIMENSION
  5
26B2
330
1E
100
AcDbEntity
  8
BEM
100
AcDbDimension
  2
*D2
 10
413.4631827062073
 20
543.4851930948284
 30
0.0
 11
359.9349933545426
 21
583.7716495005776
 31
0.0
 70
    32
  1
%%c<>
 71
     5
 42
133.0000000000001
  3
Standard
100
AcDbAlignedDimension
 13
290.4165159878731
 23
596.3621146366797
 33
0.0
 14
405.5978946912035
 24
529.8621146366797
 34
0.0
 50
149.9999999999992
100
AcDbRotatedDimension
1001
ACAD
1000
DSTYLE
1002
{
1070
    40
1040
2.5
1070
    41
1040
3.5
1070
    42
1040
1.0
1070
    43
1040
7.0
1070
    44
1040
1.0
1070
    73
1070
     0
1070
    74
1070
     0
1070
    77
1070
     1
1070
    78
1070
     8
1070
    79
1070
     2
1070
   140
1040
3.5
1070
   141
1040
1.5
1070
   146
1040
0.5142857142857144
1070
   147
1040
1.5
1070
   172
1070
     1
1070
   178
1070
     1
1070
   179
1070
     2
1070
   271
1070
     2
1070
   272
1070
     2
1070
   284
1070
     8
1070
   285
1070
     8
1070
   286
1070
     8
1002
}
  0
LINE
  5
26B3
102
{ACAD_REACTORS
330
2899
330
28C1
330
28E3
102
}
330
1E
100
AcDbEntity
  8
STEMPEL
100
AcDbLine
 10
405.5978946912035
 20
529.8621146366797
 30
0.0
 11
290.4165159878731
 21
596.3621146366797
 31
0.0
  0
LINE
  5
26B5
102
{ACAD_REACTORS
330
28E3
102
}
330
1E
100
AcDbEntity
  8
STEMPEL
100
AcDbLine
 10
395.1434139489646
 20
519.7322043701395
 30
0.0
 11
385.2611034729229
 21
525.4377589836974
 31
0.0
  0
LINE
  5
26B6
102
{ACAD_REACTORS
330
28E3
102
}
330
1E
100
AcDbEntity
  8
STEMPEL
100
AcDbLine
 10
403.4328311817424
 20
531.1121146366799
 30
0.0
 11
396.5393586169818
 21
520.080252466296
 31
0.0
  0
LINE
  5
26B7
102
{ACAD_REACTORS
330
28E3
102
}
330
1E
100
AcDbEntity
  8
STEMPEL
100
AcDbLine
 10
396.5393586169818
 20
520.080252466296
 30
0.0
 11
395.1434139489646
 21
519.7322043701395
 31
0.0
  0
ARC
  5
26B8
102
{ACAD_REACTORS
330
2899
330
28E3
102
}
330
1E
100
AcDbEntity
  8
STEMPEL
100
AcDbCircle
 10
364.6545028085406
 20
538.946079661704
 30
0.0
 40
24.6
100
AcDbArc
 50
330.0
 51
354.9999999999934
  0
ARC
  5
26B9
102
{ACAD_REACTORS
330
2899
102
}
330
1E
100
AcDbEntity
  8
STEMPEL
100
AcDbCircle
 10
364.6545028085406
 20
538.946079661704
 30
0.0
 40
23.0
100
AcDbArc
 50
330.0
 51
354.9999999999934
  0
LINE
  5
26BA
102
{ACAD_REACTORS
330
2899
102
}
330
1E
100
AcDbEntity
  8
STEMPEL
100
AcDbLine
 10
384.5730870955821
 20
527.4460796617041
 30
0.0
 11
381.0253953073774
 21
521.3012972349381
 31
0.0
  0
LINE
  5
26BB
102
{ACAD_REACTORS
330
2899
330
28E3
102
}
330
1E
100
AcDbEntity
  8
STEMPEL
100
AcDbLine
 10
385.9587277416375
 20
526.6460796617043
 30
0.0
 11
382.4110359534328
 21
520.5012972349384
 31
0.0
  0
ARC
  5
26BC
102
{ACAD_REACTORS
330
2899
102
}
330
1E
100
AcDbEntity
  8
STEMPEL
100
AcDbCircle
 10
360.7945408829172
 20
533.0604294912429
 30
0.0
 40
23.40009324312573
100
AcDbArc
 50
304.7888220683149
 51
330.1564859543311
  0
ARC
  5
26BD
102
{ACAD_REACTORS
330
2899
102
}
330
1E
100
AcDbEntity
  8
STEMPEL
100
AcDbCircle
 10
360.7945408829172
 20
533.0604294912429
 30
0.0
 40
25.00009324312574
100
AcDbArc
 50
304.7888220683149
 51
330.1564859543311
  0
LINE
  5
26BE
102
{ACAD_REACTORS
330
2899
102
}
330
1E
100
AcDbEntity
  8
STEMPEL
100
AcDbLine
 10
387.8443739136222
 20
540.1121146366797
 30
0.0
 11
387.5669808646502
 21
536.941497578508
 31
0.0
  0
LINE
  5
26BF
102
{ACAD_REACTORS
330
2899
330
28E3
102
}
330
1E
100
AcDbEntity
  8
STEMPEL
100
AcDbLine
 10
389.3732592060964
 20
539.2294123015097
 30
0.0
 11
389.1608923815974
 21
536.8020483901118
 31
0.0
  0
LINE
  5
26C0
102
{ACAD_REACTORS
330
2899
102
}
330
1E
100
AcDbEntity
  8
STEMPEL
100
AcDbLine
 10
353.8920359756616
 20
484.3049402923829
 30
0.0
 11
331.428720636164
 21
445.3973368179326
 31
0.0
  0
LINE
  5
26C1
102
{ACAD_REACTORS
330
2899
102
}
330
1E
100
AcDbEntity
  8
STEMPEL
100
AcDbLine
 10
352.5063953296065
 20
485.1049402923833
 30
0.0
 11
330.0430799901092
 21
446.1973368179331
 31
0.0
  0
LINE
  5
26C2
330
1E
100
AcDbEntity
  8
HILF
100
AcDbLine
 10
352.4280043678504
 20
487.7218395381864
 30
0.0
 11
280.5069123917893
 21
529.2455013509768
 31
0.0
  0
LINE
  5
26C3
330
1E
100
AcDbEntity
  8
HILF
100
AcDbLine
 10
356.9122755089528
 20
491.0536426654331
 30
0.0
 11
281.1502029698431
 21
534.7948956402522
 31
0.0
  0
LINE
  5
26C4
330
1E
100
AcDbEntity
  8
HILF
100
AcDbLine
 10
370.2890188068467
 20
512.4539161728342
 30
0.0
 11
292.9950118262401
 21
557.0796319098324
 31
0.0
  0
LINE
  5
26C5
102
{ACAD_REACTORS
330
2899
102
}
330
1E
100
AcDbEntity
  8
STEMPEL
100
AcDbLine
 10
370.1743073820245
 20
509.5066616308301
 30
0.0
 11
360.5387371223309
 21
492.8173643811408
 31
0.0
  0
LINE
  5
26C6
102
{ACAD_REACTORS
330
2899
102
}
330
1E
100
AcDbEntity
  8
STEMPEL
100
AcDbLine
 10
371.5599480280797
 20
508.7066616308302
 30
0.0
 11
361.9243777683859
 21
492.0173643811406
 31
0.0
  0
ARC
  5
26C7
102
{ACAD_REACTORS
330
2899
102
}
330
1E
100
AcDbEntity
  8
STEMPEL
100
AcDbCircle
 10
360.8202392059376
 20
480.3049402923829
 30
0.0
 40
9.599999999999999
100
AcDbArc
 50
117.6719358778391
 51
150.0
  0
POINT
  5
26C8
330
1E
100
AcDbEntity
  8
STEMPEL
100
AcDbPoint
 10
358.1232479699971
 20
487.9895823980954
 30
0.0
  0
ARC
  5
26C9
102
{ACAD_REACTORS
330
2899
102
}
330
1E
100
AcDbEntity
  8
STEMPEL
100
AcDbCircle
 10
351.5320729229728
 20
498.0173643811408
 30
0.0
 40
10.4
100
AcDbArc
 50
297.6719358778391
 51
330.0
  0
ARC
  5
26CA
102
{ACAD_REACTORS
330
2899
102
}
330
1E
100
AcDbEntity
  8
STEMPEL
100
AcDbCircle
 10
360.8202392059376
 20
480.3049402923829
 30
0.0
 40
8.0
100
AcDbArc
 50
117.6719358778391
 51
150.0
  0
ARC
  5
26CB
102
{ACAD_REACTORS
330
2899
102
}
330
1E
100
AcDbEntity
  8
STEMPEL
100
AcDbCircle
 10
351.5320729229728
 20
498.0173643811408
 30
0.0
 40
12.0
100
AcDbArc
 50
297.6719358778391
 51
330.0
  0
ARC
  5
26CC
102
{ACAD_REACTORS
330
2899
102
}
330
1E
100
AcDbEntity
  8
STEMPEL
100
AcDbCircle
 10
381.9522528734932
 20
502.7066616308302
 30
0.0
 40
13.6
100
AcDbArc
 50
124.8779398133646
 51
150.0
  0
ARC
  5
26CD
102
{ACAD_REACTORS
330
2899
102
}
330
1E
100
AcDbEntity
  8
STEMPEL
100
AcDbCircle
 10
381.9522528734932
 20
502.7066616308302
 30
0.0
 40
12.0
100
AcDbArc
 50
124.8779398133646
 51
150.0
  0
LINE
  5
26CE
102
{ACAD_REACTORS
330
28C1
102
}
330
1E
100
AcDbEntity
  8
STEMPEL
100
AcDbLine
 10
292.581579497334
 20
595.1121146366794
 30
0.0
 11
211.0049815729792
 21
453.8173023230786
 31
0.0
  0
LINE
  5
26CF
102
{ACAD_REACTORS
330
2858
330
28C1
102
}
330
1E
100
AcDbEntity
  8
STEMPEL
100
AcDbLine
 10
290.4165159878731
 20
596.3621146366797
 30
0.0
 11
208.5049815729792
 21
454.4871753041569
 31
0.0
  0
LINE
  5
26D1
102
{ACAD_REACTORS
330
28E3
102
}
330
1E
100
AcDbEntity
  8
STEMPEL
100
AcDbLine
 10
296.7533072061533
 20
576.5377589836975
 30
0.0
 11
286.8709967301123
 21
582.2433135972553
 31
0.0
  0
LINE
  5
26D2
102
{ACAD_REACTORS
330
2899
102
}
330
1E
100
AcDbEntity
  8
STEMPEL
100
AcDbLine
 10
290.4999702338564
 20
555.5066616308302
 30
0.0
 11
280.8643999741626
 21
538.8173643811407
 31
0.0
  0
LINE
  5
26D3
102
{ACAD_REACTORS
330
2899
102
}
330
1E
100
AcDbEntity
  8
STEMPEL
100
AcDbLine
 10
289.1143295878014
 20
556.3066616308301
 30
0.0
 11
279.4787593281073
 21
539.6173643811407
 31
0.0
  0
ARC
  5
26D4
102
{ACAD_REACTORS
330
2899
102
}
330
1E
100
AcDbEntity
  8
STEMPEL
100
AcDbCircle
 10
289.8710641735213
 20
533.6173643811407
 30
0.0
 40
12.0
100
AcDbArc
 50
150.0
 51
182.3280641221609
  0
ARC
  5
26D5
102
{ACAD_REACTORS
330
2899
102
}
330
1E
100
AcDbEntity
  8
STEMPEL
100
AcDbCircle
 10
289.8710641735213
 20
533.6173643811407
 30
0.0
 40
10.4
100
AcDbArc
 50
150.0
 51
182.3280641221609
  0
ARC
  5
26D6
102
{ACAD_REACTORS
330
2899
102
}
330
1E
100
AcDbEntity
  8
STEMPEL
100
AcDbCircle
 10
269.8875718085712
 20
532.804940292383
 30
0.0
 40
9.599999999999999
100
AcDbArc
 50
330.0
 51
2.328064122160844
  0
ARC
  5
26D7
102
{ACAD_REACTORS
330
2899
102
}
330
1E
100
AcDbEntity
  8
STEMPEL
100
AcDbCircle
 10
269.8875718085712
 20
532.804940292383
 30
0.0
 40
8.0
100
AcDbArc
 50
330.0
 51
2.328064122160844
  0
ARC
  5
26D8
102
{ACAD_REACTORS
330
2899
102
}
330
1E
100
AcDbEntity
  8
STEMPEL
100
AcDbCircle
 10
318.7551564079653
 20
565.4460796617042
 30
0.0
 40
23.0
100
AcDbArc
 50
125.0000000000065
 51
150.0
  0
ARC
  5
26D9
102
{ACAD_REACTORS
330
2899
330
28E3
102
}
330
1E
100
AcDbEntity
  8
STEMPEL
100
AcDbCircle
 10
318.7551564079653
 20
565.4460796617042
 30
0.0
 40
24.6
100
AcDbArc
 50
125.0000000000036
 51
150.0
  0
ARC
  5
26DA
102
{ACAD_REACTORS
330
2899
102
}
330
1E
100
AcDbEntity
  8
STEMPEL
100
AcDbCircle
 10
278.7220247423881
 20
562.3066616308299
 30
0.0
 40
13.6
100
AcDbArc
 50
330.0
 51
355.1220601866353
  0
ARC
  5
26DB
102
{ACAD_REACTORS
330
2899
102
}
330
1E
100
AcDbEntity
  8
STEMPEL
100
AcDbCircle
 10
278.7220247423881
 20
562.3066616308299
 30
0.0
 40
12.0
100
AcDbArc
 50
330.0
 51
355.1220601866323
  0
LINE
  5
26DC
102
{ACAD_REACTORS
330
2899
102
}
330
1E
100
AcDbEntity
  8
STEMPEL
100
AcDbLine
 10
298.8365721209233
 20
576.946079661704
 30
0.0
 11
295.2888803327181
 21
570.8012972349384
 31
0.0
  0
LINE
  5
26DD
102
{ACAD_REACTORS
330
2899
330
28E3
102
}
330
1E
100
AcDbEntity
  8
STEMPEL
100
AcDbLine
 10
297.4509314748679
 20
577.7460796617042
 30
0.0
 11
293.9032396866632
 21
571.6012972349385
 31
0.0
  0
ARC
  5
26DE
102
{ACAD_REACTORS
330
2899
102
}
330
1E
100
AcDbEntity
  8
STEMPEL
100
AcDbCircle
 10
315.5880148053697
 20
559.1604294912431
 30
0.0
 40
23.40009324312573
100
AcDbArc
 50
149.8435140456689
 51
175.2111779316851
  0
ARC
  5
26DF
102
{ACAD_REACTORS
330
2899
102
}
330
1E
100
AcDbEntity
  8
STEMPEL
100
AcDbCircle
 10
315.5880148053697
 20
559.1604294912431
 30
0.0
 40
25.00009324312574
100
AcDbArc
 50
149.8435140456689
 51
175.2111779316821
  0
LINE
  5
26E0
102
{ACAD_REACTORS
330
2899
102
}
330
1E
100
AcDbEntity
  8
STEMPEL
100
AcDbLine
 10
308.170036765454
 20
586.1121146366797
 30
0.0
 11
305.5628983718914
 21
584.2865766803506
 31
0.0
  0
LINE
  5
26E1
102
{ACAD_REACTORS
330
2899
330
28E3
102
}
330
1E
100
AcDbEntity
  8
STEMPEL
100
AcDbLine
 10
306.6411514729801
 20
586.9948169718497
 30
0.0
 11
304.6451760737292
 21
585.5972199512129
 31
0.0
  0
LINE
  5
26E2
102
{ACAD_REACTORS
330
28E3
102
}
330
1E
100
AcDbEntity
  8
STEMPEL
100
AcDbLine
 10
292.581579497334
 20
595.1121146366794
 30
0.0
 11
286.4744428891138
 21
583.6262611901142
 31
0.0
  0
LINE
  5
26E3
102
{ACAD_REACTORS
330
28E3
102
}
330
1E
100
AcDbEntity
  8
STEMPEL
100
AcDbLine
 10
286.4744428891138
 20
583.6262611901142
 30
0.0
 11
286.8709967301123
 21
582.2433135972553
 31
0.0
  0
LINE
  5
26E4
102
{ACAD_REACTORS
330
2899
102
}
330
1E
100
AcDbEntity
  8
STEMPEL
100
AcDbLine
 10
278.2014156849017
 20
528.0049402923832
 30
0.0
 11
255.738100345404
 21
489.0973368179317
 31
0.0
  0
LINE
  5
26E5
102
{ACAD_REACTORS
330
2899
102
}
330
1E
100
AcDbEntity
  8
STEMPEL
100
AcDbLine
 10
276.8157750388464
 20
528.804940292383
 30
0.0
 11
254.3524596993488
 21
489.8973368179311
 31
0.0
  0
ARC
  5
2764
102
{ACAD_REACTORS
330
2899
102
}
330
1E
100
AcDbEntity
  8
STEMPEL
100
AcDbCircle
 10
408.5049815729791
 20
400.897336817932
 30
0.0
 40
90.6
100
AcDbArc
 50
149.9999999999993
 51
180.0
  0
ARC
  5
2765
102
{ACAD_REACTORS
330
2899
102
}
330
1E
100
AcDbEntity
  8
STEMPEL
100
AcDbCircle
 10
408.5049815729791
 20
400.897336817932
 30
0.0
 40
176.4
100
AcDbArc
 50
150.0000000000001
 51
179.9999999999999
  0
LINE
  5
2766
102
{ACAD_REACTORS
330
28AD
330
28C1
102
}
330
1E
100
AcDbEntity
  8
STEMPEL
100
AcDbLine
 10
208.5049815729792
 20
454.4871753041569
 30
0.0
 11
211.0049815729793
 21
453.8173023230791
 31
0.0
  0
LINE
  5
2767
102
{ACAD_REACTORS
330
28AD
330
28C1
102
}
330
1E
100
AcDbEntity
  8
STEMPEL
100
AcDbLine
 10
339.0049815729791
 20
419.5198056918947
 30
0.0
 11
341.5049815729792
 21
418.8499327108168
 31
0.0
  0
DIMENSION
  5
27E7
330
1E
100
AcDbEntity
  8
BEM
100
AcDbDimension
  2
*D3
 10
168.2882472389917
 20
320.6641064743686
 30
0.0
 11
160.1632472389917
 21
378.6663302409278
 31
0.0
 70
    32
 71
     5
 42
116.0044475331182
  3
Standard
100
AcDbAlignedDimension
 13
275.0049815729792
 23
436.6685540074867
 33
0.0
 14
231.5548455352904
 24
320.6641064743686
 34
0.0
 50
90.0
100
AcDbRotatedDimension
1001
ACAD
1000
DSTYLE
1002
{
1070
    40
1040
2.5
1070
    41
1040
3.5
1070
    42
1040
1.0
1070
    43
1040
7.0
1070
    44
1040
1.0
1070
    73
1070
     0
1070
    74
1070
     0
1070
    77
1070
     1
1070
    78
1070
     8
1070
    79
1070
     2
1070
   140
1040
3.5
1070
   141
1040
1.5
1070
   146
1040
0.5142857142857144
1070
   147
1040
1.5
1070
   172
1070
     1
1070
   178
1070
     1
1070
   179
1070
     2
1070
   271
1070
     2
1070
   272
1070
     2
1070
   284
1070
     8
1070
   285
1070
     8
1070
   286
1070
     8
1002
}
  0
DIMENSION
  5
27F4
330
1E
100
AcDbEntity
  8
BEM
100
AcDbDimension
  2
*D4
 10
191.0099185434715
 20
320.6641064743686
 30
0.0
 11
182.8849185434714
 21
345.6641064743686
 31
0.0
 70
    32
 71
     5
 42
50.0
  3
Standard
100
AcDbAlignedDimension
 13
208.5049815729792
 23
370.6641064743686
 33
0.0
 14
231.5548455352904
 24
320.6641064743686
 34
0.0
 50
90.0
100
AcDbRotatedDimension
1001
ACAD
1000
DSTYLE
1002
{
1070
    40
1040
2.5
1070
    41
1040
3.5
1070
    42
1040
1.0
1070
    43
1040
7.0
1070
    44
1040
1.0
1070
    73
1070
     0
1070
    74
1070
     0
1070
    77
1070
     1
1070
    78
1070
     8
1070
    79
1070
     2
1070
   140
1040
3.5
1070
   141
1040
1.5
1070
   146
1040
0.5142857142857144
1070
   147
1040
1.5
1070
   172
1070
     1
1070
   178
1070
     1
1070
   179
1070
     2
1070
   271
1070
     2
1070
   272
1070
     2
1070
   284
1070
     8
1070
   285
1070
     8
1070
   286
1070
     8
1002
}
  0
DIMENSION
  5
2801
330
1E
100
AcDbEntity
  8
BEM
100
AcDbDimension
  2
*D5
 10
258.2413104873623
 20
614.9384781936314
 30
0.0
 11
214.7037421983341
 21
555.7791978790349
 31
0.0
 70
    32
 71
     5
 42
146.0044475331187
 51
300.0
  3
Standard
100
AcDbAlignedDimension
 13
275.0049815729792
 23
436.6685540074867
 33
0.0
 14
290.416515987873
 24
596.3621146366801
 34
0.0
 50
59.99999999999997
100
AcDbRotatedDimension
1001
ACAD
1000
DSTYLE
1002
{
1070
    40
1040
2.5
1070
    41
1040
3.5
1070
    42
1040
1.0
1070
    43
1040
7.0
1070
    44
1040
1.0
1070
    73
1070
     0
1070
    74
1070
     0
1070
    77
1070
     1
1070
    78
1070
     8
1070
    79
1070
     2
1070
   140
1040
3.5
1070
   141
1040
1.5
1070
   146
1040
0.5142857142857144
1070
   147
1040
1.5
1070
   172
1070
     1
1070
   178
1070
     1
1070
   179
1070
     2
1070
   271
1070
     2
1070
   272
1070
     2
1070
   284
1070
     8
1070
   285
1070
     8
1070
   286
1070
     8
1002
}
  0
ARC
  5
2848
102
{ACAD_REACTORS
330
2858
102
}
330
1E
100
AcDbEntity
  8
SCHRAFF
100
AcDbCircle
 10
338.5982717463628
 20
419.6287832614904
 30
0.0
 40
5.593422440851426
100
AcDbArc
 50
301.3098304480267
 51
28.69016955197185
  0
ARC
  5
2849
102
{ACAD_REACTORS
330
2858
102
}
330
1E
100
AcDbEntity
  8
SCHRAFF
100
AcDbCircle
 10
210.6236589123189
 20
453.9194774220588
 30
0.0
 40
4.033545772243635
100
AcDbArc
 50
91.68603320905017
 51
238.3139667909512
  0
HATCH
  5
2858
330
1E
100
AcDbEntity
  8
SCHRAFF
100
AcDbHatch
 10
0.0
 20
0.0
 30
0.0
210
0.0
220
0.0
230
1.0
  2
_USER
 70
     0
 71
     1
 91
        2
 92
        7
 72
     1
 73
     1
 93
        3
 10
343.5049815729792
 20
422.3140343259546
 42
0.0
 10
341.5049815729792
 20
418.8499327108168
 42
0.0
 10
341.5049815729792
 20
414.849932710817
 42
0.4008845118915824
 97
        3
330
26B1
330
266A
330
2848
 92
        7
 72
     1
 73
     1
 93
        3
 10
208.5049815729792
 20
450.487175304157
 42
0.0
 10
208.5049815729792
 20
454.4871753041568
 42
0.0
 10
210.5049815729793
 20
457.9512769192946
 42
0.7442097754823547
 97
        3
330
2849
330
267F
330
26CF
 75
     0
 76
     0
 52
0.0
 41
0.1
 77
     0
 78
     1
 53
0.0
 43
-457.3276911798843
 44
17.74774582865893
 45
0.0
 46
0.1
 79
     0
 47
0.2408942834961593
 98
        2
 10
342.8942189921645
 20
417.6012719479736
 10
207.8980067097018
 20
455.6625695168804
  0
HATCH
  5
2899
330
1E
100
AcDbEntity
  8
SCHRAFF
100
AcDbHatch
 10
0.0
 20
0.0
 30
0.0
210
0.0
220
0.0
230
1.0
  2
_USER
 70
     0
 71
     1
 91
        2
 92
        7
 72
     1
 73
     1
 93
       26
 10
317.9049815729793
 20
327.4186970613777
 42
0.0
 10
316.8351739437646
 20
320.6641064743686
 42
0.0
 10
318.455117610668
 20
320.6641064743686
 42
0.0
 10
319.5049815729793
 20
327.2927760069209
 42
0.0
 10
319.5049815729792
 20
400.897336817932
 42
-0.1316524975873974
 10
331.428720636164
 20
445.3973368179326
 42
0.0
 10
353.8920359756616
 20
484.3049402923829
 42
-0.1420008527982366
 10
357.1049726927517
 20
487.3899099278859
 42
0.1420008527982212
 10
361.9243777683859
 20
492.0173643811406
 42
0.0
 10
371.5599480280797
 20
508.7066616308302
 42
-0.1108768121419959
 10
375.122228490371
 20
512.5733108556662
 42
0.1089723179966222
 10
382.4110359534092
 20
520.5012972348976
 42
0.0
 10
385.9587277416375
 20
526.6460796617043
 42
0.1095178116832411
 10
389.1608923815974
 20
536.8020483901118
 42
0.0
 10
389.3732592060964
 20
539.2294123015099
 42
0.0
 10
387.8443739136222
 20
540.1121146366797
 42
0.0
 10
387.5669808646502
 20
536.941497578508
 42
-0.1095178116832456
 10
384.573087095582
 20
527.4460796617038
 42
0.0
 10
381.0925648144842
 20
521.4176382339665
 42
-0.1112043308301383
 10
374.1425421587158
 20
513.8407722172888
 42
0.1093117521956221
 10
370.1743073820245
 20
509.5066616308301
 42
0.0
 10
360.5387371223309
 20
492.8173643811408
 42
-0.142000852798222
 10
356.3619193901145
 20
488.8069038549868
 42
0.1420008527982156
 10
352.5063953296068
 20
485.1049402923838
 42
0.0
 10
330.0430799901092
 20
446.1973368179331
 42
0.1316524975873968
 10
317.9049815729792
 20
400.8973368179328
 42
0.0
 97
       26
330
25DE
330
26C0
330
26CA
330
26CB
330
26C6
330
26CD
330
26BD
330
26BB
330
26B8
330
26BF
330
26B3
330
26BE
330
26B9
330
26BA
330
26BC
330
26CC
330
26C5
330
26C9
330
26C7
330
26C1
330
2764
330
2672
330
2673
330
2676
330
2674
330
2671
 92
        7
 72
     1
 73
     1
 93
       26
 10
230.5049815729793
 20
400.8973368179317
 42
0.0
 10
230.5049815729793
 20
327.2927760069201
 42
0.0
 10
231.5548455352904
 20
320.6641064743686
 42
0.0
 10
233.174789202194
 20
320.6641064743686
 42
0.0
 10
232.1049815729794
 20
327.4186970613772
 42
0.0
 10
232.1049815729796
 20
400.8973368179323
 42
-0.1316524975873948
 10
255.738100345404
 20
489.0973368179317
 42
0.0
 10
278.2014156849017
 20
528.0049402923832
 42
0.1420008527982313
 10
279.4796481437472
 20
533.1949038549869
 42
-0.1420008527982209
 10
280.8643999741626
 20
538.8173643811407
 42
0.0
 10
290.4999702338564
 20
555.5066616308302
 42
0.1093117521970486
 10
292.2693027162021
 20
561.1103090489314
 42
-0.1112043308271712
 10
295.3560498397262
 20
570.9176382337957
 42
0.0
 10
298.8365721209233
 20
576.946079661704
 42
-0.1095178116832398
 10
305.5628983718914
 20
584.2865766803506
 42
0.0
 10
308.1700367654542
 20
586.1121146366798
 42
0.0
 10
306.6411514729803
 20
586.9948169718497
 42
0.0
 10
304.6451760737292
 20
585.5972199512129
 42
0.1095178116832411
 10
297.4509314748677
 20
577.7460796617037
 42
0.0
 10
293.9032396867086
 20
571.6012972350173
 42
0.1089723179989355
 10
290.6818058128799
 20
561.3250116189069
 42
-0.110876812140089
 10
289.1143295878013
 20
556.3066616308299
 42
0.0
 10
279.4787593281073
 20
539.6173643811407
 42
0.1420008527982179
 10
277.8809687545513
 20
533.1299099278864
 42
-0.1420008527982297
 10
276.8157750388466
 20
528.8049402923834
 42
0.0
 10
254.3524596993488
 20
489.8973368179311
 42
0.1316524975873948
 97
       26
330
26E4
330
26D6
330
26D5
330
26D2
330
26DA
330
26DE
330
26DC
330
26D8
330
26E0
330
26B3
330
26E1
330
26D9
330
26DD
330
26DF
330
26DB
330
26D3
330
26D4
330
26D7
330
26E5
330
25DF
330
267C
330
267A
330
2676
330
2679
330
267B
330
2765
 75
     0
 76
     0
 52
45.0
 41
2.0
 77
     0
 78
     1
 53
45.0
 43
-457.3276911798843
 44
17.74774582865893
 45
-1.414213562373094
 46
1.414213562373095
 79
     0
 47
0.6608822850746233
 98
        2
 10
318.6120009405704
 20
388.7073442298042
 10
231.3138378409012
 20
409.1946956835163
  0
HATCH
  5
28AD
330
1E
100
AcDbEntity
  8
SCHRAFF
100
AcDbHatch
 10
0.0
 20
0.0
 30
0.0
210
0.0
220
0.0
230
1.0
  2
_USER
 70
     0
 71
     1
 91
        2
 92
        7
 72
     0
 73
     1
 93
        4
 10
341.5049815729793
 20
418.8499327108169
 10
339.0049815729792
 20
419.5198056918947
 10
339.0049815729792
 20
370.6641064743685
 10
341.5049815729791
 20
370.6641064743685
 97
        4
330
2767
330
2669
330
266D
330
266A
 92
        7
 72
     0
 73
     1
 93
        4
 10
211.0049815729792
 20
453.817302323079
 10
208.5049815729792
 20
454.4871753041569
 10
208.5049815729792
 20
370.6641064743686
 10
211.0049815729792
 20
370.6641064743686
 97
        4
330
2766
330
267F
330
2682
330
267E
 75
     0
 76
     0
 52
135.0
 41
2.0
 77
     0
 78
     1
 53
135.0
 43
-457.3276911798843
 44
17.74774582865893
 45
-1.414213562373095
 46
-1.414213562373094
 79
     0
 47
0.4995645639797752
 98
        2
 10
340.3011467648525
 20
405.6925401420403
 10
209.8225761025824
 20
420.679476682641
  0
HATCH
  5
28C1
330
1E
100
AcDbEntity
  8
SCHRAFF
100
AcDbHatch
 10
0.0
 20
0.0
 30
0.0
210
0.0
220
0.0
230
1.0
  2
_USER
 70
     0
 71
     1
 91
        2
 92
        7
 72
     0
 73
     1
 93
        4
 10
339.0049815729791
 20
419.5198056918948
 10
341.5049815729791
 20
418.8499327108168
 10
405.5978946912035
 20
529.8621146366797
 10
403.4328311817423
 20
531.1121146366795
 97
        4
330
26B3
330
26B0
330
2767
330
26B1
 92
        7
 72
     0
 73
     1
 93
        4
 10
292.5815794973341
 20
595.1121146366797
 10
290.4165159878732
 20
596.3621146366797
 10
208.5049815729792
 20
454.4871753041569
 10
211.0049815729794
 20
453.817302323079
 97
        4
330
26B3
330
26CF
330
2766
330
26CE
 75
     0
 76
     0
 52
15.0
 41
2.0
 77
     0
 78
     1
 53
15.0
 43
-457.3276911798843
 44
17.74774582865893
 45
-0.5176380902050415
 46
1.931851652578136
 79
     0
 47
0.4995645639797752
 98
        2
 10
380.7944970935869
 20
489.6193865187371
 10
242.8171594733353
 20
510.601099424911
  0
HATCH
  5
28E3
330
1E
100
AcDbEntity
  8
SCHRAFF
100
AcDbHatch
 10
0.0
 20
0.0
 30
0.0
210
0.0
220
0.0
230
1.0
  2
NET
 70
     0
 71
     1
 91
        2
 92
        7
 72
     1
 73
     1
 93
        7
 10
385.9587277416379
 20
526.646079661705
 42
0.0
 10
385.2611034729229
 20
525.4377589836975
 42
0.0
 10
395.1434139489648
 20
519.7322043701395
 42
0.0
 10
396.5393586169817
 20
520.0802524662959
 42
0.0
 10
403.4328311817423
 20
531.1121146366798
 42
0.0
 10
389.3732592060964
 20
539.2294123015099
 42
0.0
 10
389.1608923815974
 20
536.8020483901118
 42
-0.109517811683233
 97
        7
330
26B3
330
26BF
330
26B8
330
26BB
330
26B5
330
26B7
330
26B6
 92
        7
 72
     1
 73
     1
 93
        7
 10
296.7533072061534
 20
576.5377589836975
 42
0.0
 10
297.4509314748679
 20
577.7460796617042
 42
-0.1095178116832355
 10
304.6451760737292
 20
585.5972199512129
 42
0.0
 10
306.6411514729799
 20
586.9948169718497
 42
0.0
 10
292.5815794973342
 20
595.1121146366796
 42
0.0
 10
286.4744428891138
 20
583.6262611901142
 42
0.0
 10
286.8709967301123
 20
582.2433135972554
 42
0.0
 97
        7
330
26E1
330
26B3
330
26E2
330
26E3
330
26D1
330
26DD
330
26D9
 75
     0
 76
     1
 52
15.0
 41
20.0
 77
     0
 78
     2
 53
15.0
 43
-457.3276911798843
 44
17.74774582865893
 45
-0.6470476127563019
 46
2.41481456572267
 79
     0
 53
105.0
 43
-457.3276911798843
 44
17.74774582865893
 45
-2.41481456572267
 46
-0.6470476127563018
 79
     0
 47
0.5001645274624722
 98
        2
 10
390.9216383256648
 20
530.1396145111291
 10
294.8221290824367
 20
584.6575488326832
  0
HATCH
  5
292B
330
1E
100
AcDbEntity
  8
SCHRAFF
100
AcDbHatch
 10
0.0
 20
0.0
 30
0.0
210
0.0
220
0.0
230
1.0
  2
HONEY
 70
     0
 71
     0
 91
        2
 92
        7
 72
     1
 73
     1
 93
       17
 10
403.4328311817421
 20
531.1121146366775
 42
0.0
 10
396.539358616982
 20
520.080252466296
 42
0.0
 10
395.1434139489645
 20
519.7322043701395
 42
0.0
 10
385.2611034729227
 20
525.4377589836973
 42
0.0
 10
382.4793160016255
 20
520.6195617475516
 42
-0.1111415761507459
 10
375.0584280185676
 20
512.5288395395025
 42
0.109236972363216
 10
371.5599480280797
 20
508.7066616308302
 42
0.0
 10
361.9243777683859
 20
492.0173643811406
 42
-0.1420008527982177
 10
357.1049726927516
 20
487.3899099278863
 42
0.1420008527982127
 10
353.892035975662
 20
484.3049402923837
 42
0.0
 10
331.428720636164
 20
445.3973368179326
 42
0.131652497587395
 10
319.5049815729792
 20
400.8973368179328
 42
0.0
 10
319.5049815729792
 20
386.6641064743686
 42
0.0
 10
336.4462492611114
 20
386.6641064743686
 42
0.0
 10
338.5160482545164
 20
384.6653248203305
 42
0.0
 10
339.0049815729792
 20
370.6641064743706
 42
0.0
 10
339.0049815729792
 20
419.5198056918949
 42
0.0
 97
        0
 92
        7
 72
     1
 73
     1
 93
       17
 10
254.3524596993488
 20
489.8973368179311
 42
0.0
 10
276.8157750388464
 20
528.804940292383
 42
0.1420008527982471
 10
277.8809687545513
 20
533.1299099278864
 42
-0.1420008527982179
 10
279.4787593281073
 20
539.6173643811407
 42
0.0
 10
289.1143295878014
 20
556.3066616308301
 42
0.1092369723660286
 10
290.6751927592631
 20
561.2475231316932
 42
-0.1111415761481326
 10
293.9715197347936
 20
571.7195617474438
 42
0.0
 10
296.7533072061534
 20
576.5377589836977
 42
0.0
 10
286.8709967301123
 20
582.2433135972553
 42
0.0
 10
286.4744428891138
 20
583.626261190114
 42
0.0
 10
292.5815794973363
 20
595.1121146366824
 42
0.0
 10
211.0049815729793
 20
453.8173023230787
 42
0.0
 10
211.0049815729792
 20
370.6641064743624
 42
0.0
 10
211.4939148914424
 20
384.6653248203306
 42
0.0
 10
213.563713884847
 20
386.6641064743686
 42
0.0
 10
230.5049815729793
 20
386.6641064743686
 42
0.0
 10
230.5049815729793
 20
400.897336817932
 42
-0.1316524975873945
 97
        0
 75
     0
 76
     1
 52
0.0
 41
30.0
 77
     0
 78
     3
 53
0.0
 43
-457.3276911798843
 44
17.74774582865893
 45
5.625
 46
3.247595249999999
 79
     2
 49
3.75
 49
-7.5
 53
120.0
 43
-457.3276911798843
 44
17.74774582865893
 45
-5.624999987709673
 46
3.247595271287468
 79
     2
 49
3.749999999999999
 49
-7.499999999999999
 53
60.0
 43
-457.3276911798843
 44
17.74774582865893
 45
0.0000000122903263
 46
6.495190521287468
 79
     2
 49
-7.5
 49
3.75
 47
0.5001645274624722
 98
        2
 10
332.3609981441787
 20
433.1076938588712
 10
240.7661519760409
 20
482.62398303846
  0
TEXT
  5
29B1
330
1E
100
AcDbEntity
  8
TEXT
100
AcDbText
 10
185.77763727763
 20
91.42531838939582
 30
0.0
 40
5.0
  1
2007
 41
0.8
  7
GREEKS
100
AcDbText
  0
TEXT
  5
29B2
330
1E
100
AcDbEntity
  8
TEXT
100
AcDbText
 10
212.9987463852951
 20
78.88456301032164
 30
0.0
 40
5.0
  1
28.09.
 41
0.8
  7
GREEKS
 72
     1
 11
221.7606511471998
 21
78.88456301032164
 31
0.0
100
AcDbText
  0
HATCH
  5
29C2
330
1E
100
AcDbEntity
  8
SCHRAFF
100
AcDbHatch
 10
0.0
 20
0.0
 30
0.0
210
0.0
220
0.0
230
1.0
  2
NET
 70
     0
 71
     0
 91
        2
 92
        7
 72
     0
 73
     1
 93
       11
 10
338.5160482545164
 20
384.6653248203306
 10
336.4462492611114
 20
386.6641064743686
 10
319.5049815729793
 20
386.6641064743686
 10
319.5049815729793
 20
376.6641064743686
 10
324.0049815729792
 20
376.6641064743685
 10
327.4690831881169
 20
370.6641064743686
 10
334.5049815729794
 20
370.6641064743684
 10
334.5049815729794
 20
368.6641064743686
 10
341.5049815729793
 20
368.6641064743686
 10
341.5049815729793
 20
370.6641064743686
 10
339.0049815729792
 20
370.6641064743685
 97
        0
 92
        7
 72
     0
 73
     1
 93
       11
 10
230.5049815729792
 20
386.6641064743685
 10
213.5637138848472
 20
386.6641064743685
 10
211.4939148914423
 20
384.6653248203304
 10
211.0049815729795
 20
370.6641064743686
 10
208.5049815729792
 20
370.6641064743686
 10
208.5049815729792
 20
368.6641064743686
 10
215.5049815729795
 20
368.6641064743686
 10
215.5049815729794
 20
370.6641064743685
 10
222.5408799578417
 20
370.6641064743684
 10
226.0049815729795
 20
376.6641064743686
 10
230.5049815729792
 20
376.6641064743686
 97
        0
 75
     0
 76
     1
 52
45.0
 41
20.0
 77
     0
 78
     2
 53
45.0
 43
50.04034647187541
 44
103.6995503042449
 45
-1.767766952966368
 46
1.767766952966368
 79
     0
 53
135.0
 43
50.04034647187541
 44
103.6995503042449
 45
-1.767766952966368
 46
-1.767766952966368
 79
     0
 47
0.2159429178754844
 98
        2
 10
330.6114357226891
 20
377.7501081256083
 10
216.5247925951164
 20
377.9660509855546
  0
LINE
  5
29C3
330
1E
100
AcDbEntity
  8
STEMPEL
100
AcDbLine
 10
334.5049815729794
 20
370.6641064743685
 30
0.0
 11
334.5049815729794
 21
368.6641064743686
 31
0.0
  0
POINT
  5
29C4
330
1E
100
AcDbEntity
  8
STEMPEL
100
AcDbPoint
 10
334.5049815729794
 20
368.6641064743686
 30
0.0
  0
LINE
  5
29C5
330
1E
100
AcDbEntity
  8
STEMPEL
100
AcDbLine
 10
341.5049815729793
 20
368.6641064743686
 30
0.0
 11
319.5049815729792
 21
368.6641064743686
 31
0.0
  0
LINE
  5
29C6
330
1E
100
AcDbEntity
  8
STEMPEL
100
AcDbLine
 10
334.5049815729794
 20
370.6641064743685
 30
0.0
 11
319.5049815729793
 21
370.6641064743686
 31
0.0
  0
LINE
  5
29C7
330
1E
100
AcDbEntity
  8
STEMPEL
100
AcDbLine
 10
324.0049815729792
 20
376.6641064743686
 30
0.0
 11
327.4690831881169
 21
370.6641064743686
 31
0.0
  0
LINE
  5
29C8
330
1E
100
AcDbEntity
  8
STEMPEL
100
AcDbLine
 10
230.5049815729792
 20
368.6641064743686
 30
0.0
 11
208.5049815729792
 21
368.6641064743686
 31
0.0
  0
LINE
  5
29C9
330
1E
100
AcDbEntity
  8
STEMPEL
100
AcDbLine
 10
230.5049815729792
 20
370.6641064743684
 30
0.0
 11
215.5049815729794
 21
370.6641064743685
 31
0.0
  0
LINE
  5
29CA
330
1E
100
AcDbEntity
  8
STEMPEL
100
AcDbLine
 10
215.5049815729794
 20
370.6641064743685
 30
0.0
 11
215.5049815729794
 21
368.6641064743686
 31
0.0
  0
LINE
  5
29CB
330
1E
100
AcDbEntity
  8
STEMPEL
100
AcDbLine
 10
226.0049815729794
 20
376.6641064743686
 30
0.0
 11
222.5408799578417
 21
370.6641064743686
 31
0.0
  0
LINE
  5
2A1B
330
1E
100
AcDbEntity
  8
BEM
100
AcDbLine
 10
351.7572053395385
 20
569.6073051650631
 30
0.0
 11
353.5410840613033
 21
572.6970737457009
 31
0.0
  0
LINE
  5
2A1C
330
1E
100
AcDbEntity
  8
BEM
100
AcDbLine
 10
275.0049815729792
 20
439.1685540074868
 30
0.0
 11
275.0049815729793
 21
647.5004605506105
 31
0.0
  0
ARC
  5
2A1D
330
1E
100
AcDbEntity
  8
BEM
100
AcDbCircle
 10
275.0049815729792
 20
436.6685540074867
 30
0.0
 40
208.3319065431237
100
AcDbArc
 50
62.40661613108841
 51
87.59338386891165
  0
SOLID
  5
2A1E
330
1E
100
AcDbEntity
  8
BEM
100
AcDbTrace
 10
372.2054916829725
 20
622.5821672307001
 30
0.0
 11
370.8005243712662
 21
620.0261916248928
 31
0.0
 12
379.1709348445408
 22
617.0892774926776
 32
0.0
 13
379.1709348445408
 23
617.0892774926776
 33
0.0
  0
SOLID
  5
2A1F
330
1E
100
AcDbEntity
  8
BEM
100
AcDbTrace
 10
283.722426749046
 20
643.3586975612053
 30
0.0
 11
283.7836771685252
 21
646.2747210231407
 31
0.0
 12
275.0049815729792
 22
645.0004605506105
 32
0.0
 13
275.0049815729792
 23
645.0004605506105
 33
0.0
  0
MTEXT
  5
2A20
330
1E
100
AcDbEntity
  8
BEM
 62
     1
100
AcDbMText
 10
329.8319110267769
 20
646.0667397610574
 30
0.0
 40
8.75
 41
0.0
 71
     5
 72
     1
  1
\A1;30°
 11
0.9673897178783402
 21
-0.2532925852512573
 31
0.0
 73
     1
 44
1.0
  0
LINE
  5
2A21
330
1E
100
AcDbEntity
  8
BEM
100
AcDbLine
 10
364.9259573375914
 20
592.416252697965
 30
0.0
 11
380.4209348445409
 21
619.2543410021387
 31
0.0
  0
ENDSEC
  0
SECTION
  2
OBJECTS
  0
DICTIONARY
  5
C
330
0
100
AcDbDictionary
281
     1
  3
ACAD_COLOR
350
DF
  3
ACAD_GROUP
350
D
  3
ACAD_LAYOUT
350
19
  3
ACAD_MATERIAL
350
DE
  3
ACAD_MLINESTYLE
350
16
  3
ACAD_PLOTSETTINGS
350
18
  3
ACAD_PLOTSTYLENAME
350
E
  3
AcDbVariableDictionary
350
25E
  0
DICTIONARY
  5
A0
330
1E
100
AcDbDictionary
280
     1
281
     1
  3
ACAD_LAYOUTSELFREF
360
D4
  0
DICTIONARY
  5
A2
330
1A
100
AcDbDictionary
280
     1
281
     1
  3
ACAD_LAYOUTSELFREF
360
D3
  0
DICTIONARY
  5
DF
102
{ACAD_REACTORS
330
C
102
}
330
C
100
AcDbDictionary
281
     1
  0
DICTIONARY
  5
D
102
{ACAD_REACTORS
330
C
102
}
330
C
100
AcDbDictionary
281
     1
  0
DICTIONARY
  5
19
102
{ACAD_REACTORS
330
C
102
}
330
C
100
AcDbDictionary
281
     1
  3
Layout1
350
1D
  3
Model
350
21
  0
DICTIONARY
  5
DE
102
{ACAD_REACTORS
330
C
102
}
330
C
100
AcDbDictionary
281
     1
  0
DICTIONARY
  5
16
102
{ACAD_REACTORS
330
C
102
}
330
C
100
AcDbDictionary
281
     1
  3
Standard
350
17
  0
DICTIONARY
  5
18
102
{ACAD_REACTORS
330
C
102
}
330
C
100
AcDbDictionary
281
     1
  0
ACDBDICTIONARYWDFLT
  5
E
102
{ACAD_REACTORS
330
C
102
}
330
C
100
AcDbDictionary
281
     1
  3
Normal
350
F
100
AcDbDictionaryWithDefault
340
F
  0
DICTIONARY
  5
25E
102
{ACAD_REACTORS
330
C
102
}
330
C
100
AcDbDictionary
281
     1
  3
DIMASSOC
350
25F
  3
PROJECTNAME
350
260
  0
XRECORD
  5
D4
102
{ACAD_REACTORS
330
A0
102
}
330
A0
100
AcDbXrecord
280
     1
340
1E
  0
XRECORD
  5
D3
102
{ACAD_REACTORS
330
A2
102
}
330
A2
100
AcDbXrecord
280
     1
340
1A
  0
LAYOUT
  5
1D
102
{ACAD_REACTORS
330
19
102
}
330
19
100
AcDbPlotSettings
  1

  2
\\NT_WORK01\HP LaserJet 5000 PCL 6
  4

  6

 40
0.0
 41
0.0
 42
0.0
 43
0.0
 44
0.0
 45
0.0
 46
0.0
 47
0.0
 48
0.0
 49
0.0
140
0.0
141
0.0
142
1.0
143
1.0
 70
   688
 72
     0
 73
     0
 74
     5
  7

 75
    16
147
1.0
 76
     0
 77
     2
 78
   300
148
0.0
149
0.0
100
AcDbLayout
  1
Layout1
 70
     0
 71
     1
 10
0.0
 20
0.0
 11
12.0
 21
9.0
 12
0.0
 22
0.0
 32
0.0
 14
1.000000000000000E+20
 24
1.000000000000000E+20
 34
1.000000000000000E+20
 15
-1.000000000000000E+20
 25
-1.000000000000000E+20
 35
-1.000000000000000E+20
146
0.0
 13
0.0
 23
0.0
 33
0.0
 16
1.0
 26
0.0
 36
0.0
 17
0.0
 27
1.0
 37
0.0
 76
     0
330
1A
  0
LAYOUT
  5
21
102
{ACAD_REACTORS
330
19
102
}
330
19
100
AcDbPlotSettings
  1

  2
RICOH Aficio 2027 PCL 6
  4
A4
  6

 40
5.027083
 41
5.027084999999999
 42
5.027084
 43
5.027069
 44
209.973328
 45
296.925995
 46
0.0
 47
2.06
 48
0.0
 49
0.0
140
0.0
141
0.0
142
1.0
143
2.100849152723284
 70
 11956
 72
     1
 73
     0
 74
     2
  7
monochrome1.ctb
 75
     0
147
0.4759980023809526
 76
     1
 77
     2
 78
   300
148
0.0
149
0.0
100
AcDbLayout
  1
Model
 70
     1
 71
     0
 10
0.0
 20
0.0
 11
12.0
 21
9.0
 12
0.0
 22
0.0
 32
0.0
 14
0.0
 24
0.0
 34
0.0
 15
0.0
 25
0.0
 35
0.0
146
0.0
 13
0.0
 23
0.0
 33
0.0
 16
1.0
 26
0.0
 36
0.0
 17
0.0
 27
1.0
 37
0.0
 76
     0
330
1E
  0
MLINESTYLE
  5
17
102
{ACAD_REACTORS
330
16
102
}
330
16
100
AcDbMlineStyle
  2
STANDARD
 70
     0
  3

 62
   256
 51
90.0
 52
90.0
 71
     2
 49
0.5
 62
   256
  6
BYLAYER
 49
-0.5
 62
   256
  6
BYLAYER
  0
ACDBPLACEHOLDER
  5
F
102
{ACAD_REACTORS
330
E
102
}
330
E
  0
DICTIONARYVAR
  5
25F
102
{ACAD_REACTORS
330
25E
102
}
330
25E
100
DictionaryVariables
280
     0
  1
1
  0
DICTIONARYVAR
  5
260
102
{ACAD_REACTORS
330
25E
102
}
330
25E
100
DictionaryVariables
280
     0
  1

  0
ENDSEC
  0
EOF
