  0
SECTION
  2
HEADER
  9
$ACADVER
  1
AC1018
  9
$ACADMAINTVER
 70
     2
  9
$DWGCODEPAGE
  3
ANSI_1252
  9
$INSBASE
 10
0.0
 20
0.0
 30
0.0
  9
$EXTMIN
 10
-0.0127968944558461
 20
-0.0180984650162373
 30
-0.0000000000000053
  9
$EXTMAX
 10
420.00961919835
 20
594.0136042948106
 30
0.0000000000000099
  9
$LIMMIN
 10
0.0
 20
0.0
  9
$LIMMAX
 10
419.9999999999999
 20
594.0000000000002
  9
$ORTHOMODE
 70
     0
  9
$REGENMODE
 70
     1
  9
$FILLMODE
 70
     1
  9
$QTEXTMODE
 70
     0
  9
$MIRRTEXT
 70
     1
  9
$LTSCALE
 40
20.0
  9
$ATTMODE
 70
     1
  9
$TEXTSIZE
 40
3.5
  9
$TRACEWID
 40
0.5
  9
$TEXTSTYLE
  7
STANDARD
  9
$CLAYER
  8
BEM
  9
$CELTYPE
  6
ByLayer
  9
$CECOLOR
 62
   256
  9
$CELTSCALE
 40
1.0
  9
$DISPSILH
 70
     0
  9
$DIMSCALE
 40
2.0
  9
$DIMASZ
 40
3.5
  9
$DIMEXO
 40
1.0
  9
$DIMDLI
 40
7.0
  9
$DIMRND
 40
0.0
  9
$DIMDLE
 40
0.0
  9
$DIMEXE
 40
1.0
  9
$DIMTP
 40
0.0
  9
$DIMTM
 40
0.0
  9
$DIMTXT
 40
3.5
  9
$DIMCEN
 40
1.5
  9
$DIMTSZ
 40
0.0
  9
$DIMTOL
 70
     0
  9
$DIMLIM
 70
     0
  9
$DIMTIH
 70
     0
  9
$DIMTOH
 70
     0
  9
$DIMSE1
 70
     0
  9
$DIMSE2
 70
     0
  9
$DIMTAD
 70
     1
  9
$DIMZIN
 70
     8
  9
$DIMBLK
  1

  9
$DIMASO
 70
     1
  9
$DIMSHO
 70
     0
  9
$DIMPOST
  1

  9
$DIMAPOST
  1

  9
$DIMALT
 70
     0
  9
$DIMALTD
 70
     2
  9
$DIMALTF
 40
25.4
  9
$DIMLFAC
 40
1.0
  9
$DIMTOFL
 70
     1
  9
$DIMTVP
 40
0.0
  9
$DIMTIX
 70
     0
  9
$DIMSOXD
 70
     0
  9
$DIMSAH
 70
     0
  9
$DIMBLK1
  1

  9
$DIMBLK2
  1

  9
$DIMSTYLE
  2
Standard
  9
$DIMCLRD
 70
     0
  9
$DIMCLRE
 70
     0
  9
$DIMCLRT
 70
     1
  9
$DIMTFAC
 40
0.5142857142857144
  9
$DIMGAP
 40
1.5
  9
$DIMJUST
 70
     0
  9
$DIMSD1
 70
     0
  9
$DIMSD2
 70
     0
  9
$DIMTOLJ
 70
     1
  9
$DIMTZIN
 70
     8
  9
$DIMALTZ
 70
     8
  9
$DIMALTTZ
 70
     8
  9
$DIMUPT
 70
     0
  9
$DIMDEC
 70
     2
  9
$DIMTDEC
 70
     2
  9
$DIMALTU
 70
     2
  9
$DIMALTTD
 70
     2
  9
$DIMTXSTY
  7
STANDARD
  9
$DIMAUNIT
 70
     0
  9
$DIMADEC
 70
     2
  9
$DIMALTRND
 40
0.0
  9
$DIMAZIN
 70
     2
  9
$DIMDSEP
 70
    46
  9
$DIMATFIT
 70
     3
  9
$DIMFRAC
 70
     0
  9
$DIMLDRBLK
  1

  9
$DIMLUNIT
 70
     2
  9
$DIMLWD
 70
    -2
  9
$DIMLWE
 70
    -2
  9
$DIMTMOVE
 70
     0
  9
$LUNITS
 70
     2
  9
$LUPREC
 70
     2
  9
$SKETCHINC
 40
1.0
  9
$FILLETRAD
 40
0.0
  9
$AUNITS
 70
     0
  9
$AUPREC
 70
     0
  9
$MENU
  1
ACAD
  9
$ELEVATION
 40
0.0
  9
$PELEVATION
 40
0.0
  9
$THICKNESS
 40
0.0
  9
$LIMCHECK
 70
     0
  9
$CHAMFERA
 40
0.0
  9
$CHAMFERB
 40
0.0
  9
$CHAMFERC
 40
0.0
  9
$CHAMFERD
 40
0.0
  9
$SKPOLY
 70
     0
  9
$TDCREATE
 40
2455397.823042361
  9
$TDUCREATE
 40
2455397.781375695
  9
$TDUPDATE
 40
2455532.538319005
  9
$TDUUPDATE
 40
2455532.496652338
  9
$TDINDWG
 40
0.3658141088
  9
$TDUSRTIMER
 40
0.3658141088
  9
$USRTIMER
 70
     1
  9
$ANGBASE
 50
0.0
  9
$ANGDIR
 70
     0
  9
$PDMODE
 70
     0
  9
$PDSIZE
 40
0.0
  9
$PLINEWID
 40
0.0
  9
$SPLFRAME
 70
     0
  9
$SPLINETYPE
 70
     6
  9
$SPLINESEGS
 70
     8
  9
$HANDSEED
  5
D36
  9
$SURFTAB1
 70
     6
  9
$SURFTAB2
 70
     6
  9
$SURFTYPE
 70
     6
  9
$SURFU
 70
     6
  9
$SURFV
 70
     6
  9
$UCSBASE
  2

  9
$UCSNAME
  2

  9
$UCSORG
 10
0.0
 20
0.0
 30
0.0
  9
$UCSXDIR
 10
1.0
 20
0.0
 30
0.0
  9
$UCSYDIR
 10
0.0
 20
1.0
 30
0.0
  9
$UCSORTHOREF
  2

  9
$UCSORTHOVIEW
 70
     0
  9
$UCSORGTOP
 10
0.0
 20
0.0
 30
0.0
  9
$UCSORGBOTTOM
 10
0.0
 20
0.0
 30
0.0
  9
$UCSORGLEFT
 10
0.0
 20
0.0
 30
0.0
  9
$UCSORGRIGHT
 10
0.0
 20
0.0
 30
0.0
  9
$UCSORGFRONT
 10
0.0
 20
0.0
 30
0.0
  9
$UCSORGBACK
 10
0.0
 20
0.0
 30
0.0
  9
$PUCSBASE
  2

  9
$PUCSNAME
  2

  9
$PUCSORG
 10
0.0
 20
0.0
 30
0.0
  9
$PUCSXDIR
 10
1.0
 20
0.0
 30
0.0
  9
$PUCSYDIR
 10
0.0
 20
1.0
 30
0.0
  9
$PUCSORTHOREF
  2

  9
$PUCSORTHOVIEW
 70
     0
  9
$PUCSORGTOP
 10
0.0
 20
0.0
 30
0.0
  9
$PUCSORGBOTTOM
 10
0.0
 20
0.0
 30
0.0
  9
$PUCSORGLEFT
 10
0.0
 20
0.0
 30
0.0
  9
$PUCSORGRIGHT
 10
0.0
 20
0.0
 30
0.0
  9
$PUCSORGFRONT
 10
0.0
 20
0.0
 30
0.0
  9
$PUCSORGBACK
 10
0.0
 20
0.0
 30
0.0
  9
$USERI1
 70
     0
  9
$USERI2
 70
     0
  9
$USERI3
 70
     0
  9
$USERI4
 70
     0
  9
$USERI5
 70
     0
  9
$USERR1
 40
0.0
  9
$USERR2
 40
0.0
  9
$USERR3
 40
0.0
  9
$USERR4
 40
0.0
  9
$USERR5
 40
0.0
  9
$WORLDVIEW
 70
     1
  9
$SHADEDGE
 70
     3
  9
$SHADEDIF
 70
    70
  9
$TILEMODE
 70
     1
  9
$MAXACTVP
 70
    16
  9
$PINSBASE
 10
0.0
 20
0.0
 30
0.0
  9
$PLIMCHECK
 70
     0
  9
$PEXTMIN
 10
1.000000000000000E+20
 20
1.000000000000000E+20
 30
1.000000000000000E+20
  9
$PEXTMAX
 10
-1.000000000000000E+20
 20
-1.000000000000000E+20
 30
-1.000000000000000E+20
  9
$PLIMMIN
 10
0.0
 20
0.0
  9
$PLIMMAX
 10
12.0
 20
9.0
  9
$UNITMODE
 70
     0
  9
$VISRETAIN
 70
     0
  9
$PLINEGEN
 70
     0
  9
$PSLTSCALE
 70
     0
  9
$TREEDEPTH
 70
  3020
  9
$CMLSTYLE
  2
Standard
  9
$CMLJUST
 70
     0
  9
$CMLSCALE
 40
1.0
  9
$PROXYGRAPHICS
 70
     1
  9
$MEASUREMENT
 70
     0
  9
$CELWEIGHT
370
    -1
  9
$ENDCAPS
280
     0
  9
$JOINSTYLE
280
     0
  9
$LWDISPLAY
290
     0
  9
$INSUNITS
 70
     0
  9
$HYPERLINKBASE
  1

  9
$STYLESHEET
  1
monochrome 1.ctb
  9
$XEDIT
290
     1
  9
$CEPSNTYPE
380
     0
  9
$PSTYLEMODE
290
     1
  9
$FINGERPRINTGUID
  2
{D68B0D02-A558-11D7-B632-000102183313}
  9
$VERSIONGUID
  2
{F055D1B7-A158-45DB-BD07-60E5ACEB65B9}
  9
$EXTNAMES
290
     1
  9
$PSVPSCALE
 40
0.0
  9
$OLESTARTUP
290
     0
  9
$SORTENTS
280
   127
  9
$INDEXCTL
280
     0
  9
$HIDETEXT
280
     0
  9
$XCLIPFRAME
290
     0
  9
$HALOGAP
280
     0
  9
$OBSCOLOR
 70
   257
  9
$OBSLTYPE
280
     0
  9
$INTERSECTIONDISPLAY
280
     0
  9
$INTERSECTIONCOLOR
 70
   257
  9
$DIMASSOC
280
     1
  9
$PROJECTNAME
  1

  0
ENDSEC
  0
SECTION
  2
CLASSES
  0
CLASS
  1
ACDBDICTIONARYWDFLT
  2
AcDbDictionaryWithDefault
  3
ObjectDBX Classes
 90
        0
 91
        1
280
     0
281
     0
  0
CLASS
  1
DICTIONARYVAR
  2
AcDbDictionaryVar
  3
ObjectDBX Classes
 90
        0
 91
        2
280
     0
281
     0
  0
ENDSEC
  0
SECTION
  2
TABLES
  0
TABLE
  2
VPORT
  5
8
330
0
100
AcDbSymbolTable
 70
     2
  0
VPORT
  5
D35
330
8
100
AcDbSymbolTableRecord
100
AcDbViewportTableRecord
  2
*Active
 70
     0
 10
0.0
 20
0.0
 11
1.0
 21
1.0
 12
209.9984111519471
 22
296.9977529148971
 13
0.0
 23
0.0
 14
1.0
 24
1.0
 15
10.0
 25
10.0
 16
0.0
 26
0.0
 36
1.0
 17
0.0
 27
0.0
 37
0.0
 40
598.8287286232978
 41
1.336927223719676
 42
50.0
 43
0.0
 44
0.0
 50
0.0
 51
0.0
 71
     0
 72
  1500
 73
     1
 74
     0
 75
     0
 76
     0
 77
     0
 78
     0
281
     0
 65
     1
110
0.0
120
0.0
130
0.0
111
1.0
121
0.0
131
0.0
112
0.0
122
1.0
132
0.0
 79
     0
146
0.0
  0
ENDTAB
  0
TABLE
  2
LTYPE
  5
5
330
0
100
AcDbSymbolTable
 70
     2
  0
LTYPE
  5
13
330
5
100
AcDbSymbolTableRecord
100
AcDbLinetypeTableRecord
  2
ByBlock
 70
     0
  3

 72
    65
 73
     0
 40
0.0
  0
LTYPE
  5
14
330
5
100
AcDbSymbolTableRecord
100
AcDbLinetypeTableRecord
  2
ByLayer
 70
     0
  3

 72
    65
 73
     0
 40
0.0
  0
LTYPE
  5
15
330
5
100
AcDbSymbolTableRecord
100
AcDbLinetypeTableRecord
  2
Continuous
 70
     0
  3
Solid line
 72
    65
 73
     0
 40
0.0
  0
LTYPE
  5
25
330
5
100
AcDbSymbolTableRecord
100
AcDbLinetypeTableRecord
  2
STRICHPUNKT
 70
     0
  3
__ . __ . __ . __ . __ . __ . __ . __ . __ . __
 72
    65
 73
     4
 40
1.0
 49
0.5
 74
     0
 49
-0.25
 74
     0
 49
0.0
 74
     0
 49
-0.25
 74
     0
  0
ENDTAB
  0
TABLE
  2
LAYER
  5
2
330
0
100
AcDbSymbolTable
 70
     9
  0
LAYER
  5
10
330
2
100
AcDbSymbolTableRecord
100
AcDbLayerTableRecord
  2
0
 70
     0
 62
     7
  6
Continuous
370
    -3
390
F
  0
LAYER
  5
2A
330
2
100
AcDbSymbolTableRecord
100
AcDbLayerTableRecord
  2
VOLL
 70
     0
 62
     1
  6
Continuous
370
    -3
390
F
  0
LAYER
  5
2B
330
2
100
AcDbSymbolTableRecord
100
AcDbLayerTableRecord
  2
HILF
 70
     0
 62
     2
  6
Continuous
370
    -3
390
F
  0
LAYER
  5
2C
330
2
100
AcDbSymbolTableRecord
100
AcDbLayerTableRecord
  2
MITTEL
 70
     0
 62
     2
  6
STRICHPUNKT
370
    -3
390
F
  0
LAYER
  5
2F
330
2
100
AcDbSymbolTableRecord
100
AcDbLayerTableRecord
  2
BEM
 70
     0
 62
     7
  6
Continuous
370
    -3
390
F
  0
LAYER
  5
30
330
2
100
AcDbSymbolTableRecord
100
AcDbLayerTableRecord
  2
STEMPEL
 70
     0
 62
     3
  6
Continuous
370
    -3
390
F
  0
LAYER
  5
31
330
2
100
AcDbSymbolTableRecord
100
AcDbLayerTableRecord
  2
TEXT
 70
     0
 62
     7
  6
Continuous
370
    -3
390
F
  0
LAYER
  5
171
330
2
100
AcDbSymbolTableRecord
100
AcDbLayerTableRecord
  2
Defpoints
 70
     0
 62
     7
  6
Continuous
290
     0
370
    -3
390
F
  0
LAYER
  5
19C
330
2
100
AcDbSymbolTableRecord
100
AcDbLayerTableRecord
  2
SCHRAFF
 70
     0
 62
     7
  6
Continuous
370
    -3
390
F
  0
ENDTAB
  0
TABLE
  2
STYLE
  5
3
330
0
100
AcDbSymbolTable
 70
     2
  0
STYLE
  5
11
330
3
100
AcDbSymbolTableRecord
100
AcDbTextStyleTableRecord
  2
STANDARD
 70
     0
 40
0.0
 41
0.8
 50
0.0
 71
     0
 42
3.5
  3
simplex.shx
  4

  0
STYLE
  5
24
330
3
100
AcDbSymbolTableRecord
100
AcDbTextStyleTableRecord
  2
GREEKS
 70
     0
 40
0.0
 41
0.8
 50
0.0
 71
     0
 42
2.5
  3
SIMPLEX.shx
  4

  0
ENDTAB
  0
TABLE
  2
VIEW
  5
6
330
0
100
AcDbSymbolTable
 70
     0
  0
ENDTAB
  0
TABLE
  2
UCS
  5
7
330
0
100
AcDbSymbolTable
 70
     0
  0
ENDTAB
  0
TABLE
  2
APPID
  5
9
330
0
100
AcDbSymbolTable
 70
     1
  0
APPID
  5
12
330
9
100
AcDbSymbolTableRecord
100
AcDbRegAppTableRecord
  2
ACAD
 70
     0
  0
ENDTAB
  0
TABLE
  2
DIMSTYLE
  5
A
330
0
100
AcDbSymbolTable
 70
     1
100
AcDbDimStyleTable
 71
     1
340
9D
  0
DIMSTYLE
105
9D
102
{ACAD_REACTORS
330
914
330
96B
330
A97
330
AA4
330
AB1
102
}
330
A
100
AcDbSymbolTableRecord
100
AcDbDimStyleTableRecord
  2
Standard
 70
     0
340
11
  0
ENDTAB
  0
TABLE
  2
BLOCK_RECORD
  5
1
330
0
100
AcDbSymbolTable
 70
     6
  0
BLOCK_RECORD
  5
1E
102
{ACAD_XDICTIONARY
360
A0
102
}
330
1
100
AcDbSymbolTableRecord
100
AcDbBlockTableRecord
  2
*Model_Space
340
21
  0
BLOCK_RECORD
  5
1A
102
{ACAD_XDICTIONARY
360
A2
102
}
330
1
100
AcDbSymbolTableRecord
100
AcDbBlockTableRecord
  2
*Paper_Space
340
1D
  0
BLOCK_RECORD
  5
22
330
1
100
AcDbSymbolTableRecord
100
AcDbBlockTableRecord
  2
LOGO
340
0
102
{BLKREFS
331
9B
102
}
  0
BLOCK_RECORD
  5
936
330
1
100
AcDbSymbolTableRecord
100
AcDbBlockTableRecord
  2
*D1
340
0
  0
BLOCK_RECORD
  5
9BA
330
1
100
AcDbSymbolTableRecord
100
AcDbBlockTableRecord
  2
*D2
340
0
  0
BLOCK_RECORD
  5
A98
330
1
100
AcDbSymbolTableRecord
100
AcDbBlockTableRecord
  2
*D3
340
0
  0
BLOCK_RECORD
  5
AA5
330
1
100
AcDbSymbolTableRecord
100
AcDbBlockTableRecord
  2
*D4
340
0
  0
BLOCK_RECORD
  5
AB2
330
1
100
AcDbSymbolTableRecord
100
AcDbBlockTableRecord
  2
*D5
340
0
  0
ENDTAB
  0
ENDSEC
  0
SECTION
  2
BLOCKS
  0
BLOCK
  5
35
330
1E
100
AcDbEntity
  8
0
100
AcDbBlockBegin
  2
*Model_Space
 70
     0
 10
0.0
 20
0.0
 30
0.0
  3
*Model_Space
  1

  0
ENDBLK
  5
36
330
1E
100
AcDbEntity
  8
0
100
AcDbBlockEnd
  0
BLOCK
  5
33
330
1A
100
AcDbEntity
 67
     1
  8
0
100
AcDbBlockBegin
  2
*Paper_Space
 70
     0
 10
0.0
 20
0.0
 30
0.0
  3
*Paper_Space
  1

  0
ENDBLK
  5
34
330
1A
100
AcDbEntity
 67
     1
  8
0
100
AcDbBlockEnd
  0
BLOCK
  5
37
330
22
100
AcDbEntity
  8
0
100
AcDbBlockBegin
  2
LOGO
 70
     0
 10
0.0
 20
0.0
 30
0.0
  3
LOGO
  1

  0
ARC
  5
38
330
22
100
AcDbEntity
  8
0
100
AcDbCircle
 10
11.59973089678112
 20
-9.271599258481501
 30
0.0
 40
4.5
100
AcDbArc
 50
270.0
 51
231.0575587310159
  0
LINE
  5
39
330
22
100
AcDbEntity
  8
0
100
AcDbLine
 10
3.599730896781125
 20
-4.771599258481529
 30
0.0
 11
3.599730896781153
 21
-11.77159925848133
 31
0.0
  0
LINE
  5
3A
330
22
100
AcDbEntity
  8
0
100
AcDbLine
 10
2.599730896781125
 20
-4.771599258481529
 30
0.0
 11
2.599730896781153
 21
-11.77159925848133
 31
0.0
  0
CIRCLE
  5
3B
330
22
100
AcDbEntity
  8
0
100
AcDbCircle
 10
11.59973089678112
 20
-9.271599258481501
 30
0.0
 40
3.5
  0
ARC
  5
3C
330
22
100
AcDbEntity
  8
0
100
AcDbCircle
 10
31.59973089678115
 20
-9.271599258481472
 30
0.0
 40
4.5
100
AcDbArc
 50
270.0
 51
231.0575587310182
  0
LINE
  5
3D
330
22
100
AcDbEntity
  8
0
100
AcDbLine
 10
17.59973089678112
 20
-4.771599258481472
 30
0.0
 11
17.59973089678115
 21
-13.77159925848147
 31
0.0
  0
ARC
  5
3E
330
22
100
AcDbEntity
  8
0
100
AcDbCircle
 10
22.59973089678116
 20
-7.271599258481472
 30
0.0
 40
2.5
100
AcDbArc
 50
293.1161887722295
 51
90.0
  0
CIRCLE
  5
3F
330
22
100
AcDbEntity
  8
0
100
AcDbCircle
 10
31.59973089678115
 20
-9.271599258481472
 30
0.0
 40
3.5
  0
ARC
  5
40
330
22
100
AcDbEntity
  8
0
100
AcDbCircle
 10
4.599730896781153
 20
-11.77159925848133
 30
0.0
 40
1.0
100
AcDbArc
 50
180.0
 51
270.0
  0
ARC
  5
41
330
22
100
AcDbEntity
  8
0
100
AcDbCircle
 10
4.599730896781153
 20
-11.77159925848133
 30
0.0
 40
2.0
100
AcDbArc
 50
179.9999999999992
 51
270.0
  0
LINE
  5
42
330
22
100
AcDbEntity
  8
0
100
AcDbLine
 10
11.59973089678115
 20
-13.77159925848144
 30
0.0
 11
4.599730896781153
 21
-13.77159925848147
 31
0.0
  0
LINE
  5
43
330
22
100
AcDbEntity
  8
0
100
AcDbLine
 10
8.771303772034769
 20
-12.77159925848136
 30
0.0
 11
4.599730896781153
 21
-12.77159925848133
 31
0.0
  0
LINE
  5
44
330
22
100
AcDbEntity
  8
0
100
AcDbLine
 10
31.59973089678115
 20
-13.77159925848147
 30
0.0
 11
23.6715276665056
 21
-13.77159925848144
 31
0.0
  0
LINE
  5
45
330
22
100
AcDbEntity
  8
0
100
AcDbLine
 10
23.56565672307022
 20
-9.51278021337896
 30
0.0
 11
24.4388546544846
 21
-12.77159925848144
 31
0.0
  0
LINE
  5
46
330
22
100
AcDbEntity
  8
0
100
AcDbLine
 10
22.59973089678116
 20
-9.771599258481472
 30
0.0
 11
18.59973089678112
 21
-9.771599258481472
 31
0.0
  0
LINE
  5
47
330
22
100
AcDbEntity
  8
0
100
AcDbLine
 10
18.59973089678115
 20
-13.77159925848144
 30
0.0
 11
17.59973089678115
 21
-13.77159925848144
 31
0.0
  0
LINE
  5
48
330
22
100
AcDbEntity
  8
0
100
AcDbLine
 10
18.59973089678115
 20
-9.771599258481472
 30
0.0
 11
18.59973089678115
 21
-13.77159925848144
 31
0.0
  0
LINE
  5
49
330
22
100
AcDbEntity
  8
0
100
AcDbLine
 10
22.59973089678116
 20
-9.771599258481472
 30
0.0
 11
23.67152766650562
 21
-13.77159925848147
 31
0.0
  0
ARC
  5
4A
330
22
100
AcDbEntity
  8
0
100
AcDbCircle
 10
22.59973089678116
 20
-7.271599258481472
 30
0.0
 40
2.5
100
AcDbArc
 50
270.0
 51
270.0000000000007
  0
LINE
  5
4B
330
22
100
AcDbEntity
  8
0
100
AcDbLine
 10
28.77130377203494
 20
-12.77159925848147
 30
0.0
 11
24.43885465448463
 21
-12.77159925848144
 31
0.0
  0
LINE
  5
4C
330
22
100
AcDbEntity
  8
0
100
AcDbLine
 10
3.599730896781125
 20
-4.771599258481472
 30
0.0
 11
2.599730896781125
 21
-4.771599258481472
 31
0.0
  0
LINE
  5
4D
330
22
100
AcDbEntity
  8
0
100
AcDbLine
 10
22.59973089678116
 20
-8.771599258481472
 30
0.0
 11
18.59973089678115
 21
-8.771599258481472
 31
0.0
  0
LINE
  5
4E
330
22
100
AcDbEntity
  8
0
100
AcDbLine
 10
22.59973089678116
 20
-5.771599258481472
 30
0.0
 11
18.59973089678115
 21
-5.771599258481472
 31
0.0
  0
LINE
  5
4F
330
22
100
AcDbEntity
  8
0
100
AcDbLine
 10
22.59973089678116
 20
-4.771599258481472
 30
0.0
 11
17.59973089678115
 21
-4.771599258481472
 31
0.0
  0
LINE
  5
50
330
22
100
AcDbEntity
  8
0
100
AcDbLine
 10
18.59973089678115
 20
-5.771599258481472
 30
0.0
 11
18.59973089678115
 21
-8.771599258481472
 31
0.0
  0
ARC
  5
51
330
22
100
AcDbEntity
  8
0
100
AcDbCircle
 10
22.59973089678116
 20
-7.271599258481472
 30
0.0
 40
1.5
100
AcDbArc
 50
270.0
 51
90.0
  0
ENDBLK
  5
52
330
22
100
AcDbEntity
  8
0
100
AcDbBlockEnd
  0
BLOCK
  5
940
330
936
100
AcDbEntity
  8
0
100
AcDbBlockBegin
  2
*D1
 70
     1
 10
0.0
 20
0.0
 30
0.0
  3
*D1
  1

  0
LINE
  5
B1E
330
936
100
AcDbEntity
  8
BEM
 62
     0
370
    -2
100
AcDbLine
 10
190.7999522791118
 20
279.4035166907828
 30
0.0
 11
190.7999522791118
 21
254.108584313368
 31
0.0
  0
LINE
  5
B1F
330
936
100
AcDbEntity
  8
BEM
 62
     0
370
    -2
100
AcDbLine
 10
232.7999522791118
 20
279.4035166907816
 30
0.0
 11
232.7999522791118
 21
254.108584313368
 31
0.0
  0
LINE
  5
B20
330
936
100
AcDbEntity
  8
BEM
 62
     0
370
    -2
100
AcDbLine
 10
197.7999522791118
 20
256.108584313368
 30
0.0
 11
225.7999522791118
 21
256.108584313368
 31
0.0
  0
SOLID
  5
B21
330
936
100
AcDbEntity
  8
BEM
 62
     0
100
AcDbTrace
 10
197.7999522791118
 20
257.2752509800346
 30
0.0
 11
197.7999522791118
 21
254.9419176467013
 31
0.0
 12
190.7999522791118
 22
256.108584313368
 32
0.0
 13
190.7999522791118
 23
256.108584313368
 33
0.0
  0
SOLID
  5
B22
330
936
100
AcDbEntity
  8
BEM
 62
     0
100
AcDbTrace
 10
225.7999522791118
 20
257.2752509800346
 30
0.0
 11
225.7999522791118
 21
254.9419176467013
 31
0.0
 12
232.7999522791118
 22
256.108584313368
 32
0.0
 13
232.7999522791118
 23
256.108584313368
 33
0.0
  0
MTEXT
  5
B23
330
936
100
AcDbEntity
  8
BEM
 62
     1
100
AcDbMText
 10
211.7999522791119
 20
262.6085843133679
 30
0.0
 40
7.0
 41
0.0
 71
     5
 72
     1
  1
\A1;%%c42
  7
GREEKS
 73
     1
 44
1.0
  0
POINT
  5
B24
330
936
100
AcDbEntity
  8
Defpoints
 62
     0
100
AcDbPoint
 10
190.7999522791118
 20
281.4035166907828
 30
0.0
  0
POINT
  5
B25
330
936
100
AcDbEntity
  8
Defpoints
 62
     0
100
AcDbPoint
 10
232.7999522791118
 20
281.4035166907816
 30
0.0
  0
POINT
  5
B26
330
936
100
AcDbEntity
  8
Defpoints
 62
     0
100
AcDbPoint
 10
232.7999522791118
 20
256.108584313368
 30
0.0
  0
ENDBLK
  5
941
330
936
100
AcDbEntity
  8
0
100
AcDbBlockEnd
  0
BLOCK
  5
9C4
330
9BA
100
AcDbEntity
  8
0
100
AcDbBlockBegin
  2
*D2
 70
     1
 10
0.0
 20
0.0
 30
0.0
  3
*D2
  1

  0
LINE
  5
D1B
330
9BA
100
AcDbEntity
  8
BEM
 62
     0
370
    -2
100
AcDbLine
 10
212.2625529286271
 20
442.2717181695658
 30
0.0
 11
219.7523180567944
 21
455.2443719083089
 31
0.0
  0
LINE
  5
D1C
330
9BA
100
AcDbEntity
  8
BEM
 62
     0
370
    -2
100
AcDbLine
 10
289.3388138654424
 20
397.7717181695659
 30
0.0
 11
296.8285789936091
 21
410.7443719083081
 31
0.0
  0
LINE
  5
D1D
330
9BA
100
AcDbEntity
  8
BEM
 62
     0
370
    -2
100
AcDbLine
 10
224.8144958832853
 20
450.01232110074
 30
0.0
 11
289.7664011671181
 21
412.5123211007393
 31
0.0
  0
SOLID
  5
D1E
330
9BA
100
AcDbEntity
  8
BEM
 62
     0
100
AcDbTrace
 10
225.3978292166187
 20
451.0226840718218
 30
0.0
 11
224.231162549952
 21
449.0019581296581
 31
0.0
 12
218.7523180567943
 22
453.51232110074
 32
0.0
 13
218.7523180567943
 23
453.51232110074
 33
0.0
  0
SOLID
  5
D1F
330
9BA
100
AcDbEntity
  8
BEM
 62
     0
100
AcDbTrace
 10
290.3497345004515
 20
413.5226840718211
 30
0.0
 11
289.1830678337847
 21
411.5019581296574
 31
0.0
 12
295.8285789936091
 22
409.0123211007393
 32
0.0
 13
295.8285789936091
 23
409.0123211007393
 33
0.0
  0
MTEXT
  5
D20
330
9BA
100
AcDbEntity
  8
BEM
 62
     1
100
AcDbMText
 10
260.5404485252018
 20
436.8914862253385
 30
0.0
 40
7.0
 41
0.0
 71
     5
 72
     1
  1
\A1;%%c89
  7
GREEKS
 11
0.8660254037844342
 21
-0.500000000000008
 31
0.0
 73
     1
 44
1.0
  0
POINT
  5
D21
330
9BA
100
AcDbEntity
  8
Defpoints
 62
     0
100
AcDbPoint
 10
211.262552928627
 20
440.539667361997
 30
0.0
  0
POINT
  5
D22
330
9BA
100
AcDbEntity
  8
Defpoints
 62
     0
100
AcDbPoint
 10
288.3388138654423
 20
396.039667361997
 30
0.0
  0
POINT
  5
D23
330
9BA
100
AcDbEntity
  8
Defpoints
 62
     0
100
AcDbPoint
 10
295.8285789936091
 20
409.0123211007393
 30
0.0
  0
ENDBLK
  5
9C5
330
9BA
100
AcDbEntity
  8
0
100
AcDbBlockEnd
  0
BLOCK
  5
AA2
330
A98
100
AcDbEntity
  8
0
100
AcDbBlockBegin
  2
*D3
 70
     1
 10
0.0
 20
0.0
 30
0.0
  3
*D3
  1

  0
LINE
  5
CF1
330
A98
100
AcDbEntity
  8
BEM
 62
     0
370
    -2
100
AcDbLine
 10
165.2999522791118
 20
301.469008105144
 30
0.0
 11
151.5938247000951
 21
301.469008105144
 31
0.0
  0
LINE
  5
CF2
330
A98
100
AcDbEntity
  8
BEM
 62
     0
370
    -2
100
AcDbLine
 10
189.2316658404265
 20
276.469008105144
 30
0.0
 11
151.5938247000951
 21
276.469008105144
 31
0.0
  0
LINE
  5
CF3
330
A98
100
AcDbEntity
  8
BEM
 62
     0
370
    -2
100
AcDbLine
 10
153.5938247000951
 20
294.469008105144
 30
0.0
 11
153.5938247000951
 21
283.469008105144
 31
0.0
  0
SOLID
  5
CF4
330
A98
100
AcDbEntity
  8
BEM
 62
     0
100
AcDbTrace
 10
152.4271580334284
 20
294.469008105144
 30
0.0
 11
154.7604913667617
 21
294.469008105144
 31
0.0
 12
153.5938247000951
 22
301.469008105144
 32
0.0
 13
153.5938247000951
 23
301.469008105144
 33
0.0
  0
SOLID
  5
CF5
330
A98
100
AcDbEntity
  8
BEM
 62
     0
100
AcDbTrace
 10
152.4271580334284
 20
283.469008105144
 30
0.0
 11
154.7604913667617
 21
283.469008105144
 31
0.0
 12
153.5938247000951
 22
276.469008105144
 32
0.0
 13
153.5938247000951
 23
276.469008105144
 33
0.0
  0
MTEXT
  5
CF6
330
A98
100
AcDbEntity
  8
BEM
 62
     1
100
AcDbMText
 10
147.093824700095
 20
288.969008105144
 30
0.0
 40
7.0
 41
0.0
 71
     5
 72
     1
  1
\A1;25
 11
0.0000000000000001
 21
1.0
 31
0.0
 73
     1
 44
1.0
  0
POINT
  5
CF7
330
A98
100
AcDbEntity
  8
Defpoints
 62
     0
100
AcDbPoint
 10
167.2999522791118
 20
301.469008105144
 30
0.0
  0
POINT
  5
CF8
330
A98
100
AcDbEntity
  8
Defpoints
 62
     0
100
AcDbPoint
 10
191.2316658404265
 20
276.469008105144
 30
0.0
  0
POINT
  5
CF9
330
A98
100
AcDbEntity
  8
Defpoints
 62
     0
100
AcDbPoint
 10
153.5938247000951
 20
276.469008105144
 30
0.0
  0
ENDBLK
  5
AA3
330
A98
100
AcDbEntity
  8
0
100
AcDbBlockEnd
  0
BLOCK
  5
AAF
330
AA5
100
AcDbEntity
  8
0
100
AcDbBlockBegin
  2
*D4
 70
     1
 10
0.0
 20
0.0
 30
0.0
  3
*D4
  1

  0
LINE
  5
CE8
330
AA5
100
AcDbEntity
  8
BEM
 62
     0
370
    -2
100
AcDbLine
 10
209.7999522791119
 20
352.4704703409902
 30
0.0
 11
137.1580166489307
 21
352.4704703409902
 31
0.0
  0
LINE
  5
CE9
330
AA5
100
AcDbEntity
  8
BEM
 62
     0
370
    -2
100
AcDbLine
 10
189.2316658404265
 20
276.469008105144
 30
0.0
 11
137.1580166489307
 21
276.469008105144
 31
0.0
  0
LINE
  5
CEA
330
AA5
100
AcDbEntity
  8
BEM
 62
     0
370
    -2
100
AcDbLine
 10
139.1580166489307
 20
345.4704703409902
 30
0.0
 11
139.1580166489307
 21
283.469008105144
 31
0.0
  0
SOLID
  5
CEB
330
AA5
100
AcDbEntity
  8
BEM
 62
     0
100
AcDbTrace
 10
137.991349982264
 20
345.4704703409902
 30
0.0
 11
140.3246833155973
 21
345.4704703409902
 31
0.0
 12
139.1580166489307
 22
352.4704703409902
 32
0.0
 13
139.1580166489307
 23
352.4704703409902
 33
0.0
  0
SOLID
  5
CEC
330
AA5
100
AcDbEntity
  8
BEM
 62
     0
100
AcDbTrace
 10
137.991349982264
 20
283.469008105144
 30
0.0
 11
140.3246833155973
 21
283.469008105144
 31
0.0
 12
139.1580166489307
 22
276.469008105144
 32
0.0
 13
139.1580166489307
 23
276.469008105144
 33
0.0
  0
MTEXT
  5
CED
330
AA5
100
AcDbEntity
  8
BEM
 62
     1
100
AcDbMText
 10
132.6580166489306
 20
314.4697392230671
 30
0.0
 40
7.0
 41
0.0
 71
     5
 72
     1
  1
\A1;76
 11
0.0000000000000001
 21
1.0
 31
0.0
 73
     1
 44
1.0
  0
POINT
  5
CEE
330
AA5
100
AcDbEntity
  8
Defpoints
 62
     0
100
AcDbPoint
 10
211.7999522791119
 20
352.4704703409902
 30
0.0
  0
POINT
  5
CEF
330
AA5
100
AcDbEntity
  8
Defpoints
 62
     0
100
AcDbPoint
 10
191.2316658404265
 20
276.469008105144
 30
0.0
  0
POINT
  5
CF0
330
AA5
100
AcDbEntity
  8
Defpoints
 62
     0
100
AcDbPoint
 10
139.1580166489307
 20
276.469008105144
 30
0.0
  0
ENDBLK
  5
AB0
330
AA5
100
AcDbEntity
  8
0
100
AcDbBlockEnd
  0
BLOCK
  5
ABC
330
AB2
100
AcDbEntity
  8
0
100
AcDbBlockBegin
  2
*D5
 70
     1
 10
0.0
 20
0.0
 30
0.0
  3
*D5
  1

  0
LINE
  5
CFA
330
AB2
100
AcDbEntity
  8
BEM
 62
     0
370
    -2
100
AcDbLine
 10
209.5305021210582
 20
441.5396673619971
 30
0.0
 11
197.4495220387778
 21
448.5146244645761
 31
0.0
  0
LINE
  5
CFB
330
AB2
100
AcDbEntity
  8
BEM
 62
     0
370
    -2
100
AcDbLine
 10
210.067901471543
 20
353.4704703409902
 30
0.0
 11
159.4487909208547
 21
382.6954274435694
 31
0.0
  0
LINE
  5
CFC
330
AB2
100
AcDbEntity
  8
BEM
 62
     0
370
    -2
100
AcDbLine
 10
195.6815728463467
 20
441.452446638085
 30
0.0
 11
164.6808417284236
 21
387.7576052700604
 31
0.0
  0
SOLID
  5
CFD
330
AB2
100
AcDbEntity
  8
BEM
 62
     0
100
AcDbTrace
 10
194.6712098752649
 20
442.0357799714183
 30
0.0
 11
196.6919358174286
 21
440.8691133047518
 31
0.0
 12
199.1815728463467
 22
447.5146244645761
 32
0.0
 13
199.1815728463467
 23
447.5146244645761
 33
0.0
  0
SOLID
  5
CFE
330
AB2
100
AcDbEntity
  8
BEM
 62
     0
100
AcDbTrace
 10
163.6704787573417
 20
388.3409386033937
 30
0.0
 11
165.6912046995054
 21
387.1742719367271
 31
0.0
 12
161.1808417284236
 22
381.6954274435694
 32
0.0
 13
161.1808417284236
 23
381.6954274435694
 33
0.0
  0
MTEXT
  5
CFF
330
AB2
100
AcDbEntity
  8
BEM
 62
     1
100
AcDbMText
 10
174.5520421627863
 20
417.8550259540727
 30
0.0
 40
7.0
 41
0.0
 71
     5
 72
     1
  1
\A1;76
 11
0.4999999999999986
 21
0.8660254037844394
 31
0.0
 73
     1
 44
1.0
  0
POINT
  5
D00
330
AB2
100
AcDbEntity
  8
Defpoints
 62
     0
100
AcDbPoint
 10
211.2625529286271
 20
440.5396673619971
 30
0.0
  0
POINT
  5
D01
330
AB2
100
AcDbEntity
  8
Defpoints
 62
     0
100
AcDbPoint
 10
211.7999522791119
 20
352.4704703409903
 30
0.0
  0
POINT
  5
D02
330
AB2
100
AcDbEntity
  8
Defpoints
 62
     0
100
AcDbPoint
 10
161.1808417284236
 20
381.6954274435694
 30
0.0
  0
ENDBLK
  5
ABD
330
AB2
100
AcDbEntity
  8
0
100
AcDbBlockEnd
  0
ENDSEC
  0
SECTION
  2
ENTITIES
  0
LINE
  5
57
330
1E
100
AcDbEntity
  8
STEMPEL
100
AcDbLine
 10
410.0
 20
110.0
 30
0.0
 11
39.99999999999997
 21
110.0
 31
0.0
  0
LINE
  5
58
330
1E
100
AcDbEntity
  8
STEMPEL
100
AcDbLine
 10
146.0000000000001
 20
109.9999999999999
 30
0.0
 11
146.0
 21
9.999999999999971
 31
0.0
  0
LINE
  5
59
330
1E
100
AcDbEntity
  8
STEMPEL
100
AcDbLine
 10
230.0
 20
110.0
 30
0.0
 11
230.0
 21
9.999999999999971
 31
0.0
  0
LINE
  5
5A
330
1E
100
AcDbEntity
  8
STEMPEL
100
AcDbLine
 10
332.0
 20
109.9999999999997
 30
0.0
 11
332.0
 21
40.0
 31
0.0
  0
LINE
  5
5B
330
1E
100
AcDbEntity
  8
STEMPEL
100
AcDbLine
 10
145.9999999999999
 20
29.99999999999997
 30
0.0
 11
39.99999999999997
 21
29.99999999999997
 31
0.0
  0
LINE
  5
5C
330
1E
100
AcDbEntity
  8
STEMPEL
100
AcDbLine
 10
410.0
 20
40.0
 30
0.0
 11
146.0000000000001
 21
39.99999999999997
 31
0.0
  0
LINE
  5
5D
330
1E
100
AcDbEntity
  8
STEMPEL
100
AcDbLine
 10
410.0
 20
80.0
 30
0.0
 11
146.0000000000001
 21
79.99999999999994
 31
0.0
  0
LINE
  5
5E
330
1E
100
AcDbEntity
  8
VOLL
100
AcDbLine
 10
54.00000000000009
 20
110.0
 30
0.0
 11
53.99999999999997
 21
9.999999999999971
 31
0.0
  0
LINE
  5
5F
330
1E
100
AcDbEntity
  8
VOLL
100
AcDbLine
 10
104.0000000000001
 20
109.9999999999999
 30
0.0
 11
104.0
 21
9.999999999999971
 31
0.0
  0
LINE
  5
60
330
1E
100
AcDbEntity
  8
VOLL
100
AcDbLine
 10
124.0000000000001
 20
109.9999999999999
 30
0.0
 11
124.0
 21
9.999999999999971
 31
0.0
  0
LINE
  5
61
330
1E
100
AcDbEntity
  8
VOLL
100
AcDbLine
 10
164.0000000000001
 20
79.99999999999994
 30
0.0
 11
164.0000000000001
 21
39.99999999999997
 31
0.0
  0
LINE
  5
62
330
1E
100
AcDbEntity
  8
VOLL
100
AcDbLine
 10
190.0000000000001
 20
109.9999999999998
 30
0.0
 11
190.0
 21
39.99999999999997
 31
0.0
  0
LINE
  5
63
330
1E
100
AcDbEntity
  8
HILF
100
AcDbLine
 10
40.00000000000008
 20
100.0
 30
0.0
 11
146.0000000000001
 21
100.0
 31
0.0
  0
LINE
  5
64
330
1E
100
AcDbEntity
  8
HILF
100
AcDbLine
 10
40.00000000000008
 20
90.00000000000005
 30
0.0
 11
146.0000000000001
 21
90.00000000000005
 31
0.0
  0
LINE
  5
65
330
1E
100
AcDbEntity
  8
HILF
100
AcDbLine
 10
40.00000000000008
 20
79.99999999999994
 30
0.0
 11
146.0000000000001
 21
79.99999999999994
 31
0.0
  0
LINE
  5
66
330
1E
100
AcDbEntity
  8
HILF
100
AcDbLine
 10
40.00000000000008
 20
69.99999999999994
 30
0.0
 11
146.0000000000001
 21
69.99999999999994
 31
0.0
  0
LINE
  5
67
330
1E
100
AcDbEntity
  8
HILF
100
AcDbLine
 10
40.00000000000008
 20
59.99999999999997
 30
0.0
 11
146.0000000000001
 21
59.99999999999997
 31
0.0
  0
LINE
  5
68
330
1E
100
AcDbEntity
  8
HILF
100
AcDbLine
 10
40.00000000000008
 20
49.99999999999997
 30
0.0
 11
146.0000000000001
 21
49.99999999999997
 31
0.0
  0
LINE
  5
69
330
1E
100
AcDbEntity
  8
HILF
100
AcDbLine
 10
40.00000000000008
 20
39.99999999999997
 30
0.0
 11
146.0000000000001
 21
39.99999999999997
 31
0.0
  0
LINE
  5
6A
330
1E
100
AcDbEntity
  8
HILF
100
AcDbLine
 10
146.0000000000001
 20
69.99999999999994
 30
0.0
 11
230.0
 21
69.99999999999994
 31
0.0
  0
LINE
  5
6B
330
1E
100
AcDbEntity
  8
HILF
100
AcDbLine
 10
146.0000000000001
 20
59.99999999999997
 30
0.0
 11
230.0
 21
59.99999999999997
 31
0.0
  0
LINE
  5
6C
330
1E
100
AcDbEntity
  8
HILF
100
AcDbLine
 10
146.0000000000001
 20
49.99999999999997
 30
0.0
 11
230.0
 21
49.99999999999997
 31
0.0
  0
LINE
  5
6D
330
1E
100
AcDbEntity
  8
HILF
100
AcDbLine
 10
234.7736801096947
 20
84.03758247564139
 30
0.0
 11
324.8353916556311
 21
84.03758247564139
 31
0.0
  0
LINE
  5
6E
330
1E
100
AcDbEntity
  8
HILF
100
AcDbLine
 10
234.7736801096947
 20
69.99999999999994
 30
0.0
 11
324.835391655631
 21
69.99999999999994
 31
0.0
  0
LINE
  5
6F
330
1E
100
AcDbEntity
  8
HILF
100
AcDbLine
 10
234.7736801096947
 20
59.99999999999997
 30
0.0
 11
324.835391655631
 21
59.99999999999997
 31
0.0
  0
LINE
  5
70
330
1E
100
AcDbEntity
  8
HILF
100
AcDbLine
 10
234.7736801096947
 20
49.99999999999997
 30
0.0
 11
324.835391655631
 21
49.99999999999997
 31
0.0
  0
LINE
  5
71
330
1E
100
AcDbEntity
  8
VOLL
100
AcDbLine
 10
332.0
 20
60.0
 30
0.0
 11
410.0
 21
60.0
 31
0.0
  0
LINE
  5
72
330
1E
100
AcDbEntity
  8
HILF
100
AcDbLine
 10
336.7238616296993
 20
83.77983636955827
 30
0.0
 11
404.8588839326728
 21
83.77983636955827
 31
0.0
  0
LINE
  5
73
330
1E
100
AcDbEntity
  8
HILF
100
AcDbLine
 10
233.4909699289885
 20
14.89398258028314
 30
0.0
 11
404.8588839326728
 21
14.89398258028314
 31
0.0
  0
TEXT
  5
74
330
1E
100
AcDbEntity
  8
TEXT
100
AcDbText
 10
67.79509897490102
 20
18.67381894984132
 30
0.0
 40
4.0
  1
Änderung
 41
0.8
  7
GREEKS
 72
     1
 11
78.53795611775817
 21
18.67381894984132
 31
0.0
100
AcDbText
  0
TEXT
  5
75
330
1E
100
AcDbEntity
  8
TEXT
100
AcDbText
 10
153.5163572150377
 20
102.4620895087088
 30
0.0
 40
5.0
  1
Maßstab
 41
0.8
  7
GREEKS
100
AcDbText
  0
TEXT
  5
76
330
1E
100
AcDbEntity
  8
TEXT
100
AcDbText
 10
194.2858954734051
 20
102.4184168434819
 30
0.0
 40
5.0
  1
Zul. Abw.
 41
0.8
  7
GREEKS
100
AcDbText
  0
TEXT
  5
77
330
1E
100
AcDbEntity
  8
TEXT
100
AcDbText
 10
234.877940380901
 20
102.5489328011779
 30
0.0
 40
5.0
  1
Benennung
 41
0.8
  7
GREEKS
100
AcDbText
  0
TEXT
  5
78
330
1E
100
AcDbEntity
  8
TEXT
100
AcDbText
 10
336.178754957634
 20
102.3132034537136
 30
0.0
 40
5.0
  1
Zeichnungs Nr.
 41
0.8
  7
GREEKS
100
AcDbText
  0
TEXT
  5
79
330
1E
100
AcDbEntity
  8
TEXT
100
AcDbText
 10
234.742238391136
 20
30.84560570193057
 30
0.0
 40
5.0
  1
Bauvorhaben
 41
0.8
  7
GREEKS
100
AcDbText
  0
TEXT
  5
7A
330
1E
100
AcDbEntity
  8
TEXT
100
AcDbText
 10
336.7238616296993
 20
73.1811823709997
 30
0.0
 40
5.0
  1
Ersatz für:
 41
0.8
  7
GREEKS
100
AcDbText
  0
TEXT
  5
7B
330
1E
100
AcDbEntity
  8
TEXT
100
AcDbText
 10
48.26641107045756
 20
13.65465846027192
 30
0.0
 40
4.0
  1
Index
 50
90.0
 41
0.8
  7
GREEKS
100
AcDbText
  0
TEXT
  5
7C
330
1E
100
AcDbEntity
  8
TEXT
100
AcDbText
 10
110.6986119235389
 20
18.6715626933981
 30
0.0
 40
4.0
  1
Tag
 41
0.8
  7
GREEKS
 72
     1
 11
114.4319452568723
 21
18.6715626933981
 31
0.0
100
AcDbText
  0
TEXT
  5
7D
330
1E
100
AcDbEntity
  8
TEXT
100
AcDbText
 10
129.0122744386592
 20
18.59324216966408
 30
0.0
 40
4.0
  1
Name
 41
0.8
  7
GREEKS
 72
     1
 11
135.3360839624688
 21
18.59324216966408
 31
0.0
100
AcDbText
  0
TEXT
  5
7E
330
1E
100
AcDbEntity
  8
TEXT
100
AcDbText
 10
172.331167315365
 20
73.31880501229926
 30
0.0
 40
4.0
  1
Tag
 41
0.8
  7
GREEKS
100
AcDbText
  0
TEXT
  5
7F
330
1E
100
AcDbEntity
  8
TEXT
100
AcDbText
 10
202.4626584226295
 20
73.30961091915225
 30
0.0
 40
4.0
  1
Name
 41
0.8
  7
GREEKS
100
AcDbText
  0
TEXT
  5
80
330
1E
100
AcDbEntity
  8
TEXT
100
AcDbText
 10
147.5836127167615
 20
63.62990369617964
 30
0.0
 40
4.0
  1
Gez.
 41
0.8
  7
GREEKS
100
AcDbText
  0
TEXT
  5
81
330
1E
100
AcDbEntity
  8
TEXT
100
AcDbText
 10
147.5515086571672
 20
53.68926291428377
 30
0.0
 40
4.0
  1
Gepr.
 41
0.8
  7
GREEKS
100
AcDbText
  0
TEXT
  5
82
330
1E
100
AcDbEntity
  8
TEXT
100
AcDbText
 10
147.6006777387303
 20
43.52946389649807
 30
0.0
 40
4.0
  1
Norm.
 41
0.8
  7
GREEKS
100
AcDbText
  0
LINE
  5
83
330
1E
100
AcDbEntity
  8
STEMPEL
100
AcDbLine
 10
49.99999999999989
 20
10.0
 30
0.0
 11
410.0
 21
10.0
 31
0.0
  0
TEXT
  5
84
330
1E
100
AcDbEntity
  8
TEXT
100
AcDbText
 10
337.2400861497006
 20
52.07416177878602
 30
0.0
 40
5.0
  1
ersetzt durch:
 41
0.8
  7
GREEKS
100
AcDbText
  0
LINE
  5
85
330
1E
100
AcDbEntity
  8
STEMPEL
100
AcDbLine
 10
410.0
 20
10.0
 30
0.0
 11
39.99999999999989
 21
10.0
 31
0.0
  0
LINE
  5
86
330
1E
100
AcDbEntity
  8
STEMPEL
100
AcDbLine
 10
410.0
 20
10.0
 30
0.0
 11
410.0
 21
584.0
 31
0.0
  0
LINE
  5
87
330
1E
100
AcDbEntity
  8
STEMPEL
100
AcDbLine
 10
40.0
 20
10.0
 30
0.0
 11
39.99999999999989
 21
584.0
 31
0.0
  0
LINE
  5
88
330
1E
100
AcDbEntity
  8
STEMPEL
100
AcDbLine
 10
410.0
 20
584.0
 30
0.0
 11
39.99999999999989
 21
584.0
 31
0.0
  0
LINE
  5
89
330
1E
100
AcDbEntity
  8
HILF
100
AcDbLine
 10
0.0
 20
0.0
 30
0.0
 11
-0.0000000000001137
 21
594.0
 31
0.0
  0
LINE
  5
8A
330
1E
100
AcDbEntity
  8
HILF
100
AcDbLine
 10
419.9999999999999
 20
594.0000000000002
 30
0.0
 11
0.0
 21
594.0
 31
0.0
  0
LINE
  5
8B
330
1E
100
AcDbEntity
  8
HILF
100
AcDbLine
 10
420.0
 20
0.0
 30
0.0
 11
0.0
 21
0.0
 31
0.0
  0
LINE
  5
8C
330
1E
100
AcDbEntity
  8
HILF
100
AcDbLine
 10
31.08767135713856
 20
297.0
 30
0.0
 11
0.0000000000001137
 21
297.0
 31
0.0
  0
LINE
  5
8E
330
1E
100
AcDbEntity
  8
HILF
100
AcDbLine
 10
420.0
 20
-0.0000000000001137
 30
0.0
 11
419.9999999999999
 21
594.0
 31
0.0
  0
TEXT
  5
8F
330
1E
100
AcDbEntity
  8
VOLL
100
AcDbText
 10
78.07675471698113
 20
31.02594776470585
 30
0.0
 40
1.8
  1

  7
GREEKS
100
AcDbText
  0
TEXT
  5
90
330
1E
100
AcDbEntity
  8
TEXT
100
AcDbText
 10
41.85509950977674
 20
111.6719999999999
 30
0.0
 40
5.0
  1
Erstellt mit AUTOCAD 2004
 41
0.8
  7
GREEKS
100
AcDbText
  0
TEXT
  5
91
330
1E
100
AcDbEntity
  8
TEXT
100
AcDbText
 10
204.4216048581257
 20
63.0896391972351
 30
0.0
 40
4.0
  1
Koeh
 41
0.8
  7
GREEKS
 72
     1
 11
209.6787477152686
 21
63.0896391972351
 31
0.0
100
AcDbText
  0
TEXT
  5
92
330
1E
100
AcDbEntity
  8
TEXT
 62
     1
100
AcDbText
 10
346.7764207350748
 20
88.14901428913959
 30
0.0
 40
7.0
  1
58033040W
 41
0.8
  7
GREEKS
 72
     1
 11
370.7764207350748
 21
88.14901428913959
 31
0.0
100
AcDbText
  0
TEXT
  5
93
330
1E
100
AcDbEntity
  8
TEXT
 62
     1
100
AcDbText
 10
160.5006306481887
 20
88.14901428913959
 30
0.0
 40
7.0
  1
1:2
 41
0.8
  7
GREEKS
100
AcDbText
  0
TEXT
  5
95
330
1E
100
AcDbEntity
  8
TEXT
 62
     1
100
AcDbText
 10
236.8935731057402
 20
87.41748789253779
 30
0.0
 40
7.0
  1
Verbundrohr DN40
 41
0.8
  7
GREEKS
100
AcDbText
  0
TEXT
  5
98
330
1E
100
AcDbEntity
  8
TEXT
100
AcDbText
 10
235.1296391125315
 20
51.64011943042158
 30
0.0
 40
5.0
  1
EDV-Art.Nr. 58033.040X
 41
0.8
  7
GREEKS
100
AcDbText
  0
TEXT
  5
99
330
1E
100
AcDbEntity
  8
TEXT
100
AcDbText
 10
234.9837501577827
 20
42.62974153022632
 30
0.0
 40
4.0
  1
58033040W.DWG
 41
0.8
  7
GREEKS
100
AcDbText
  0
TEXT
  5
9A
330
1E
100
AcDbEntity
  8
TEXT
100
AcDbText
 10
192.626132208084
 20
90.76363841023022
 30
0.0
 40
4.0
  1
DIN EN1123-2
 41
0.8
  7
GREEKS
 72
     1
 11
209.6166083985602
 21
90.76363841023022
 31
0.0
100
AcDbText
  0
INSERT
  5
9B
330
1E
100
AcDbEntity
  8
STEMPEL
100
AcDbBlockReference
  2
LOGO
 10
150.9955485457794
 20
45.02105276448322
 30
0.0
 41
2.0
 42
2.0
 43
2.0
  0
TEXT
  5
210
330
1E
100
AcDbEntity
  8
TEXT
 62
     1
100
AcDbText
 10
221.4734693527589
 20
214.7198862586184
 30
0.0
 40
7.0
  1
Rohrende leicht eingezogen
 41
0.8
  7
GREEKS
100
AcDbText
  0
TEXT
  5
2C0
330
1E
100
AcDbEntity
  8
BEM
100
AcDbText
 10
417.3022923857165
 20
10.16790107998861
 30
0.0
 40
4.0
  1
Diese Zeichnung ist urheberrechtlich geschützt und bleibt unser Eigentum. Sie darf weder ganz noch teilweise verfielfältigt und nicht an Dritte weitergegeben werden.
 50
90.0
 41
0.8
  7
GREEKS
100
AcDbText
  0
TEXT
  5
77A
330
1E
100
AcDbEntity
  8
TEXT
100
AcDbText
 10
235.1296391125315
 20
71.64011943042154
 30
0.0
 40
5.0
  1
Bogen 30°
 41
0.8
  7
GREEKS
100
AcDbText
  0
TEXT
  5
78C
330
1E
100
AcDbEntity
  8
TEXT
 62
     1
100
AcDbText
 10
255.030129115258
 20
129.7422179729062
 30
0.0
 40
7.0
  1
und innenbeschichtet
 41
0.8
  7
GREEKS
100
AcDbText
  0
TEXT
  5
78D
330
1E
100
AcDbEntity
  8
TEXT
 62
     1
100
AcDbText
 10
203.723798389038
 20
117.1473825875242
 30
0.0
 40
7.0
  1
Dämmung: 2 K-PU-Schaum
 41
0.8
  7
GREEKS
100
AcDbText
  0
TEXT
  5
78E
330
1E
100
AcDbEntity
  8
TEXT
 62
     1
100
AcDbText
 10
207.3756002392443
 20
141.011271812132
 30
0.0
 40
7.0
  1
Innenrohr: E195 EN10305 feuerverzinkt
 41
0.8
  7
GREEKS
100
AcDbText
  0
TEXT
  5
78F
330
1E
100
AcDbEntity
  8
TEXT
 62
     1
100
AcDbText
 10
203.6033828683802
 20
152.364339848487
 30
0.0
 40
7.0
  1
Außenrohr: E195 EN10305 feuerverzinkt
 41
0.8
  7
GREEKS
100
AcDbText
  0
ARC
  5
884
102
{ACAD_REACTORS
330
B94
330
BE3
102
}
330
1E
100
AcDbEntity
  8
STEMPEL
100
AcDbCircle
 10
279.2999522791118
 20
334.3838998518895
 30
0.0
 40
46.5
100
AcDbArc
 50
149.9999999999998
 51
180.0
  0
ARC
  5
885
102
{ACAD_REACTORS
330
B94
330
BE3
102
}
330
1E
100
AcDbEntity
  8
STEMPEL
100
AcDbCircle
 10
279.2999522791118
 20
334.3838998518895
 30
0.0
 40
88.49999999999999
100
AcDbArc
 50
149.9999999999998
 51
180.0000000000001
  0
ARC
  5
886
330
1E
100
AcDbEntity
  8
MITTEL
100
AcDbCircle
 10
279.2999522791118
 20
334.3838998518895
 30
0.0
 40
67.5
100
AcDbArc
 50
149.9999999999994
 51
180.0
  0
LINE
  5
88D
330
1E
100
AcDbEntity
  8
MITTEL
100
AcDbLine
 10
211.7999522791119
 20
352.4704703409902
 30
0.0
 11
211.7999522791119
 21
271.469008105144
 31
0.0
  0
LINE
  5
8A4
330
1E
100
AcDbEntity
  8
MITTEL
100
AcDbLine
 10
252.300683397035
 20
422.6197943809191
 30
0.0
 11
211.7999522791119
 21
352.4704703409902
 31
0.0
  0
LINE
  5
910
102
{ACAD_REACTORS
330
B94
330
BE3
102
}
330
1E
100
AcDbEntity
  8
STEMPEL
100
AcDbLine
 10
232.7999522791118
 20
334.3838998518895
 30
0.0
 11
232.7999522791118
 21
281.4035166907816
 31
0.0
  0
LINE
  5
911
102
{ACAD_REACTORS
330
BA9
330
BE3
102
}
330
1E
100
AcDbEntity
  8
STEMPEL
100
AcDbLine
 10
254.6999522791117
 20
340.9754499856952
 30
0.0
 11
254.6999522791117
 21
301.4690081051441
 31
0.0
  0
LINE
  5
912
102
{ACAD_REACTORS
330
B38
330
BA9
102
}
330
1E
100
AcDbEntity
  8
STEMPEL
100
AcDbLine
 10
256.2999522791117
 20
340.5467312778057
 30
0.0
 11
256.2999522791117
 21
299.4690081051441
 31
0.0
  0
LINE
  5
913
102
{ACAD_REACTORS
330
B94
102
}
330
1E
100
AcDbEntity
  8
STEMPEL
100
AcDbLine
 10
231.2999522791116
 20
334.3838998518895
 30
0.0
 11
231.2999522791116
 21
281.4690081051429
 31
0.0
  0
DIMENSION
  5
914
330
1E
100
AcDbEntity
  8
BEM
100
AcDbDimension
  2
*D1
 10
232.7999522791118
 20
256.108584313368
 30
0.0
 11
211.7999522791119
 21
262.6085843133679
 31
0.0
 70
    32
  1
%%c<>
 71
     5
 42
42.0
  3
Standard
100
AcDbAlignedDimension
 13
190.7999522791118
 23
281.4035166907828
 33
0.0
 14
232.7999522791118
 24
281.4035166907816
 34
0.0
100
AcDbRotatedDimension
1001
ACAD
1000
DSTYLE
1002
{
1070
    40
1040
2.0
1070
    41
1040
3.5
1070
    42
1040
1.0
1070
    43
1040
7.0
1070
    44
1040
1.0
1070
    73
1070
     0
1070
    74
1070
     0
1070
    77
1070
     1
1070
    78
1070
     8
1070
    79
1070
     2
1070
   140
1040
3.5
1070
   141
1040
1.5
1070
   146
1040
0.5142857142857144
1070
   147
1040
1.5
1070
   172
1070
     1
1070
   178
1070
     1
1070
   179
1070
     2
1070
   271
1070
     2
1070
   272
1070
     2
1070
   284
1070
     8
1070
   285
1070
     8
1070
   286
1070
     8
1070
   289
1070
     0
1070
   340
1005
24
1002
}
  0
LINE
  5
915
330
1E
100
AcDbEntity
  8
HILF
100
AcDbLine
 10
193.8056820354269
 20
281.469008105144
 30
0.0
 11
229.7942225227969
 21
281.469008105144
 31
0.0
  0
LINE
  5
916
102
{ACAD_REACTORS
330
B94
102
}
330
1E
100
AcDbEntity
  8
STEMPEL
100
AcDbLine
 10
191.2316658404265
 20
276.469008105144
 30
0.0
 11
232.3682387177973
 21
276.469008105144
 31
0.0
  0
LINE
  5
918
102
{ACAD_REACTORS
330
BA9
102
}
330
1E
100
AcDbEntity
  8
STEMPEL
100
AcDbLine
 10
256.2999522791122
 20
301.4690081051441
 30
0.0
 11
254.6999522791117
 21
301.4690081051441
 31
0.0
  0
LINE
  5
919
102
{ACAD_REACTORS
330
B94
102
}
330
1E
100
AcDbEntity
  8
STEMPEL
100
AcDbLine
 10
231.2999522791116
 20
281.4690081051429
 30
0.0
 11
230.8625089614821
 21
276.4690081051439
 31
0.0
  0
LINE
  5
91A
102
{ACAD_REACTORS
330
B94
102
}
330
1E
100
AcDbEntity
  8
STEMPEL
100
AcDbLine
 10
232.7999522791118
 20
281.4035166907816
 30
0.0
 11
232.3682387177973
 21
276.469008105144
 31
0.0
  0
LINE
  5
91B
102
{ACAD_REACTORS
330
BE3
102
}
330
1E
100
AcDbEntity
  8
STEMPEL
100
AcDbLine
 10
232.7999522791119
 20
317.4690081051439
 30
0.0
 11
254.6999522791117
 21
317.4690081051439
 31
0.0
  0
LINE
  5
91C
330
1E
100
AcDbEntity
  8
STEMPEL
100
AcDbLine
 10
232.7999522791119
 20
307.469008105144
 30
0.0
 11
236.2999522791118
 21
307.469008105144
 31
0.0
  0
LINE
  5
91F
102
{ACAD_REACTORS
330
B94
102
}
330
1E
100
AcDbEntity
  8
STEMPEL
100
AcDbLine
 10
192.2999522791117
 20
334.3838998518894
 30
0.0
 11
192.2999522791118
 21
281.469008105144
 31
0.0
  0
LINE
  5
920
102
{ACAD_REACTORS
330
B94
330
BE3
102
}
330
1E
100
AcDbEntity
  8
STEMPEL
100
AcDbLine
 10
190.7999522791117
 20
334.3838998518894
 30
0.0
 11
190.7999522791118
 21
281.4035166907828
 31
0.0
  0
LINE
  5
923
102
{ACAD_REACTORS
330
BA9
102
}
330
1E
100
AcDbEntity
  8
STEMPEL
100
AcDbLine
 10
168.8999522791118
 20
301.4690081051439
 30
0.0
 11
167.299952279112
 21
301.469008105144
 31
0.0
  0
LINE
  5
924
102
{ACAD_REACTORS
330
B94
102
}
330
1E
100
AcDbEntity
  8
STEMPEL
100
AcDbLine
 10
190.7999522791118
 20
281.4035166907828
 30
0.0
 11
191.2316658404265
 21
276.469008105144
 31
0.0
  0
LINE
  5
925
102
{ACAD_REACTORS
330
B94
102
}
330
1E
100
AcDbEntity
  8
STEMPEL
100
AcDbLine
 10
192.2999522791118
 20
281.469008105144
 30
0.0
 11
192.7373955967415
 21
276.4690081051439
 31
0.0
  0
LINE
  5
926
102
{ACAD_REACTORS
330
BE3
102
}
330
1E
100
AcDbEntity
  8
STEMPEL
100
AcDbLine
 10
168.8999522791118
 20
317.4690081051439
 30
0.0
 11
190.7999522791117
 21
317.4690081051439
 31
0.0
  0
LINE
  5
927
330
1E
100
AcDbEntity
  8
STEMPEL
100
AcDbLine
 10
187.2999522791118
 20
307.469008105144
 30
0.0
 11
190.7999522791117
 21
307.469008105144
 31
0.0
  0
LINE
  5
928
102
{ACAD_REACTORS
330
BA9
330
BE3
102
}
330
1E
100
AcDbEntity
  8
STEMPEL
100
AcDbLine
 10
168.8999522791119
 20
363.965490696286
 30
0.0
 11
168.8999522791118
 21
301.469008105144
 31
0.0
  0
LINE
  5
929
102
{ACAD_REACTORS
330
B38
330
BA9
102
}
330
1E
100
AcDbEntity
  8
STEMPEL
100
AcDbLine
 10
167.2999522791119
 20
364.3942094041756
 30
0.0
 11
167.2999522791118
 21
299.469008105144
 31
0.0
  0
ARC
  5
969
102
{ACAD_REACTORS
330
B94
102
}
330
1E
100
AcDbEntity
  8
STEMPEL
100
AcDbCircle
 10
279.2999522791118
 20
334.3838998518895
 30
0.0
 40
48.0
100
AcDbArc
 50
149.9999999999997
 51
180.0
  0
ARC
  5
96A
102
{ACAD_REACTORS
330
B94
102
}
330
1E
100
AcDbEntity
  8
STEMPEL
100
AcDbCircle
 10
279.2999522791118
 20
334.3838998518895
 30
0.0
 40
87.0
100
AcDbArc
 50
149.9999999999998
 51
180.0000000000001
  0
DIMENSION
  5
96B
330
1E
100
AcDbEntity
  8
BEM
100
AcDbDimension
  2
*D2
 10
295.8285789936091
 20
409.0123211007393
 30
0.0
 11
260.5404485252018
 21
436.8914862253385
 31
0.0
 70
    32
  1
%%c<>
 71
     5
 42
89.00000000000019
  3
Standard
100
AcDbAlignedDimension
 13
211.2625529286271
 23
440.539667361997
 33
0.0
 14
288.3388138654424
 24
396.039667361997
 34
0.0
 50
329.9999999999995
100
AcDbRotatedDimension
1001
ACAD
1000
DSTYLE
1002
{
1070
    40
1040
2.0
1070
    41
1040
3.5
1070
    42
1040
1.0
1070
    43
1040
7.0
1070
    44
1040
1.0
1070
    73
1070
     0
1070
    74
1070
     0
1070
    77
1070
     1
1070
    78
1070
     8
1070
    79
1070
     2
1070
   140
1040
3.5
1070
   141
1040
1.5
1070
   146
1040
0.5142857142857144
1070
   147
1040
1.5
1070
   172
1070
     1
1070
   178
1070
     1
1070
   179
1070
     2
1070
   271
1070
     2
1070
   272
1070
     2
1070
   284
1070
     8
1070
   285
1070
     8
1070
   286
1070
     8
1070
   289
1070
     0
1070
   340
1005
24
1002
}
  0
LINE
  5
96E
102
{ACAD_REACTORS
330
B94
330
BBE
330
C17
102
}
330
1E
100
AcDbEntity
  8
STEMPEL
100
AcDbLine
 10
288.3388138654424
 20
396.039667361997
 30
0.0
 11
211.2625529286271
 21
440.539667361997
 31
0.0
  0
LINE
  5
96F
330
1E
100
AcDbEntity
  8
HILF
100
AcDbLine
 10
221.9126002559034
 20
412.2416483211004
 30
0.0
 11
258.5069868356121
 21
391.1138693784764
 31
0.0
  0
LINE
  5
970
330
1E
100
AcDbEntity
  8
HILF
100
AcDbLine
 10
218.1583454443179
 20
404.4799240881966
 30
0.0
 11
253.6622638785409
 21
383.9817272229116
 31
0.0
  0
LINE
  5
971
330
1E
100
AcDbEntity
  8
HILF
100
AcDbLine
 10
217.8496595419113
 20
399.5446686122694
 30
0.0
 11
249.5425502134252
 21
381.2467696516737
 31
0.0
  0
LINE
  5
972
102
{ACAD_REACTORS
330
BBE
330
BE3
330
C17
102
}
330
1E
100
AcDbEntity
  8
STEMPEL
100
AcDbLine
 10
212.6481935746823
 20
439.7396673619968
 30
0.0
 11
168.8999522791119
 21
363.965490696286
 31
0.0
  0
LINE
  5
973
102
{ACAD_REACTORS
330
B38
330
BBE
102
}
330
1E
100
AcDbEntity
  8
STEMPEL
100
AcDbLine
 10
211.2625529286271
 20
440.539667361997
 30
0.0
 11
167.2999522791119
 21
364.3942094041756
 31
0.0
  0
LINE
  5
974
102
{ACAD_REACTORS
330
B94
102
}
330
1E
100
AcDbEntity
  8
STEMPEL
100
AcDbLine
 10
215.6604111869421
 20
398.1569813098844
 30
0.0
 11
203.9557421498656
 21
377.8838998518898
 31
0.0
  0
LINE
  5
975
102
{ACAD_REACTORS
330
B94
330
BE3
102
}
330
1E
100
AcDbEntity
  8
STEMPEL
100
AcDbLine
 10
214.3613730812655
 20
398.9069813098845
 30
0.0
 11
202.6567040441889
 21
378.6338998518897
 31
0.0
  0
ARC
  5
976
102
{ACAD_REACTORS
330
B94
102
}
330
1E
100
AcDbEntity
  8
STEMPEL
100
AcDbCircle
 10
209.855819668364
 20
417.1031338825236
 30
0.0
 40
11.5
100
AcDbArc
 50
330.0
 51
348.1939705983828
  0
ARC
  5
977
102
{ACAD_REACTORS
330
B94
330
BE3
102
}
330
1E
100
AcDbEntity
  8
STEMPEL
100
AcDbCircle
 10
209.855819668364
 20
417.1031338825236
 30
0.0
 40
10.0
100
AcDbArc
 50
330.0
 51
348.1939705983828
  0
ARC
  5
978
102
{ACAD_REACTORS
330
B94
330
BE3
102
}
330
1E
100
AcDbEntity
  8
STEMPEL
100
AcDbCircle
 10
225.0872404343009
 20
403.4847285205861
 30
0.0
 40
10.0
100
AcDbArc
 50
150.0
 51
185.6590876961402
  0
LINE
  5
979
102
{ACAD_REACTORS
330
B94
330
BE3
102
}
330
1E
100
AcDbEntity
  8
STEMPEL
100
AcDbLine
 10
218.5160737062082
 20
412.1031338825236
 30
0.0
 11
216.4269863964565
 21
408.4847285205862
 31
0.0
  0
ARC
  5
97A
102
{ACAD_REACTORS
330
B94
330
BE3
102
}
330
1E
100
AcDbEntity
  8
STEMPEL
100
AcDbCircle
 10
209.1652206585589
 20
401.9069813098844
 30
0.0
 40
6.0
100
AcDbArc
 50
330.0
 51
5.659087696140172
  0
ARC
  5
97B
102
{ACAD_REACTORS
330
B94
102
}
330
1E
100
AcDbEntity
  8
STEMPEL
100
AcDbCircle
 10
209.1652206585589
 20
401.9069813098844
 30
0.0
 40
7.5
100
AcDbArc
 50
330.0
 51
5.659087696140172
  0
LINE
  5
97C
102
{ACAD_REACTORS
330
B94
102
}
330
1E
100
AcDbEntity
  8
STEMPEL
100
AcDbLine
 10
219.8151118118849
 20
411.3531338825236
 30
0.0
 11
217.7260245021331
 21
407.7347285205861
 31
0.0
  0
ARC
  5
97D
102
{ACAD_REACTORS
330
B94
102
}
330
1E
100
AcDbEntity
  8
STEMPEL
100
AcDbCircle
 10
225.0872404343009
 20
403.4847285205861
 30
0.0
 40
8.5
100
AcDbArc
 50
150.0
 51
185.6590876961402
  0
LINE
  5
97E
102
{ACAD_REACTORS
330
BE3
330
C17
102
}
330
1E
100
AcDbEntity
  8
STEMPEL
100
AcDbLine
 10
220.8389004810139
 20
418.8449529874635
 30
0.0
 11
205.6481935746822
 21
427.6153117090149
 31
0.0
  0
ARC
  5
97F
102
{ACAD_REACTORS
330
B94
102
}
330
1E
100
AcDbEntity
  8
STEMPEL
100
AcDbCircle
 10
238.7353646027708
 20
417.1239730083845
 30
0.0
 40
15.0
100
AcDbArc
 50
125.0000000000079
 51
150.0
  0
ARC
  5
980
102
{ACAD_REACTORS
330
B94
102
}
330
1E
100
AcDbEntity
  8
STEMPEL
100
AcDbCircle
 10
239.2210436762204
 20
410.9651938397724
 30
0.0
 40
18.49984481626528
100
AcDbArc
 50
150.0
 51
168.1939705983828
  0
LINE
  5
981
102
{ACAD_REACTORS
330
B94
102
}
330
1E
100
AcDbEntity
  8
STEMPEL
100
AcDbLine
 10
225.7449835460042
 20
424.6239730083845
 30
0.0
 11
223.1995737062083
 21
420.2151938397724
 31
0.0
  0
LINE
  5
982
102
{ACAD_REACTORS
330
B94
330
C17
102
}
330
1E
100
AcDbEntity
  8
STEMPEL
100
AcDbLine
 10
224.4459454403274
 20
425.3739730083843
 30
0.0
 11
221.9005356005316
 21
420.9651938397724
 31
0.0
  0
LINE
  5
983
102
{ACAD_REACTORS
330
B94
102
}
330
1E
100
AcDbEntity
  8
STEMPEL
100
AcDbLine
 10
223.1997080992647
 20
420.2151162479052
 30
0.0
 11
223.1995737062083
 21
420.2151938397724
 31
0.0
  0
LINE
  5
984
102
{ACAD_REACTORS
330
B94
330
C17
102
}
330
1E
100
AcDbEntity
  8
STEMPEL
100
AcDbLine
 10
221.9006699935881
 20
420.9651162479052
 30
0.0
 11
221.9005356005316
 21
420.9651938397724
 31
0.0
  0
ARC
  5
985
102
{ACAD_REACTORS
330
B94
330
BE3
330
C17
102
}
330
1E
100
AcDbEntity
  8
STEMPEL
100
AcDbCircle
 10
239.2210436762204
 20
410.9651938397724
 30
0.0
 40
19.99984481626531
100
AcDbArc
 50
150.0
 51
168.1939705983828
  0
ARC
  5
986
102
{ACAD_REACTORS
330
B94
330
C17
102
}
330
1E
100
AcDbEntity
  8
STEMPEL
100
AcDbCircle
 10
238.7353646027708
 20
417.1239730083845
 30
0.0
 40
16.5
100
AcDbArc
 50
126.6407054553644
 51
150.0
  0
LINE
  5
987
102
{ACAD_REACTORS
330
B94
102
}
330
1E
100
AcDbEntity
  8
STEMPEL
100
AcDbLine
 10
230.3151118118848
 20
429.5396673619968
 30
0.0
 11
230.131718057505
 21
429.4112536727192
 31
0.0
  0
LINE
  5
988
102
{ACAD_REACTORS
330
BBE
330
BE3
330
C17
102
}
330
1E
100
AcDbEntity
  8
STEMPEL
100
AcDbLine
 10
286.9531732193873
 20
396.8396673619971
 30
0.0
 11
254.6999522791117
 21
340.9754499856952
 31
0.0
  0
LINE
  5
989
102
{ACAD_REACTORS
330
B38
330
BBE
102
}
330
1E
100
AcDbEntity
  8
STEMPEL
100
AcDbLine
 10
288.3388138654424
 20
396.039667361997
 30
0.0
 11
256.2999522791117
 21
340.5467312778057
 31
0.0
  0
LINE
  5
98A
102
{ACAD_REACTORS
330
B94
330
BE3
102
}
330
1E
100
AcDbEntity
  8
STEMPEL
100
AcDbLine
 10
250.7344400402119
 20
377.9069813098845
 30
0.0
 11
239.0297710031352
 21
357.6338998518898
 31
0.0
  0
LINE
  5
98B
102
{ACAD_REACTORS
330
B94
102
}
330
1E
100
AcDbEntity
  8
STEMPEL
100
AcDbLine
 10
249.4354019345351
 20
378.6569813098844
 30
0.0
 11
237.7307328974587
 21
358.3838998518899
 31
0.0
  0
ARC
  5
98C
102
{ACAD_REACTORS
330
B94
330
BE3
102
}
330
1E
100
AcDbEntity
  8
STEMPEL
100
AcDbCircle
 10
268.7455471257058
 20
383.1031338825236
 30
0.0
 40
10.0
100
AcDbArc
 50
131.8060294016172
 51
150.0
  0
ARC
  5
98D
102
{ACAD_REACTORS
330
B94
102
}
330
1E
100
AcDbEntity
  8
STEMPEL
100
AcDbCircle
 10
268.7455471257058
 20
383.1031338825236
 30
0.0
 40
11.5
100
AcDbArc
 50
131.8060294016172
 51
150.0
  0
ARC
  5
98E
102
{ACAD_REACTORS
330
B94
102
}
330
1E
100
AcDbEntity
  8
STEMPEL
100
AcDbCircle
 10
255.9305924629184
 20
374.9069813098844
 30
0.0
 40
7.5
100
AcDbArc
 50
114.3409123038598
 51
150.0
  0
ARC
  5
98F
102
{ACAD_REACTORS
330
B94
330
BE3
102
}
330
1E
100
AcDbEntity
  8
STEMPEL
100
AcDbCircle
 10
255.9305924629184
 20
374.9069813098844
 30
0.0
 40
6.0
100
AcDbArc
 50
114.3409123038598
 51
150.0
  0
ARC
  5
990
102
{ACAD_REACTORS
330
B94
102
}
330
1E
100
AcDbEntity
  8
STEMPEL
100
AcDbCircle
 10
249.3359517402654
 20
389.4847285205861
 30
0.0
 40
8.5
100
AcDbArc
 50
294.3409123038597
 51
330.0
  0
LINE
  5
991
102
{ACAD_REACTORS
330
B94
102
}
330
1E
100
AcDbEntity
  8
STEMPEL
100
AcDbLine
 10
258.7862549821848
 20
388.8531338825237
 30
0.0
 11
256.6971676724328
 21
385.2347285205862
 31
0.0
  0
LINE
  5
992
102
{ACAD_REACTORS
330
B94
330
BE3
102
}
330
1E
100
AcDbEntity
  8
STEMPEL
100
AcDbLine
 10
260.0852930878615
 20
388.1031338825236
 30
0.0
 11
257.9962057781095
 21
384.4847285205862
 31
0.0
  0
ARC
  5
993
102
{ACAD_REACTORS
330
B94
330
BE3
102
}
330
1E
100
AcDbEntity
  8
STEMPEL
100
AcDbCircle
 10
249.3359517402654
 20
389.4847285205861
 30
0.0
 40
10.0
100
AcDbArc
 50
294.3409123038597
 51
330.0
  0
LINE
  5
994
102
{ACAD_REACTORS
330
BE3
330
C17
102
}
330
1E
100
AcDbEntity
  8
STEMPEL
100
AcDbLine
 10
279.9531732193872
 20
384.7153117090149
 30
0.0
 11
264.7624663130555
 21
393.4856704305661
 31
0.0
  0
LINE
  5
995
102
{ACAD_REACTORS
330
B94
330
C17
102
}
330
1E
100
AcDbEntity
  8
STEMPEL
100
AcDbLine
 10
268.6132410333335
 20
399.8739730083843
 30
0.0
 11
266.0678311935381
 21
395.4651938397724
 31
0.0
  0
LINE
  5
996
102
{ACAD_REACTORS
330
B94
102
}
330
1E
100
AcDbEntity
  8
STEMPEL
100
AcDbLine
 10
267.3142029276571
 20
400.6239730083845
 30
0.0
 11
264.7687930878614
 21
396.2151938397726
 31
0.0
  0
LINE
  5
997
102
{ACAD_REACTORS
330
B94
330
C17
102
}
330
1E
100
AcDbEntity
  8
STEMPEL
100
AcDbLine
 10
266.0676968004815
 20
395.4652714316398
 30
0.0
 11
266.0678311935381
 21
395.4651938397724
 31
0.0
  0
LINE
  5
998
102
{ACAD_REACTORS
330
B94
102
}
330
1E
100
AcDbEntity
  8
STEMPEL
100
AcDbLine
 10
264.7686586948049
 20
396.2152714316399
 30
0.0
 11
264.7687930878614
 21
396.2151938397726
 31
0.0
  0
ARC
  5
999
102
{ACAD_REACTORS
330
B94
330
BE3
330
C17
102
}
330
1E
100
AcDbEntity
  8
STEMPEL
100
AcDbCircle
 10
248.7473231178493
 20
405.4651938397724
 30
0.0
 40
19.99984481626531
100
AcDbArc
 50
311.8060294016172
 51
330.0
  0
ARC
  5
99A
102
{ACAD_REACTORS
330
B94
102
}
330
1E
100
AcDbEntity
  8
STEMPEL
100
AcDbCircle
 10
248.7473231178493
 20
405.4651938397724
 30
0.0
 40
18.49984481626528
100
AcDbArc
 50
311.8060294016172
 51
330.0
  0
LINE
  5
99B
102
{ACAD_REACTORS
330
B94
102
}
330
1E
100
AcDbEntity
  8
STEMPEL
100
AcDbLine
 10
269.2862549821847
 20
407.0396673619968
 30
0.0
 11
269.2667423422668
 21
406.8166368671696
 31
0.0
  0
ARC
  5
99C
102
{ACAD_REACTORS
330
B94
330
C17
102
}
330
1E
100
AcDbEntity
  8
STEMPEL
100
AcDbCircle
 10
254.3238218708906
 20
408.1239730083844
 30
0.0
 40
16.5
100
AcDbArc
 50
330.0
 51
353.3592945446355
  0
ARC
  5
99D
102
{ACAD_REACTORS
330
B94
102
}
330
1E
100
AcDbEntity
  8
STEMPEL
100
AcDbCircle
 10
254.3238218708906
 20
408.1239730083844
 30
0.0
 40
15.0
100
AcDbArc
 50
330.0
 51
354.999999999992
  0
TEXT
  5
99E
330
1E
100
AcDbEntity
  8
TEXT
 62
     1
100
AcDbText
 10
220.6583297381377
 20
371.4784051509201
 30
0.0
 40
7.0
  1
DN40
 50
60.0
 41
0.8
  7
GREEKS
100
AcDbText
  0
LINE
  5
A45
102
{ACAD_REACTORS
330
BA9
330
BBE
102
}
330
1E
100
AcDbEntity
  8
STEMPEL
100
AcDbLine
 10
256.2999522791117
 20
340.5467312778057
 30
0.0
 11
254.6999522791117
 21
340.9754499856954
 31
0.0
  0
LINE
  5
A46
102
{ACAD_REACTORS
330
BA9
330
BBE
102
}
330
1E
100
AcDbEntity
  8
STEMPEL
100
AcDbLine
 10
168.8999522791119
 20
363.9654906962858
 30
0.0
 11
167.2999522791119
 21
364.3942094041756
 31
0.0
  0
DIMENSION
  5
A97
330
1E
100
AcDbEntity
  8
BEM
100
AcDbDimension
  2
*D3
 10
153.5938247000951
 20
276.469008105144
 30
0.0
 11
147.093824700095
 21
288.969008105144
 31
0.0
 70
    32
 71
     5
 42
25.0
  3
Standard
100
AcDbAlignedDimension
 13
167.2999522791118
 23
301.469008105144
 33
0.0
 14
191.2316658404265
 24
276.469008105144
 34
0.0
 50
90.0
100
AcDbRotatedDimension
1001
ACAD
1000
DSTYLE
1002
{
1070
   279
1070
     1
1070
    40
1040
2.0
1070
    41
1040
3.5
1070
    42
1040
1.0
1070
    43
1040
7.0
1070
    44
1040
1.0
1070
    73
1070
     0
1070
    74
1070
     0
1070
    77
1070
     1
1070
    78
1070
     8
1070
    79
1070
     2
1070
   140
1040
3.5
1070
   141
1040
1.5
1070
   146
1040
0.5142857142857144
1070
   147
1040
1.5
1070
   172
1070
     1
1070
   178
1070
     1
1070
   179
1070
     2
1070
   271
1070
     2
1070
   272
1070
     2
1070
   284
1070
     8
1070
   285
1070
     8
1070
   286
1070
     8
1002
}
  0
DIMENSION
  5
AA4
330
1E
100
AcDbEntity
  8
BEM
100
AcDbDimension
  2
*D4
 10
139.1580166489307
 20
276.469008105144
 30
0.0
 11
132.6580166489306
 21
314.4697392230671
 31
0.0
 70
    32
 71
     5
 42
76.00146223584619
  3
Standard
100
AcDbAlignedDimension
 13
211.7999522791119
 23
352.4704703409902
 33
0.0
 14
191.2316658404265
 24
276.469008105144
 34
0.0
 50
90.0
100
AcDbRotatedDimension
1001
ACAD
1000
DSTYLE
1002
{
1070
    40
1040
2.0
1070
    41
1040
3.5
1070
    42
1040
1.0
1070
    43
1040
7.0
1070
    44
1040
1.0
1070
    73
1070
     0
1070
    74
1070
     0
1070
    77
1070
     1
1070
    78
1070
     8
1070
    79
1070
     2
1070
   140
1040
3.5
1070
   141
1040
1.5
1070
   146
1040
0.5142857142857144
1070
   147
1040
1.5
1070
   172
1070
     1
1070
   178
1070
     1
1070
   179
1070
     2
1070
   271
1070
     2
1070
   272
1070
     2
1070
   284
1070
     8
1070
   285
1070
     8
1070
   286
1070
     8
1002
}
  0
DIMENSION
  5
AB1
330
1E
100
AcDbEntity
  8
BEM
100
AcDbDimension
  2
*D5
 10
161.1808417284236
 20
381.6954274435694
 30
0.0
 11
174.5520421627863
 21
417.8550259540727
 31
0.0
 70
    32
 71
     5
 42
76.00146223584648
 51
299.9999999999999
  3
Standard
100
AcDbAlignedDimension
 13
211.2625529286271
 23
440.5396673619971
 33
0.0
 14
211.7999522791119
 24
352.4704703409902
 34
0.0
 50
60.00000000000007
100
AcDbRotatedDimension
1001
ACAD
1000
DSTYLE
1002
{
1070
    40
1040
2.0
1070
    41
1040
3.5
1070
    42
1040
1.0
1070
    43
1040
7.0
1070
    44
1040
1.0
1070
    73
1070
     0
1070
    74
1070
     0
1070
    77
1070
     1
1070
    78
1070
     8
1070
    79
1070
     2
1070
   140
1040
3.5
1070
   141
1040
1.5
1070
   146
1040
0.5142857142857144
1070
   147
1040
1.5
1070
   172
1070
     1
1070
   178
1070
     1
1070
   179
1070
     2
1070
   271
1070
     2
1070
   272
1070
     2
1070
   284
1070
     8
1070
   285
1070
     8
1070
   286
1070
     8
1002
}
  0
ARC
  5
B29
102
{ACAD_REACTORS
330
B38
102
}
330
1E
100
AcDbEntity
  8
SCHRAFF
100
AcDbCircle
 10
254.3079946757689
 20
341.0804747089783
 30
0.0
 40
4.952042466822939
100
AcDbArc
 50
293.7188937095037
 51
36.28110629049676
  0
ARC
  5
B2A
102
{ACAD_REACTORS
330
B38
102
}
330
1E
100
AcDbEntity
  8
SCHRAFF
100
AcDbCircle
 10
169.2689776634432
 20
363.8666106425677
 30
0.0
 40
3.991820552646026
100
AcDbArc
 50
89.55540773032142
 51
240.4445922696781
  0
HATCH
  5
B38
330
1E
100
AcDbEntity
  8
SCHRAFF
100
AcDbHatch
 10
0.0
 20
0.0
 30
0.0
210
0.0
220
0.0
230
1.0
  2
_USER
 70
     0
 71
     1
 91
        2
 92
        7
 72
     1
 73
     1
 93
        3
 10
258.2999522791117
 20
344.0108328929434
 42
0.0
 10
256.2999522791117
 20
340.5467312778057
 42
0.0
 10
256.2999522791117
 20
336.5467312778055
 42
0.4799902789663698
 97
        3
330
989
330
912
330
B29
 92
        7
 72
     1
 73
     1
 93
        3
 10
169.2999522791119
 20
367.8583110193134
 42
0.7735096144796401
 10
167.2999522791119
 20
360.3942094041757
 42
0.0
 10
167.2999522791119
 20
364.3942094041756
 42
0.0
 97
        3
330
B2A
330
929
330
973
 75
     0
 76
     0
 52
0.0
 41
0.1
 77
     0
 78
     1
 53
0.0
 43
0.0
 44
0.0
 45
0.0
 46
0.1
 79
     0
 47
0.1852373552522151
 98
        2
 10
257.8144779168001
 20
340.1311626841311
 10
167.1693427490568
 20
366.2496315110366
  0
HATCH
  5
B94
330
1E
100
AcDbEntity
  8
SCHRAFF
100
AcDbHatch
 10
0.0
 20
0.0
 30
0.0
210
0.0
220
0.0
230
1.0
  2
_USER
 70
     0
 71
     1
 91
        2
 92
        7
 72
     1
 73
     1
 93
       27
 10
231.2999522791116
 20
281.4690081051423
 42
0.0
 10
230.8625089614821
 20
276.469008105144
 42
0.0
 10
232.3682387177973
 20
276.469008105144
 42
0.0
 10
232.7999522791118
 20
281.4035166907816
 42
0.0
 10
232.7999522791118
 20
334.3838998518895
 42
-0.1316524975873967
 10
239.0297710031352
 20
357.6338998518898
 42
0.0
 10
250.7344400402119
 20
377.9069813098845
 42
-0.1568599726812967
 10
253.4576021919236
 20
380.3736365138976
 42
0.1568599726812956
 10
257.9962057781095
 20
384.4847285205862
 42
0.0
 10
260.0852930878615
 20
388.1031338825236
 42
-0.0795533624514932
 10
262.0794379740296
 20
390.5571924265611
 42
0.079553362451503
 10
266.0676968004815
 20
395.4652714316397
 42
0.0
 10
266.0678311935382
 20
395.4651938397724
 42
0.0
 10
268.6132410333335
 20
399.8739730083843
 42
0.1022785704675345
 10
270.7131210358121
 20
406.2158658618376
 42
0.0
 10
269.2862549821847
 20
407.039667361997
 42
0.0
 10
269.2667423422668
 20
406.8166368671696
 42
-0.1095178116832421
 10
267.3142029276571
 20
400.6239730083844
 42
0.0
 10
264.7687930878614
 20
396.2151938397726
 42
0.0
 10
264.7686586948049
 20
396.2152714316399
 42
-0.0795533624514936
 10
261.0795216012788
 20
391.6753012081674
 42
0.0795533624514971
 10
258.7862549821851
 20
388.8531338825242
 42
0.0
 10
256.6971676724328
 20
385.2347285205862
 42
-0.1568599726812988
 10
252.8393546241748
 20
381.7403003149008
 42
0.1568599726813034
 10
249.4354019345351
 20
378.6569813098843
 42
0.0
 10
237.7307328974587
 20
358.3838998518899
 42
0.131652497587395
 10
231.2999522791116
 20
334.3838998518901
 42
0.0
 97
       27
330
884
330
98A
330
98F
330
993
330
992
330
98C
330
999
330
997
330
995
330
99C
330
96E
330
99B
330
99D
330
996
330
998
330
99A
330
98D
330
991
330
990
330
98E
330
98B
330
969
330
913
330
919
330
916
330
91A
330
910
 92
        7
 72
     1
 73
     1
 93
       27
 10
192.2999522791117
 20
334.3838998518894
 42
-0.131652497587397
 10
203.9557421498656
 20
377.8838998518898
 42
0.0
 10
215.6604111869421
 20
398.1569813098844
 42
0.1568599726813064
 10
216.628667428438
 20
402.646550314901
 42
-0.1568599726812891
 10
217.7260245021331
 20
407.7347285205861
 42
0.0
 10
219.8151118118849
 20
411.3531338825236
 42
0.0795533624515075
 10
221.1125471000757
 20
414.7502446951316
 42
-0.0795533624514969
 10
223.1997080992648
 20
420.2151162479051
 42
0.0
 10
223.1995737062083
 20
420.2151938397723
 42
0.0
 10
225.7449835460042
 20
424.6239730083845
 42
-0.1095178116832381
 10
230.131718057505
 20
429.4112536727192
 42
0.0
 10
230.3151118118849
 20
429.539667361997
 42
0.0
 10
228.8882457582577
 20
430.3634688621563
 42
0.1022785704675242
 10
224.4459454403276
 20
425.3739730083848
 42
0.0
 10
221.9005356005316
 20
420.9651938397724
 42
0.0
 10
221.9006699935881
 20
420.9651162479052
 42
0.0795533624515018
 10
219.644278304635
 20
415.0571432847911
 42
-0.0795533624515029
 10
218.5160737062081
 20
412.1031338825235
 42
0.0
 10
216.4269863964565
 20
408.4847285205862
 42
0.156859972681298
 10
215.1359780744622
 20
402.4986365138976
 42
-0.1568599726813018
 10
214.3613730812654
 20
398.9069813098844
 42
0.0
 10
202.6567040441889
 20
378.6338998518897
 42
0.131652497587396
 10
190.7999522791117
 20
334.3838998518897
 42
0.0
 10
190.7999522791118
 20
281.4035166907821
 42
0.0
 10
191.2316658404265
 20
276.469008105144
 42
0.0
 10
192.7373955967415
 20
276.4690081051439
 42
0.0
 10
192.2999522791118
 20
281.4690081051443
 42
0.0
 97
       27
330
96A
330
974
330
97B
330
97D
330
97C
330
976
330
980
330
983
330
981
330
97F
330
987
330
96E
330
986
330
982
330
984
330
985
330
977
330
979
330
978
330
97A
330
975
330
885
330
920
330
924
330
916
330
925
330
91F
 75
     0
 76
     0
 52
45.0
 41
2.0
 77
     0
 78
     1
 53
45.0
 43
0.0
 44
0.0
 45
-1.414213562373094
 46
1.414213562373095
 79
     0
 47
0.372639028722579
 98
        2
 10
232.0276266648034
 20
322.5840760209812
 10
191.7541487261346
 20
325.1925493873355
  0
HATCH
  5
BA9
330
1E
100
AcDbEntity
  8
SCHRAFF
100
AcDbHatch
 10
0.0
 20
0.0
 30
0.0
210
0.0
220
0.0
230
1.0
  2
_USER
 70
     0
 71
     1
 91
        2
 92
        7
 72
     0
 73
     1
 93
        4
 10
256.2999522791117
 20
340.5467312778057
 10
254.6999522791117
 20
340.9754499856954
 10
254.6999522791117
 20
301.4690081051441
 10
256.2999522791117
 20
301.4690081051441
 97
        4
330
A45
330
911
330
918
330
912
 92
        7
 72
     0
 73
     1
 93
        4
 10
168.8999522791119
 20
363.965490696286
 10
167.2999522791119
 20
364.3942094041757
 10
167.2999522791118
 20
301.469008105144
 10
168.8999522791119
 20
301.4690081051441
 97
        4
330
A46
330
929
330
923
330
928
 75
     0
 76
     0
 52
135.0
 41
2.0
 77
     0
 78
     1
 53
135.0
 43
0.0
 44
0.0
 45
-1.414213562373095
 46
-1.414213562373094
 79
     0
 47
0.372639028722579
 98
        2
 10
255.5204908162864
 20
321.0935192118461
 10
168.2612845746516
 20
326.3104659445551
  0
HATCH
  5
BBE
330
1E
100
AcDbEntity
  8
SCHRAFF
100
AcDbHatch
 10
0.0
 20
0.0
 30
0.0
210
0.0
220
0.0
230
1.0
  2
_USER
 70
     0
 71
     1
 91
        2
 92
        7
 72
     0
 73
     1
 93
        4
 10
288.3388138654424
 20
396.039667361997
 10
286.9531732193873
 20
396.8396673619971
 10
254.6999522791118
 20
340.9754499856954
 10
256.2999522791118
 20
340.5467312778057
 97
        4
330
96E
330
988
330
A45
330
989
 92
        7
 72
     0
 73
     1
 93
        4
 10
212.6481935746823
 20
439.739667361997
 10
211.2625529286271
 20
440.539667361997
 10
167.2999522791119
 20
364.3942094041756
 10
168.8999522791118
 20
363.9654906962858
 97
        4
330
96E
330
973
330
A46
330
972
 75
     0
 76
     0
 52
15.0
 41
2.0
 77
     0
 78
     1
 53
15.0
 43
0.0
 44
0.0
 45
-0.5176380902050415
 46
1.931851652578136
 79
     0
 47
0.4075739376653209
 98
        2
 10
277.15466821768
 20
377.6426574461609
 10
191.5036032999619
 20
404.134963105138
  0
HATCH
  5
BE3
330
1E
100
AcDbEntity
  8
SCHRAFF
100
AcDbHatch
 10
0.0
 20
0.0
 30
0.0
210
0.0
220
0.0
230
1.0
  2
HONEY
 70
     0
 71
     1
 91
        2
 92
        7
 72
     1
 73
     1
 93
       12
 10
279.9531732193872
 20
384.7153117090149
 42
0.0
 10
264.7624663130557
 20
393.4856704305659
 42
-0.049769965121169
 10
262.0794379740303
 20
390.5571924265617
 42
0.0795533624514998
 10
260.0852930878618
 20
388.1031338825241
 42
0.0
 10
257.9962057781095
 20
384.4847285205862
 42
-0.1568599726812999
 10
253.4576021919235
 20
380.3736365138974
 42
0.1568599726813037
 10
250.7344400402117
 20
377.9069813098843
 42
0.0
 10
239.0297710031352
 20
357.6338998518898
 42
0.1316524975873936
 10
232.7999522791118
 20
334.3838998518901
 42
0.0
 10
232.7999522791118
 20
317.4690081051438
 42
0.0
 10
254.6999522791117
 20
317.4690081051439
 42
0.0
 10
254.6999522791117
 20
340.9754499856952
 42
0.0
 97
       12
330
994
330
999
330
98C
330
992
330
993
330
98F
330
98A
330
884
330
910
330
91B
330
911
330
988
 92
        7
 72
     1
 73
     1
 93
       12
 10
214.3613730812655
 20
398.9069813098845
 42
0.1568599726813032
 10
215.1359780744622
 20
402.4986365138977
 42
-0.1568599726812937
 10
216.4269863964565
 20
408.4847285205862
 42
0.0
 10
218.5160737062082
 20
412.1031338825236
 42
0.0795533624515085
 10
219.6442783046351
 20
415.0571432847915
 42
-0.0497699651211719
 10
220.838900481014
 20
418.8449529874634
 42
0.0
 10
205.6481935746823
 20
427.6153117090147
 42
0.0
 10
168.8999522791119
 20
363.9654906962861
 42
0.0
 10
168.8999522791118
 20
317.4690081051439
 42
0.0
 10
190.7999522791117
 20
317.4690081051439
 42
0.0
 10
190.7999522791117
 20
334.3838998518894
 42
-0.1316524975873968
 10
202.6567040441889
 20
378.6338998518897
 42
0.0
 97
       12
330
97A
330
978
330
979
330
977
330
985
330
97E
330
972
330
928
330
926
330
920
330
885
330
975
 75
     0
 76
     1
 52
0.0
 41
20.0
 77
     0
 78
     3
 53
0.0
 43
0.0
 44
0.0
 45
3.75
 46
2.1650635
 79
     2
 49
2.5
 49
-5.0
 53
120.0
 43
0.0
 44
0.0
 45
-3.749999991806449
 46
2.165063514191645
 79
     2
 49
2.5
 49
-5.0
 53
60.0
 43
0.0
 44
0.0
 45
0.0000000081935508
 46
4.330127014191645
 79
     2
 49
-5.0
 49
2.5
 47
0.4075739376653209
 98
        2
 10
251.4593498200138
 20
353.5957949558556
 10
195.1743630710571
 20
380.9032488042267
  0
HATCH
  5
C17
330
1E
100
AcDbEntity
  8
SCHRAFF
100
AcDbHatch
 10
0.0
 20
0.0
 30
0.0
210
0.0
220
0.0
230
1.0
  2
NET
 70
     0
 71
     1
 91
        2
 92
        7
 72
     1
 73
     1
 93
        7
 10
220.838900481014
 20
418.8449529874634
 42
-0.0296659389587129
 10
221.9006699935881
 20
420.9651162479052
 42
0.0
 10
221.9005356005316
 20
420.9651938397724
 42
0.0
 10
224.4459454403274
 20
425.3739730083843
 42
-0.1022785704675316
 10
228.8882457582577
 20
430.3634688621562
 42
0.0
 10
212.6481935746824
 20
439.739667361997
 42
0.0
 10
205.6481935746824
 20
427.6153117090148
 42
0.0
 97
        7
330
96E
330
972
330
97E
330
985
330
984
330
982
330
986
 92
        7
 72
     1
 73
     1
 93
        7
 10
279.9531732193872
 20
384.7153117090148
 42
0.0
 10
286.9531732193872
 20
396.8396673619971
 42
0.0
 10
270.7131210358121
 20
406.2158658618376
 42
-0.1022785704675182
 10
268.6132410333341
 20
399.8739730083853
 42
0.0
 10
266.0678311935381
 20
395.4651938397724
 42
0.0
 10
266.0676968004815
 20
395.4652714316398
 42
-0.0296659389587098
 10
264.7624663130557
 20
393.485670430566
 42
0.0
 97
        7
330
96E
330
99C
330
995
330
997
330
999
330
994
330
988
 75
     0
 76
     1
 52
15.0
 41
15.0
 77
     0
 78
     2
 53
15.0
 43
0.0
 44
0.0
 45
-0.4852857095672264
 46
1.811110924292003
 79
     0
 53
105.0
 43
0.0
 44
0.0
 45
-1.811110924292003
 46
-0.4852857095672264
 79
     0
 47
0.4075739376653209
 98
        2
 10
218.4225091860344
 20
427.3666788055586
 10
274.2996325408144
 20
393.5380408415472
  0
HATCH
  5
CC4
330
1E
100
AcDbEntity
  8
SCHRAFF
100
AcDbHatch
 10
0.0
 20
0.0
 30
0.0
210
0.0
220
0.0
230
1.0
  2
NET
 70
     0
 71
     0
 91
        2
 92
        7
 72
     0
 73
     1
 93
       10
 10
254.6999522791117
 20
317.4690081051439
 10
232.7999522791118
 20
317.4690081051439
 10
232.7999522791118
 20
307.469008105144
 10
236.2999522791118
 20
307.4690081051441
 10
239.7640538942495
 20
301.469008105144
 10
250.2999522791118
 20
301.469008105144
 10
250.2999522791118
 20
299.4690081051441
 10
256.2999522791117
 20
299.4690081051441
 10
256.2999522791117
 20
301.4690081051441
 10
254.6999522791117
 20
301.4690081051441
 97
        0
 92
        7
 72
     0
 73
     1
 93
       10
 10
190.7999522791118
 20
317.4690081051438
 10
168.8999522791118
 20
317.4690081051439
 10
168.8999522791118
 20
301.469008105144
 10
167.2999522791118
 20
301.469008105144
 10
167.2999522791118
 20
299.469008105144
 10
173.2999522791118
 20
299.469008105144
 10
173.2999522791118
 20
301.469008105144
 10
183.835850663974
 20
301.469008105144
 10
187.2999522791118
 20
307.469008105144
 10
190.7999522791118
 20
307.469008105144
 97
        0
 75
     0
 76
     1
 52
45.0
 41
20.0
 77
     0
 78
     2
 53
45.0
 43
-13.20004772088811
 44
53.33312642831282
 45
-1.767766952966368
 46
1.767766952966368
 79
     0
 53
135.0
 43
-13.20004772088811
 44
53.33312642831282
 45
-1.767766952966368
 46
-1.767766952966368
 79
     0
 47
0.1322099502765182
 98
        2
 10
248.1724541935386
 20
307.6072786743054
 10
184.4088140722428
 20
310.5158982860086
  0
LINE
  5
CC5
330
1E
100
AcDbEntity
  8
STEMPEL
100
AcDbLine
 10
256.2999522791117
 20
299.4690081051441
 30
0.0
 11
232.7999522791119
 21
299.4690081051441
 31
0.0
  0
POINT
  5
CC6
330
1E
100
AcDbEntity
  8
STEMPEL
100
AcDbPoint
 10
250.2999522791118
 20
299.469008105144
 30
0.0
  0
POINT
  5
CC7
330
1E
100
AcDbEntity
  8
STEMPEL
100
AcDbPoint
 10
239.7640538942495
 20
301.469008105144
 30
0.0
  0
LINE
  5
CC8
330
1E
100
AcDbEntity
  8
STEMPEL
100
AcDbLine
 10
250.2999522791118
 20
301.469008105144
 30
0.0
 11
232.7999522791118
 21
301.469008105144
 31
0.0
  0
LINE
  5
CC9
330
1E
100
AcDbEntity
  8
STEMPEL
100
AcDbLine
 10
250.2999522791118
 20
299.469008105144
 30
0.0
 11
250.2999522791118
 21
301.469008105144
 31
0.0
  0
LINE
  5
CCA
330
1E
100
AcDbEntity
  8
STEMPEL
100
AcDbLine
 10
236.2999522791118
 20
307.469008105144
 30
0.0
 11
239.7640538942495
 21
301.469008105144
 31
0.0
  0
LINE
  5
CCB
330
1E
100
AcDbEntity
  8
STEMPEL
100
AcDbLine
 10
190.7999522791119
 20
301.469008105144
 30
0.0
 11
173.2999522791118
 21
301.469008105144
 31
0.0
  0
LINE
  5
CCC
330
1E
100
AcDbEntity
  8
STEMPEL
100
AcDbLine
 10
190.7999522791118
 20
299.4690081051441
 30
0.0
 11
167.2999522791118
 21
299.469008105144
 31
0.0
  0
POINT
  5
CCD
330
1E
100
AcDbEntity
  8
STEMPEL
100
AcDbPoint
 10
174.7999522791118
 20
301.469008105144
 30
0.0
  0
POINT
  5
CCE
330
1E
100
AcDbEntity
  8
STEMPEL
100
AcDbPoint
 10
174.7999522791118
 20
301.469008105144
 30
0.0
  0
POINT
  5
CCF
330
1E
100
AcDbEntity
  8
STEMPEL
100
AcDbPoint
 10
174.7999522791118
 20
301.469008105144
 30
0.0
  0
POINT
  5
CD0
330
1E
100
AcDbEntity
  8
STEMPEL
100
AcDbPoint
 10
178.7999522791118
 20
301.469008105144
 30
0.0
  0
POINT
  5
CD1
330
1E
100
AcDbEntity
  8
STEMPEL
100
AcDbPoint
 10
173.2999522791118
 20
299.469008105144
 30
0.0
  0
LINE
  5
CD2
330
1E
100
AcDbEntity
  8
STEMPEL
100
AcDbLine
 10
173.2999522791118
 20
299.469008105144
 30
0.0
 11
173.2999522791118
 21
301.469008105144
 31
0.0
  0
LINE
  5
CD3
330
1E
100
AcDbEntity
  8
STEMPEL
100
AcDbLine
 10
187.2999522791118
 20
307.469008105144
 30
0.0
 11
183.835850663974
 21
301.469008105144
 31
0.0
  0
TEXT
  5
CDC
330
1E
100
AcDbEntity
  8
TEXT
100
AcDbText
 10
170.398997108236
 20
63.10765040825732
 30
0.0
 40
4.0
  1
28.09.
 41
0.8
  7
GREEKS
 72
     1
 11
177.4085209177598
 21
63.10765040825732
 31
0.0
100
AcDbText
  0
TEXT
  5
CDD
330
1E
100
AcDbEntity
  8
TEXT
100
AcDbText
 10
148.622109822104
 20
73.14025471151666
 30
0.0
 40
4.0
  1
2007
 41
0.8
  7
GREEKS
100
AcDbText
  0
LINE
  5
D24
330
1E
100
AcDbEntity
  8
BEM
100
AcDbLine
 10
253.3006833970349
 20
424.3518451884879
 30
0.0
 11
256.4068234200937
 21
429.7318375238488
 31
0.0
  0
LINE
  5
D25
330
1E
100
AcDbEntity
  8
BEM
100
AcDbLine
 10
211.7999522791119
 20
354.4704703409901
 30
0.0
 11
211.7999522791118
 21
463.5282756270395
 31
0.0
  0
ARC
  5
D26
330
1E
100
AcDbEntity
  8
BEM
100
AcDbCircle
 10
211.7999522791119
 20
352.4704703409902
 30
0.0
 40
109.0578052860494
100
AcDbArc
 50
63.67822674934656
 51
86.32177325065358
  0
SOLID
  5
D27
330
1E
100
AcDbEntity
  8
BEM
100
AcDbTrace
 10
260.7080812619541
 20
451.2495068628211
 30
0.0
 11
259.6068668663526
 21
449.19237991016
 31
0.0
 12
266.3288549221363
 22
446.9173001996859
 32
0.0
 13
266.3288549221363
 23
446.9173001996859
 33
0.0
  0
SOLID
  5
D28
330
1E
100
AcDbEntity
  8
BEM
100
AcDbTrace
 10
218.7589045545932
 20
460.1375584240528
 30
0.0
 11
218.8337883893197
 21
462.4696898216678
 31
0.0
 12
211.7999522791118
 22
461.5282756270396
 32
0.0
 13
211.7999522791118
 23
461.5282756270396
 33
0.0
  0
MTEXT
  5
D29
330
1E
100
AcDbEntity
  8
BEM
 62
     1
100
AcDbMText
 10
241.70851309739
 20
464.0907388960687
 30
0.0
 40
7.0
 41
0.0
 71
     5
 72
     1
  1
\A1;30°
 11
0.9659258262890684
 21
-0.2588190451025198
 31
0.0
 73
     1
 44
1.0
  0
LINE
  5
D2A
330
1E
100
AcDbEntity
  8
BEM
100
AcDbLine
 10
263.2217765520643
 20
441.5356825996227
 30
0.0
 11
267.3288549221363
 21
448.6493510072548
 31
0.0
  0
ENDSEC
  0
SECTION
  2
OBJECTS
  0
DICTIONARY
  5
C
330
0
100
AcDbDictionary
281
     1
  3
ACAD_COLOR
350
DF
  3
ACAD_GROUP
350
D
  3
ACAD_LAYOUT
350
19
  3
ACAD_MATERIAL
350
DE
  3
ACAD_MLINESTYLE
350
16
  3
ACAD_PLOTSETTINGS
350
18
  3
ACAD_PLOTSTYLENAME
350
E
  3
AcDbVariableDictionary
350
25E
  0
DICTIONARY
  5
A0
330
1E
100
AcDbDictionary
280
     1
281
     1
  3
ACAD_LAYOUTSELFREF
360
D4
  0
DICTIONARY
  5
A2
330
1A
100
AcDbDictionary
280
     1
281
     1
  3
ACAD_LAYOUTSELFREF
360
D3
  0
DICTIONARY
  5
DF
102
{ACAD_REACTORS
330
C
102
}
330
C
100
AcDbDictionary
281
     1
  0
DICTIONARY
  5
D
102
{ACAD_REACTORS
330
C
102
}
330
C
100
AcDbDictionary
281
     1
  0
DICTIONARY
  5
19
102
{ACAD_REACTORS
330
C
102
}
330
C
100
AcDbDictionary
281
     1
  3
Layout1
350
1D
  3
Model
350
21
  0
DICTIONARY
  5
DE
102
{ACAD_REACTORS
330
C
102
}
330
C
100
AcDbDictionary
281
     1
  0
DICTIONARY
  5
16
102
{ACAD_REACTORS
330
C
102
}
330
C
100
AcDbDictionary
281
     1
  3
Standard
350
17
  0
DICTIONARY
  5
18
102
{ACAD_REACTORS
330
C
102
}
330
C
100
AcDbDictionary
281
     1
  0
ACDBDICTIONARYWDFLT
  5
E
102
{ACAD_REACTORS
330
C
102
}
330
C
100
AcDbDictionary
281
     1
  3
Normal
350
F
100
AcDbDictionaryWithDefault
340
F
  0
DICTIONARY
  5
25E
102
{ACAD_REACTORS
330
C
102
}
330
C
100
AcDbDictionary
281
     1
  3
DIMASSOC
350
25F
  3
PROJECTNAME
350
260
  0
XRECORD
  5
D4
102
{ACAD_REACTORS
330
A0
102
}
330
A0
100
AcDbXrecord
280
     1
340
1E
  0
XRECORD
  5
D3
102
{ACAD_REACTORS
330
A2
102
}
330
A2
100
AcDbXrecord
280
     1
340
1A
  0
LAYOUT
  5
1D
102
{ACAD_REACTORS
330
19
102
}
330
19
100
AcDbPlotSettings
  1

  2
\\NT_WORK01\HP LaserJet 5000 PCL 6
  4

  6

 40
0.0
 41
0.0
 42
0.0
 43
0.0
 44
0.0
 45
0.0
 46
0.0
 47
0.0
 48
0.0
 49
0.0
140
0.0
141
0.0
142
1.0
143
1.0
 70
   688
 72
     0
 73
     0
 74
     5
  7

 75
    16
147
1.0
 76
     0
 77
     2
 78
   300
148
0.0
149
0.0
100
AcDbLayout
  1
Layout1
 70
     0
 71
     1
 10
0.0
 20
0.0
 11
12.0
 21
9.0
 12
0.0
 22
0.0
 32
0.0
 14
1.000000000000000E+20
 24
1.000000000000000E+20
 34
1.000000000000000E+20
 15
-1.000000000000000E+20
 25
-1.000000000000000E+20
 35
-1.000000000000000E+20
146
0.0
 13
0.0
 23
0.0
 33
0.0
 16
1.0
 26
0.0
 36
0.0
 17
0.0
 27
1.0
 37
0.0
 76
     0
330
1A
  0
LAYOUT
  5
21
102
{ACAD_REACTORS
330
19
102
}
330
19
100
AcDbPlotSettings
  1

  2
RICOH Aficio 2027 PCL 6
  4
A4
  6

 40
5.027083
 41
5.027084999999999
 42
5.027084
 43
5.027069
 44
209.973328
 45
296.925995
 46
0.0
 47
2.06
 48
0.0
 49
0.0
140
0.0
141
0.0
142
1.0
143
2.100849152723284
 70
 11956
 72
     1
 73
     0
 74
     2
  7
monochrome1.ctb
 75
     0
147
0.4759980023809526
 76
     1
 77
     2
 78
   300
148
0.0
149
0.0
100
AcDbLayout
  1
Model
 70
     1
 71
     0
 10
0.0
 20
0.0
 11
12.0
 21
9.0
 12
0.0
 22
0.0
 32
0.0
 14
0.0
 24
0.0
 34
0.0
 15
0.0
 25
0.0
 35
0.0
146
0.0
 13
0.0
 23
0.0
 33
0.0
 16
1.0
 26
0.0
 36
0.0
 17
0.0
 27
1.0
 37
0.0
 76
     0
330
1E
  0
MLINESTYLE
  5
17
102
{ACAD_REACTORS
330
16
102
}
330
16
100
AcDbMlineStyle
  2
STANDARD
 70
     0
  3

 62
   256
 51
90.0
 52
90.0
 71
     2
 49
0.5
 62
   256
  6
BYLAYER
 49
-0.5
 62
   256
  6
BYLAYER
  0
ACDBPLACEHOLDER
  5
F
102
{ACAD_REACTORS
330
E
102
}
330
E
  0
DICTIONARYVAR
  5
25F
102
{ACAD_REACTORS
330
25E
102
}
330
25E
100
DictionaryVariables
280
     0
  1
1
  0
DICTIONARYVAR
  5
260
102
{ACAD_REACTORS
330
25E
102
}
330
25E
100
DictionaryVariables
280
     0
  1

  0
ENDSEC
  0
EOF
