  0
SECTION
  2
HEADER
  9
$ACADVER
  1
AC1018
  9
$ACADMAINTVER
 70
     2
  9
$DWGCODEPAGE
  3
ANSI_1252
  9
$INSBASE
 10
0.0
 20
0.0
 30
0.0
  9
$EXTMIN
 10
-0.0047849913107711
 20
-0.0067673448536425
 30
-0.0000000000000053
  9
$EXTMAX
 10
525.0232424595403
 20
742.5328714784943
 30
0.0000000000000099
  9
$LIMMIN
 10
0.0
 20
0.0
  9
$LIMMAX
 10
524.9999999999999
 20
742.4999999999999
  9
$ORTHOMODE
 70
     0
  9
$REGENMODE
 70
     1
  9
$FILLMODE
 70
     1
  9
$QTEXTMODE
 70
     0
  9
$MIRRTEXT
 70
     1
  9
$LTSCALE
 40
25.0
  9
$ATTMODE
 70
     1
  9
$TEXTSIZE
 40
3.5
  9
$TRACEWID
 40
0.5
  9
$TEXTSTYLE
  7
STANDARD
  9
$CLAYER
  8
BEM
  9
$CELTYPE
  6
ByLayer
  9
$CECOLOR
 62
   256
  9
$CELTSCALE
 40
1.0
  9
$DISPSILH
 70
     0
  9
$DIMSCALE
 40
2.5
  9
$DIMASZ
 40
3.5
  9
$DIMEXO
 40
1.0
  9
$DIMDLI
 40
7.0
  9
$DIMRND
 40
0.0
  9
$DIMDLE
 40
0.0
  9
$DIMEXE
 40
1.0
  9
$DIMTP
 40
0.0
  9
$DIMTM
 40
0.0
  9
$DIMTXT
 40
3.5
  9
$DIMCEN
 40
1.5
  9
$DIMTSZ
 40
0.0
  9
$DIMTOL
 70
     0
  9
$DIMLIM
 70
     0
  9
$DIMTIH
 70
     0
  9
$DIMTOH
 70
     0
  9
$DIMSE1
 70
     0
  9
$DIMSE2
 70
     0
  9
$DIMTAD
 70
     1
  9
$DIMZIN
 70
     8
  9
$DIMBLK
  1

  9
$DIMASO
 70
     1
  9
$DIMSHO
 70
     0
  9
$DIMPOST
  1

  9
$DIMAPOST
  1

  9
$DIMALT
 70
     0
  9
$DIMALTD
 70
     2
  9
$DIMALTF
 40
25.4
  9
$DIMLFAC
 40
1.0
  9
$DIMTOFL
 70
     1
  9
$DIMTVP
 40
0.0
  9
$DIMTIX
 70
     0
  9
$DIMSOXD
 70
     0
  9
$DIMSAH
 70
     0
  9
$DIMBLK1
  1

  9
$DIMBLK2
  1

  9
$DIMSTYLE
  2
Standard
  9
$DIMCLRD
 70
     0
  9
$DIMCLRE
 70
     0
  9
$DIMCLRT
 70
     1
  9
$DIMTFAC
 40
0.5142857142857144
  9
$DIMGAP
 40
1.5
  9
$DIMJUST
 70
     0
  9
$DIMSD1
 70
     0
  9
$DIMSD2
 70
     0
  9
$DIMTOLJ
 70
     1
  9
$DIMTZIN
 70
     8
  9
$DIMALTZ
 70
     8
  9
$DIMALTTZ
 70
     8
  9
$DIMUPT
 70
     0
  9
$DIMDEC
 70
     2
  9
$DIMTDEC
 70
     2
  9
$DIMALTU
 70
     2
  9
$DIMALTTD
 70
     2
  9
$DIMTXSTY
  7
STANDARD
  9
$DIMAUNIT
 70
     0
  9
$DIMADEC
 70
     2
  9
$DIMALTRND
 40
0.0
  9
$DIMAZIN
 70
     2
  9
$DIMDSEP
 70
    46
  9
$DIMATFIT
 70
     3
  9
$DIMFRAC
 70
     0
  9
$DIMLDRBLK
  1

  9
$DIMLUNIT
 70
     2
  9
$DIMLWD
 70
    -2
  9
$DIMLWE
 70
    -2
  9
$DIMTMOVE
 70
     0
  9
$LUNITS
 70
     2
  9
$LUPREC
 70
     2
  9
$SKETCHINC
 40
1.0
  9
$FILLETRAD
 40
0.0
  9
$AUNITS
 70
     0
  9
$AUPREC
 70
     0
  9
$MENU
  1
ACAD
  9
$ELEVATION
 40
0.0
  9
$PELEVATION
 40
0.0
  9
$THICKNESS
 40
0.0
  9
$LIMCHECK
 70
     0
  9
$CHAMFERA
 40
0.0
  9
$CHAMFERB
 40
0.0
  9
$CHAMFERC
 40
0.0
  9
$CHAMFERD
 40
0.0
  9
$SKPOLY
 70
     0
  9
$TDCREATE
 40
2455397.823042361
  9
$TDUCREATE
 40
2455397.781375695
  9
$TDUPDATE
 40
2455532.537296424
  9
$TDUUPDATE
 40
2455532.495629757
  9
$TDINDWG
 40
0.4877124537
  9
$TDUSRTIMER
 40
0.4877124537
  9
$USRTIMER
 70
     1
  9
$ANGBASE
 50
0.0
  9
$ANGDIR
 70
     0
  9
$PDMODE
 70
     0
  9
$PDSIZE
 40
0.0
  9
$PLINEWID
 40
0.0
  9
$SPLFRAME
 70
     0
  9
$SPLINETYPE
 70
     6
  9
$SPLINESEGS
 70
     8
  9
$HANDSEED
  5
338B
  9
$SURFTAB1
 70
     6
  9
$SURFTAB2
 70
     6
  9
$SURFTYPE
 70
     6
  9
$SURFU
 70
     6
  9
$SURFV
 70
     6
  9
$UCSBASE
  2

  9
$UCSNAME
  2

  9
$UCSORG
 10
0.0
 20
0.0
 30
0.0
  9
$UCSXDIR
 10
1.0
 20
0.0
 30
0.0
  9
$UCSYDIR
 10
0.0
 20
1.0
 30
0.0
  9
$UCSORTHOREF
  2

  9
$UCSORTHOVIEW
 70
     0
  9
$UCSORGTOP
 10
0.0
 20
0.0
 30
0.0
  9
$UCSORGBOTTOM
 10
0.0
 20
0.0
 30
0.0
  9
$UCSORGLEFT
 10
0.0
 20
0.0
 30
0.0
  9
$UCSORGRIGHT
 10
0.0
 20
0.0
 30
0.0
  9
$UCSORGFRONT
 10
0.0
 20
0.0
 30
0.0
  9
$UCSORGBACK
 10
0.0
 20
0.0
 30
0.0
  9
$PUCSBASE
  2

  9
$PUCSNAME
  2

  9
$PUCSORG
 10
0.0
 20
0.0
 30
0.0
  9
$PUCSXDIR
 10
1.0
 20
0.0
 30
0.0
  9
$PUCSYDIR
 10
0.0
 20
1.0
 30
0.0
  9
$PUCSORTHOREF
  2

  9
$PUCSORTHOVIEW
 70
     0
  9
$PUCSORGTOP
 10
0.0
 20
0.0
 30
0.0
  9
$PUCSORGBOTTOM
 10
0.0
 20
0.0
 30
0.0
  9
$PUCSORGLEFT
 10
0.0
 20
0.0
 30
0.0
  9
$PUCSORGRIGHT
 10
0.0
 20
0.0
 30
0.0
  9
$PUCSORGFRONT
 10
0.0
 20
0.0
 30
0.0
  9
$PUCSORGBACK
 10
0.0
 20
0.0
 30
0.0
  9
$USERI1
 70
     0
  9
$USERI2
 70
     0
  9
$USERI3
 70
     0
  9
$USERI4
 70
     0
  9
$USERI5
 70
     0
  9
$USERR1
 40
0.0
  9
$USERR2
 40
0.0
  9
$USERR3
 40
0.0
  9
$USERR4
 40
0.0
  9
$USERR5
 40
0.0
  9
$WORLDVIEW
 70
     1
  9
$SHADEDGE
 70
     3
  9
$SHADEDIF
 70
    70
  9
$TILEMODE
 70
     1
  9
$MAXACTVP
 70
    16
  9
$PINSBASE
 10
0.0
 20
0.0
 30
0.0
  9
$PLIMCHECK
 70
     0
  9
$PEXTMIN
 10
1.000000000000000E+20
 20
1.000000000000000E+20
 30
1.000000000000000E+20
  9
$PEXTMAX
 10
-1.000000000000000E+20
 20
-1.000000000000000E+20
 30
-1.000000000000000E+20
  9
$PLIMMIN
 10
0.0
 20
0.0
  9
$PLIMMAX
 10
12.0
 20
9.0
  9
$UNITMODE
 70
     0
  9
$VISRETAIN
 70
     0
  9
$PLINEGEN
 70
     0
  9
$PSLTSCALE
 70
     0
  9
$TREEDEPTH
 70
  3020
  9
$CMLSTYLE
  2
Standard
  9
$CMLJUST
 70
     0
  9
$CMLSCALE
 40
1.0
  9
$PROXYGRAPHICS
 70
     1
  9
$MEASUREMENT
 70
     0
  9
$CELWEIGHT
370
    -1
  9
$ENDCAPS
280
     0
  9
$JOINSTYLE
280
     0
  9
$LWDISPLAY
290
     0
  9
$INSUNITS
 70
     0
  9
$HYPERLINKBASE
  1

  9
$STYLESHEET
  1
monochrome 1.ctb
  9
$XEDIT
290
     1
  9
$CEPSNTYPE
380
     0
  9
$PSTYLEMODE
290
     1
  9
$FINGERPRINTGUID
  2
{D68B0D02-A558-11D7-B632-000102183313}
  9
$VERSIONGUID
  2
{E3C709C3-85D2-4254-AF5A-63ACA2999E34}
  9
$EXTNAMES
290
     1
  9
$PSVPSCALE
 40
0.0
  9
$OLESTARTUP
290
     0
  9
$SORTENTS
280
   127
  9
$INDEXCTL
280
     0
  9
$HIDETEXT
280
     0
  9
$XCLIPFRAME
290
     0
  9
$HALOGAP
280
     0
  9
$OBSCOLOR
 70
   257
  9
$OBSLTYPE
280
     0
  9
$INTERSECTIONDISPLAY
280
     0
  9
$INTERSECTIONCOLOR
 70
   257
  9
$DIMASSOC
280
     1
  9
$PROJECTNAME
  1

  0
ENDSEC
  0
SECTION
  2
CLASSES
  0
CLASS
  1
ACDBDICTIONARYWDFLT
  2
AcDbDictionaryWithDefault
  3
ObjectDBX Classes
 90
        0
 91
        1
280
     0
281
     0
  0
CLASS
  1
DICTIONARYVAR
  2
AcDbDictionaryVar
  3
ObjectDBX Classes
 90
        0
 91
        2
280
     0
281
     0
  0
ENDSEC
  0
SECTION
  2
TABLES
  0
TABLE
  2
VPORT
  5
8
330
0
100
AcDbSymbolTable
 70
     2
  0
VPORT
  5
338A
330
8
100
AcDbSymbolTableRecord
100
AcDbViewportTableRecord
  2
*Active
 70
     0
 10
0.0
 20
0.0
 11
1.0
 21
1.0
 12
262.5092287341148
 22
371.2630520668203
 13
0.0
 23
0.0
 14
1.0
 24
1.0
 15
10.0
 25
10.0
 16
0.0
 26
0.0
 36
1.0
 17
0.0
 27
0.0
 37
0.0
 40
748.5359212364572
 41
1.336927223719676
 42
50.0
 43
0.0
 44
0.0
 50
0.0
 51
0.0
 71
     0
 72
  1500
 73
     1
 74
     0
 75
     0
 76
     0
 77
     0
 78
     0
281
     0
 65
     1
110
0.0
120
0.0
130
0.0
111
1.0
121
0.0
131
0.0
112
0.0
122
1.0
132
0.0
 79
     0
146
0.0
  0
ENDTAB
  0
TABLE
  2
LTYPE
  5
5
330
0
100
AcDbSymbolTable
 70
     2
  0
LTYPE
  5
13
330
5
100
AcDbSymbolTableRecord
100
AcDbLinetypeTableRecord
  2
ByBlock
 70
     0
  3

 72
    65
 73
     0
 40
0.0
  0
LTYPE
  5
14
330
5
100
AcDbSymbolTableRecord
100
AcDbLinetypeTableRecord
  2
ByLayer
 70
     0
  3

 72
    65
 73
     0
 40
0.0
  0
LTYPE
  5
15
330
5
100
AcDbSymbolTableRecord
100
AcDbLinetypeTableRecord
  2
Continuous
 70
     0
  3
Solid line
 72
    65
 73
     0
 40
0.0
  0
LTYPE
  5
25
330
5
100
AcDbSymbolTableRecord
100
AcDbLinetypeTableRecord
  2
STRICHPUNKT
 70
     0
  3
__ . __ . __ . __ . __ . __ . __ . __ . __ . __
 72
    65
 73
     4
 40
1.0
 49
0.5
 74
     0
 49
-0.25
 74
     0
 49
0.0
 74
     0
 49
-0.25
 74
     0
  0
ENDTAB
  0
TABLE
  2
LAYER
  5
2
330
0
100
AcDbSymbolTable
 70
     9
  0
LAYER
  5
10
330
2
100
AcDbSymbolTableRecord
100
AcDbLayerTableRecord
  2
0
 70
     0
 62
     7
  6
Continuous
370
    -3
390
F
  0
LAYER
  5
2A
330
2
100
AcDbSymbolTableRecord
100
AcDbLayerTableRecord
  2
VOLL
 70
     0
 62
     1
  6
Continuous
370
    -3
390
F
  0
LAYER
  5
2B
330
2
100
AcDbSymbolTableRecord
100
AcDbLayerTableRecord
  2
HILF
 70
     0
 62
     2
  6
Continuous
370
    -3
390
F
  0
LAYER
  5
2C
330
2
100
AcDbSymbolTableRecord
100
AcDbLayerTableRecord
  2
MITTEL
 70
     0
 62
     2
  6
STRICHPUNKT
370
    -3
390
F
  0
LAYER
  5
2F
330
2
100
AcDbSymbolTableRecord
100
AcDbLayerTableRecord
  2
BEM
 70
     0
 62
     7
  6
Continuous
370
    -3
390
F
  0
LAYER
  5
30
330
2
100
AcDbSymbolTableRecord
100
AcDbLayerTableRecord
  2
STEMPEL
 70
     0
 62
     3
  6
Continuous
370
    -3
390
F
  0
LAYER
  5
31
330
2
100
AcDbSymbolTableRecord
100
AcDbLayerTableRecord
  2
TEXT
 70
     0
 62
     7
  6
Continuous
370
    -3
390
F
  0
LAYER
  5
171
330
2
100
AcDbSymbolTableRecord
100
AcDbLayerTableRecord
  2
Defpoints
 70
     0
 62
     7
  6
Continuous
290
     0
370
    -3
390
F
  0
LAYER
  5
19C
330
2
100
AcDbSymbolTableRecord
100
AcDbLayerTableRecord
  2
SCHRAFF
 70
     0
 62
     7
  6
Continuous
370
    -3
390
F
  0
ENDTAB
  0
TABLE
  2
STYLE
  5
3
330
0
100
AcDbSymbolTable
 70
     2
  0
STYLE
  5
11
330
3
100
AcDbSymbolTableRecord
100
AcDbTextStyleTableRecord
  2
STANDARD
 70
     0
 40
0.0
 41
0.8
 50
0.0
 71
     0
 42
3.5
  3
simplex.shx
  4

  0
STYLE
  5
24
330
3
100
AcDbSymbolTableRecord
100
AcDbTextStyleTableRecord
  2
GREEKS
 70
     0
 40
0.0
 41
0.8
 50
0.0
 71
     0
 42
2.5
  3
SIMPLEX.shx
  4

  0
ENDTAB
  0
TABLE
  2
VIEW
  5
6
330
0
100
AcDbSymbolTable
 70
     0
  0
ENDTAB
  0
TABLE
  2
UCS
  5
7
330
0
100
AcDbSymbolTable
 70
     0
  0
ENDTAB
  0
TABLE
  2
APPID
  5
9
330
0
100
AcDbSymbolTable
 70
     1
  0
APPID
  5
12
330
9
100
AcDbSymbolTableRecord
100
AcDbRegAppTableRecord
  2
ACAD
 70
     0
  0
ENDTAB
  0
TABLE
  2
DIMSTYLE
  5
A
330
0
100
AcDbSymbolTable
 70
     1
100
AcDbDimStyleTable
 71
     1
340
9D
  0
DIMSTYLE
105
9D
102
{ACAD_REACTORS
330
2E6A
330
30CE
330
313C
330
3149
330
3156
102
}
330
A
100
AcDbSymbolTableRecord
100
AcDbDimStyleTableRecord
  2
Standard
 70
     0
340
11
  0
ENDTAB
  0
TABLE
  2
BLOCK_RECORD
  5
1
330
0
100
AcDbSymbolTable
 70
     6
  0
BLOCK_RECORD
  5
1E
102
{ACAD_XDICTIONARY
360
A0
102
}
330
1
100
AcDbSymbolTableRecord
100
AcDbBlockTableRecord
  2
*Model_Space
340
21
  0
BLOCK_RECORD
  5
1A
102
{ACAD_XDICTIONARY
360
A2
102
}
330
1
100
AcDbSymbolTableRecord
100
AcDbBlockTableRecord
  2
*Paper_Space
340
1D
  0
BLOCK_RECORD
  5
22
330
1
100
AcDbSymbolTableRecord
100
AcDbBlockTableRecord
  2
LOGO
340
0
102
{BLKREFS
331
9B
102
}
  0
BLOCK_RECORD
  5
2E7E
330
1
100
AcDbSymbolTableRecord
100
AcDbBlockTableRecord
  2
*D1
340
0
  0
BLOCK_RECORD
  5
30CF
330
1
100
AcDbSymbolTableRecord
100
AcDbBlockTableRecord
  2
*D2
340
0
  0
BLOCK_RECORD
  5
313D
330
1
100
AcDbSymbolTableRecord
100
AcDbBlockTableRecord
  2
*D3
340
0
  0
BLOCK_RECORD
  5
314A
330
1
100
AcDbSymbolTableRecord
100
AcDbBlockTableRecord
  2
*D4
340
0
  0
BLOCK_RECORD
  5
3157
330
1
100
AcDbSymbolTableRecord
100
AcDbBlockTableRecord
  2
*D5
340
0
  0
ENDTAB
  0
ENDSEC
  0
SECTION
  2
BLOCKS
  0
BLOCK
  5
35
330
1E
100
AcDbEntity
  8
0
100
AcDbBlockBegin
  2
*Model_Space
 70
     0
 10
0.0
 20
0.0
 30
0.0
  3
*Model_Space
  1

  0
ENDBLK
  5
36
330
1E
100
AcDbEntity
  8
0
100
AcDbBlockEnd
  0
BLOCK
  5
33
330
1A
100
AcDbEntity
 67
     1
  8
0
100
AcDbBlockBegin
  2
*Paper_Space
 70
     0
 10
0.0
 20
0.0
 30
0.0
  3
*Paper_Space
  1

  0
ENDBLK
  5
34
330
1A
100
AcDbEntity
 67
     1
  8
0
100
AcDbBlockEnd
  0
BLOCK
  5
37
330
22
100
AcDbEntity
  8
0
100
AcDbBlockBegin
  2
LOGO
 70
     0
 10
0.0
 20
0.0
 30
0.0
  3
LOGO
  1

  0
ARC
  5
38
330
22
100
AcDbEntity
  8
0
100
AcDbCircle
 10
11.59973089678112
 20
-9.271599258481501
 30
0.0
 40
4.5
100
AcDbArc
 50
270.0
 51
231.0575587310159
  0
LINE
  5
39
330
22
100
AcDbEntity
  8
0
100
AcDbLine
 10
3.599730896781125
 20
-4.771599258481529
 30
0.0
 11
3.599730896781153
 21
-11.77159925848133
 31
0.0
  0
LINE
  5
3A
330
22
100
AcDbEntity
  8
0
100
AcDbLine
 10
2.599730896781125
 20
-4.771599258481529
 30
0.0
 11
2.599730896781153
 21
-11.77159925848133
 31
0.0
  0
CIRCLE
  5
3B
330
22
100
AcDbEntity
  8
0
100
AcDbCircle
 10
11.59973089678112
 20
-9.271599258481501
 30
0.0
 40
3.5
  0
ARC
  5
3C
330
22
100
AcDbEntity
  8
0
100
AcDbCircle
 10
31.59973089678115
 20
-9.271599258481472
 30
0.0
 40
4.5
100
AcDbArc
 50
270.0
 51
231.0575587310182
  0
LINE
  5
3D
330
22
100
AcDbEntity
  8
0
100
AcDbLine
 10
17.59973089678112
 20
-4.771599258481472
 30
0.0
 11
17.59973089678115
 21
-13.77159925848147
 31
0.0
  0
ARC
  5
3E
330
22
100
AcDbEntity
  8
0
100
AcDbCircle
 10
22.59973089678116
 20
-7.271599258481472
 30
0.0
 40
2.5
100
AcDbArc
 50
293.1161887722295
 51
90.0
  0
CIRCLE
  5
3F
330
22
100
AcDbEntity
  8
0
100
AcDbCircle
 10
31.59973089678115
 20
-9.271599258481472
 30
0.0
 40
3.5
  0
ARC
  5
40
330
22
100
AcDbEntity
  8
0
100
AcDbCircle
 10
4.599730896781153
 20
-11.77159925848133
 30
0.0
 40
1.0
100
AcDbArc
 50
180.0
 51
270.0
  0
ARC
  5
41
330
22
100
AcDbEntity
  8
0
100
AcDbCircle
 10
4.599730896781153
 20
-11.77159925848133
 30
0.0
 40
2.0
100
AcDbArc
 50
179.9999999999992
 51
270.0
  0
LINE
  5
42
330
22
100
AcDbEntity
  8
0
100
AcDbLine
 10
11.59973089678115
 20
-13.77159925848144
 30
0.0
 11
4.599730896781153
 21
-13.77159925848147
 31
0.0
  0
LINE
  5
43
330
22
100
AcDbEntity
  8
0
100
AcDbLine
 10
8.771303772034769
 20
-12.77159925848136
 30
0.0
 11
4.599730896781153
 21
-12.77159925848133
 31
0.0
  0
LINE
  5
44
330
22
100
AcDbEntity
  8
0
100
AcDbLine
 10
31.59973089678115
 20
-13.77159925848147
 30
0.0
 11
23.6715276665056
 21
-13.77159925848144
 31
0.0
  0
LINE
  5
45
330
22
100
AcDbEntity
  8
0
100
AcDbLine
 10
23.56565672307022
 20
-9.51278021337896
 30
0.0
 11
24.4388546544846
 21
-12.77159925848144
 31
0.0
  0
LINE
  5
46
330
22
100
AcDbEntity
  8
0
100
AcDbLine
 10
22.59973089678116
 20
-9.771599258481472
 30
0.0
 11
18.59973089678112
 21
-9.771599258481472
 31
0.0
  0
LINE
  5
47
330
22
100
AcDbEntity
  8
0
100
AcDbLine
 10
18.59973089678115
 20
-13.77159925848144
 30
0.0
 11
17.59973089678115
 21
-13.77159925848144
 31
0.0
  0
LINE
  5
48
330
22
100
AcDbEntity
  8
0
100
AcDbLine
 10
18.59973089678115
 20
-9.771599258481472
 30
0.0
 11
18.59973089678115
 21
-13.77159925848144
 31
0.0
  0
LINE
  5
49
330
22
100
AcDbEntity
  8
0
100
AcDbLine
 10
22.59973089678116
 20
-9.771599258481472
 30
0.0
 11
23.67152766650562
 21
-13.77159925848147
 31
0.0
  0
ARC
  5
4A
330
22
100
AcDbEntity
  8
0
100
AcDbCircle
 10
22.59973089678116
 20
-7.271599258481472
 30
0.0
 40
2.5
100
AcDbArc
 50
270.0
 51
270.0000000000007
  0
LINE
  5
4B
330
22
100
AcDbEntity
  8
0
100
AcDbLine
 10
28.77130377203494
 20
-12.77159925848147
 30
0.0
 11
24.43885465448463
 21
-12.77159925848144
 31
0.0
  0
LINE
  5
4C
330
22
100
AcDbEntity
  8
0
100
AcDbLine
 10
3.599730896781125
 20
-4.771599258481472
 30
0.0
 11
2.599730896781125
 21
-4.771599258481472
 31
0.0
  0
LINE
  5
4D
330
22
100
AcDbEntity
  8
0
100
AcDbLine
 10
22.59973089678116
 20
-8.771599258481472
 30
0.0
 11
18.59973089678115
 21
-8.771599258481472
 31
0.0
  0
LINE
  5
4E
330
22
100
AcDbEntity
  8
0
100
AcDbLine
 10
22.59973089678116
 20
-5.771599258481472
 30
0.0
 11
18.59973089678115
 21
-5.771599258481472
 31
0.0
  0
LINE
  5
4F
330
22
100
AcDbEntity
  8
0
100
AcDbLine
 10
22.59973089678116
 20
-4.771599258481472
 30
0.0
 11
17.59973089678115
 21
-4.771599258481472
 31
0.0
  0
LINE
  5
50
330
22
100
AcDbEntity
  8
0
100
AcDbLine
 10
18.59973089678115
 20
-5.771599258481472
 30
0.0
 11
18.59973089678115
 21
-8.771599258481472
 31
0.0
  0
ARC
  5
51
330
22
100
AcDbEntity
  8
0
100
AcDbCircle
 10
22.59973089678116
 20
-7.271599258481472
 30
0.0
 40
1.5
100
AcDbArc
 50
270.0
 51
90.0
  0
ENDBLK
  5
52
330
22
100
AcDbEntity
  8
0
100
AcDbBlockEnd
  0
BLOCK
  5
2E88
330
2E7E
100
AcDbEntity
  8
0
100
AcDbBlockBegin
  2
*D1
 70
     1
 10
0.0
 20
0.0
 30
0.0
  3
*D1
  1

  0
LINE
  5
32D5
330
2E7E
100
AcDbEntity
  8
BEM
 62
     0
370
    -2
100
AcDbLine
 10
187.4874582369207
 20
295.8778107518125
 30
0.0
 11
187.4874582369207
 21
258.5605084257129
 31
0.0
  0
LINE
  5
32D6
330
2E7E
100
AcDbEntity
  8
BEM
 62
     0
370
    -2
100
AcDbLine
 10
346.4874582369209
 20
295.8778107518126
 30
0.0
 11
346.4874582369209
 21
258.5605084257129
 31
0.0
  0
LINE
  5
32D7
330
2E7E
100
AcDbEntity
  8
BEM
 62
     0
370
    -2
100
AcDbLine
 10
196.2374582369207
 20
261.0605084257129
 30
0.0
 11
337.7374582369209
 21
261.0605084257129
 31
0.0
  0
SOLID
  5
32D8
330
2E7E
100
AcDbEntity
  8
BEM
 62
     0
100
AcDbTrace
 10
196.2374582369207
 20
262.5188417590462
 30
0.0
 11
196.2374582369207
 21
259.6021750923796
 31
0.0
 12
187.4874582369207
 22
261.0605084257129
 32
0.0
 13
187.4874582369207
 23
261.0605084257129
 33
0.0
  0
SOLID
  5
32D9
330
2E7E
100
AcDbEntity
  8
BEM
 62
     0
100
AcDbTrace
 10
337.7374582369209
 20
262.5188417590462
 30
0.0
 11
337.7374582369209
 21
259.6021750923796
 31
0.0
 12
346.4874582369209
 22
261.0605084257129
 32
0.0
 13
346.4874582369209
 23
261.0605084257129
 33
0.0
  0
MTEXT
  5
32DA
330
2E7E
100
AcDbEntity
  8
BEM
 62
     1
100
AcDbMText
 10
266.9874582369208
 20
269.1855084257129
 30
0.0
 40
8.75
 41
0.0
 71
     5
 72
     1
  1
\A1;%%c159
 73
     1
 44
1.0
  0
POINT
  5
32DB
330
2E7E
100
AcDbEntity
  8
Defpoints
 62
     0
100
AcDbPoint
 10
187.4874582369207
 20
298.3778107518125
 30
0.0
  0
POINT
  5
32DC
330
2E7E
100
AcDbEntity
  8
Defpoints
 62
     0
100
AcDbPoint
 10
346.4874582369209
 20
298.3778107518126
 30
0.0
  0
POINT
  5
32DD
330
2E7E
100
AcDbEntity
  8
Defpoints
 62
     0
100
AcDbPoint
 10
346.4874582369209
 20
261.0605084257129
 30
0.0
  0
ENDBLK
  5
2E89
330
2E7E
100
AcDbEntity
  8
0
100
AcDbBlockEnd
  0
BLOCK
  5
30D9
330
30CF
100
AcDbEntity
  8
0
100
AcDbBlockBegin
  2
*D2
 70
     1
 10
0.0
 20
0.0
 30
0.0
  3
*D2
  1

  0
LINE
  5
3376
330
30CF
100
AcDbEntity
  8
BEM
 62
     0
370
    -2
100
AcDbLine
 10
456.492075594916
 20
487.0305196702075
 30
0.0
 11
468.9284612833359
 21
499.4669053586274
 31
0.0
  0
LINE
  5
3377
330
30CF
100
AcDbEntity
  8
BEM
 62
     0
370
    -2
100
AcDbLine
 10
301.6356905150618
 20
641.8869047500614
 30
0.0
 11
314.0720762034819
 21
654.3232904384815
 31
0.0
  0
LINE
  5
3378
330
30CF
100
AcDbEntity
  8
BEM
 62
     0
370
    -2
100
AcDbLine
 10
460.9735099949873
 20
503.8863227410433
 30
0.0
 11
318.4914935858978
 21
646.3683391501328
 31
0.0
  0
SOLID
  5
3379
330
30CF
100
AcDbEntity
  8
BEM
 62
     0
100
AcDbTrace
 10
462.0047073842177
 20
504.9175201302737
 30
0.0
 11
459.9423126057569
 21
502.8551253518129
 31
0.0
 12
467.1606943303696
 22
497.699138405661
 32
0.0
 13
467.1606943303696
 23
497.699138405661
 33
0.0
  0
SOLID
  5
337A
330
30CF
100
AcDbEntity
  8
BEM
 62
     0
100
AcDbTrace
 10
319.5226909751282
 20
647.3995365393633
 30
0.0
 11
317.4602961966674
 21
645.3371417609024
 31
0.0
 12
312.3043092505155
 22
652.5555234855151
 32
0.0
 13
312.3043092505155
 23
652.5555234855151
 33
0.0
  0
MTEXT
  5
337B
330
30CF
100
AcDbEntity
  8
BEM
 62
     1
100
AcDbMText
 10
395.4777443875832
 20
580.8725735427288
 30
0.0
 40
8.75
 41
0.0
 71
     5
 72
     1
  1
\A1;219
 11
0.7071067811865476
 21
-0.7071067811865475
 31
0.0
 73
     1
 44
1.0
  0
POINT
  5
337C
330
30CF
100
AcDbEntity
  8
Defpoints
 62
     0
100
AcDbPoint
 10
454.7243086419496
 20
485.262752717241
 30
0.0
  0
POINT
  5
337D
330
30CF
100
AcDbEntity
  8
Defpoints
 62
     0
100
AcDbPoint
 10
299.8679235620955
 20
640.1191377970952
 30
0.0
  0
POINT
  5
337E
330
30CF
100
AcDbEntity
  8
Defpoints
 62
     0
100
AcDbPoint
 10
312.3043092505155
 20
652.5555234855151
 30
0.0
  0
ENDBLK
  5
30DA
330
30CF
100
AcDbEntity
  8
0
100
AcDbBlockEnd
  0
BLOCK
  5
3147
330
313D
100
AcDbEntity
  8
0
100
AcDbBlockBegin
  2
*D3
 70
     1
 10
0.0
 20
0.0
 30
0.0
  3
*D3
  1

  0
LINE
  5
3357
330
313D
100
AcDbEntity
  8
BEM
 62
     0
370
    -2
100
AcDbLine
 10
154.9874582369208
 20
353.3778107518125
 30
0.0
 11
135.965121700473
 21
353.3778107518125
 31
0.0
  0
LINE
  5
3358
330
313D
100
AcDbEntity
  8
BEM
 62
     0
370
    -2
100
AcDbLine
 10
185.8527952783208
 20
288.3778107518125
 30
0.0
 11
135.965121700473
 21
288.3778107518125
 31
0.0
  0
LINE
  5
3359
330
313D
100
AcDbEntity
  8
BEM
 62
     0
370
    -2
100
AcDbLine
 10
138.465121700473
 20
344.6278107518125
 30
0.0
 11
138.465121700473
 21
297.1278107518125
 31
0.0
  0
SOLID
  5
335A
330
313D
100
AcDbEntity
  8
BEM
 62
     0
100
AcDbTrace
 10
137.0067883671397
 20
344.6278107518125
 30
0.0
 11
139.9234550338063
 21
344.6278107518125
 31
0.0
 12
138.465121700473
 22
353.3778107518125
 32
0.0
 13
138.465121700473
 23
353.3778107518125
 33
0.0
  0
SOLID
  5
335B
330
313D
100
AcDbEntity
  8
BEM
 62
     0
100
AcDbTrace
 10
137.0067883671396
 20
297.1278107518125
 30
0.0
 11
139.9234550338063
 21
297.1278107518125
 31
0.0
 12
138.465121700473
 22
288.3778107518125
 32
0.0
 13
138.465121700473
 23
288.3778107518125
 33
0.0
  0
MTEXT
  5
335C
330
313D
100
AcDbEntity
  8
BEM
 62
     1
100
AcDbMText
 10
130.3401217004729
 20
320.8778107518126
 30
0.0
 40
8.75
 41
0.0
 71
     5
 72
     1
  1
\A1;65
 11
0.0000000000000001
 21
1.0
 31
0.0
 73
     1
 44
1.0
  0
POINT
  5
335D
330
313D
100
AcDbEntity
  8
Defpoints
 62
     0
100
AcDbPoint
 10
157.4874582369208
 20
353.3778107518125
 30
0.0
  0
POINT
  5
335E
330
313D
100
AcDbEntity
  8
Defpoints
 62
     0
100
AcDbPoint
 10
188.3527952783208
 20
288.3778107518125
 30
0.0
  0
POINT
  5
335F
330
313D
100
AcDbEntity
  8
Defpoints
 62
     0
100
AcDbPoint
 10
138.465121700473
 20
288.3778107518125
 30
0.0
  0
ENDBLK
  5
3148
330
313D
100
AcDbEntity
  8
0
100
AcDbBlockEnd
  0
BLOCK
  5
3154
330
314A
100
AcDbEntity
  8
0
100
AcDbBlockBegin
  2
*D4
 70
     1
 10
0.0
 20
0.0
 30
0.0
  3
*D4
  1

  0
LINE
  5
334E
330
314A
100
AcDbEntity
  8
BEM
 62
     0
370
    -2
100
AcDbLine
 10
264.4874582369209
 20
452.3822873920667
 30
0.0
 11
117.3398332582051
 21
452.3822873920668
 31
0.0
  0
LINE
  5
334F
330
314A
100
AcDbEntity
  8
BEM
 62
     0
370
    -2
100
AcDbLine
 10
185.8527952783208
 20
288.3778107518125
 30
0.0
 11
117.3398332582051
 21
288.3778107518125
 31
0.0
  0
LINE
  5
3350
330
314A
100
AcDbEntity
  8
BEM
 62
     0
370
    -2
100
AcDbLine
 10
119.8398332582051
 20
443.6322873920667
 30
0.0
 11
119.8398332582051
 21
297.1278107518125
 31
0.0
  0
SOLID
  5
3351
330
314A
100
AcDbEntity
  8
BEM
 62
     0
100
AcDbTrace
 10
118.3814999248718
 20
443.6322873920667
 30
0.0
 11
121.2981665915384
 21
443.6322873920667
 31
0.0
 12
119.8398332582051
 22
452.3822873920668
 32
0.0
 13
119.8398332582051
 23
452.3822873920668
 33
0.0
  0
SOLID
  5
3352
330
314A
100
AcDbEntity
  8
BEM
 62
     0
100
AcDbTrace
 10
118.3814999248717
 20
297.1278107518125
 30
0.0
 11
121.2981665915384
 21
297.1278107518125
 31
0.0
 12
119.8398332582051
 22
288.3778107518125
 32
0.0
 13
119.8398332582051
 23
288.3778107518125
 33
0.0
  0
MTEXT
  5
3353
330
314A
100
AcDbEntity
  8
BEM
 62
     1
100
AcDbMText
 10
111.714833258205
 20
370.3800490719396
 30
0.0
 40
8.75
 41
0.0
 71
     5
 72
     1
  1
\A1;164
 11
0.0000000000000001
 21
1.0
 31
0.0
 73
     1
 44
1.0
  0
POINT
  5
3354
330
314A
100
AcDbEntity
  8
Defpoints
 62
     0
100
AcDbPoint
 10
266.9874582369209
 20
452.3822873920667
 30
0.0
  0
POINT
  5
3355
330
314A
100
AcDbEntity
  8
Defpoints
 62
     0
100
AcDbPoint
 10
188.3527952783208
 20
288.3778107518125
 30
0.0
  0
POINT
  5
3356
330
314A
100
AcDbEntity
  8
Defpoints
 62
     0
100
AcDbPoint
 10
119.8398332582051
 20
288.3778107518125
 30
0.0
  0
ENDBLK
  5
3155
330
314A
100
AcDbEntity
  8
0
100
AcDbBlockEnd
  0
BLOCK
  5
3161
330
3157
100
AcDbEntity
  8
0
100
AcDbBlockBegin
  2
*D5
 70
     1
 10
0.0
 20
0.0
 30
0.0
  3
*D5
  1

  0
LINE
  5
3275
330
3157
100
AcDbEntity
  8
BEM
 62
     0
370
    -2
100
AcDbLine
 10
298.1001566091293
 20
641.8869047500614
 30
0.0
 11
280.1670434205992
 21
659.8200179385915
 31
0.0
  0
LINE
  5
3276
330
3157
100
AcDbEntity
  8
BEM
 62
     0
370
    -2
100
AcDbLine
 10
265.2196912839546
 20
454.1500543450331
 30
0.0
 11
169.8583855554976
 21
549.5113600734899
 31
0.0
  0
LINE
  5
3277
330
3157
100
AcDbEntity
  8
BEM
 62
     0
370
    -2
100
AcDbLine
 10
275.7476260381832
 20
651.8650666502428
 30
0.0
 11
177.8133368438463
 21
553.9307774559058
 31
0.0
  0
SOLID
  5
3278
330
3157
100
AcDbEntity
  8
BEM
 62
     0
100
AcDbTrace
 10
274.7164286489528
 20
652.8962640394731
 30
0.0
 11
276.7788234274136
 21
650.8338692610124
 31
0.0
 12
281.9348103735655
 22
658.052250985625
 32
0.0
 13
281.9348103735655
 23
658.052250985625
 33
0.0
  0
SOLID
  5
3279
330
3157
100
AcDbEntity
  8
BEM
 62
     0
100
AcDbTrace
 10
176.7821394546159
 20
554.9619748451362
 30
0.0
 11
178.8445342330767
 21
552.8995800666755
 31
0.0
 12
171.626152508464
 22
547.7435931205236
 32
0.0
 13
171.626152508464
 23
547.7435931205236
 33
0.0
  0
MTEXT
  5
327A
330
3157
100
AcDbEntity
  8
BEM
 62
     1
100
AcDbMText
 10
221.0352388438741
 20
608.6431646502151
 30
0.0
 40
8.75
 41
0.0
 71
     5
 72
     1
  1
\A1;156
 11
0.7071067811865474
 21
0.7071067811865478
 31
0.0
 73
     1
 44
1.0
  0
POINT
  5
327B
330
3157
100
AcDbEntity
  8
Defpoints
 62
     0
100
AcDbPoint
 10
299.8679235620957
 20
640.1191377970949
 30
0.0
  0
POINT
  5
327C
330
3157
100
AcDbEntity
  8
Defpoints
 62
     0
100
AcDbPoint
 10
266.9874582369209
 20
452.3822873920667
 30
0.0
  0
POINT
  5
327D
330
3157
100
AcDbEntity
  8
Defpoints
 62
     0
100
AcDbPoint
 10
171.626152508464
 20
547.7435931205236
 30
0.0
  0
ENDBLK
  5
3162
330
3157
100
AcDbEntity
  8
0
100
AcDbBlockEnd
  0
ENDSEC
  0
SECTION
  2
ENTITIES
  0
LINE
  5
57
330
1E
100
AcDbEntity
  8
STEMPEL
100
AcDbLine
 10
512.5
 20
137.5
 30
0.0
 11
49.99999999999996
 21
137.5
 31
0.0
  0
LINE
  5
58
330
1E
100
AcDbEntity
  8
STEMPEL
100
AcDbLine
 10
182.5000000000001
 20
137.4999999999999
 30
0.0
 11
182.5
 21
12.49999999999996
 31
0.0
  0
LINE
  5
59
330
1E
100
AcDbEntity
  8
STEMPEL
100
AcDbLine
 10
287.5
 20
137.5
 30
0.0
 11
287.5
 21
12.49999999999996
 31
0.0
  0
LINE
  5
5A
330
1E
100
AcDbEntity
  8
STEMPEL
100
AcDbLine
 10
415.0
 20
137.4999999999997
 30
0.0
 11
415.0
 21
50.0
 31
0.0
  0
LINE
  5
5B
330
1E
100
AcDbEntity
  8
STEMPEL
100
AcDbLine
 10
182.4999999999998
 20
37.49999999999996
 30
0.0
 11
49.99999999999996
 21
37.49999999999996
 31
0.0
  0
LINE
  5
5C
330
1E
100
AcDbEntity
  8
STEMPEL
100
AcDbLine
 10
512.5
 20
50.0
 30
0.0
 11
182.5000000000001
 21
49.99999999999996
 31
0.0
  0
LINE
  5
5D
330
1E
100
AcDbEntity
  8
STEMPEL
100
AcDbLine
 10
512.5
 20
100.0
 30
0.0
 11
182.5000000000001
 21
99.99999999999992
 31
0.0
  0
LINE
  5
5E
330
1E
100
AcDbEntity
  8
VOLL
100
AcDbLine
 10
67.50000000000011
 20
137.5
 30
0.0
 11
67.49999999999997
 21
12.49999999999996
 31
0.0
  0
LINE
  5
5F
330
1E
100
AcDbEntity
  8
VOLL
100
AcDbLine
 10
130.0000000000001
 20
137.4999999999999
 30
0.0
 11
130.0
 21
12.49999999999996
 31
0.0
  0
LINE
  5
60
330
1E
100
AcDbEntity
  8
VOLL
100
AcDbLine
 10
155.0000000000001
 20
137.4999999999999
 30
0.0
 11
155.0
 21
12.49999999999996
 31
0.0
  0
LINE
  5
61
330
1E
100
AcDbEntity
  8
VOLL
100
AcDbLine
 10
205.0000000000002
 20
99.99999999999992
 30
0.0
 11
205.0000000000002
 21
49.99999999999996
 31
0.0
  0
LINE
  5
62
330
1E
100
AcDbEntity
  8
VOLL
100
AcDbLine
 10
237.5000000000001
 20
137.4999999999998
 30
0.0
 11
237.5
 21
49.99999999999996
 31
0.0
  0
LINE
  5
63
330
1E
100
AcDbEntity
  8
HILF
100
AcDbLine
 10
50.0000000000001
 20
125.0
 30
0.0
 11
182.5000000000001
 21
125.0
 31
0.0
  0
LINE
  5
64
330
1E
100
AcDbEntity
  8
HILF
100
AcDbLine
 10
50.0000000000001
 20
112.5
 30
0.0
 11
182.5000000000001
 21
112.5
 31
0.0
  0
LINE
  5
65
330
1E
100
AcDbEntity
  8
HILF
100
AcDbLine
 10
50.0000000000001
 20
99.99999999999992
 30
0.0
 11
182.5000000000001
 21
99.99999999999992
 31
0.0
  0
LINE
  5
66
330
1E
100
AcDbEntity
  8
HILF
100
AcDbLine
 10
50.0000000000001
 20
87.49999999999992
 30
0.0
 11
182.5000000000001
 21
87.49999999999992
 31
0.0
  0
LINE
  5
67
330
1E
100
AcDbEntity
  8
HILF
100
AcDbLine
 10
50.0000000000001
 20
74.99999999999997
 30
0.0
 11
182.5000000000001
 21
74.99999999999997
 31
0.0
  0
LINE
  5
68
330
1E
100
AcDbEntity
  8
HILF
100
AcDbLine
 10
50.0000000000001
 20
62.49999999999996
 30
0.0
 11
182.5000000000001
 21
62.49999999999996
 31
0.0
  0
LINE
  5
69
330
1E
100
AcDbEntity
  8
HILF
100
AcDbLine
 10
50.0000000000001
 20
49.99999999999996
 30
0.0
 11
182.5000000000001
 21
49.99999999999996
 31
0.0
  0
LINE
  5
6A
330
1E
100
AcDbEntity
  8
HILF
100
AcDbLine
 10
182.5000000000001
 20
87.49999999999992
 30
0.0
 11
287.5
 21
87.49999999999992
 31
0.0
  0
LINE
  5
6B
330
1E
100
AcDbEntity
  8
HILF
100
AcDbLine
 10
182.5000000000001
 20
74.99999999999997
 30
0.0
 11
287.5
 21
74.99999999999997
 31
0.0
  0
LINE
  5
6C
330
1E
100
AcDbEntity
  8
HILF
100
AcDbLine
 10
182.5000000000001
 20
62.49999999999996
 30
0.0
 11
287.5
 21
62.49999999999996
 31
0.0
  0
LINE
  5
6D
330
1E
100
AcDbEntity
  8
HILF
100
AcDbLine
 10
293.4671001371185
 20
105.0469780945517
 30
0.0
 11
406.0442395695388
 21
105.0469780945517
 31
0.0
  0
LINE
  5
6E
330
1E
100
AcDbEntity
  8
HILF
100
AcDbLine
 10
293.4671001371185
 20
87.49999999999992
 30
0.0
 11
406.0442395695387
 21
87.49999999999992
 31
0.0
  0
LINE
  5
6F
330
1E
100
AcDbEntity
  8
HILF
100
AcDbLine
 10
293.4671001371185
 20
74.99999999999997
 30
0.0
 11
406.0442395695387
 21
74.99999999999997
 31
0.0
  0
LINE
  5
70
330
1E
100
AcDbEntity
  8
HILF
100
AcDbLine
 10
293.4671001371185
 20
62.49999999999996
 30
0.0
 11
406.0442395695387
 21
62.49999999999996
 31
0.0
  0
LINE
  5
71
330
1E
100
AcDbEntity
  8
VOLL
100
AcDbLine
 10
415.0
 20
75.0
 30
0.0
 11
512.5
 21
75.0
 31
0.0
  0
LINE
  5
72
330
1E
100
AcDbEntity
  8
HILF
100
AcDbLine
 10
420.9048270371241
 20
104.7247954619478
 30
0.0
 11
506.073604915841
 21
104.7247954619478
 31
0.0
  0
LINE
  5
73
330
1E
100
AcDbEntity
  8
HILF
100
AcDbLine
 10
291.8637124112356
 20
18.61747822535392
 30
0.0
 11
506.073604915841
 21
18.61747822535392
 31
0.0
  0
TEXT
  5
74
330
1E
100
AcDbEntity
  8
TEXT
100
AcDbText
 10
84.74387371862629
 20
23.34227368730165
 30
0.0
 40
5.0
  1
Änderung
 41
0.8
  7
GREEKS
 72
     1
 11
98.17244514719773
 21
23.34227368730165
 31
0.0
100
AcDbText
  0
TEXT
  5
75
330
1E
100
AcDbEntity
  8
TEXT
100
AcDbText
 10
191.8954465187971
 20
128.0776118858861
 30
0.0
 40
6.25
  1
Maßstab
 41
0.8
  7
GREEKS
100
AcDbText
  0
TEXT
  5
76
330
1E
100
AcDbEntity
  8
TEXT
100
AcDbText
 10
242.8573693417564
 20
128.0230210543524
 30
0.0
 40
6.25
  1
Zul. Abw.
 41
0.8
  7
GREEKS
100
AcDbText
  0
TEXT
  5
77
330
1E
100
AcDbEntity
  8
TEXT
100
AcDbText
 10
293.5974254761262
 20
128.1861660014724
 30
0.0
 40
6.25
  1
Benennung
 41
0.8
  7
GREEKS
100
AcDbText
  0
TEXT
  5
78
330
1E
100
AcDbEntity
  8
TEXT
100
AcDbText
 10
420.2234436970425
 20
127.891504317142
 30
0.0
 40
6.25
  1
Zeichnungs Nr.
 41
0.8
  7
GREEKS
100
AcDbText
  0
TEXT
  5
79
330
1E
100
AcDbEntity
  8
TEXT
100
AcDbText
 10
293.42779798892
 20
38.55700712741321
 30
0.0
 40
6.25
  1
Bauvorhaben
 41
0.8
  7
GREEKS
100
AcDbText
  0
TEXT
  5
7A
330
1E
100
AcDbEntity
  8
TEXT
100
AcDbText
 10
420.9048270371241
 20
91.47647796374961
 30
0.0
 40
6.25
  1
Ersatz für:
 41
0.8
  7
GREEKS
100
AcDbText
  0
TEXT
  5
7B
330
1E
100
AcDbEntity
  8
TEXT
100
AcDbText
 10
60.33301383807195
 20
17.06832307533989
 30
0.0
 40
5.0
  1
Index
 50
90.0
 41
0.8
  7
GREEKS
100
AcDbText
  0
TEXT
  5
7C
330
1E
100
AcDbEntity
  8
TEXT
100
AcDbText
 10
138.3732649044237
 20
23.33945336674763
 30
0.0
 40
5.0
  1
Tag
 41
0.8
  7
GREEKS
 72
     1
 11
143.0399315710903
 21
23.33945336674763
 31
0.0
100
AcDbText
  0
TEXT
  5
7D
330
1E
100
AcDbEntity
  8
TEXT
100
AcDbText
 10
161.2653430483241
 20
23.2415527120801
 30
0.0
 40
5.0
  1
Name
 41
0.8
  7
GREEKS
 72
     1
 11
169.170104953086
 21
23.2415527120801
 31
0.0
100
AcDbText
  0
TEXT
  5
7E
330
1E
100
AcDbEntity
  8
TEXT
100
AcDbText
 10
215.4139591442064
 20
91.64850626537408
 30
0.0
 40
5.0
  1
Tag
 41
0.8
  7
GREEKS
100
AcDbText
  0
TEXT
  5
7F
330
1E
100
AcDbEntity
  8
TEXT
100
AcDbText
 10
253.0783230282869
 20
91.63701364894031
 30
0.0
 40
5.0
  1
Name
 41
0.8
  7
GREEKS
100
AcDbText
  0
TEXT
  5
80
330
1E
100
AcDbEntity
  8
TEXT
100
AcDbText
 10
184.4795158959519
 20
79.53737962022455
 30
0.0
 40
5.0
  1
Gez.
 41
0.8
  7
GREEKS
100
AcDbText
  0
TEXT
  5
81
330
1E
100
AcDbEntity
  8
TEXT
100
AcDbText
 10
184.439385821459
 20
67.11157864285471
 30
0.0
 40
5.0
  1
Gepr.
 41
0.8
  7
GREEKS
100
AcDbText
  0
TEXT
  5
82
330
1E
100
AcDbEntity
  8
TEXT
100
AcDbText
 10
184.5008471734129
 20
54.41182987062259
 30
0.0
 40
5.0
  1
Norm.
 41
0.8
  7
GREEKS
100
AcDbText
  0
LINE
  5
83
330
1E
100
AcDbEntity
  8
STEMPEL
100
AcDbLine
 10
62.49999999999985
 20
12.5
 30
0.0
 11
512.5
 21
12.5
 31
0.0
  0
TEXT
  5
84
330
1E
100
AcDbEntity
  8
TEXT
100
AcDbText
 10
421.5501076871257
 20
65.09270222348252
 30
0.0
 40
6.25
  1
ersetzt durch:
 41
0.8
  7
GREEKS
100
AcDbText
  0
LINE
  5
85
330
1E
100
AcDbEntity
  8
STEMPEL
100
AcDbLine
 10
512.5
 20
12.5
 30
0.0
 11
49.99999999999985
 21
12.5
 31
0.0
  0
LINE
  5
86
330
1E
100
AcDbEntity
  8
STEMPEL
100
AcDbLine
 10
512.5
 20
12.5
 30
0.0
 11
512.5
 21
730.0
 31
0.0
  0
LINE
  5
87
330
1E
100
AcDbEntity
  8
STEMPEL
100
AcDbLine
 10
50.0
 20
12.5
 30
0.0
 11
49.99999999999985
 21
730.0
 31
0.0
  0
LINE
  5
88
330
1E
100
AcDbEntity
  8
STEMPEL
100
AcDbLine
 10
512.5
 20
730.0
 30
0.0
 11
49.99999999999985
 21
730.0
 31
0.0
  0
LINE
  5
89
330
1E
100
AcDbEntity
  8
HILF
100
AcDbLine
 10
0.0
 20
0.0
 30
0.0
 11
-0.0000000000001421
 21
742.4999999999999
 31
0.0
  0
LINE
  5
8A
330
1E
100
AcDbEntity
  8
HILF
100
AcDbLine
 10
524.9999999999999
 20
742.5000000000002
 30
0.0
 11
0.0
 21
742.4999999999999
 31
0.0
  0
LINE
  5
8B
330
1E
100
AcDbEntity
  8
HILF
100
AcDbLine
 10
525.0
 20
0.0
 30
0.0
 11
0.0
 21
0.0
 31
0.0
  0
LINE
  5
8C
330
1E
100
AcDbEntity
  8
HILF
100
AcDbLine
 10
38.8595891964232
 20
371.2500000000001
 30
0.0
 11
0.0000000000001421
 21
371.2500000000001
 31
0.0
  0
LINE
  5
8E
330
1E
100
AcDbEntity
  8
HILF
100
AcDbLine
 10
525.0
 20
-0.0000000000001421
 30
0.0
 11
524.9999999999999
 21
742.4999999999999
 31
0.0
  0
TEXT
  5
8F
330
1E
100
AcDbEntity
  8
VOLL
100
AcDbText
 10
78.07675471698113
 20
31.02594776470585
 30
0.0
 40
1.8
  1

  7
GREEKS
100
AcDbText
  0
TEXT
  5
90
330
1E
100
AcDbEntity
  8
TEXT
100
AcDbText
 10
52.31887438722093
 20
139.5899999999999
 30
0.0
 40
6.25
  1
Erstellt mit AUTOCAD 2004
 41
0.8
  7
GREEKS
100
AcDbText
  0
TEXT
  5
91
330
1E
100
AcDbEntity
  8
TEXT
100
AcDbText
 10
255.5270060726571
 20
78.86204899654387
 30
0.0
 40
5.0
  1
Koeh
 41
0.8
  7
GREEKS
 72
     1
 11
262.0984346440857
 21
78.86204899654387
 31
0.0
100
AcDbText
  0
TEXT
  5
92
330
1E
100
AcDbEntity
  8
TEXT
 62
     1
100
AcDbText
 10
434.1371925855101
 20
110.1862678614245
 30
0.0
 40
8.75
  1
58032150W
 41
0.8
  7
GREEKS
 72
     1
 11
463.4705259188434
 21
110.1862678614245
 31
0.0
100
AcDbText
  0
TEXT
  5
93
330
1E
100
AcDbEntity
  8
TEXT
 62
     1
100
AcDbText
 10
200.6257883102358
 20
110.1862678614245
 30
0.0
 40
8.75
  1
1:2.5
 41
0.8
  7
GREEKS
100
AcDbText
  0
TEXT
  5
95
330
1E
100
AcDbEntity
  8
TEXT
 62
     1
100
AcDbText
 10
296.1169663821753
 20
109.2718598656722
 30
0.0
 40
8.75
  1
Verbundrohr DN150
 41
0.8
  7
GREEKS
100
AcDbText
  0
TEXT
  5
98
330
1E
100
AcDbEntity
  8
TEXT
100
AcDbText
 10
293.9120488906644
 20
64.55014928802699
 30
0.0
 40
6.25
  1
EDV-Art.Nr. 58032.150X
 41
0.8
  7
GREEKS
100
AcDbText
  0
TEXT
  5
99
330
1E
100
AcDbEntity
  8
TEXT
100
AcDbText
 10
293.7296876972284
 20
53.28717691278291
 30
0.0
 40
5.0
  1
58032150W.DWG
 41
0.8
  7
GREEKS
100
AcDbText
  0
TEXT
  5
9A
330
1E
100
AcDbEntity
  8
TEXT
100
AcDbText
 10
240.782665260105
 20
113.4545480127878
 30
0.0
 40
5.0
  1
DIN EN1123-2
 41
0.8
  7
GREEKS
 72
     1
 11
262.0207604982003
 21
113.4545480127878
 31
0.0
100
AcDbText
  0
INSERT
  5
9B
330
1E
100
AcDbEntity
  8
STEMPEL
100
AcDbBlockReference
  2
LOGO
 10
188.7444356822243
 20
56.27631595560402
 30
0.0
 41
2.5
 42
2.5
 43
2.5
  0
TEXT
  5
210
330
1E
100
AcDbEntity
  8
TEXT
 62
     1
100
AcDbText
 10
334.1774355793512
 20
238.8619112150869
 30
0.0
 40
8.75
  1
Rohrende leicht eingezogen
 41
0.8
  7
GREEKS
100
AcDbText
  0
TEXT
  5
2C0
330
1E
100
AcDbEntity
  8
BEM
100
AcDbText
 10
521.6278654821457
 20
12.70987634998576
 30
0.0
 40
5.0
  1
Diese Zeichnung ist urheberrechtlich geschützt und bleibt unser Eigentum. Sie darf weder ganz noch teilweise verfielfältigt und nicht an Dritte weitergegeben werden.
 50
90.0
 41
0.8
  7
GREEKS
100
AcDbText
  0
TEXT
  5
77A
330
1E
100
AcDbEntity
  8
TEXT
100
AcDbText
 10
293.9120488906644
 20
89.55014928802695
 30
0.0
 40
6.25
  1
Bogen 45°
 41
0.8
  7
GREEKS
100
AcDbText
  0
TEXT
  5
78C
330
1E
100
AcDbEntity
  8
TEXT
 62
     1
100
AcDbText
 10
303.429998258723
 20
162.1777724661328
 30
0.0
 40
8.75
  1
und innenbeschichtet
 41
0.8
  7
GREEKS
100
AcDbText
  0
TEXT
  5
78D
330
1E
100
AcDbEntity
  8
TEXT
 62
     1
100
AcDbText
 10
238.91803933723
 20
146.4342282344052
 30
0.0
 40
8.75
  1
Dämmung: 2 K-PU-Schaum
 41
0.8
  7
GREEKS
100
AcDbText
  0
TEXT
  5
78E
330
1E
100
AcDbEntity
  8
TEXT
 62
     1
100
AcDbText
 10
243.8618371637059
 20
176.264089765165
 30
0.0
 40
8.75
  1
Innenrohr: E195 EN10305 feuerverzinkt
 41
0.8
  7
GREEKS
100
AcDbText
  0
TEXT
  5
78F
330
1E
100
AcDbEntity
  8
TEXT
 62
     1
100
AcDbText
 10
239.1465654501259
 20
190.4554248106087
 30
0.0
 40
8.75
  1
Außenrohr: P235 TR1 EN10217-1 feuerverzinkt
 41
0.8
  7
GREEKS
100
AcDbText
  0
TEXT
  5
2DB3
330
1E
100
AcDbEntity
  8
VOLL
100
AcDbText
 10
338.9103157943288
 20
544.1351819194273
 30
0.0
 40
7.0
  1
DN150
 50
45.09000000000043
 41
0.8
  7
GREEKS
100
AcDbText
  0
LINE
  5
2DBA
330
1E
100
AcDbEntity
  8
MITTEL
100
AcDbLine
 10
266.9874582369209
 20
452.3822873920667
 30
0.0
 11
266.9874582369208
 21
283.3778107518127
 31
0.0
  0
LINE
  5
2E58
102
{ACAD_REACTORS
330
318A
330
31F7
102
}
330
1E
100
AcDbEntity
  8
STEMPEL
100
AcDbLine
 10
373.5874582369205
 20
408.2271216430945
 30
0.0
 11
373.5874582369208
 21
353.3778107518127
 31
0.0
  0
LINE
  5
2E59
102
{ACAD_REACTORS
330
3181
330
31F7
102
}
330
1E
100
AcDbEntity
  8
STEMPEL
  6
Continuous
100
AcDbLine
 10
346.4874582369208
 20
408.7378107518125
 30
0.0
 11
346.4874582369209
 21
298.3778107518126
 31
0.0
  0
LINE
  5
2E5A
102
{ACAD_REACTORS
330
3181
102
}
330
1E
100
AcDbEntity
  8
STEMPEL
  6
Continuous
100
AcDbLine
 10
343.9874582369215
 20
408.7378107518124
 30
0.0
 11
343.9874582369223
 21
298.3778107518126
 31
0.0
  0
LINE
  5
2E5B
102
{ACAD_REACTORS
330
3102
330
318A
102
}
330
1E
100
AcDbEntity
  8
STEMPEL
100
AcDbLine
 10
376.487458236921
 20
407.0259023122128
 30
0.0
 11
376.4874582369208
 21
351.3778107518125
 31
0.0
  0
LINE
  5
2E5C
102
{ACAD_REACTORS
330
31F7
102
}
330
1E
100
AcDbEntity
  8
STEMPEL
100
AcDbLine
 10
346.4874582369206
 20
369.3778107518125
 30
0.0
 11
371.7374582369209
 21
369.3778107518125
 31
0.0
  0
LINE
  5
2E5D
102
{ACAD_REACTORS
330
318A
102
}
330
1E
100
AcDbEntity
  8
STEMPEL
  6
Continuous
100
AcDbLine
 10
376.4874582369208
 20
353.3778107518127
 30
0.0
 11
373.5874582369208
 21
353.3778107518126
 31
0.0
  0
LINE
  5
2E5E
330
1E
100
AcDbEntity
  8
STEMPEL
100
AcDbLine
 10
346.4874582369206
 20
360.3778107518126
 30
0.0
 11
353.7874582369208
 21
360.3778107518126
 31
0.0
  0
LINE
  5
2E60
102
{ACAD_REACTORS
330
31F7
102
}
330
1E
100
AcDbEntity
  8
STEMPEL
100
AcDbLine
 10
373.5874582369208
 20
367.5278107518124
 30
0.0
 11
371.7374582369207
 21
369.3778107518125
 31
0.0
  0
LINE
  5
2E61
102
{ACAD_REACTORS
330
3181
102
}
330
1E
100
AcDbEntity
  8
STEMPEL
  6
Continuous
100
AcDbLine
 10
189.9874582369204
 20
408.737810751813
 30
0.0
 11
189.98745823692
 21
298.3778107518125
 31
0.0
  0
LINE
  5
2E62
102
{ACAD_REACTORS
330
3181
330
31F7
102
}
330
1E
100
AcDbEntity
  8
STEMPEL
  6
Continuous
100
AcDbLine
 10
187.4874582369207
 20
408.7378107518125
 30
0.0
 11
187.4874582369207
 21
298.3778107518125
 31
0.0
  0
LINE
  5
2E63
102
{ACAD_REACTORS
330
31F7
102
}
330
1E
100
AcDbEntity
  8
STEMPEL
100
AcDbLine
 10
162.2374582369207
 20
369.3778107518125
 30
0.0
 11
187.487458236921
 21
369.3778107518125
 31
0.0
  0
LINE
  5
2E64
102
{ACAD_REACTORS
330
318A
102
}
330
1E
100
AcDbEntity
  8
STEMPEL
  6
Continuous
100
AcDbLine
 10
160.3874582369208
 20
353.3778107518125
 30
0.0
 11
157.4874582369208
 21
353.3778107518125
 31
0.0
  0
LINE
  5
2E66
330
1E
100
AcDbEntity
  8
STEMPEL
100
AcDbLine
 10
180.1874582369207
 20
360.3778107518126
 30
0.0
 11
187.4874582369209
 21
360.3778107518126
 31
0.0
  0
LINE
  5
2E67
102
{ACAD_REACTORS
330
318A
330
31F7
102
}
330
1E
100
AcDbEntity
  8
STEMPEL
100
AcDbLine
 10
160.3874582369207
 20
496.5374531410382
 30
0.0
 11
160.3874582369208
 21
353.3778107518125
 31
0.0
  0
LINE
  5
2E68
102
{ACAD_REACTORS
330
3102
330
318A
102
}
330
1E
100
AcDbEntity
  8
STEMPEL
100
AcDbLine
 10
157.4874582369209
 20
497.7386724719206
 30
0.0
 11
157.4874582369208
 21
351.3778107518127
 31
0.0
  0
DIMENSION
  5
2E6A
330
1E
100
AcDbEntity
  8
BEM
100
AcDbDimension
  2
*D1
 10
346.4874582369209
 20
261.0605084257129
 30
0.0
 11
266.9874582369208
 21
269.1855084257129
 31
0.0
 70
    32
  1
%%c<>
 71
     5
 42
159.0000000000002
  3
Standard
100
AcDbAlignedDimension
 13
187.4874582369207
 23
298.3778107518125
 33
0.0
 14
346.4874582369209
 24
298.3778107518126
 34
0.0
100
AcDbRotatedDimension
1001
ACAD
1000
DSTYLE
1002
{
1070
    40
1040
2.5
1070
    41
1040
3.5
1070
    42
1040
1.0
1070
    43
1040
7.0
1070
    44
1040
1.0
1070
    73
1070
     0
1070
    74
1070
     0
1070
    77
1070
     1
1070
    78
1070
     8
1070
    79
1070
     2
1070
   140
1040
3.5
1070
   141
1040
1.5
1070
   146
1040
0.5142857142857144
1070
   147
1040
1.5
1070
   172
1070
     1
1070
   178
1070
     1
1070
   179
1070
     2
1070
   271
1070
     2
1070
   272
1070
     2
1070
   284
1070
     8
1070
   285
1070
     8
1070
   286
1070
     8
1002
}
  0
LINE
  5
2E6B
330
1E
100
AcDbEntity
  8
HILF
  6
Continuous
100
AcDbLine
 10
341.4779086430632
 20
298.3778107518126
 30
0.0
 11
192.4970078307784
 21
298.3778107518125
 31
0.0
  0
LINE
  5
2E6C
102
{ACAD_REACTORS
330
3181
102
}
330
1E
100
AcDbEntity
  8
STEMPEL
  6
Continuous
100
AcDbLine
 10
345.6221211955206
 20
288.3778107518126
 30
0.0
 11
188.3527952783208
 21
288.3778107518125
 31
0.0
  0
LINE
  5
2E6D
102
{ACAD_REACTORS
330
3181
102
}
330
1E
100
AcDbEntity
  8
STEMPEL
100
AcDbLine
 10
187.4969714916906
 20
298.1599213949433
 30
0.0
 11
188.3527952783208
 21
288.3778107518125
 31
0.0
  0
LINE
  5
2E6E
102
{ACAD_REACTORS
330
3181
102
}
330
1E
100
AcDbEntity
  8
STEMPEL
100
AcDbLine
 10
189.98745823692
 20
298.3778107518125
 30
0.0
 11
190.8623448721794
 21
288.3778107518125
 31
0.0
  0
LINE
  5
2E6F
102
{ACAD_REACTORS
330
3181
102
}
330
1E
100
AcDbEntity
  8
STEMPEL
100
AcDbLine
 10
343.9874582369216
 20
298.3778107518125
 30
0.0
 11
343.1125716016623
 21
288.3778107518126
 31
0.0
  0
LINE
  5
2E70
102
{ACAD_REACTORS
330
3181
102
}
330
1E
100
AcDbEntity
  8
STEMPEL
100
AcDbLine
 10
346.4779449821509
 20
298.1599213949433
 30
0.0
 11
345.6221211955208
 21
288.3778107518126
 31
0.0
  0
LINE
  5
2EB5
102
{ACAD_REACTORS
330
31F7
102
}
330
1E
100
AcDbEntity
  8
STEMPEL
100
AcDbLine
 10
160.387458236921
 20
367.5278107518124
 30
0.0
 11
162.2374582369211
 21
369.3778107518125
 31
0.0
  0
LINE
  5
303F
102
{ACAD_REACTORS
330
31B3
102
}
330
1E
100
AcDbEntity
  8
STEMPEL
  6
Continuous
100
AcDbLine
 10
395.3273390222792
 20
464.7566560628314
 30
0.0
 11
384.6789978575518
 21
454.1083148981043
 31
0.0
  0
LINE
  5
3040
102
{ACAD_REACTORS
330
31B3
330
31F7
102
}
330
1E
100
AcDbEntity
  8
STEMPEL
  6
Continuous
100
AcDbLine
 10
397.0951059752456
 20
462.9888891098651
 30
0.0
 11
386.4467648105183
 21
452.3405479451379
 31
0.0
  0
LINE
  5
3041
102
{ACAD_REACTORS
330
31B3
330
31F7
102
}
330
1E
100
AcDbEntity
  8
STEMPEL
  6
Continuous
100
AcDbLine
 10
277.5940599547192
 20
582.4899351303915
 30
0.0
 11
266.945718789992
 21
571.8415939656643
 31
0.0
  0
LINE
  5
3042
102
{ACAD_REACTORS
330
31B3
102
}
330
1E
100
AcDbEntity
  8
STEMPEL
  6
Continuous
100
AcDbLine
 10
279.3618269076855
 20
580.7221681774251
 30
0.0
 11
268.7134857429584
 21
570.0738270126979
 31
0.0
  0
LINE
  5
3043
330
1E
100
AcDbEntity
  8
MITTEL
100
AcDbLine
 10
380.8316500079552
 20
566.226479163101
 30
0.0
 11
266.9874582369209
 21
452.3822873920667
 31
0.0
  0
LINE
  5
3045
330
1E
100
AcDbEntity
  8
HILF
  6
Continuous
100
AcDbLine
 10
265.0322166111568
 20
556.4541306552804
 30
0.0
 11
371.0593015001346
 21
450.4270457663024
 31
0.0
  0
LINE
  5
3046
330
1E
100
AcDbEntity
  8
HILF
  6
Continuous
100
AcDbLine
 10
267.8094566503862
 20
564.427910631124
 30
0.0
 11
379.033081475978
 21
453.2042858055323
 31
0.0
  0
ARC
  5
3047
102
{ACAD_REACTORS
330
31B3
330
31F7
102
}
330
1E
100
AcDbEntity
  8
STEMPEL
  6
Continuous
100
AcDbCircle
 10
252.1185950934231
 20
564.0855380809608
 30
0.0
 40
10.0
100
AcDbArc
 50
315.0
 51
349.771944031949
  0
ARC
  5
3048
102
{ACAD_REACTORS
330
31B3
102
}
330
1E
100
AcDbEntity
  8
STEMPEL
  6
Continuous
100
AcDbCircle
 10
252.1185950934231
 20
564.0855380809608
 30
0.0
 40
12.5
100
AcDbArc
 50
315.0
 51
349.771944031949
  0
ARC
  5
3049
102
{ACAD_REACTORS
330
31B3
330
31F7
102
}
330
1E
100
AcDbEntity
  8
STEMPEL
  6
Continuous
100
AcDbCircle
 10
279.6736408513498
 20
559.1136719043064
 30
0.0
 40
18.0
100
AcDbArc
 50
135.0
 51
169.771944031949
  0
LINE
  5
304A
102
{ACAD_REACTORS
330
31B3
330
31F7
102
}
330
1E
100
AcDbEntity
  8
STEMPEL
  6
Continuous
100
AcDbLine
 10
259.1896629052885
 20
557.0144702690954
 30
0.0
 11
241.5262571080028
 21
539.3510644718097
 31
0.0
  0
LINE
  5
304B
102
{ACAD_REACTORS
330
31B3
102
}
330
1E
100
AcDbEntity
  8
STEMPEL
  6
Continuous
100
AcDbLine
 10
260.957429858255
 20
555.246703316129
 30
0.0
 11
243.2940240609694
 21
537.5832975188433
 31
0.0
  0
ARC
  5
304C
102
{ACAD_REACTORS
330
31B3
102
}
330
1E
100
AcDbEntity
  8
STEMPEL
  6
Continuous
100
AcDbCircle
 10
279.6736408513498
 20
559.1136719043064
 30
0.0
 40
15.5
100
AcDbArc
 50
135.0
 51
169.771944031949
  0
ARC
  5
304E
102
{ACAD_REACTORS
330
31B3
102
}
330
1E
100
AcDbEntity
  8
STEMPEL
  6
Continuous
100
AcDbCircle
 10
378.690708925815
 20
437.513424248569
 30
0.0
 40
12.5
100
AcDbArc
 50
100.2280559680509
 51
135.0
  0
ARC
  5
304F
102
{ACAD_REACTORS
330
31B3
330
31F7
102
}
330
1E
100
AcDbEntity
  8
STEMPEL
  6
Continuous
100
AcDbCircle
 10
378.690708925815
 20
437.513424248569
 30
0.0
 40
10.0
100
AcDbArc
 50
100.2280559680509
 51
135.0
  0
ARC
  5
3050
102
{ACAD_REACTORS
330
31B3
330
31F7
102
}
330
1E
100
AcDbEntity
  8
STEMPEL
  6
Continuous
100
AcDbCircle
 10
373.7188427491606
 20
465.0684700064958
 30
0.0
 40
18.0
100
AcDbArc
 50
280.2280559680509
 51
315.0
  0
LINE
  5
3051
102
{ACAD_REACTORS
330
31B3
102
}
330
1E
100
AcDbEntity
  8
STEMPEL
  6
Continuous
100
AcDbLine
 10
369.851874160983
 20
446.3522590134008
 30
0.0
 11
352.1884683636977
 21
428.6888532161151
 31
0.0
  0
LINE
  5
3052
102
{ACAD_REACTORS
330
31B3
330
31F7
102
}
330
1E
100
AcDbEntity
  8
STEMPEL
  6
Continuous
100
AcDbLine
 10
371.6196411139494
 20
444.5844920604344
 30
0.0
 11
353.956235316664
 21
426.9210862631489
 31
0.0
  0
ARC
  5
3053
102
{ACAD_REACTORS
330
31B3
102
}
330
1E
100
AcDbEntity
  8
STEMPEL
  6
Continuous
100
AcDbCircle
 10
373.7188427491606
 20
465.0684700064958
 30
0.0
 40
15.5
100
AcDbArc
 50
280.2280559680509
 51
315.0
  0
LINE
  5
3054
102
{ACAD_REACTORS
330
31B3
330
31BC
330
31C9
102
}
330
1E
100
AcDbEntity
  8
STEMPEL
  6
Continuous
100
AcDbLine
 10
454.7243086419496
 20
485.262752717241
 30
0.0
 11
299.8679235620955
 21
640.1191377970952
 31
0.0
  0
LINE
  5
3055
330
1E
100
AcDbEntity
  8
HILF
  6
Continuous
100
AcDbLine
 10
284.2427651773874
 20
582.8264765142005
 30
0.0
 11
397.4316473590548
 21
469.6375943325331
 31
0.0
  0
ARC
  5
3056
102
{ACAD_REACTORS
330
31B3
330
31C9
102
}
330
1E
100
AcDbEntity
  8
STEMPEL
  6
Continuous
100
AcDbCircle
 10
326.8913497254942
 20
590.7750315923465
 30
0.0
 40
35.0
100
AcDbArc
 50
110.0000000000065
 51
135.0
  0
ARC
  5
3057
102
{ACAD_REACTORS
330
31B3
102
}
330
1E
100
AcDbEntity
  8
STEMPEL
  6
Continuous
100
AcDbCircle
 10
326.8913497254942
 20
590.7750315923465
 30
0.0
 40
32.5
100
AcDbArc
 50
110.0000000000065
 51
135.0
  0
ARC
  5
3058
102
{ACAD_REACTORS
330
31B3
330
31F7
102
}
330
1E
100
AcDbEntity
  8
STEMPEL
  6
Continuous
100
AcDbCircle
 10
315.4207372142935
 20
579.304419081146
 30
0.0
 40
35.00004740563918
100
AcDbArc
 50
134.9056985509097
 51
162.5271836205534
  0
ARC
  5
3059
102
{ACAD_REACTORS
330
31B3
102
}
330
1E
100
AcDbEntity
  8
STEMPEL
  6
Continuous
100
AcDbCircle
 10
315.4209699931673
 20
579.3074411420552
 30
0.0
 40
32.5
100
AcDbArc
 50
134.3687711177335
 51
162.3071230068022
  0
LINE
  5
305A
102
{ACAD_REACTORS
330
31B3
330
31C9
330
31F7
102
}
330
1E
100
AcDbEntity
  8
STEMPEL
  6
Continuous
100
AcDbLine
 10
302.1426123839649
 20
615.5237689338758
 30
0.0
 11
290.7127331330794
 21
604.0938896829902
 31
0.0
  0
ARC
  5
305B
102
{ACAD_REACTORS
330
31B3
330
31F7
102
}
330
1E
100
AcDbEntity
  8
STEMPEL
  6
Continuous
100
AcDbCircle
 10
264.8661378933614
 20
595.2178571917492
 30
0.0
 40
18.0
100
AcDbArc
 50
315.0
 51
342.5271836205534
  0
ARC
  5
305C
102
{ACAD_REACTORS
330
31B3
102
}
330
1E
100
AcDbEntity
  8
STEMPEL
  6
Continuous
100
AcDbCircle
 10
264.8661378933614
 20
595.2178571917492
 30
0.0
 40
20.5
100
AcDbArc
 50
315.0
 51
342.8843136873739
  0
LINE
  5
305D
102
{ACAD_REACTORS
330
31B3
102
}
330
1E
100
AcDbEntity
  8
STEMPEL
  6
Continuous
100
AcDbLine
 10
303.9103793369312
 20
613.7560019809094
 30
0.0
 11
292.6945709879226
 21
602.5401936319008
 31
0.0
  0
LINE
  5
305E
102
{ACAD_REACTORS
330
31B3
102
}
330
1E
100
AcDbEntity
  8
STEMPEL
  6
Continuous
100
AcDbLine
 10
317.8991464823523
 20
622.0879148768382
 30
0.0
 11
315.7756950674098
 21
621.3150417678884
 31
0.0
  0
LINE
  5
305F
102
{ACAD_REACTORS
330
31B3
330
31C9
102
}
330
1E
100
AcDbEntity
  8
STEMPEL
  6
Continuous
100
AcDbLine
 10
315.9486314605776
 20
624.0384298986129
 30
0.0
 11
314.9206447090953
 21
623.6642733198532
 31
0.0
  0
ARC
  5
3060
102
{ACAD_REACTORS
330
31B3
102
}
330
1E
100
AcDbEntity
  8
STEMPEL
  6
Continuous
100
AcDbCircle
 10
405.3802024372004
 20
512.2861788806399
 30
0.0
 40
32.5
100
AcDbArc
 50
315.0
 51
339.999999999992
  0
ARC
  5
3061
102
{ACAD_REACTORS
330
31B3
330
31C9
102
}
330
1E
100
AcDbEntity
  8
STEMPEL
  6
Continuous
100
AcDbCircle
 10
405.3802024372004
 20
512.2861788806399
 30
0.0
 40
35.0
100
AcDbArc
 50
315.0
 51
339.9999999999892
  0
ARC
  5
3062
102
{ACAD_REACTORS
330
31B3
330
31F7
102
}
330
1E
100
AcDbEntity
  8
STEMPEL
  6
Continuous
100
AcDbCircle
 10
393.9095899260003
 20
500.8155663694394
 30
0.0
 40
35.00004740563918
100
AcDbArc
 50
287.4728163794466
 51
315.0943014490902
  0
ARC
  5
3063
102
{ACAD_REACTORS
330
31B3
102
}
330
1E
100
AcDbEntity
  8
STEMPEL
  6
Continuous
100
AcDbCircle
 10
393.9126119869093
 20
500.815799148313
 30
0.0
 40
32.5
100
AcDbArc
 50
287.6928769931978
 51
315.6312288822665
  0
ARC
  5
3064
102
{ACAD_REACTORS
330
31B3
102
}
330
1E
100
AcDbEntity
  8
STEMPEL
  6
Continuous
100
AcDbCircle
 10
409.8230280366033
 20
450.2609670485072
 30
0.0
 40
20.5
100
AcDbArc
 50
107.115686312626
 51
135.0
  0
ARC
  5
3065
102
{ACAD_REACTORS
330
31B3
330
31F7
102
}
330
1E
100
AcDbEntity
  8
STEMPEL
  6
Continuous
100
AcDbCircle
 10
409.8230280366033
 20
450.2609670485072
 30
0.0
 40
18.0
100
AcDbArc
 50
107.4728163794466
 51
135.0
  0
LINE
  5
3066
102
{ACAD_REACTORS
330
31B3
102
}
330
1E
100
AcDbEntity
  8
STEMPEL
  6
Continuous
100
AcDbLine
 10
428.3611728257633
 20
489.3052084920772
 30
0.0
 11
417.1453644767548
 21
478.0894001430685
 31
0.0
  0
LINE
  5
3067
102
{ACAD_REACTORS
330
31B3
330
31C9
330
31F7
102
}
330
1E
100
AcDbEntity
  8
STEMPEL
  6
Continuous
100
AcDbLine
 10
430.1289397787297
 20
487.5374415391108
 30
0.0
 11
418.6990605278443
 21
476.1075622882252
 31
0.0
  0
LINE
  5
3068
102
{ACAD_REACTORS
330
31B3
102
}
330
1E
100
AcDbEntity
  8
STEMPEL
  6
Continuous
100
AcDbLine
 10
436.6930857216921
 20
503.2939756374982
 30
0.0
 11
435.9202126127427
 21
501.1705242225555
 31
0.0
  0
LINE
  5
3069
102
{ACAD_REACTORS
330
31B3
330
31C9
102
}
330
1E
100
AcDbEntity
  8
STEMPEL
  6
Continuous
100
AcDbLine
 10
438.643600743467
 20
501.3434606157235
 30
0.0
 11
438.2694441647072
 21
500.3154738642413
 31
0.0
  0
LINE
  5
306A
102
{ACAD_REACTORS
330
3102
330
31BC
102
}
330
1E
100
AcDbEntity
  8
STEMPEL
100
AcDbLine
 10
299.8679235620955
 20
640.1191377970952
 30
0.0
 11
157.4874582369209
 21
497.7386724719206
 31
0.0
  0
LINE
  5
306B
102
{ACAD_REACTORS
330
3102
330
31BC
102
}
330
1E
100
AcDbEntity
  8
STEMPEL
100
AcDbLine
 10
454.7243086419496
 20
485.262752717241
 30
0.0
 11
376.487458236921
 21
407.0259023122128
 31
0.0
  0
LINE
  5
307B
102
{ACAD_REACTORS
330
31C9
330
31F7
102
}
330
1E
100
AcDbEntity
  8
STEMPEL
  6
Continuous
100
AcDbLine
 10
439.9457769151508
 20
474.5854403213241
 30
0.0
 11
428.561357738047
 21
485.969859498428
 31
0.0
  0
LINE
  5
307C
102
{ACAD_REACTORS
330
31BC
330
31C9
330
31F7
102
}
330
1E
100
AcDbEntity
  8
STEMPEL
100
AcDbLine
 10
452.6736989765086
 20
487.3133623826823
 30
0.0
 11
373.5874582369205
 21
408.2271216430945
 31
0.0
  0
LINE
  5
307D
102
{ACAD_REACTORS
330
31BC
330
31C9
330
31F7
102
}
330
1E
100
AcDbEntity
  8
STEMPEL
100
AcDbLine
 10
301.9185332275365
 20
638.0685281316541
 30
0.0
 11
160.3874582369207
 21
496.5374531410382
 31
0.0
  0
LINE
  5
307E
102
{ACAD_REACTORS
330
31C9
330
31F7
102
}
330
1E
100
AcDbEntity
  8
STEMPEL
  6
Continuous
100
AcDbLine
 10
300.5750303432821
 20
613.9561868931929
 30
0.0
 11
289.1906111661786
 21
625.3406060702964
 31
0.0
  0
ARC
  5
30B1
330
1E
100
AcDbEntity
  8
MITTEL
100
AcDbCircle
 10
371.987458236921
 20
408.8898633428918
 30
0.0
 40
105.0
100
AcDbArc
 50
134.9999999999999
 51
180.0
  0
ARC
  5
30B2
102
{ACAD_REACTORS
330
3181
330
31F7
102
}
330
1E
100
AcDbEntity
  8
STEMPEL
100
AcDbCircle
 10
371.987458236921
 20
408.8898633428918
 30
0.0
 40
184.5
100
AcDbArc
 50
135.0
 51
180.0
  0
ARC
  5
30B3
102
{ACAD_REACTORS
330
3181
330
31F7
102
}
330
1E
100
AcDbEntity
  8
STEMPEL
100
AcDbCircle
 10
371.987458236921
 20
408.8898633428918
 30
0.0
 40
25.5
100
AcDbArc
 50
135.0
 51
180.0
  0
ARC
  5
30B4
102
{ACAD_REACTORS
330
3181
102
}
330
1E
100
AcDbEntity
  8
STEMPEL
100
AcDbCircle
 10
371.987458236921
 20
408.8898633428918
 30
0.0
 40
28.0
100
AcDbArc
 50
135.0000000000004
 51
180.0
  0
ARC
  5
30B5
102
{ACAD_REACTORS
330
3181
102
}
330
1E
100
AcDbEntity
  8
STEMPEL
100
AcDbCircle
 10
371.987458236921
 20
408.8898633428918
 30
0.0
 40
182.0
100
AcDbArc
 50
134.9999999999999
 51
180.0
  0
LINE
  5
30B6
102
{ACAD_REACTORS
330
318A
330
31BC
102
}
330
1E
100
AcDbEntity
  8
STEMPEL
100
AcDbLine
 10
157.4874582369209
 20
497.7386724719206
 30
0.0
 11
160.3874582369207
 21
496.5374531410386
 31
0.0
  0
LINE
  5
30B7
102
{ACAD_REACTORS
330
318A
330
31BC
102
}
330
1E
100
AcDbEntity
  8
STEMPEL
100
AcDbLine
 10
373.5874582369205
 20
408.227121643095
 30
0.0
 11
376.487458236921
 21
407.0259023122128
 31
0.0
  0
LINE
  5
30C0
102
{ACAD_REACTORS
330
3181
330
31B3
102
}
330
1E
100
AcDbEntity
  8
STEMPEL
100
AcDbLine
 10
353.956235316664
 20
426.9210862631487
 30
0.0
 11
241.5262571080029
 21
539.3510644718097
 31
0.0
  0
DIMENSION
  5
30CE
330
1E
100
AcDbEntity
  8
BEM
100
AcDbDimension
  2
*D2
 10
312.3043092505155
 20
652.5555234855151
 30
0.0
 11
395.4777443875832
 21
580.8725735427288
 31
0.0
 70
    33
 71
     5
 42
219.0000000000003
  3
Standard
100
AcDbAlignedDimension
 13
454.7243086419496
 23
485.262752717241
 33
0.0
 14
299.8679235620955
 24
640.1191377970952
 34
0.0
1001
ACAD
1000
DSTYLE
1002
{
1070
    40
1040
2.5
1070
    41
1040
3.5
1070
    42
1040
1.0
1070
    43
1040
7.0
1070
    44
1040
1.0
1070
    73
1070
     0
1070
    74
1070
     0
1070
    77
1070
     1
1070
    78
1070
     8
1070
    79
1070
     2
1070
   140
1040
3.5
1070
   141
1040
1.5
1070
   146
1040
0.5142857142857144
1070
   147
1040
1.5
1070
   172
1070
     1
1070
   178
1070
     1
1070
   179
1070
     2
1070
   271
1070
     2
1070
   272
1070
     2
1070
   284
1070
     8
1070
   285
1070
     8
1070
   286
1070
     8
1002
}
  0
ARC
  5
30ED
102
{ACAD_REACTORS
330
31F7
102
}
330
1E
100
AcDbEntity
  8
SCHRAFF
100
AcDbCircle
 10
352.0671564236635
 20
428.6673815417683
 30
0.0
 40
4.840028136269263
100
AcDbArc
 50
261.5790355414317
 51
12.91937112745787
  0
ARC
  5
30EE
102
{ACAD_REACTORS
330
31F7
102
}
330
1E
100
AcDbEntity
  8
SCHRAFF
100
AcDbCircle
 10
242.8572921325188
 20
538.0343806485643
 30
0.0
 40
4.407281233707835
100
AcDbArc
 50
70.13810357750839
 51
200.4830010478666
  0
HATCH
  5
30F6
330
1E
100
AcDbEntity
  8
SCHRAFF
100
AcDbHatch
 10
0.0
 20
0.0
 30
0.0
210
0.0
220
0.0
230
1.0
  2
_USER
 70
     0
 71
     0
 91
        2
 92
        7
 72
     1
 73
     1
 93
        3
 10
356.7846624414102
 20
429.7495133878951
 42
0.0
 10
353.956235316664
 20
426.9210862631489
 42
0.039276181113838
 10
351.3583585402132
 20
423.8795346436005
 42
0.5280229877961231
 97
        0
 92
        7
 72
     1
 73
     1
 93
        3
 10
241.5262571080028
 20
539.3510644718097
 42
0.0
 10
244.3546842327492
 20
542.1794915965561
 42
0.6391879679392151
 10
238.7286566261128
 20
536.4921430766458
 42
-0.005420213434762
 97
        0
 75
     0
 76
     0
 52
0.0
 41
0.1
 77
     0
 78
     1
 53
0.0
 43
-510.6319625906799
 44
-7.395232728343898
 45
0.0
 46
0.1
 79
     0
 47
0.3260890049494634
 98
        2
 10
354.5345875935527
 20
425.8305470138957
 10
240.3227136825226
 20
538.9834321583489
  0
ARC
  5
30F9
102
{ACAD_REACTORS
330
3102
102
}
330
1E
100
AcDbEntity
  8
SCHRAFF
100
AcDbCircle
 10
159.2640941457946
 20
497.0027657830662
 30
0.0
 40
3.71628043836347
100
AcDbArc
 50
73.55931612383462
 51
241.4406838761632
  0
ARC
  5
30FB
102
{ACAD_REACTORS
330
3102
102
}
330
1E
100
AcDbEntity
  8
SCHRAFF
100
AcDbCircle
 10
372.6406846817962
 20
408.6192880901237
 30
0.0
 40
6.788492560572067
100
AcDbArc
 50
304.5177094107771
 51
10.48229058922421
  0
HATCH
  5
3102
330
1E
100
AcDbEntity
  8
SCHRAFF
100
AcDbHatch
 10
0.0
 20
0.0
 30
0.0
210
0.0
220
0.0
230
1.0
  2
_USER
 70
     0
 71
     1
 91
        2
 92
        7
 72
     1
 73
     1
 93
        3
 10
379.3158853616672
 20
409.854329436959
 42
0.0
 10
376.4874582369209
 20
407.0259023122128
 42
0.0
 10
376.4874582369209
 20
403.0259023122128
 42
0.2960453988464886
 97
        3
330
306B
330
2E5B
330
30FB
 92
        7
 72
     1
 73
     1
 93
        3
 10
157.4874582369209
 20
493.738672471921
 42
0.0
 10
157.4874582369209
 20
497.7386724719206
 42
0.0
 10
160.3158853616671
 20
500.5670995966668
 42
0.8994671925094833
 97
        3
330
30F9
330
2E68
330
306A
 75
     0
 76
     0
 52
0.0
 41
0.1
 77
     0
 78
     1
 53
0.0
 43
-510.6319625906799
 44
-7.395232728343898
 45
0.0
 46
0.1
 79
     0
 47
0.3454843583943077
 98
        2
 10
377.9974748240438
 20
406.2998281799359
 10
156.7310953907886
 20
498.5441535557706
  0
DIMENSION
  5
313C
330
1E
100
AcDbEntity
  8
BEM
100
AcDbDimension
  2
*D3
 10
138.465121700473
 20
288.3778107518125
 30
0.0
 11
130.3401217004729
 21
320.8778107518126
 31
0.0
 70
    32
 71
     5
 42
65.0
  3
Standard
100
AcDbAlignedDimension
 13
157.4874582369208
 23
353.3778107518125
 33
0.0
 14
188.3527952783208
 24
288.3778107518125
 34
0.0
 50
90.0
100
AcDbRotatedDimension
1001
ACAD
1000
DSTYLE
1002
{
1070
   279
1070
     1
1070
    40
1040
2.5
1070
    41
1040
3.5
1070
    42
1040
1.0
1070
    43
1040
7.0
1070
    44
1040
1.0
1070
    73
1070
     0
1070
    74
1070
     0
1070
    77
1070
     1
1070
    78
1070
     8
1070
    79
1070
     2
1070
   140
1040
3.5
1070
   141
1040
1.5
1070
   146
1040
0.5142857142857144
1070
   147
1040
1.5
1070
   172
1070
     1
1070
   178
1070
     1
1070
   179
1070
     2
1070
   271
1070
     2
1070
   272
1070
     2
1070
   284
1070
     8
1070
   285
1070
     8
1070
   286
1070
     8
1002
}
  0
DIMENSION
  5
3149
330
1E
100
AcDbEntity
  8
BEM
100
AcDbDimension
  2
*D4
 10
119.8398332582051
 20
288.3778107518125
 30
0.0
 11
111.714833258205
 21
370.3800490719396
 31
0.0
 70
    32
 71
     5
 42
164.0044766402542
  3
Standard
100
AcDbAlignedDimension
 13
266.9874582369209
 23
452.3822873920667
 33
0.0
 14
188.3527952783208
 24
288.3778107518125
 34
0.0
 50
90.0
100
AcDbRotatedDimension
1001
ACAD
1000
DSTYLE
1002
{
1070
    40
1040
2.5
1070
    41
1040
3.5
1070
    42
1040
1.0
1070
    43
1040
7.0
1070
    44
1040
1.0
1070
    73
1070
     0
1070
    74
1070
     0
1070
    77
1070
     1
1070
    78
1070
     8
1070
    79
1070
     2
1070
   140
1040
3.5
1070
   141
1040
1.5
1070
   146
1040
0.5142857142857144
1070
   147
1040
1.5
1070
   172
1070
     1
1070
   178
1070
     1
1070
   179
1070
     2
1070
   271
1070
     2
1070
   272
1070
     2
1070
   284
1070
     8
1070
   285
1070
     8
1070
   286
1070
     8
1002
}
  0
DIMENSION
  5
3156
330
1E
100
AcDbEntity
  8
BEM
100
AcDbDimension
  2
*D5
 10
171.626152508464
 20
547.7435931205236
 30
0.0
 11
221.0352388438741
 21
608.6431646502151
 31
0.0
 70
    32
 71
     5
 42
156.0000000000001
 51
315.0
  3
Standard
100
AcDbAlignedDimension
 13
299.8679235620956
 23
640.1191377970949
 33
0.0
 14
266.9874582369209
 24
452.3822873920667
 34
0.0
 50
44.99999999999982
100
AcDbRotatedDimension
1001
ACAD
1000
DSTYLE
1002
{
1070
    40
1040
2.5
1070
    41
1040
3.5
1070
    42
1040
1.0
1070
    43
1040
7.0
1070
    44
1040
1.0
1070
    73
1070
     0
1070
    74
1070
     0
1070
    77
1070
     1
1070
    78
1070
     8
1070
    79
1070
     2
1070
   140
1040
3.5
1070
   141
1040
1.5
1070
   146
1040
0.5142857142857144
1070
   147
1040
1.5
1070
   172
1070
     1
1070
   178
1070
     1
1070
   179
1070
     2
1070
   271
1070
     2
1070
   272
1070
     2
1070
   284
1070
     8
1070
   285
1070
     8
1070
   286
1070
     8
1002
}
  0
HATCH
  5
3181
330
1E
100
AcDbEntity
  8
SCHRAFF
100
AcDbHatch
 10
0.0
 20
0.0
 30
0.0
210
0.0
220
0.0
230
1.0
  2
_USER
 70
     0
 71
     1
 91
        2
 92
        7
 72
     1
 73
     1
 93
        8
 10
346.4874582369208
 20
408.8898633428917
 42
-0.1989123673796581
 10
353.956235316664
 20
426.9210862631486
 42
0.0
 10
352.1884683636976
 20
428.688853216115
 42
0.1989123673796567
 10
343.9874582369215
 20
408.8898633428916
 42
0.0
 10
343.9874582369223
 20
298.3778107518204
 42
0.0
 10
343.1125716016623
 20
288.3778107518127
 42
0.0
 10
345.6221211955208
 20
288.3778107518126
 42
0.0
 10
346.4874582369209
 20
298.2686583945343
 42
0.0
 97
        8
330
30B3
330
30C0
330
30B4
330
2E5A
330
2E6F
330
2E6C
330
2E70
330
2E59
 92
        7
 72
     1
 73
     1
 93
        8
 10
189.9874582369204
 20
408.8898633428925
 42
-0.198912367379657
 10
243.2940240609692
 20
537.5832975188434
 42
0.0
 10
241.5262571080029
 20
539.3510644718097
 42
0.198912367379658
 10
187.4874582369207
 20
408.8898633428918
 42
0.0
 10
187.4874582369207
 20
298.268658394533
 42
0.0
 10
188.3527952783208
 20
288.3778107518125
 42
0.0
 10
190.8623448721794
 20
288.3778107518125
 42
0.0
 10
189.98745823692
 20
298.3778107518123
 42
0.0
 97
        8
330
30B5
330
30C0
330
30B2
330
2E62
330
2E6D
330
2E6C
330
2E6E
330
2E61
 75
     0
 76
     0
 52
135.0
 41
2.0
 77
     0
 78
     1
 53
135.0
 43
-510.6319625906799
 44
-7.395232728343898
 45
-1.414213562373095
 46
-1.414213562373094
 79
     0
 47
0.782932274118119
 98
        2
 10
345.5439293704249
 20
364.8324455777654
 10
188.8467274235704
 20
385.18868436049
  0
HATCH
  5
318A
330
1E
100
AcDbEntity
  8
SCHRAFF
100
AcDbHatch
 10
0.0
 20
0.0
 30
0.0
210
0.0
220
0.0
230
1.0
  2
_USER
 70
     0
 71
     1
 91
        2
 92
        7
 72
     0
 73
     1
 93
        4
 10
373.5874582369208
 20
353.3778107518126
 10
376.4874582369208
 20
353.3778107518127
 10
376.487458236921
 20
407.0259023122128
 10
373.5874582369204
 20
408.227121643095
 97
        4
330
30B7
330
2E58
330
2E5D
330
2E5B
 92
        7
 72
     0
 73
     1
 93
        4
 10
157.4874582369208
 20
353.3778107518125
 10
160.3874582369208
 20
353.3778107518125
 10
160.3874582369206
 20
496.5374531410386
 10
157.4874582369209
 20
497.7386724719206
 97
        4
330
30B6
330
2E68
330
2E64
330
2E67
 75
     0
 76
     0
 52
45.0
 41
2.0
 77
     0
 78
     1
 53
45.0
 43
-510.6319625906799
 44
-7.395232728343898
 45
-1.414213562373094
 46
1.414213562373095
 79
     0
 47
0.782932274118119
 98
        2
 10
374.5329117979418
 20
384.4057523687359
 10
158.290769878532
 20
436.8622150583353
  0
HATCH
  5
31B3
330
1E
100
AcDbEntity
  8
SCHRAFF
100
AcDbHatch
 10
0.0
 20
0.0
 30
0.0
210
0.0
220
0.0
230
1.0
  2
_USER
 70
     0
 71
     1
 91
        2
 92
        7
 72
     1
 73
     1
 93
       20
 10
397.0951059752456
 20
462.9888891098651
 42
-0.120690934974573
 10
404.4184689840701
 20
467.4304382531682
 42
0.1202734944243262
 10
418.6175940071811
 20
476.0260957675622
 42
0.0
 10
430.1289397787297
 20
487.5374415391108
 42
0.1095178116832391
 10
438.2694441647072
 20
500.3154738642413
 42
0.0
 10
438.643600743467
 20
501.3434606157235
 42
0.0
 10
436.6930857216921
 20
503.2939756374984
 42
0.0
 10
435.9202126127427
 20
501.1705242225555
 42
-0.109517811683236
 10
428.3611728257636
 20
489.3052084920776
 42
0.0
 10
417.1453644767548
 20
478.0894001430685
 42
-0.1244894853098722
 10
403.5482478254231
 20
469.7770407648412
 42
0.1191385083149113
 10
395.3273390222792
 20
464.7566560628314
 42
0.0
 10
384.6789978575518
 20
454.1083148981043
 42
-0.1528962216020386
 10
376.471125811237
 20
449.8147839619291
 42
0.1528962216020402
 10
369.8518741609829
 20
446.3522590134007
 42
0.0
 10
352.1884683636976
 20
428.6888532161151
 42
0.0
 10
353.9562353166639
 20
426.9210862631488
 42
0.0
 10
371.6196411139494
 20
444.5844920604344
 42
-0.1528962216020424
 10
376.9150424341528
 20
447.3545120192571
 42
0.1528962216020361
 10
386.4467648105183
 20
452.3405479451379
 42
0.0
 97
       20
330
3065
330
3062
330
3067
330
3061
330
3069
330
3054
330
3068
330
3060
330
3066
330
3063
330
3064
330
303F
330
3053
330
304E
330
3051
330
30C0
330
3052
330
304F
330
3050
330
3040
 92
        7
 72
     1
 73
     1
 93
       20
 10
266.945718789992
 20
571.8415939656643
 42
0.1528962216020406
 10
261.9596828641111
 20
562.3098715892985
 42
-0.1528962216020404
 10
259.1896629052883
 20
557.0144702690952
 42
0.0
 10
241.5262571080029
 20
539.3510644718098
 42
0.0
 10
243.2940240609693
 20
537.5832975188432
 42
0.0
 10
260.957429858255
 20
555.246703316129
 42
0.152896221602039
 10
264.4199548067832
 20
561.865954966383
 42
-0.15289622160204
 10
268.7134857429584
 20
570.0738270126979
 42
0.0
 10
279.3618269076855
 20
580.7221681774251
 42
0.1191385083149993
 10
284.3822116096975
 20
588.9430769805758
 42
-0.1244894853098167
 10
292.6945709879226
 20
602.5401936319008
 42
0.0
 10
303.9103793369312
 20
613.7560019809094
 42
-0.1095178116832404
 10
315.7756950674098
 20
621.3150417678884
 42
0.0
 10
317.8991464823523
 20
622.0879148768382
 42
0.0
 10
315.9486314605778
 20
624.0384298986131
 42
0.0
 10
314.9206447090953
 20
623.6642733198532
 42
0.1095178116832365
 10
302.1426123839651
 20
615.5237689338759
 42
0.0
 10
290.6312666124398
 20
604.0124231623506
 42
0.1202734944245694
 10
282.0356090980222
 20
589.8132981392157
 42
-0.1206909349745682
 10
277.5940599547192
 20
582.4899351303915
 42
0.0
 97
       20
330
305C
330
3059
330
305D
330
3057
330
305E
330
3054
330
305F
330
3056
330
305A
330
3058
330
305B
330
3041
330
3049
330
3047
330
304A
330
30C0
330
304B
330
3048
330
304C
330
3042
 75
     0
 76
     0
 52
0.0
 41
2.0
 77
     0
 78
     1
 53
0.0
 43
-510.6319625906799
 44
-7.395232728343898
 45
0.0
 46
2.0
 79
     0
 47
0.4978093032448609
 98
        2
 10
390.76480136375
 20
457.3440608505556
 10
267.7189364343017
 20
571.3423919857651
  0
HATCH
  5
31BC
330
1E
100
AcDbEntity
  8
SCHRAFF
100
AcDbHatch
 10
0.0
 20
0.0
 30
0.0
210
0.0
220
0.0
230
1.0
  2
_USER
 70
     0
 71
     1
 91
        2
 92
        7
 72
     0
 73
     1
 93
        4
 10
301.9185332275364
 20
638.068528131654
 10
299.8679235620954
 20
640.1191377970952
 10
157.4874582369209
 20
497.7386724719206
 10
160.3874582369209
 20
496.5374531410384
 97
        4
330
3054
330
306A
330
30B6
330
307D
 92
        7
 72
     0
 73
     1
 93
        4
 10
373.5874582369209
 20
408.227121643095
 10
376.487458236921
 20
407.0259023122128
 10
454.7243086419496
 20
485.262752717241
 10
452.6736989765084
 20
487.3133623826821
 97
        4
330
3054
330
307C
330
30B7
330
306B
 75
     0
 76
     0
 52
90.0
 41
2.0
 77
     0
 78
     1
 53
90.0
 43
-510.6319625906799
 44
-7.395232728343898
 45
-2.0
 46
0.0000000000000001
 79
     0
 47
0.4978093032448609
 98
        2
 10
264.7299683553833
 20
601.7087598590387
 10
399.7317056005049
 20
432.4535970725849
  0
HATCH
  5
31C9
330
1E
100
AcDbEntity
  8
SCHRAFF
100
AcDbHatch
 10
0.0
 20
0.0
 30
0.0
210
0.0
220
0.0
230
1.0
  2
NET
 70
     0
 71
     1
 91
        2
 92
        7
 72
     1
 73
     1
 93
        6
 10
314.9206447090953
 20
623.6642733198532
 42
0.0
 10
315.9486314605775
 20
624.0384298986129
 42
0.0
 10
301.9185332275364
 20
638.0685281316541
 42
0.0
 10
289.1906111661787
 20
625.3406060702964
 42
0.0
 10
300.5750303432821
 20
613.9561868931927
 42
0.0
 10
302.1426123839649
 20
615.5237689338758
 42
-0.1095178116832388
 97
        6
330
3054
330
307D
330
307E
330
305A
330
3056
330
305F
 92
        7
 72
     1
 73
     1
 93
        6
 10
438.643600743467
 20
501.3434606157235
 42
0.0
 10
438.2694441647072
 20
500.3154738642413
 42
-0.1095178116832402
 10
430.1289397787297
 20
487.5374415391106
 42
0.0
 10
428.561357738047
 20
485.9698594984279
 42
0.0
 10
439.9457769151506
 20
474.5854403213244
 42
0.0
 10
452.6736989765083
 20
487.313362382682
 42
0.0
 97
        6
330
3069
330
3061
330
3067
330
307B
330
307C
330
3054
 75
     0
 76
     1
 52
0.0
 41
20.0
 77
     0
 78
     2
 53
0.0
 43
-510.6319625906799
 44
-7.395232728343898
 45
0.0
 46
2.5
 79
     0
 53
90.0
 43
-510.6319625906799
 44
-7.395232728343898
 45
-2.5
 46
0.0000000000000002
 79
     0
 47
0.7540808230847683
 98
        2
 10
305.7425189290325
 20
623.8146139337523
 10
443.0822963304863
 20
488.0800637124162
  0
HATCH
  5
31F7
330
1E
100
AcDbEntity
  8
SCHRAFF
100
AcDbHatch
 10
0.0
 20
0.0
 30
0.0
210
0.0
220
0.0
230
1.0
  2
HONEY
 70
     0
 71
     1
 91
        2
 92
        7
 72
     1
 73
     1
 93
       15
 10
373.5874582369205
 20
408.2271216430945
 42
0.0
 10
439.9457769151506
 20
474.5854403213244
 42
0.0
 10
428.5613577380468
 20
485.9698594984278
 42
0.0
 10
418.6990605278443
 20
476.1075622882252
 42
-0.1211084169870827
 10
404.4184689840691
 20
467.4304382531678
 42
0.1206909349745584
 10
397.0951059752456
 20
462.9888891098651
 42
0.0
 10
386.4467648105183
 20
452.3405479451379
 42
-0.1528962216020402
 10
376.9150424341525
 20
447.3545120192571
 42
0.1528962216020371
 10
371.6196411139494
 20
444.5844920604344
 42
0.0
 10
356.7846624414102
 20
429.7495133878951
 42
-0.5280229877961139
 10
351.3583585402133
 20
423.8795346436005
 42
0.1583986935944884
 10
346.4874582369208
 20
408.8898633428917
 42
0.0
 10
346.4874582369209
 20
369.3778107518125
 42
0.0
 10
371.7374582369206
 20
369.3778107518125
 42
0.0
 10
373.5874582369207
 20
367.5278107518125
 42
0.0
 97
       15
330
307C
330
307B
330
3067
330
3062
330
3065
330
3040
330
3050
330
304F
330
3052
330
30ED
330
30B3
330
2E59
330
2E5C
330
2E60
330
2E58
 92
        7
 72
     1
 73
     1
 93
       15
 10
238.7286566261127
 20
536.492143076646
 42
-0.6391879679392036
 10
244.3546842327492
 20
542.1794915965561
 42
0.0
 10
259.1896629052885
 20
557.0144702690954
 42
0.1528962216020363
 10
261.9596828641112
 20
562.3098715892986
 42
-0.1528962216020387
 10
266.945718789992
 20
571.8415939656643
 42
0.0
 10
277.5940599547192
 20
582.4899351303915
 42
0.1206909349745688
 10
282.0356090980221
 20
589.8132981392158
 42
-0.1211084169870778
 10
290.7127331330794
 20
604.0938896829902
 42
0.0
 10
300.5750303432821
 20
613.956186893193
 42
0.0
 10
289.1906111661787
 20
625.3406060702964
 42
0.0
 10
160.3874582369207
 20
496.5374531410382
 42
0.0
 10
160.3874582369208
 20
367.5278107518121
 42
0.0
 10
162.2374582369211
 20
369.3778107518125
 42
0.0
 10
187.4874582369207
 20
369.3778107518125
 42
0.0
 10
187.4874582369207
 20
408.8898633428919
 42
-0.1932837655389931
 97
       15
330
30EE
330
304A
330
3047
330
3049
330
3041
330
305B
330
3058
330
305A
330
307E
330
307D
330
2E67
330
2EB5
330
2E63
330
2E62
330
30B2
 75
     0
 76
     1
 52
0.0
 41
30.0
 77
     0
 78
     3
 53
0.0
 43
-510.6319625906799
 44
-7.395232728343898
 45
5.625
 46
3.247595249999999
 79
     2
 49
3.75
 49
-7.5
 53
120.0
 43
-510.6319625906799
 44
-7.395232728343898
 45
-5.624999987709673
 46
3.247595271287468
 79
     2
 49
3.749999999999999
 49
-7.499999999999998
 53
60.0
 43
-510.6319625906799
 44
-7.395232728343898
 45
0.0000000122903263
 46
6.495190521287468
 79
     2
 49
-7.5
 49
3.75
 47
0.7540808230847683
 98
        2
 10
360.8293535730368
 20
398.3444464402476
 10
175.1942668722158
 20
432.2780831209418
  0
TEXT
  5
3319
330
1E
100
AcDbEntity
  8
TEXT
100
AcDbText
 10
185.77763727763
 20
91.42531838939582
 30
0.0
 40
5.0
  1
2007
 41
0.8
  7
GREEKS
100
AcDbText
  0
TEXT
  5
331A
330
1E
100
AcDbEntity
  8
TEXT
100
AcDbText
 10
212.9987463852951
 20
78.88456301032164
 30
0.0
 40
5.0
  1
28.09.
 41
0.8
  7
GREEKS
 72
     1
 11
221.7606511471998
 21
78.88456301032164
 31
0.0
100
AcDbText
  0
HATCH
  5
3332
330
1E
100
AcDbEntity
  8
SCHRAFF
100
AcDbHatch
 10
0.0
 20
0.0
 30
0.0
210
0.0
220
0.0
230
1.0
  2
NET
 70
     0
 71
     0
 91
        2
 92
        7
 72
     0
 73
     1
 93
       11
 10
373.5874582369208
 20
367.5278107518123
 10
371.7374582369207
 20
369.3778107518125
 10
346.4874582369207
 20
369.3778107518125
 10
346.4874582369207
 20
360.3778107518126
 10
353.7874582369208
 20
360.3778107518126
 10
357.828910121248
 20
353.3778107518125
 10
368.9874582369207
 20
353.3778107518125
 10
368.9874582369208
 20
351.3778107518126
 10
376.4874582369207
 20
351.3778107518126
 10
376.4874582369207
 20
353.3778107518127
 10
373.5874582369208
 20
353.3778107518127
 97
        0
 92
        7
 72
     0
 73
     1
 93
       11
 10
187.4874582369206
 20
369.3778107518125
 10
162.2374582369206
 20
369.3778107518125
 10
160.3874582369207
 20
367.5278107518126
 10
160.3874582369207
 20
353.3778107518125
 10
157.4874582369207
 20
353.3778107518125
 10
157.4874582369207
 20
351.3778107518126
 10
165.0874582369207
 20
351.3778107518126
 10
165.0874582369207
 20
353.3778107518127
 10
176.1460063525935
 20
353.3778107518127
 10
180.1874582369207
 20
360.3778107518126
 10
187.4874582369206
 20
360.3778107518126
 97
        0
 75
     0
 76
     1
 52
45.0
 41
20.0
 77
     0
 78
     2
 53
45.0
 43
50.94760133262321
 44
95.38955595405559
 45
-1.767766952966368
 46
1.767766952966368
 79
     0
 53
135.0
 43
50.94760133262321
 44
95.38955595405559
 45
-1.767766952966368
 46
-1.767766952966368
 79
     0
 47
0.2699286479089143
 98
        2
 10
364.4780784044153
 20
364.4299075649196
 10
168.1215660885557
 20
362.8103363527205
  0
LINE
  5
3333
330
1E
100
AcDbEntity
  8
STEMPEL
100
AcDbLine
 10
376.4874582369207
 20
351.3778107518126
 30
0.0
 11
346.4874582369208
 21
351.3778107518127
 31
0.0
  0
LINE
  5
3334
330
1E
100
AcDbEntity
  8
STEMPEL
100
AcDbLine
 10
353.7874582369207
 20
360.3778107518126
 30
0.0
 11
357.8289101212482
 21
353.3778107518124
 31
0.0
  0
LINE
  5
3335
330
1E
100
AcDbEntity
  8
STEMPEL
100
AcDbLine
 10
368.9874582369208
 20
353.3778107518125
 30
0.0
 11
346.4874582369208
 21
353.3778107518125
 31
0.0
  0
LINE
  5
3336
330
1E
100
AcDbEntity
  8
STEMPEL
100
AcDbLine
 10
368.9874582369208
 20
351.3778107518125
 30
0.0
 11
368.9874582369207
 21
353.3778107518125
 31
0.0
  0
POINT
  5
3337
330
1E
100
AcDbEntity
  8
Defpoints
  6
ByBlock
 62
     0
100
AcDbPoint
 10
358.9874582369207
 20
353.3778107518125
 30
0.0
  0
POINT
  5
3338
330
1E
100
AcDbEntity
  8
Defpoints
  6
ByBlock
 62
     0
100
AcDbPoint
 10
368.9874582369208
 20
351.3778107518125
 30
0.0
  0
POINT
  5
3339
330
1E
100
AcDbEntity
  8
Defpoints
  6
ByBlock
 62
     0
100
AcDbPoint
 10
357.8289101212482
 20
353.3778107518125
 30
0.0
  0
POINT
  5
333A
330
1E
100
AcDbEntity
  8
Defpoints
  6
ByBlock
 62
     0
100
AcDbPoint
 10
357.8289101212482
 20
353.3778107518125
 30
0.0
  0
POINT
  5
333B
330
1E
100
AcDbEntity
  8
Defpoints
  6
ByBlock
 62
     0
100
AcDbPoint
 10
357.8289101212482
 20
353.3778107518124
 30
0.0
  0
POINT
  5
333C
330
1E
100
AcDbEntity
  8
Defpoints
  6
ByBlock
 62
     0
100
AcDbPoint
 10
368.9874582369208
 20
351.3778107518125
 30
0.0
  0
LINE
  5
333D
330
1E
100
AcDbEntity
  8
STEMPEL
100
AcDbLine
 10
187.4874582369206
 20
351.3778107518126
 30
0.0
 11
157.4874582369207
 21
351.3778107518126
 31
0.0
  0
LINE
  5
333E
330
1E
100
AcDbEntity
  8
STEMPEL
100
AcDbLine
 10
187.4874582369206
 20
353.3778107518127
 30
0.0
 11
165.0874582369207
 21
353.3778107518127
 31
0.0
  0
LINE
  5
333F
330
1E
100
AcDbEntity
  8
STEMPEL
100
AcDbLine
 10
165.0874582369207
 20
351.3778107518125
 30
0.0
 11
165.0874582369207
 21
353.3778107518125
 31
0.0
  0
LINE
  5
3340
330
1E
100
AcDbEntity
  8
STEMPEL
100
AcDbLine
 10
180.1874582369207
 20
360.3778107518126
 30
0.0
 11
176.1460063525933
 21
353.3778107518124
 31
0.0
  0
POINT
  5
3341
330
1E
100
AcDbEntity
  8
Defpoints
  6
ByBlock
 62
     0
100
AcDbPoint
 10
176.1460063525934
 20
353.3778107518125
 30
0.0
  0
POINT
  5
3342
330
1E
100
AcDbEntity
  8
Defpoints
  6
ByBlock
 62
     0
100
AcDbPoint
 10
165.0874582369207
 20
351.3778107518125
 30
0.0
  0
POINT
  5
3343
330
1E
100
AcDbEntity
  8
Defpoints
  6
ByBlock
 62
     0
100
AcDbPoint
 10
165.0874582369207
 20
353.3778107518125
 30
0.0
  0
LINE
  5
336F
330
1E
100
AcDbEntity
  8
BEM
100
AcDbLine
 10
382.5994169609217
 20
567.9942461160674
 30
0.0
 11
386.665231917935
 21
572.0600610730806
 31
0.0
  0
LINE
  5
3370
330
1E
100
AcDbEntity
  8
BEM
100
AcDbLine
 10
266.9874582369209
 20
454.8822873920667
 30
0.0
 11
266.987458236921
 21
636.3226249209603
 31
0.0
  0
ARC
  5
3371
330
1E
100
AcDbEntity
  8
BEM
100
AcDbCircle
 10
266.9874582369209
 20
452.3822873920668
 30
0.0
 40
243.1876325506573
100
AcDbArc
 50
47.06163904092398
 51
87.93836095907593
  0
SOLID
  5
3372
330
1E
100
AcDbEntity
  8
BEM
100
AcDbTrace
 10
433.6620694937818
 20
631.4663676309836
 30
0.0
 11
431.6371114316489
 21
629.3672036804911
 31
0.0
 12
438.9470823141932
 22
624.3419114693388
 32
0.0
 13
438.9470823141932
 23
624.3419114693388
 33
0.0
  0
SOLID
  5
3373
330
1E
100
AcDbEntity
  8
BEM
100
AcDbTrace
 10
275.709806418194
 20
693.9544081613504
 30
0.0
 11
275.7622779050572
 21
696.8706028029186
 31
0.0
 12
266.9874582369212
 22
695.569919942724
 32
0.0
 13
266.9874582369212
 23
695.569919942724
 33
0.0
  0
MTEXT
  5
3374
330
1E
100
AcDbEntity
  8
BEM
 62
     1
100
AcDbMText
 10
363.1606390581132
 20
684.5648848671488
 30
0.0
 40
8.75
 41
0.0
 71
     5
 72
     1
  1
\A1;45°
 11
0.9238795325112866
 21
-0.3826834323650901
 31
0.0
 73
     1
 44
1.0
  0
LINE
  5
3375
330
1E
100
AcDbEntity
  8
BEM
100
AcDbLine
 10
266.9874582369211
 20
647.6487715954237
 30
0.0
 11
266.9874582369212
 21
698.069919942724
 31
0.0
  0
LINE
  5
337F
330
1E
100
AcDbEntity
  8
BEM
100
AcDbLine
 10
402.7155217408252
 20
588.110350895971
 30
0.0
 11
440.7148492671596
 21
626.1096784223052
 31
0.0
  0
ENDSEC
  0
SECTION
  2
OBJECTS
  0
DICTIONARY
  5
C
330
0
100
AcDbDictionary
281
     1
  3
ACAD_COLOR
350
DF
  3
ACAD_GROUP
350
D
  3
ACAD_LAYOUT
350
19
  3
ACAD_MATERIAL
350
DE
  3
ACAD_MLINESTYLE
350
16
  3
ACAD_PLOTSETTINGS
350
18
  3
ACAD_PLOTSTYLENAME
350
E
  3
AcDbVariableDictionary
350
25E
  0
DICTIONARY
  5
A0
330
1E
100
AcDbDictionary
280
     1
281
     1
  3
ACAD_LAYOUTSELFREF
360
D4
  0
DICTIONARY
  5
A2
330
1A
100
AcDbDictionary
280
     1
281
     1
  3
ACAD_LAYOUTSELFREF
360
D3
  0
DICTIONARY
  5
DF
102
{ACAD_REACTORS
330
C
102
}
330
C
100
AcDbDictionary
281
     1
  0
DICTIONARY
  5
D
102
{ACAD_REACTORS
330
C
102
}
330
C
100
AcDbDictionary
281
     1
  0
DICTIONARY
  5
19
102
{ACAD_REACTORS
330
C
102
}
330
C
100
AcDbDictionary
281
     1
  3
Layout1
350
1D
  3
Model
350
21
  0
DICTIONARY
  5
DE
102
{ACAD_REACTORS
330
C
102
}
330
C
100
AcDbDictionary
281
     1
  0
DICTIONARY
  5
16
102
{ACAD_REACTORS
330
C
102
}
330
C
100
AcDbDictionary
281
     1
  3
Standard
350
17
  0
DICTIONARY
  5
18
102
{ACAD_REACTORS
330
C
102
}
330
C
100
AcDbDictionary
281
     1
  0
ACDBDICTIONARYWDFLT
  5
E
102
{ACAD_REACTORS
330
C
102
}
330
C
100
AcDbDictionary
281
     1
  3
Normal
350
F
100
AcDbDictionaryWithDefault
340
F
  0
DICTIONARY
  5
25E
102
{ACAD_REACTORS
330
C
102
}
330
C
100
AcDbDictionary
281
     1
  3
DIMASSOC
350
25F
  3
PROJECTNAME
350
260
  0
XRECORD
  5
D4
102
{ACAD_REACTORS
330
A0
102
}
330
A0
100
AcDbXrecord
280
     1
340
1E
  0
XRECORD
  5
D3
102
{ACAD_REACTORS
330
A2
102
}
330
A2
100
AcDbXrecord
280
     1
340
1A
  0
LAYOUT
  5
1D
102
{ACAD_REACTORS
330
19
102
}
330
19
100
AcDbPlotSettings
  1

  2
\\NT_WORK01\HP LaserJet 5000 PCL 6
  4

  6

 40
0.0
 41
0.0
 42
0.0
 43
0.0
 44
0.0
 45
0.0
 46
0.0
 47
0.0
 48
0.0
 49
0.0
140
0.0
141
0.0
142
1.0
143
1.0
 70
   688
 72
     0
 73
     0
 74
     5
  7

 75
    16
147
1.0
 76
     0
 77
     2
 78
   300
148
0.0
149
0.0
100
AcDbLayout
  1
Layout1
 70
     0
 71
     1
 10
0.0
 20
0.0
 11
12.0
 21
9.0
 12
0.0
 22
0.0
 32
0.0
 14
1.000000000000000E+20
 24
1.000000000000000E+20
 34
1.000000000000000E+20
 15
-1.000000000000000E+20
 25
-1.000000000000000E+20
 35
-1.000000000000000E+20
146
0.0
 13
0.0
 23
0.0
 33
0.0
 16
1.0
 26
0.0
 36
0.0
 17
0.0
 27
1.0
 37
0.0
 76
     0
330
1A
  0
LAYOUT
  5
21
102
{ACAD_REACTORS
330
19
102
}
330
19
100
AcDbPlotSettings
  1

  2
RICOH Aficio 2027 PCL 6
  4
A4
  6

 40
5.027083
 41
5.027084999999999
 42
5.027084
 43
5.027069
 44
209.973328
 45
296.925995
 46
0.0
 47
2.06
 48
0.0
 49
0.0
140
0.0
141
0.0
142
1.0
143
2.100849152723284
 70
 11956
 72
     1
 73
     0
 74
     2
  7
monochrome1.ctb
 75
     0
147
0.4759980023809526
 76
     1
 77
     2
 78
   300
148
0.0
149
0.0
100
AcDbLayout
  1
Model
 70
     1
 71
     0
 10
0.0
 20
0.0
 11
12.0
 21
9.0
 12
0.0
 22
0.0
 32
0.0
 14
0.0
 24
0.0
 34
0.0
 15
0.0
 25
0.0
 35
0.0
146
0.0
 13
0.0
 23
0.0
 33
0.0
 16
1.0
 26
0.0
 36
0.0
 17
0.0
 27
1.0
 37
0.0
 76
     0
330
1E
  0
MLINESTYLE
  5
17
102
{ACAD_REACTORS
330
16
102
}
330
16
100
AcDbMlineStyle
  2
STANDARD
 70
     0
  3

 62
   256
 51
90.0
 52
90.0
 71
     2
 49
0.5
 62
   256
  6
BYLAYER
 49
-0.5
 62
   256
  6
BYLAYER
  0
ACDBPLACEHOLDER
  5
F
102
{ACAD_REACTORS
330
E
102
}
330
E
  0
DICTIONARYVAR
  5
25F
102
{ACAD_REACTORS
330
25E
102
}
330
25E
100
DictionaryVariables
280
     0
  1
1
  0
DICTIONARYVAR
  5
260
102
{ACAD_REACTORS
330
25E
102
}
330
25E
100
DictionaryVariables
280
     0
  1

  0
ENDSEC
  0
EOF
