  0
SECTION
  2
HEADER
  9
$ACADVER
  1
AC1018
  9
$ACADMAINTVER
 70
     2
  9
$DWGCODEPAGE
  3
ANSI_1252
  9
$INSBASE
 10
0.0
 20
0.0
 30
0.0
  9
$EXTMIN
 10
-0.0127968944558461
 20
-0.0180984650162373
 30
-0.0000000000000053
  9
$EXTMAX
 10
420.00961919835
 20
594.0136042948106
 30
0.0000000000000099
  9
$LIMMIN
 10
0.0
 20
0.0
  9
$LIMMAX
 10
419.9999999999999
 20
594.0000000000002
  9
$ORTHOMODE
 70
     0
  9
$REGENMODE
 70
     1
  9
$FILLMODE
 70
     1
  9
$QTEXTMODE
 70
     0
  9
$MIRRTEXT
 70
     1
  9
$LTSCALE
 40
20.0
  9
$ATTMODE
 70
     1
  9
$TEXTSIZE
 40
3.5
  9
$TRACEWID
 40
0.5
  9
$TEXTSTYLE
  7
STANDARD
  9
$CLAYER
  8
BEM
  9
$CELTYPE
  6
ByLayer
  9
$CECOLOR
 62
   256
  9
$CELTSCALE
 40
1.0
  9
$DISPSILH
 70
     0
  9
$DIMSCALE
 40
2.0
  9
$DIMASZ
 40
3.5
  9
$DIMEXO
 40
1.0
  9
$DIMDLI
 40
7.0
  9
$DIMRND
 40
0.0
  9
$DIMDLE
 40
0.0
  9
$DIMEXE
 40
1.0
  9
$DIMTP
 40
0.0
  9
$DIMTM
 40
0.0
  9
$DIMTXT
 40
3.5
  9
$DIMCEN
 40
1.5
  9
$DIMTSZ
 40
0.0
  9
$DIMTOL
 70
     0
  9
$DIMLIM
 70
     0
  9
$DIMTIH
 70
     0
  9
$DIMTOH
 70
     0
  9
$DIMSE1
 70
     0
  9
$DIMSE2
 70
     0
  9
$DIMTAD
 70
     1
  9
$DIMZIN
 70
     8
  9
$DIMBLK
  1

  9
$DIMASO
 70
     1
  9
$DIMSHO
 70
     0
  9
$DIMPOST
  1

  9
$DIMAPOST
  1

  9
$DIMALT
 70
     0
  9
$DIMALTD
 70
     2
  9
$DIMALTF
 40
25.4
  9
$DIMLFAC
 40
1.0
  9
$DIMTOFL
 70
     1
  9
$DIMTVP
 40
0.0
  9
$DIMTIX
 70
     0
  9
$DIMSOXD
 70
     0
  9
$DIMSAH
 70
     0
  9
$DIMBLK1
  1

  9
$DIMBLK2
  1

  9
$DIMSTYLE
  2
Standard
  9
$DIMCLRD
 70
     0
  9
$DIMCLRE
 70
     0
  9
$DIMCLRT
 70
     1
  9
$DIMTFAC
 40
0.5142857142857144
  9
$DIMGAP
 40
1.5
  9
$DIMJUST
 70
     0
  9
$DIMSD1
 70
     0
  9
$DIMSD2
 70
     0
  9
$DIMTOLJ
 70
     1
  9
$DIMTZIN
 70
     8
  9
$DIMALTZ
 70
     8
  9
$DIMALTTZ
 70
     8
  9
$DIMUPT
 70
     0
  9
$DIMDEC
 70
     2
  9
$DIMTDEC
 70
     2
  9
$DIMALTU
 70
     2
  9
$DIMALTTD
 70
     2
  9
$DIMTXSTY
  7
STANDARD
  9
$DIMAUNIT
 70
     0
  9
$DIMADEC
 70
     2
  9
$DIMALTRND
 40
0.0
  9
$DIMAZIN
 70
     2
  9
$DIMDSEP
 70
    46
  9
$DIMATFIT
 70
     3
  9
$DIMFRAC
 70
     0
  9
$DIMLDRBLK
  1

  9
$DIMLUNIT
 70
     2
  9
$DIMLWD
 70
    -2
  9
$DIMLWE
 70
    -2
  9
$DIMTMOVE
 70
     0
  9
$LUNITS
 70
     2
  9
$LUPREC
 70
     2
  9
$SKETCHINC
 40
1.0
  9
$FILLETRAD
 40
0.0
  9
$AUNITS
 70
     0
  9
$AUPREC
 70
     0
  9
$MENU
  1
ACAD
  9
$ELEVATION
 40
0.0
  9
$PELEVATION
 40
0.0
  9
$THICKNESS
 40
0.0
  9
$LIMCHECK
 70
     0
  9
$CHAMFERA
 40
0.0
  9
$CHAMFERB
 40
0.0
  9
$CHAMFERC
 40
0.0
  9
$CHAMFERD
 40
0.0
  9
$SKPOLY
 70
     0
  9
$TDCREATE
 40
2455397.823042361
  9
$TDUCREATE
 40
2455397.781375695
  9
$TDUPDATE
 40
2455532.536480301
  9
$TDUUPDATE
 40
2455532.494813634
  9
$TDINDWG
 40
0.3847882407
  9
$TDUSRTIMER
 40
0.3847882407
  9
$USRTIMER
 70
     1
  9
$ANGBASE
 50
0.0
  9
$ANGDIR
 70
     0
  9
$PDMODE
 70
     0
  9
$PDSIZE
 40
0.0
  9
$PLINEWID
 40
0.0
  9
$SPLFRAME
 70
     0
  9
$SPLINETYPE
 70
     6
  9
$SPLINESEGS
 70
     8
  9
$HANDSEED
  5
22C1
  9
$SURFTAB1
 70
     6
  9
$SURFTAB2
 70
     6
  9
$SURFTYPE
 70
     6
  9
$SURFU
 70
     6
  9
$SURFV
 70
     6
  9
$UCSBASE
  2

  9
$UCSNAME
  2

  9
$UCSORG
 10
0.0
 20
0.0
 30
0.0
  9
$UCSXDIR
 10
1.0
 20
0.0
 30
0.0
  9
$UCSYDIR
 10
0.0
 20
1.0
 30
0.0
  9
$UCSORTHOREF
  2

  9
$UCSORTHOVIEW
 70
     0
  9
$UCSORGTOP
 10
0.0
 20
0.0
 30
0.0
  9
$UCSORGBOTTOM
 10
0.0
 20
0.0
 30
0.0
  9
$UCSORGLEFT
 10
0.0
 20
0.0
 30
0.0
  9
$UCSORGRIGHT
 10
0.0
 20
0.0
 30
0.0
  9
$UCSORGFRONT
 10
0.0
 20
0.0
 30
0.0
  9
$UCSORGBACK
 10
0.0
 20
0.0
 30
0.0
  9
$PUCSBASE
  2

  9
$PUCSNAME
  2

  9
$PUCSORG
 10
0.0
 20
0.0
 30
0.0
  9
$PUCSXDIR
 10
1.0
 20
0.0
 30
0.0
  9
$PUCSYDIR
 10
0.0
 20
1.0
 30
0.0
  9
$PUCSORTHOREF
  2

  9
$PUCSORTHOVIEW
 70
     0
  9
$PUCSORGTOP
 10
0.0
 20
0.0
 30
0.0
  9
$PUCSORGBOTTOM
 10
0.0
 20
0.0
 30
0.0
  9
$PUCSORGLEFT
 10
0.0
 20
0.0
 30
0.0
  9
$PUCSORGRIGHT
 10
0.0
 20
0.0
 30
0.0
  9
$PUCSORGFRONT
 10
0.0
 20
0.0
 30
0.0
  9
$PUCSORGBACK
 10
0.0
 20
0.0
 30
0.0
  9
$USERI1
 70
     0
  9
$USERI2
 70
     0
  9
$USERI3
 70
     0
  9
$USERI4
 70
     0
  9
$USERI5
 70
     0
  9
$USERR1
 40
0.0
  9
$USERR2
 40
0.0
  9
$USERR3
 40
0.0
  9
$USERR4
 40
0.0
  9
$USERR5
 40
0.0
  9
$WORLDVIEW
 70
     1
  9
$SHADEDGE
 70
     3
  9
$SHADEDIF
 70
    70
  9
$TILEMODE
 70
     1
  9
$MAXACTVP
 70
    16
  9
$PINSBASE
 10
0.0
 20
0.0
 30
0.0
  9
$PLIMCHECK
 70
     0
  9
$PEXTMIN
 10
1.000000000000000E+20
 20
1.000000000000000E+20
 30
1.000000000000000E+20
  9
$PEXTMAX
 10
-1.000000000000000E+20
 20
-1.000000000000000E+20
 30
-1.000000000000000E+20
  9
$PLIMMIN
 10
0.0
 20
0.0
  9
$PLIMMAX
 10
12.0
 20
9.0
  9
$UNITMODE
 70
     0
  9
$VISRETAIN
 70
     0
  9
$PLINEGEN
 70
     0
  9
$PSLTSCALE
 70
     0
  9
$TREEDEPTH
 70
  3020
  9
$CMLSTYLE
  2
Standard
  9
$CMLJUST
 70
     0
  9
$CMLSCALE
 40
1.0
  9
$PROXYGRAPHICS
 70
     1
  9
$MEASUREMENT
 70
     0
  9
$CELWEIGHT
370
    -1
  9
$ENDCAPS
280
     0
  9
$JOINSTYLE
280
     0
  9
$LWDISPLAY
290
     0
  9
$INSUNITS
 70
     0
  9
$HYPERLINKBASE
  1

  9
$STYLESHEET
  1
monochrome 1.ctb
  9
$XEDIT
290
     1
  9
$CEPSNTYPE
380
     0
  9
$PSTYLEMODE
290
     1
  9
$FINGERPRINTGUID
  2
{D68B0D02-A558-11D7-B632-000102183313}
  9
$VERSIONGUID
  2
{5ED65049-B267-45C8-84A8-35F9107B81D1}
  9
$EXTNAMES
290
     1
  9
$PSVPSCALE
 40
0.0
  9
$OLESTARTUP
290
     0
  9
$SORTENTS
280
   127
  9
$INDEXCTL
280
     0
  9
$HIDETEXT
280
     0
  9
$XCLIPFRAME
290
     0
  9
$HALOGAP
280
     0
  9
$OBSCOLOR
 70
   257
  9
$OBSLTYPE
280
     0
  9
$INTERSECTIONDISPLAY
280
     0
  9
$INTERSECTIONCOLOR
 70
   257
  9
$DIMASSOC
280
     1
  9
$PROJECTNAME
  1

  0
ENDSEC
  0
SECTION
  2
CLASSES
  0
CLASS
  1
ACDBDICTIONARYWDFLT
  2
AcDbDictionaryWithDefault
  3
ObjectDBX Classes
 90
        0
 91
        1
280
     0
281
     0
  0
CLASS
  1
DICTIONARYVAR
  2
AcDbDictionaryVar
  3
ObjectDBX Classes
 90
        0
 91
        2
280
     0
281
     0
  0
ENDSEC
  0
SECTION
  2
TABLES
  0
TABLE
  2
VPORT
  5
8
330
0
100
AcDbSymbolTable
 70
     2
  0
VPORT
  5
22C0
330
8
100
AcDbSymbolTableRecord
100
AcDbViewportTableRecord
  2
*Active
 70
     0
 10
0.0
 20
0.0
 11
1.0
 21
1.0
 12
209.9984111519471
 22
296.9977529148971
 13
0.0
 23
0.0
 14
1.0
 24
1.0
 15
10.0
 25
10.0
 16
0.0
 26
0.0
 36
1.0
 17
0.0
 27
0.0
 37
0.0
 40
598.8287286232978
 41
1.336927223719676
 42
50.0
 43
0.0
 44
0.0
 50
0.0
 51
0.0
 71
     0
 72
  1500
 73
     1
 74
     0
 75
     0
 76
     0
 77
     0
 78
     0
281
     0
 65
     1
110
0.0
120
0.0
130
0.0
111
1.0
121
0.0
131
0.0
112
0.0
122
1.0
132
0.0
 79
     0
146
0.0
  0
ENDTAB
  0
TABLE
  2
LTYPE
  5
5
330
0
100
AcDbSymbolTable
 70
     2
  0
LTYPE
  5
13
330
5
100
AcDbSymbolTableRecord
100
AcDbLinetypeTableRecord
  2
ByBlock
 70
     0
  3

 72
    65
 73
     0
 40
0.0
  0
LTYPE
  5
14
330
5
100
AcDbSymbolTableRecord
100
AcDbLinetypeTableRecord
  2
ByLayer
 70
     0
  3

 72
    65
 73
     0
 40
0.0
  0
LTYPE
  5
15
330
5
100
AcDbSymbolTableRecord
100
AcDbLinetypeTableRecord
  2
Continuous
 70
     0
  3
Solid line
 72
    65
 73
     0
 40
0.0
  0
LTYPE
  5
25
330
5
100
AcDbSymbolTableRecord
100
AcDbLinetypeTableRecord
  2
STRICHPUNKT
 70
     0
  3
__ . __ . __ . __ . __ . __ . __ . __ . __ . __
 72
    65
 73
     4
 40
1.0
 49
0.5
 74
     0
 49
-0.25
 74
     0
 49
0.0
 74
     0
 49
-0.25
 74
     0
  0
ENDTAB
  0
TABLE
  2
LAYER
  5
2
330
0
100
AcDbSymbolTable
 70
     9
  0
LAYER
  5
10
330
2
100
AcDbSymbolTableRecord
100
AcDbLayerTableRecord
  2
0
 70
     0
 62
     7
  6
Continuous
370
    -3
390
F
  0
LAYER
  5
2A
330
2
100
AcDbSymbolTableRecord
100
AcDbLayerTableRecord
  2
VOLL
 70
     0
 62
     1
  6
Continuous
370
    -3
390
F
  0
LAYER
  5
2B
330
2
100
AcDbSymbolTableRecord
100
AcDbLayerTableRecord
  2
HILF
 70
     0
 62
     2
  6
Continuous
370
    -3
390
F
  0
LAYER
  5
2C
330
2
100
AcDbSymbolTableRecord
100
AcDbLayerTableRecord
  2
MITTEL
 70
     0
 62
     2
  6
STRICHPUNKT
370
    -3
390
F
  0
LAYER
  5
2F
330
2
100
AcDbSymbolTableRecord
100
AcDbLayerTableRecord
  2
BEM
 70
     0
 62
     7
  6
Continuous
370
    -3
390
F
  0
LAYER
  5
30
330
2
100
AcDbSymbolTableRecord
100
AcDbLayerTableRecord
  2
STEMPEL
 70
     0
 62
     3
  6
Continuous
370
    -3
390
F
  0
LAYER
  5
31
330
2
100
AcDbSymbolTableRecord
100
AcDbLayerTableRecord
  2
TEXT
 70
     0
 62
     7
  6
Continuous
370
    -3
390
F
  0
LAYER
  5
171
330
2
100
AcDbSymbolTableRecord
100
AcDbLayerTableRecord
  2
Defpoints
 70
     0
 62
     7
  6
Continuous
290
     0
370
    -3
390
F
  0
LAYER
  5
19C
330
2
100
AcDbSymbolTableRecord
100
AcDbLayerTableRecord
  2
SCHRAFF
 70
     0
 62
     7
  6
Continuous
370
    -3
390
F
  0
ENDTAB
  0
TABLE
  2
STYLE
  5
3
330
0
100
AcDbSymbolTable
 70
     2
  0
STYLE
  5
11
330
3
100
AcDbSymbolTableRecord
100
AcDbTextStyleTableRecord
  2
STANDARD
 70
     0
 40
0.0
 41
0.8
 50
0.0
 71
     0
 42
3.5
  3
simplex.shx
  4

  0
STYLE
  5
24
330
3
100
AcDbSymbolTableRecord
100
AcDbTextStyleTableRecord
  2
GREEKS
 70
     0
 40
0.0
 41
0.8
 50
0.0
 71
     0
 42
2.5
  3
SIMPLEX.shx
  4

  0
ENDTAB
  0
TABLE
  2
VIEW
  5
6
330
0
100
AcDbSymbolTable
 70
     0
  0
ENDTAB
  0
TABLE
  2
UCS
  5
7
330
0
100
AcDbSymbolTable
 70
     0
  0
ENDTAB
  0
TABLE
  2
APPID
  5
9
330
0
100
AcDbSymbolTable
 70
     1
  0
APPID
  5
12
330
9
100
AcDbSymbolTableRecord
100
AcDbRegAppTableRecord
  2
ACAD
 70
     0
  0
ENDTAB
  0
TABLE
  2
DIMSTYLE
  5
A
330
0
100
AcDbSymbolTable
 70
     1
100
AcDbDimStyleTable
 71
     1
340
9D
  0
DIMSTYLE
105
9D
102
{ACAD_REACTORS
330
1F0A
330
1F6C
330
2058
330
2072
330
20A3
102
}
330
A
100
AcDbSymbolTableRecord
100
AcDbDimStyleTableRecord
  2
Standard
 70
     0
340
11
  0
ENDTAB
  0
TABLE
  2
BLOCK_RECORD
  5
1
330
0
100
AcDbSymbolTable
 70
     7
  0
BLOCK_RECORD
  5
1E
102
{ACAD_XDICTIONARY
360
A0
102
}
330
1
100
AcDbSymbolTableRecord
100
AcDbBlockTableRecord
  2
*Model_Space
340
21
  0
BLOCK_RECORD
  5
1A
102
{ACAD_XDICTIONARY
360
A2
102
}
330
1
100
AcDbSymbolTableRecord
100
AcDbBlockTableRecord
  2
*Paper_Space
340
1D
  0
BLOCK_RECORD
  5
22
330
1
100
AcDbSymbolTableRecord
100
AcDbBlockTableRecord
  2
LOGO
340
0
102
{BLKREFS
331
9B
102
}
  0
BLOCK_RECORD
  5
1F2E
330
1
100
AcDbSymbolTableRecord
100
AcDbBlockTableRecord
  2
*D1
340
0
  0
BLOCK_RECORD
  5
1FA2
330
1
100
AcDbSymbolTableRecord
100
AcDbBlockTableRecord
  2
*D2
340
0
  0
BLOCK_RECORD
  5
2059
330
1
100
AcDbSymbolTableRecord
100
AcDbBlockTableRecord
  2
*D3
340
0
  0
BLOCK_RECORD
  5
2073
330
1
100
AcDbSymbolTableRecord
100
AcDbBlockTableRecord
  2
*D4
340
0
  0
BLOCK_RECORD
  5
20A4
330
1
100
AcDbSymbolTableRecord
100
AcDbBlockTableRecord
  2
*D6
340
0
  0
ENDTAB
  0
ENDSEC
  0
SECTION
  2
BLOCKS
  0
BLOCK
  5
35
330
1E
100
AcDbEntity
  8
0
100
AcDbBlockBegin
  2
*Model_Space
 70
     0
 10
0.0
 20
0.0
 30
0.0
  3
*Model_Space
  1

  0
ENDBLK
  5
36
330
1E
100
AcDbEntity
  8
0
100
AcDbBlockEnd
  0
BLOCK
  5
33
330
1A
100
AcDbEntity
 67
     1
  8
0
100
AcDbBlockBegin
  2
*Paper_Space
 70
     0
 10
0.0
 20
0.0
 30
0.0
  3
*Paper_Space
  1

  0
ENDBLK
  5
34
330
1A
100
AcDbEntity
 67
     1
  8
0
100
AcDbBlockEnd
  0
BLOCK
  5
37
330
22
100
AcDbEntity
  8
0
100
AcDbBlockBegin
  2
LOGO
 70
     0
 10
0.0
 20
0.0
 30
0.0
  3
LOGO
  1

  0
ARC
  5
38
330
22
100
AcDbEntity
  8
0
100
AcDbCircle
 10
11.59973089678112
 20
-9.271599258481501
 30
0.0
 40
4.5
100
AcDbArc
 50
270.0
 51
231.0575587310159
  0
LINE
  5
39
330
22
100
AcDbEntity
  8
0
100
AcDbLine
 10
3.599730896781125
 20
-4.771599258481529
 30
0.0
 11
3.599730896781153
 21
-11.77159925848133
 31
0.0
  0
LINE
  5
3A
330
22
100
AcDbEntity
  8
0
100
AcDbLine
 10
2.599730896781125
 20
-4.771599258481529
 30
0.0
 11
2.599730896781153
 21
-11.77159925848133
 31
0.0
  0
CIRCLE
  5
3B
330
22
100
AcDbEntity
  8
0
100
AcDbCircle
 10
11.59973089678112
 20
-9.271599258481501
 30
0.0
 40
3.5
  0
ARC
  5
3C
330
22
100
AcDbEntity
  8
0
100
AcDbCircle
 10
31.59973089678115
 20
-9.271599258481472
 30
0.0
 40
4.5
100
AcDbArc
 50
270.0
 51
231.0575587310182
  0
LINE
  5
3D
330
22
100
AcDbEntity
  8
0
100
AcDbLine
 10
17.59973089678112
 20
-4.771599258481472
 30
0.0
 11
17.59973089678115
 21
-13.77159925848147
 31
0.0
  0
ARC
  5
3E
330
22
100
AcDbEntity
  8
0
100
AcDbCircle
 10
22.59973089678116
 20
-7.271599258481472
 30
0.0
 40
2.5
100
AcDbArc
 50
293.1161887722295
 51
90.0
  0
CIRCLE
  5
3F
330
22
100
AcDbEntity
  8
0
100
AcDbCircle
 10
31.59973089678115
 20
-9.271599258481472
 30
0.0
 40
3.5
  0
ARC
  5
40
330
22
100
AcDbEntity
  8
0
100
AcDbCircle
 10
4.599730896781153
 20
-11.77159925848133
 30
0.0
 40
1.0
100
AcDbArc
 50
180.0
 51
270.0
  0
ARC
  5
41
330
22
100
AcDbEntity
  8
0
100
AcDbCircle
 10
4.599730896781153
 20
-11.77159925848133
 30
0.0
 40
2.0
100
AcDbArc
 50
179.9999999999992
 51
270.0
  0
LINE
  5
42
330
22
100
AcDbEntity
  8
0
100
AcDbLine
 10
11.59973089678115
 20
-13.77159925848144
 30
0.0
 11
4.599730896781153
 21
-13.77159925848147
 31
0.0
  0
LINE
  5
43
330
22
100
AcDbEntity
  8
0
100
AcDbLine
 10
8.771303772034769
 20
-12.77159925848136
 30
0.0
 11
4.599730896781153
 21
-12.77159925848133
 31
0.0
  0
LINE
  5
44
330
22
100
AcDbEntity
  8
0
100
AcDbLine
 10
31.59973089678115
 20
-13.77159925848147
 30
0.0
 11
23.6715276665056
 21
-13.77159925848144
 31
0.0
  0
LINE
  5
45
330
22
100
AcDbEntity
  8
0
100
AcDbLine
 10
23.56565672307022
 20
-9.51278021337896
 30
0.0
 11
24.4388546544846
 21
-12.77159925848144
 31
0.0
  0
LINE
  5
46
330
22
100
AcDbEntity
  8
0
100
AcDbLine
 10
22.59973089678116
 20
-9.771599258481472
 30
0.0
 11
18.59973089678112
 21
-9.771599258481472
 31
0.0
  0
LINE
  5
47
330
22
100
AcDbEntity
  8
0
100
AcDbLine
 10
18.59973089678115
 20
-13.77159925848144
 30
0.0
 11
17.59973089678115
 21
-13.77159925848144
 31
0.0
  0
LINE
  5
48
330
22
100
AcDbEntity
  8
0
100
AcDbLine
 10
18.59973089678115
 20
-9.771599258481472
 30
0.0
 11
18.59973089678115
 21
-13.77159925848144
 31
0.0
  0
LINE
  5
49
330
22
100
AcDbEntity
  8
0
100
AcDbLine
 10
22.59973089678116
 20
-9.771599258481472
 30
0.0
 11
23.67152766650562
 21
-13.77159925848147
 31
0.0
  0
ARC
  5
4A
330
22
100
AcDbEntity
  8
0
100
AcDbCircle
 10
22.59973089678116
 20
-7.271599258481472
 30
0.0
 40
2.5
100
AcDbArc
 50
270.0
 51
270.0000000000007
  0
LINE
  5
4B
330
22
100
AcDbEntity
  8
0
100
AcDbLine
 10
28.77130377203494
 20
-12.77159925848147
 30
0.0
 11
24.43885465448463
 21
-12.77159925848144
 31
0.0
  0
LINE
  5
4C
330
22
100
AcDbEntity
  8
0
100
AcDbLine
 10
3.599730896781125
 20
-4.771599258481472
 30
0.0
 11
2.599730896781125
 21
-4.771599258481472
 31
0.0
  0
LINE
  5
4D
330
22
100
AcDbEntity
  8
0
100
AcDbLine
 10
22.59973089678116
 20
-8.771599258481472
 30
0.0
 11
18.59973089678115
 21
-8.771599258481472
 31
0.0
  0
LINE
  5
4E
330
22
100
AcDbEntity
  8
0
100
AcDbLine
 10
22.59973089678116
 20
-5.771599258481472
 30
0.0
 11
18.59973089678115
 21
-5.771599258481472
 31
0.0
  0
LINE
  5
4F
330
22
100
AcDbEntity
  8
0
100
AcDbLine
 10
22.59973089678116
 20
-4.771599258481472
 30
0.0
 11
17.59973089678115
 21
-4.771599258481472
 31
0.0
  0
LINE
  5
50
330
22
100
AcDbEntity
  8
0
100
AcDbLine
 10
18.59973089678115
 20
-5.771599258481472
 30
0.0
 11
18.59973089678115
 21
-8.771599258481472
 31
0.0
  0
ARC
  5
51
330
22
100
AcDbEntity
  8
0
100
AcDbCircle
 10
22.59973089678116
 20
-7.271599258481472
 30
0.0
 40
1.5
100
AcDbArc
 50
270.0
 51
90.0
  0
ENDBLK
  5
52
330
22
100
AcDbEntity
  8
0
100
AcDbBlockEnd
  0
BLOCK
  5
1F38
330
1F2E
100
AcDbEntity
  8
0
100
AcDbBlockBegin
  2
*D1
 70
     1
 10
0.0
 20
0.0
 30
0.0
  3
*D1
  1

  0
LINE
  5
2225
330
1F2E
100
AcDbEntity
  8
BEM
 62
     0
370
    -2
100
AcDbLine
 10
149.7038902291464
 20
237.0531823185081
 30
0.0
 11
149.7038902291464
 21
208.9970083017827
 31
0.0
  0
LINE
  5
2226
330
1F2E
100
AcDbEntity
  8
BEM
 62
     0
370
    -2
100
AcDbLine
 10
251.7038902291463
 20
237.0531823185081
 30
0.0
 11
251.7038902291463
 21
208.9970083017827
 31
0.0
  0
LINE
  5
2227
330
1F2E
100
AcDbEntity
  8
BEM
 62
     0
370
    -2
100
AcDbLine
 10
156.7038902291464
 20
210.9970083017827
 30
0.0
 11
244.7038902291463
 21
210.9970083017827
 31
0.0
  0
SOLID
  5
2228
330
1F2E
100
AcDbEntity
  8
BEM
 62
     0
100
AcDbTrace
 10
156.7038902291464
 20
212.1636749684494
 30
0.0
 11
156.7038902291464
 21
209.8303416351161
 31
0.0
 12
149.7038902291464
 22
210.9970083017827
 32
0.0
 13
149.7038902291464
 23
210.9970083017827
 33
0.0
  0
SOLID
  5
2229
330
1F2E
100
AcDbEntity
  8
BEM
 62
     0
100
AcDbTrace
 10
244.7038902291463
 20
212.1636749684494
 30
0.0
 11
244.7038902291463
 21
209.8303416351161
 31
0.0
 12
251.7038902291463
 22
210.9970083017827
 32
0.0
 13
251.7038902291463
 23
210.9970083017827
 33
0.0
  0
MTEXT
  5
222A
330
1F2E
100
AcDbEntity
  8
BEM
 62
     1
100
AcDbMText
 10
200.7038902291463
 20
217.4970083017827
 30
0.0
 40
7.0
 41
0.0
 71
     5
 72
     1
  1
\A1;%%c102
  7
GREEKS
 73
     1
 44
1.0
  0
POINT
  5
222B
330
1F2E
100
AcDbEntity
  8
Defpoints
 62
     0
100
AcDbPoint
 10
149.7038902291464
 20
239.0531823185081
 30
0.0
  0
POINT
  5
222C
330
1F2E
100
AcDbEntity
  8
Defpoints
 62
     0
100
AcDbPoint
 10
251.7038902291463
 20
239.0531823185081
 30
0.0
  0
POINT
  5
222D
330
1F2E
100
AcDbEntity
  8
Defpoints
 62
     0
100
AcDbPoint
 10
251.7038902291463
 20
210.9970083017827
 30
0.0
  0
ENDBLK
  5
1F39
330
1F2E
100
AcDbEntity
  8
0
100
AcDbBlockEnd
  0
BLOCK
  5
1FAC
330
1FA2
100
AcDbEntity
  8
0
100
AcDbBlockBegin
  2
*D2
 70
     1
 10
0.0
 20
0.0
 30
0.0
  3
*D2
  1

  0
LINE
  5
227A
330
1FA2
100
AcDbEntity
  8
BEM
 62
     0
370
    -2
100
AcDbLine
 10
242.7731723722773
 20
491.2524179413447
 30
0.0
 11
252.5853569774076
 21
501.064602546475
 31
0.0
  0
LINE
  5
227B
330
1FA2
100
AcDbEntity
  8
BEM
 62
     0
370
    -2
100
AcDbLine
 10
336.8183742700883
 20
397.2072160435335
 30
0.0
 11
346.6305588752192
 21
407.0194006486644
 31
0.0
  0
LINE
  5
227C
330
1FA2
100
AcDbEntity
  8
BEM
 62
     0
370
    -2
100
AcDbLine
 10
256.1208908833403
 20
494.7006415157961
 30
0.0
 11
340.2665978445402
 21
410.5549345545972
 31
0.0
  0
SOLID
  5
227D
330
1FA2
100
AcDbEntity
  8
BEM
 62
     0
100
AcDbTrace
 10
256.9458487947246
 20
495.5255994271803
 30
0.0
 11
255.295932971956
 21
493.8756836044118
 31
0.0
 12
251.1711434150345
 22
499.6503889841019
 32
0.0
 13
251.1711434150345
 23
499.6503889841019
 33
0.0
  0
SOLID
  5
227E
330
1FA2
100
AcDbEntity
  8
BEM
 62
     0
100
AcDbTrace
 10
341.0915557559245
 20
411.3798924659814
 30
0.0
 11
339.4416399331559
 21
409.7299766432128
 31
0.0
 12
345.2163453128461
 22
405.6051870862914
 32
0.0
 13
345.2163453128461
 23
405.6051870862914
 33
0.0
  0
MTEXT
  5
227F
330
1FA2
100
AcDbEntity
  8
BEM
 62
     1
100
AcDbMText
 10
302.7899384416528
 20
457.2239821129093
 30
0.0
 40
7.0
 41
0.0
 71
     5
 72
     1
  1
\A1;%%c133
  7
GREEKS
 11
0.7071067811865517
 21
-0.7071067811865435
 31
0.0
 73
     1
 44
1.0
  0
POINT
  5
2280
330
1FA2
100
AcDbEntity
  8
Defpoints
 62
     0
100
AcDbPoint
 10
241.3589588099043
 20
489.8382043789715
 30
0.0
  0
POINT
  5
2281
330
1FA2
100
AcDbEntity
  8
Defpoints
 62
     0
100
AcDbPoint
 10
335.4041607077152
 20
395.7930024811604
 30
0.0
  0
POINT
  5
2282
330
1FA2
100
AcDbEntity
  8
Defpoints
 62
     0
100
AcDbPoint
 10
345.2163453128461
 20
405.6051870862914
 30
0.0
  0
ENDBLK
  5
1FAD
330
1FA2
100
AcDbEntity
  8
0
100
AcDbBlockEnd
  0
BLOCK
  5
2063
330
2059
100
AcDbEntity
  8
0
100
AcDbBlockBegin
  2
*D3
 70
     1
 10
0.0
 20
0.0
 30
0.0
  3
*D3
  1

  0
LINE
  5
2271
330
2059
100
AcDbEntity
  8
BEM
 62
     0
370
    -2
100
AcDbLine
 10
198.7038902291463
 20
355.1379339004023
 30
0.0
 11
103.5936688281427
 21
355.1379339004023
 31
0.0
  0
LINE
  5
2272
330
2059
100
AcDbEntity
  8
BEM
 62
     0
370
    -2
100
AcDbLine
 10
148.3961598622669
 20
231.1405042043275
 30
0.0
 11
103.5936688281426
 21
231.1405042043275
 31
0.0
  0
LINE
  5
2273
330
2059
100
AcDbEntity
  8
BEM
 62
     0
370
    -2
100
AcDbLine
 10
105.5936688281426
 20
348.1379339004023
 30
0.0
 11
105.5936688281426
 21
238.1405042043275
 31
0.0
  0
SOLID
  5
2274
330
2059
100
AcDbEntity
  8
BEM
 62
     0
100
AcDbTrace
 10
104.427002161476
 20
348.1379339004023
 30
0.0
 11
106.7603354948093
 21
348.1379339004023
 31
0.0
 12
105.5936688281427
 22
355.1379339004023
 32
0.0
 13
105.5936688281427
 23
355.1379339004023
 33
0.0
  0
SOLID
  5
2275
330
2059
100
AcDbEntity
  8
BEM
 62
     0
100
AcDbTrace
 10
104.427002161476
 20
238.1405042043275
 30
0.0
 11
106.7603354948093
 21
238.1405042043275
 31
0.0
 12
105.5936688281426
 22
231.1405042043275
 32
0.0
 13
105.5936688281426
 23
231.1405042043275
 33
0.0
  0
MTEXT
  5
2276
330
2059
100
AcDbEntity
  8
BEM
 62
     1
100
AcDbMText
 10
99.09366882814261
 20
293.1392190523649
 30
0.0
 40
7.0
 41
0.0
 71
     5
 72
     1
  1
\A1;124
 11
0.0000000000000001
 21
1.0
 31
0.0
 73
     1
 44
1.0
  0
POINT
  5
2277
330
2059
100
AcDbEntity
  8
Defpoints
 62
     0
100
AcDbPoint
 10
200.7038902291463
 20
355.1379339004023
 30
0.0
  0
POINT
  5
2278
330
2059
100
AcDbEntity
  8
Defpoints
 62
     0
100
AcDbPoint
 10
150.3961598622669
 20
231.1405042043275
 30
0.0
  0
POINT
  5
2279
330
2059
100
AcDbEntity
  8
Defpoints
 62
     0
100
AcDbPoint
 10
105.5936688281426
 20
231.1405042043275
 30
0.0
  0
ENDBLK
  5
2064
330
2059
100
AcDbEntity
  8
0
100
AcDbBlockEnd
  0
BLOCK
  5
207D
330
2073
100
AcDbEntity
  8
0
100
AcDbBlockBegin
  2
*D4
 70
     1
 10
0.0
 20
0.0
 30
0.0
  3
*D4
  1

  0
LINE
  5
2268
330
2073
100
AcDbEntity
  8
BEM
 62
     0
370
    -2
100
AcDbLine
 10
132.2038902291463
 20
291.1405042043275
 30
0.0
 11
117.6235967332353
 21
291.1405042043276
 31
0.0
  0
LINE
  5
2269
330
2073
100
AcDbEntity
  8
BEM
 62
     0
370
    -2
100
AcDbLine
 10
148.3961598622669
 20
231.1405042043275
 30
0.0
 11
117.6235967332353
 21
231.1405042043275
 31
0.0
  0
LINE
  5
226A
330
2073
100
AcDbEntity
  8
BEM
 62
     0
370
    -2
100
AcDbLine
 10
119.6235967332353
 20
284.1405042043275
 30
0.0
 11
119.6235967332353
 21
238.1405042043275
 31
0.0
  0
SOLID
  5
226B
330
2073
100
AcDbEntity
  8
BEM
 62
     0
100
AcDbTrace
 10
118.4569300665686
 20
284.1405042043275
 30
0.0
 11
120.790263399902
 21
284.1405042043275
 31
0.0
 12
119.6235967332353
 22
291.1405042043276
 32
0.0
 13
119.6235967332353
 23
291.1405042043276
 33
0.0
  0
SOLID
  5
226C
330
2073
100
AcDbEntity
  8
BEM
 62
     0
100
AcDbTrace
 10
118.4569300665686
 20
238.1405042043275
 30
0.0
 11
120.790263399902
 21
238.1405042043275
 31
0.0
 12
119.6235967332353
 22
231.1405042043275
 32
0.0
 13
119.6235967332353
 23
231.1405042043275
 33
0.0
  0
MTEXT
  5
226D
330
2073
100
AcDbEntity
  8
BEM
 62
     1
100
AcDbMText
 10
113.1235967332353
 20
261.1405042043275
 30
0.0
 40
7.0
 41
0.0
 71
     5
 72
     1
  1
\A1;60
 11
0.0000000000000001
 21
1.0
 31
0.0
 73
     1
 44
1.0
  0
POINT
  5
226E
330
2073
100
AcDbEntity
  8
Defpoints
 62
     0
100
AcDbPoint
 10
134.2038902291463
 20
291.1405042043275
 30
0.0
  0
POINT
  5
226F
330
2073
100
AcDbEntity
  8
Defpoints
 62
     0
100
AcDbPoint
 10
150.3961598622669
 20
231.1405042043275
 30
0.0
  0
POINT
  5
2270
330
2073
100
AcDbEntity
  8
Defpoints
 62
     0
100
AcDbPoint
 10
119.6235967332353
 20
231.1405042043275
 30
0.0
  0
ENDBLK
  5
207E
330
2073
100
AcDbEntity
  8
0
100
AcDbBlockEnd
  0
BLOCK
  5
20AE
330
20A4
100
AcDbEntity
  8
0
100
AcDbBlockBegin
  2
*D6
 70
     1
 10
0.0
 20
0.0
 30
0.0
  3
*D6
  1

  0
LINE
  5
2283
330
20A4
100
AcDbEntity
  8
BEM
 62
     0
370
    -2
100
AcDbLine
 10
199.2896766667731
 20
356.5521474627754
 30
0.0
 11
140.6985917429607
 21
415.1432323865877
 31
0.0
  0
LINE
  5
2284
330
20A4
100
AcDbEntity
  8
BEM
 62
     0
370
    -2
100
AcDbLine
 10
239.9447452475312
 20
491.2524179413447
 30
0.0
 11
228.3762612726244
 21
502.8209019162515
 31
0.0
  0
LINE
  5
2285
330
20A4
100
AcDbEntity
  8
BEM
 62
     0
370
    -2
100
AcDbLine
 10
147.0625527736396
 20
418.6787662925204
 30
0.0
 11
224.8407273666916
 21
496.4569408855726
 31
0.0
  0
SOLID
  5
2286
330
20A4
100
AcDbEntity
  8
BEM
 62
     0
100
AcDbTrace
 10
146.2375948622553
 20
419.5037242039047
 30
0.0
 11
147.8875106850239
 21
417.8538083811361
 31
0.0
 12
142.1128053053338
 22
413.7290188242146
 32
0.0
 13
142.1128053053338
 23
413.7290188242146
 33
0.0
  0
SOLID
  5
2287
330
20A4
100
AcDbEntity
  8
BEM
 62
     0
100
AcDbTrace
 10
224.0157694553073
 20
497.2818987969568
 30
0.0
 11
225.6656852780759
 21
495.6319829741882
 31
0.0
 12
229.7904748349974
 22
501.4066883538784
 32
0.0
 13
229.7904748349974
 23
501.4066883538784
 33
0.0
  0
MTEXT
  5
2288
330
20A4
100
AcDbEntity
  8
BEM
 62
     1
100
AcDbMText
 10
181.3554459924531
 20
462.1640476667591
 30
0.0
 40
7.0
 41
0.0
 71
     5
 72
     1
  1
\A1;124
 11
0.7071067811865469
 21
0.7071067811865484
 31
0.0
 73
     1
 44
1.0
  0
POINT
  5
2289
330
20A4
100
AcDbEntity
  8
Defpoints
 62
     0
100
AcDbPoint
 10
200.7038902291463
 20
355.1379339004023
 30
0.0
  0
POINT
  5
228A
330
20A4
100
AcDbEntity
  8
Defpoints
 62
     0
100
AcDbPoint
 10
241.3589588099043
 20
489.8382043789715
 30
0.0
  0
POINT
  5
228B
330
20A4
100
AcDbEntity
  8
Defpoints
 62
     0
100
AcDbPoint
 10
229.7904748349974
 20
501.4066883538784
 30
0.0
  0
ENDBLK
  5
20AF
330
20A4
100
AcDbEntity
  8
0
100
AcDbBlockEnd
  0
ENDSEC
  0
SECTION
  2
ENTITIES
  0
LINE
  5
57
330
1E
100
AcDbEntity
  8
STEMPEL
100
AcDbLine
 10
410.0
 20
110.0
 30
0.0
 11
39.99999999999997
 21
110.0
 31
0.0
  0
LINE
  5
58
330
1E
100
AcDbEntity
  8
STEMPEL
100
AcDbLine
 10
146.0000000000001
 20
109.9999999999999
 30
0.0
 11
146.0
 21
9.999999999999971
 31
0.0
  0
LINE
  5
59
330
1E
100
AcDbEntity
  8
STEMPEL
100
AcDbLine
 10
230.0
 20
110.0
 30
0.0
 11
230.0
 21
9.999999999999971
 31
0.0
  0
LINE
  5
5A
330
1E
100
AcDbEntity
  8
STEMPEL
100
AcDbLine
 10
332.0
 20
109.9999999999997
 30
0.0
 11
332.0
 21
40.0
 31
0.0
  0
LINE
  5
5B
330
1E
100
AcDbEntity
  8
STEMPEL
100
AcDbLine
 10
145.9999999999999
 20
29.99999999999997
 30
0.0
 11
39.99999999999997
 21
29.99999999999997
 31
0.0
  0
LINE
  5
5C
330
1E
100
AcDbEntity
  8
STEMPEL
100
AcDbLine
 10
410.0
 20
40.0
 30
0.0
 11
146.0000000000001
 21
39.99999999999997
 31
0.0
  0
LINE
  5
5D
330
1E
100
AcDbEntity
  8
STEMPEL
100
AcDbLine
 10
410.0
 20
80.0
 30
0.0
 11
146.0000000000001
 21
79.99999999999994
 31
0.0
  0
LINE
  5
5E
330
1E
100
AcDbEntity
  8
VOLL
100
AcDbLine
 10
54.00000000000009
 20
110.0
 30
0.0
 11
53.99999999999997
 21
9.999999999999971
 31
0.0
  0
LINE
  5
5F
330
1E
100
AcDbEntity
  8
VOLL
100
AcDbLine
 10
104.0000000000001
 20
109.9999999999999
 30
0.0
 11
104.0
 21
9.999999999999971
 31
0.0
  0
LINE
  5
60
330
1E
100
AcDbEntity
  8
VOLL
100
AcDbLine
 10
124.0000000000001
 20
109.9999999999999
 30
0.0
 11
124.0
 21
9.999999999999971
 31
0.0
  0
LINE
  5
61
330
1E
100
AcDbEntity
  8
VOLL
100
AcDbLine
 10
164.0000000000001
 20
79.99999999999994
 30
0.0
 11
164.0000000000001
 21
39.99999999999997
 31
0.0
  0
LINE
  5
62
330
1E
100
AcDbEntity
  8
VOLL
100
AcDbLine
 10
190.0000000000001
 20
109.9999999999998
 30
0.0
 11
190.0
 21
39.99999999999997
 31
0.0
  0
LINE
  5
63
330
1E
100
AcDbEntity
  8
HILF
100
AcDbLine
 10
40.00000000000008
 20
100.0
 30
0.0
 11
146.0000000000001
 21
100.0
 31
0.0
  0
LINE
  5
64
330
1E
100
AcDbEntity
  8
HILF
100
AcDbLine
 10
40.00000000000008
 20
90.00000000000005
 30
0.0
 11
146.0000000000001
 21
90.00000000000005
 31
0.0
  0
LINE
  5
65
330
1E
100
AcDbEntity
  8
HILF
100
AcDbLine
 10
40.00000000000008
 20
79.99999999999994
 30
0.0
 11
146.0000000000001
 21
79.99999999999994
 31
0.0
  0
LINE
  5
66
330
1E
100
AcDbEntity
  8
HILF
100
AcDbLine
 10
40.00000000000008
 20
69.99999999999994
 30
0.0
 11
146.0000000000001
 21
69.99999999999994
 31
0.0
  0
LINE
  5
67
330
1E
100
AcDbEntity
  8
HILF
100
AcDbLine
 10
40.00000000000008
 20
59.99999999999997
 30
0.0
 11
146.0000000000001
 21
59.99999999999997
 31
0.0
  0
LINE
  5
68
330
1E
100
AcDbEntity
  8
HILF
100
AcDbLine
 10
40.00000000000008
 20
49.99999999999997
 30
0.0
 11
146.0000000000001
 21
49.99999999999997
 31
0.0
  0
LINE
  5
69
330
1E
100
AcDbEntity
  8
HILF
100
AcDbLine
 10
40.00000000000008
 20
39.99999999999997
 30
0.0
 11
146.0000000000001
 21
39.99999999999997
 31
0.0
  0
LINE
  5
6A
330
1E
100
AcDbEntity
  8
HILF
100
AcDbLine
 10
146.0000000000001
 20
69.99999999999994
 30
0.0
 11
230.0
 21
69.99999999999994
 31
0.0
  0
LINE
  5
6B
330
1E
100
AcDbEntity
  8
HILF
100
AcDbLine
 10
146.0000000000001
 20
59.99999999999997
 30
0.0
 11
230.0
 21
59.99999999999997
 31
0.0
  0
LINE
  5
6C
330
1E
100
AcDbEntity
  8
HILF
100
AcDbLine
 10
146.0000000000001
 20
49.99999999999997
 30
0.0
 11
230.0
 21
49.99999999999997
 31
0.0
  0
LINE
  5
6D
330
1E
100
AcDbEntity
  8
HILF
100
AcDbLine
 10
234.7736801096947
 20
84.03758247564139
 30
0.0
 11
324.8353916556311
 21
84.03758247564139
 31
0.0
  0
LINE
  5
6E
330
1E
100
AcDbEntity
  8
HILF
100
AcDbLine
 10
234.7736801096947
 20
69.99999999999994
 30
0.0
 11
324.835391655631
 21
69.99999999999994
 31
0.0
  0
LINE
  5
6F
330
1E
100
AcDbEntity
  8
HILF
100
AcDbLine
 10
234.7736801096947
 20
59.99999999999997
 30
0.0
 11
324.835391655631
 21
59.99999999999997
 31
0.0
  0
LINE
  5
70
330
1E
100
AcDbEntity
  8
HILF
100
AcDbLine
 10
234.7736801096947
 20
49.99999999999997
 30
0.0
 11
324.835391655631
 21
49.99999999999997
 31
0.0
  0
LINE
  5
71
330
1E
100
AcDbEntity
  8
VOLL
100
AcDbLine
 10
332.0
 20
60.0
 30
0.0
 11
410.0
 21
60.0
 31
0.0
  0
LINE
  5
72
330
1E
100
AcDbEntity
  8
HILF
100
AcDbLine
 10
336.7238616296993
 20
83.77983636955827
 30
0.0
 11
404.8588839326728
 21
83.77983636955827
 31
0.0
  0
LINE
  5
73
330
1E
100
AcDbEntity
  8
HILF
100
AcDbLine
 10
233.4909699289885
 20
14.89398258028314
 30
0.0
 11
404.8588839326728
 21
14.89398258028314
 31
0.0
  0
TEXT
  5
74
330
1E
100
AcDbEntity
  8
TEXT
100
AcDbText
 10
67.79509897490102
 20
18.67381894984132
 30
0.0
 40
4.0
  1
Änderung
 41
0.8
  7
GREEKS
 72
     1
 11
78.53795611775817
 21
18.67381894984132
 31
0.0
100
AcDbText
  0
TEXT
  5
75
330
1E
100
AcDbEntity
  8
TEXT
100
AcDbText
 10
153.5163572150377
 20
102.4620895087088
 30
0.0
 40
5.0
  1
Maßstab
 41
0.8
  7
GREEKS
100
AcDbText
  0
TEXT
  5
76
330
1E
100
AcDbEntity
  8
TEXT
100
AcDbText
 10
194.2858954734051
 20
102.4184168434819
 30
0.0
 40
5.0
  1
Zul. Abw.
 41
0.8
  7
GREEKS
100
AcDbText
  0
TEXT
  5
77
330
1E
100
AcDbEntity
  8
TEXT
100
AcDbText
 10
234.877940380901
 20
102.5489328011779
 30
0.0
 40
5.0
  1
Benennung
 41
0.8
  7
GREEKS
100
AcDbText
  0
TEXT
  5
78
330
1E
100
AcDbEntity
  8
TEXT
100
AcDbText
 10
336.178754957634
 20
102.3132034537136
 30
0.0
 40
5.0
  1
Zeichnungs Nr.
 41
0.8
  7
GREEKS
100
AcDbText
  0
TEXT
  5
79
330
1E
100
AcDbEntity
  8
TEXT
100
AcDbText
 10
234.742238391136
 20
30.84560570193057
 30
0.0
 40
5.0
  1
Bauvorhaben
 41
0.8
  7
GREEKS
100
AcDbText
  0
TEXT
  5
7A
330
1E
100
AcDbEntity
  8
TEXT
100
AcDbText
 10
336.7238616296993
 20
73.1811823709997
 30
0.0
 40
5.0
  1
Ersatz für:
 41
0.8
  7
GREEKS
100
AcDbText
  0
TEXT
  5
7B
330
1E
100
AcDbEntity
  8
TEXT
100
AcDbText
 10
48.26641107045756
 20
13.65465846027192
 30
0.0
 40
4.0
  1
Index
 50
90.0
 41
0.8
  7
GREEKS
100
AcDbText
  0
TEXT
  5
7C
330
1E
100
AcDbEntity
  8
TEXT
100
AcDbText
 10
110.6986119235389
 20
18.6715626933981
 30
0.0
 40
4.0
  1
Tag
 41
0.8
  7
GREEKS
 72
     1
 11
114.4319452568723
 21
18.6715626933981
 31
0.0
100
AcDbText
  0
TEXT
  5
7D
330
1E
100
AcDbEntity
  8
TEXT
100
AcDbText
 10
129.0122744386592
 20
18.59324216966408
 30
0.0
 40
4.0
  1
Name
 41
0.8
  7
GREEKS
 72
     1
 11
135.3360839624688
 21
18.59324216966408
 31
0.0
100
AcDbText
  0
TEXT
  5
7E
330
1E
100
AcDbEntity
  8
TEXT
100
AcDbText
 10
172.331167315365
 20
73.31880501229926
 30
0.0
 40
4.0
  1
Tag
 41
0.8
  7
GREEKS
100
AcDbText
  0
TEXT
  5
7F
330
1E
100
AcDbEntity
  8
TEXT
100
AcDbText
 10
202.4626584226295
 20
73.30961091915225
 30
0.0
 40
4.0
  1
Name
 41
0.8
  7
GREEKS
100
AcDbText
  0
TEXT
  5
80
330
1E
100
AcDbEntity
  8
TEXT
100
AcDbText
 10
147.5836127167615
 20
63.62990369617964
 30
0.0
 40
4.0
  1
Gez.
 41
0.8
  7
GREEKS
100
AcDbText
  0
TEXT
  5
81
330
1E
100
AcDbEntity
  8
TEXT
100
AcDbText
 10
147.5515086571672
 20
53.68926291428377
 30
0.0
 40
4.0
  1
Gepr.
 41
0.8
  7
GREEKS
100
AcDbText
  0
TEXT
  5
82
330
1E
100
AcDbEntity
  8
TEXT
100
AcDbText
 10
147.6006777387303
 20
43.52946389649807
 30
0.0
 40
4.0
  1
Norm.
 41
0.8
  7
GREEKS
100
AcDbText
  0
LINE
  5
83
330
1E
100
AcDbEntity
  8
STEMPEL
100
AcDbLine
 10
49.99999999999989
 20
10.0
 30
0.0
 11
410.0
 21
10.0
 31
0.0
  0
TEXT
  5
84
330
1E
100
AcDbEntity
  8
TEXT
100
AcDbText
 10
337.2400861497006
 20
52.07416177878602
 30
0.0
 40
5.0
  1
ersetzt durch:
 41
0.8
  7
GREEKS
100
AcDbText
  0
LINE
  5
85
330
1E
100
AcDbEntity
  8
STEMPEL
100
AcDbLine
 10
410.0
 20
10.0
 30
0.0
 11
39.99999999999989
 21
10.0
 31
0.0
  0
LINE
  5
86
330
1E
100
AcDbEntity
  8
STEMPEL
100
AcDbLine
 10
410.0
 20
10.0
 30
0.0
 11
410.0
 21
584.0
 31
0.0
  0
LINE
  5
87
330
1E
100
AcDbEntity
  8
STEMPEL
100
AcDbLine
 10
40.0
 20
10.0
 30
0.0
 11
39.99999999999989
 21
584.0
 31
0.0
  0
LINE
  5
88
330
1E
100
AcDbEntity
  8
STEMPEL
100
AcDbLine
 10
410.0
 20
584.0
 30
0.0
 11
39.99999999999989
 21
584.0
 31
0.0
  0
LINE
  5
89
330
1E
100
AcDbEntity
  8
HILF
100
AcDbLine
 10
0.0
 20
0.0
 30
0.0
 11
-0.0000000000001137
 21
594.0
 31
0.0
  0
LINE
  5
8A
330
1E
100
AcDbEntity
  8
HILF
100
AcDbLine
 10
419.9999999999999
 20
594.0000000000002
 30
0.0
 11
0.0
 21
594.0
 31
0.0
  0
LINE
  5
8B
330
1E
100
AcDbEntity
  8
HILF
100
AcDbLine
 10
420.0
 20
0.0
 30
0.0
 11
0.0
 21
0.0
 31
0.0
  0
LINE
  5
8C
330
1E
100
AcDbEntity
  8
HILF
100
AcDbLine
 10
31.08767135713856
 20
297.0
 30
0.0
 11
0.0000000000001137
 21
297.0
 31
0.0
  0
LINE
  5
8E
330
1E
100
AcDbEntity
  8
HILF
100
AcDbLine
 10
420.0
 20
-0.0000000000001137
 30
0.0
 11
419.9999999999999
 21
594.0
 31
0.0
  0
TEXT
  5
8F
330
1E
100
AcDbEntity
  8
VOLL
100
AcDbText
 10
78.07675471698113
 20
31.02594776470585
 30
0.0
 40
1.8
  1

  7
GREEKS
100
AcDbText
  0
TEXT
  5
90
330
1E
100
AcDbEntity
  8
TEXT
100
AcDbText
 10
41.85509950977674
 20
111.6719999999999
 30
0.0
 40
5.0
  1
Erstellt mit AUTOCAD 2004
 41
0.8
  7
GREEKS
100
AcDbText
  0
TEXT
  5
91
330
1E
100
AcDbEntity
  8
TEXT
100
AcDbText
 10
204.4216048581257
 20
63.0896391972351
 30
0.0
 40
4.0
  1
Koeh
 41
0.8
  7
GREEKS
 72
     1
 11
209.6787477152686
 21
63.0896391972351
 31
0.0
100
AcDbText
  0
TEXT
  5
92
330
1E
100
AcDbEntity
  8
TEXT
 62
     1
100
AcDbText
 10
347.3097540684081
 20
88.14901428913959
 30
0.0
 40
7.0
  1
58032100W
 41
0.8
  7
GREEKS
 72
     1
 11
370.7764207350748
 21
88.14901428913959
 31
0.0
100
AcDbText
  0
TEXT
  5
93
330
1E
100
AcDbEntity
  8
TEXT
 62
     1
100
AcDbText
 10
160.5006306481887
 20
88.14901428913959
 30
0.0
 40
7.0
  1
1:2
 41
0.8
  7
GREEKS
100
AcDbText
  0
TEXT
  5
95
330
1E
100
AcDbEntity
  8
TEXT
 62
     1
100
AcDbText
 10
236.8935731057402
 20
87.41748789253779
 30
0.0
 40
7.0
  1
Verbundrohr DN100
 41
0.8
  7
GREEKS
100
AcDbText
  0
TEXT
  5
98
330
1E
100
AcDbEntity
  8
TEXT
100
AcDbText
 10
235.1296391125315
 20
51.64011943042158
 30
0.0
 40
5.0
  1
EDV-Art.Nr. 58032.100X
 41
0.8
  7
GREEKS
100
AcDbText
  0
TEXT
  5
99
330
1E
100
AcDbEntity
  8
TEXT
100
AcDbText
 10
234.9837501577827
 20
42.62974153022632
 30
0.0
 40
4.0
  1
58032100W.DWG
 41
0.8
  7
GREEKS
100
AcDbText
  0
TEXT
  5
9A
330
1E
100
AcDbEntity
  8
TEXT
100
AcDbText
 10
192.626132208084
 20
90.76363841023022
 30
0.0
 40
4.0
  1
DIN EN1123-2
 41
0.8
  7
GREEKS
 72
     1
 11
209.6166083985602
 21
90.76363841023022
 31
0.0
100
AcDbText
  0
INSERT
  5
9B
330
1E
100
AcDbEntity
  8
STEMPEL
100
AcDbBlockReference
  2
LOGO
 10
150.9955485457794
 20
45.02105276448322
 30
0.0
 41
2.0
 42
2.0
 43
2.0
  0
TEXT
  5
2C0
330
1E
100
AcDbEntity
  8
BEM
100
AcDbText
 10
417.3022923857165
 20
10.16790107998861
 30
0.0
 40
4.0
  1
Diese Zeichnung ist urheberrechtlich geschützt und bleibt unser Eigentum. Sie darf weder ganz noch teilweise verfielfältigt und nicht an Dritte weitergegeben werden.
 50
90.0
 41
0.8
  7
GREEKS
100
AcDbText
  0
TEXT
  5
77A
330
1E
100
AcDbEntity
  8
TEXT
100
AcDbText
 10
235.1296391125315
 20
71.64011943042154
 30
0.0
 40
5.0
  1
Bogen 45°
 41
0.8
  7
GREEKS
100
AcDbText
  0
TEXT
  5
78C
330
1E
100
AcDbEntity
  8
TEXT
 62
     1
100
AcDbText
 10
255.030129115258
 20
129.7422179729062
 30
0.0
 40
7.0
  1
und innenbeschichtet
 41
0.8
  7
GREEKS
100
AcDbText
  0
TEXT
  5
78D
330
1E
100
AcDbEntity
  8
TEXT
 62
     1
100
AcDbText
 10
203.0317247605451
 20
117.1473825875242
 30
0.0
 40
7.0
  1
Dämmung: 2 K-PU-Schaum
 41
0.8
  7
GREEKS
100
AcDbText
  0
TEXT
  5
78E
330
1E
100
AcDbEntity
  8
TEXT
 62
     1
100
AcDbText
 10
207.3756002392443
 20
141.011271812132
 30
0.0
 40
7.0
  1
Innenrohr: E195 EN10305 feuerverzinkt
 41
0.8
  7
GREEKS
100
AcDbText
  0
TEXT
  5
78F
330
1E
100
AcDbEntity
  8
TEXT
 62
     1
100
AcDbText
 10
203.6033828683802
 20
152.364339848487
 30
0.0
 40
7.0
  1
Außenrohr: E195 EN10305 feuerverzinkt
 41
0.8
  7
GREEKS
100
AcDbText
  0
HATCH
  5
1E62
330
1E
100
AcDbEntity
  8
SCHRAFF
100
AcDbHatch
 10
0.0
 20
0.0
 30
0.0
210
0.0
220
0.0
230
1.0
  2
_USER
 70
     0
 71
     0
 91
        1
 92
        7
 72
     1
 73
     1
 93
        3
 10
259.3901817301614
 20
341.6993337203899
 42
0.0
 10
257.2688613866018
 20
339.5780133768302
 42
0.0396603450432839
 10
255.3160707241649
 20
337.2881633521477
 42
0.4668457183924206
 97
        0
 75
     0
 76
     0
 52
42.00000000000001
 41
0.1
 77
     0
 78
     1
 53
42.00000000000001
 43
326.7413874256243
 44
-90.35757899418603
 45
-0.0669130606358859
 46
0.0743144825477394
 79
     0
 47
0.0375630882859892
 98
        1
 10
257.7853051387583
 20
339.649664075778
  0
ARC
  5
1E63
102
{ACAD_REACTORS
330
21BA
102
}
330
1E
100
AcDbEntity
  8
SCHRAFF
100
AcDbCircle
 10
255.505739586231
 20
341.199975595722
 30
0.0
 40
3.916407704288974
100
AcDbArc
 50
267.2241200089069
 51
7.325388752822474
  0
HATCH
  5
1E64
330
1E
100
AcDbEntity
  8
SCHRAFF
100
AcDbHatch
 10
0.0
 20
0.0
 30
0.0
210
0.0
220
0.0
230
1.0
  2
_USER
 70
     0
 71
     0
 91
        1
 92
        7
 72
     1
 73
     1
 93
        3
 10
183.0489507642143
 20
409.5552833120986
 42
-0.0061990617211105
 10
185.143969705574
 20
411.702905057858
 42
0.0
 10
187.2652900491337
 20
413.8242254014177
 42
0.517914794332429
 97
        0
 75
     0
 76
     0
 52
42.00000000000001
 41
0.1
 77
     0
 78
     1
 53
42.00000000000001
 43
326.7413874256243
 44
-90.35757899418603
 45
-0.0669130606358859
 46
0.0743144825477394
 79
     0
 47
0.0369692041059943
 98
        1
 10
185.5846346024511
 20
412.7744798580907
  0
ARC
  5
1E65
102
{ACAD_REACTORS
330
21BA
102
}
330
1E
100
AcDbEntity
  8
SCHRAFF
100
AcDbCircle
 10
186.665022530714
 20
410.2004329205851
 30
0.0
 40
3.673172067547026
100
AcDbArc
 50
80.59457440321974
 51
190.1158039427672
  0
LINE
  5
1E6F
102
{ACAD_REACTORS
330
20FB
330
2145
102
}
330
1E
100
AcDbEntity
  8
STEMPEL
100
AcDbLine
 10
185.143969705574
 20
411.702905057858
 30
0.0
 11
257.2688613866019
 21
339.5780133768302
 31
0.0
  0
ARC
  5
1E70
102
{ACAD_REACTORS
330
20FB
330
21BA
102
}
330
1E
100
AcDbEntity
  8
STEMPEL
100
AcDbCircle
 10
270.7038902291463
 20
326.1429845342858
 30
0.0
 40
19.0
100
AcDbArc
 50
135.0
 51
180.0
  0
ARC
  5
1E71
102
{ACAD_REACTORS
330
20FB
330
21BA
102
}
330
1E
100
AcDbEntity
  8
STEMPEL
100
AcDbCircle
 10
270.7038902291463
 20
326.1429845342858
 30
0.0
 40
121.0
100
AcDbArc
 50
135.0
 51
180.0000000000001
  0
ARC
  5
1E72
330
1E
100
AcDbEntity
  8
MITTEL
100
AcDbCircle
 10
270.7038902291463
 20
326.1429845342858
 30
0.0
 40
70.0
100
AcDbArc
 50
135.0
 51
180.0
  0
TEXT
  5
1E8D
330
1E
100
AcDbEntity
  8
VOLL
100
AcDbText
 10
253.3059884565535
 20
427.4853411048393
 30
0.0
 40
7.0
  1
DN100
 50
45.0
 41
0.8
  7
GREEKS
100
AcDbText
  0
LINE
  5
1E8E
330
1E
100
AcDbEntity
  8
MITTEL
100
AcDbLine
 10
200.7038902291463
 20
355.1379339004023
 30
0.0
 11
200.7038902291463
 21
226.1405042043275
 31
0.0
  0
LINE
  5
1E8F
330
1E
100
AcDbEntity
  8
MITTEL
100
AcDbLine
 10
291.6147916069656
 20
446.0488352782218
 30
0.0
 11
200.7038902291463
 21
355.1379339004023
 31
0.0
  0
TEXT
  5
1E90
330
1E
100
AcDbEntity
  8
TEXT
 62
     1
100
AcDbText
 10
269.3968606696117
 20
207.5698074149157
 30
0.0
 40
7.0
  1
Rohrende leicht eingezogen
 41
0.8
  7
GREEKS
100
AcDbText
  0
LINE
  5
1F08
330
1E
100
AcDbEntity
  8
HILF
100
AcDbLine
 10
153.711529904233
 20
239.1405042043275
 30
0.0
 11
247.6962505540596
 21
239.1405042043274
 31
0.0
  0
LINE
  5
1F09
102
{ACAD_REACTORS
330
20FB
102
}
330
1E
100
AcDbEntity
  8
STEMPEL
100
AcDbLine
 10
150.3961598622669
 20
231.1405042043275
 30
0.0
 11
251.0116205960256
 21
231.1405042043275
 31
0.0
  0
DIMENSION
  5
1F0A
330
1E
100
AcDbEntity
  8
BEM
100
AcDbDimension
  2
*D1
 10
251.7038902291463
 20
210.9970083017827
 30
0.0
 11
200.7038902291463
 21
217.4970083017827
 31
0.0
 70
    32
  1
%%c<>
 71
     5
 42
101.9999999999999
  3
Standard
100
AcDbAlignedDimension
 13
149.7038902291464
 23
239.0531823185081
 33
0.0
 14
251.7038902291463
 24
239.0531823185081
 34
0.0
100
AcDbRotatedDimension
1001
ACAD
1000
DSTYLE
1002
{
1070
    40
1040
2.0
1070
    41
1040
3.5
1070
    42
1040
1.0
1070
    43
1040
7.0
1070
    44
1040
1.0
1070
    73
1070
     0
1070
    74
1070
     0
1070
    77
1070
     1
1070
    78
1070
     8
1070
    79
1070
     2
1070
   140
1040
3.5
1070
   141
1040
1.5
1070
   146
1040
0.5142857142857144
1070
   147
1040
1.5
1070
   172
1070
     1
1070
   178
1070
     1
1070
   179
1070
     2
1070
   271
1070
     2
1070
   272
1070
     2
1070
   284
1070
     8
1070
   285
1070
     8
1070
   286
1070
     8
1070
   289
1070
     0
1070
   340
1005
24
1002
}
  0
LINE
  5
1F0B
102
{ACAD_REACTORS
330
20FB
102
}
330
1E
100
AcDbEntity
  8
STEMPEL
100
AcDbLine
 10
151.7038902291463
 20
239.1405042043275
 30
0.0
 11
152.4037995373537
 21
231.1405042043275
 31
0.0
  0
LINE
  5
1F0C
102
{ACAD_REACTORS
330
20FB
102
}
330
1E
100
AcDbEntity
  8
STEMPEL
100
AcDbLine
 10
149.7038902291464
 20
239.0531823185081
 30
0.0
 11
150.3961598622669
 21
231.1405042043275
 31
0.0
  0
LINE
  5
1F0D
102
{ACAD_REACTORS
330
20FB
102
}
330
1E
100
AcDbEntity
  8
STEMPEL
100
AcDbLine
 10
251.7038902291463
 20
239.0531823185081
 30
0.0
 11
251.0116205960258
 21
231.1405042043274
 31
0.0
  0
LINE
  5
1F0E
102
{ACAD_REACTORS
330
20FB
102
}
330
1E
100
AcDbEntity
  8
STEMPEL
100
AcDbLine
 10
249.7038902291463
 20
239.1405042043274
 30
0.0
 11
249.003980920939
 21
231.1405042043274
 31
0.0
  0
LINE
  5
1F0F
102
{ACAD_REACTORS
330
20FB
102
}
330
1E
100
AcDbEntity
  8
STEMPEL
100
AcDbLine
 10
249.7038902291463
 20
326.1429845342858
 30
0.0
 11
249.7038902291463
 21
239.1405042043274
 31
0.0
  0
LINE
  5
1F10
102
{ACAD_REACTORS
330
20FB
330
21BA
102
}
330
1E
100
AcDbEntity
  8
STEMPEL
100
AcDbLine
 10
251.7038902291463
 20
326.1429845342858
 30
0.0
 11
251.7038902291463
 21
239.0531823185081
 31
0.0
  0
LINE
  5
1F11
102
{ACAD_REACTORS
330
20FB
102
}
330
1E
100
AcDbEntity
  8
STEMPEL
100
AcDbLine
 10
151.7038902291464
 20
326.142984534286
 30
0.0
 11
151.7038902291463
 21
239.1405042043275
 31
0.0
  0
LINE
  5
1F12
102
{ACAD_REACTORS
330
20FB
330
21BA
102
}
330
1E
100
AcDbEntity
  8
STEMPEL
100
AcDbLine
 10
149.7038902291464
 20
326.1429845342856
 30
0.0
 11
149.7038902291464
 21
239.0531823185081
 31
0.0
  0
LINE
  5
1F14
102
{ACAD_REACTORS
330
2112
102
}
330
1E
100
AcDbEntity
  8
STEMPEL
100
AcDbLine
 10
134.2038902291464
 20
291.1405042043275
 30
0.0
 11
136.7038902291463
 21
291.1405042043274
 31
0.0
  0
LINE
  5
1F16
330
1E
100
AcDbEntity
  8
STEMPEL
100
AcDbLine
 10
149.7038902291462
 20
297.1405042043275
 30
0.0
 11
144.7038902291463
 21
297.1405042043275
 31
0.0
  0
LINE
  5
1F17
102
{ACAD_REACTORS
330
21BA
102
}
330
1E
100
AcDbEntity
  8
STEMPEL
100
AcDbLine
 10
149.7038902291462
 20
308.6405042043274
 30
0.0
 11
138.2038902291464
 21
308.6405042043275
 31
0.0
  0
LINE
  5
1F18
102
{ACAD_REACTORS
330
21BA
102
}
330
1E
100
AcDbEntity
  8
STEMPEL
100
AcDbLine
 10
136.7038902291463
 20
307.1405042043275
 30
0.0
 11
138.2038902291464
 21
308.6405042043275
 31
0.0
  0
LINE
  5
1F19
102
{ACAD_REACTORS
330
2112
102
}
330
1E
100
AcDbEntity
  8
STEMPEL
100
AcDbLine
 10
267.2038902291463
 20
291.1405042043274
 30
0.0
 11
264.7038902291464
 21
291.1405042043274
 31
0.0
  0
LINE
  5
1F1B
330
1E
100
AcDbEntity
  8
STEMPEL
100
AcDbLine
 10
256.7038902291463
 20
297.1405042043275
 30
0.0
 11
251.7038902291463
 21
297.1405042043275
 31
0.0
  0
LINE
  5
1F1C
102
{ACAD_REACTORS
330
21BA
102
}
330
1E
100
AcDbEntity
  8
STEMPEL
100
AcDbLine
 10
263.2038902291462
 20
308.6405042043275
 30
0.0
 11
251.7038902291463
 21
308.6405042043275
 31
0.0
  0
LINE
  5
1F1D
102
{ACAD_REACTORS
330
21BA
102
}
330
1E
100
AcDbEntity
  8
STEMPEL
100
AcDbLine
 10
264.7038902291463
 20
307.1405042043275
 30
0.0
 11
263.2038902291462
 21
308.6405042043275
 31
0.0
  0
LINE
  5
1F1E
102
{ACAD_REACTORS
330
20DC
330
2112
102
}
330
1E
100
AcDbEntity
  8
STEMPEL
100
AcDbLine
 10
267.2038902291466
 20
327.5927320025922
 30
0.0
 11
267.2038902291463
 21
289.140504204327
 31
0.0
  0
LINE
  5
1F1F
102
{ACAD_REACTORS
330
2112
330
21BA
102
}
330
1E
100
AcDbEntity
  8
STEMPEL
100
AcDbLine
 10
264.7038902291464
 20
328.6282659085244
 30
0.0
 11
264.7038902291464
 21
291.1405042043274
 31
0.0
  0
LINE
  5
1F20
102
{ACAD_REACTORS
330
20DC
330
2112
102
}
330
1E
100
AcDbEntity
  8
STEMPEL
100
AcDbLine
 10
134.2038902291464
 20
382.6831357982137
 30
0.0
 11
134.2038902291462
 21
289.1405042043274
 31
0.0
  0
LINE
  5
1F21
102
{ACAD_REACTORS
330
2112
330
21BA
102
}
330
1E
100
AcDbEntity
  8
STEMPEL
100
AcDbLine
 10
136.7038902291464
 20
381.6476018922809
 30
0.0
 11
136.7038902291463
 21
291.1405042043275
 31
0.0
  0
LINE
  5
1F63
102
{ACAD_REACTORS
330
20DC
330
2158
102
}
330
1E
100
AcDbEntity
  8
STEMPEL
100
AcDbLine
 10
335.4041607077153
 20
395.7930024811604
 30
0.0
 11
267.2038902291466
 21
327.5927320025922
 31
0.0
  0
LINE
  5
1F64
102
{ACAD_REACTORS
330
2158
330
218E
330
21BA
102
}
330
1E
100
AcDbEntity
  8
STEMPEL
100
AcDbLine
 10
333.6363937547487
 20
397.5607694341269
 30
0.0
 11
264.7038902291464
 21
328.6282659085244
 31
0.0
  0
LINE
  5
1F65
102
{ACAD_REACTORS
330
2145
102
}
330
1E
100
AcDbEntity
  8
STEMPEL
100
AcDbLine
 10
269.2656403254645
 20
354.403219440439
 30
0.0
 11
255.8546478242287
 21
340.9922269392032
 31
0.0
  0
LINE
  5
1F66
102
{ACAD_REACTORS
330
2145
330
21BA
102
}
330
1E
100
AcDbEntity
  8
STEMPEL
100
AcDbLine
 10
270.6798538878376
 20
352.9890058780659
 30
0.0
 11
257.2688613866016
 21
339.5780133768302
 31
0.0
  0
LINE
  5
1F67
330
1E
100
AcDbEntity
  8
HILF
100
AcDbLine
 10
203.2083462561969
 20
424.6308017908484
 30
0.0
 11
270.1967581195922
 21
357.642389927453
 31
0.0
  0
LINE
  5
1F68
330
1E
100
AcDbEntity
  8
HILF
100
AcDbLine
 10
276.6466970472508
 20
359.9310907329923
 30
0.0
 11
205.4970470617358
 21
431.0807407185071
 31
0.0
  0
LINE
  5
1F69
330
1E
100
AcDbEntity
  8
HILF
100
AcDbLine
 10
220.8073384988412
 20
447.8451245904063
 30
0.0
 11
293.4110809191501
 21
375.2413821700973
 31
0.0
  0
LINE
  5
1F6B
102
{ACAD_REACTORS
330
2145
330
2158
330
218E
102
}
330
1E
100
AcDbEntity
  8
STEMPEL
100
AcDbLine
 10
241.3589588099043
 20
489.8382043789715
 30
0.0
 11
335.4041607077153
 21
395.7930024811604
 31
0.0
  0
DIMENSION
  5
1F6C
330
1E
100
AcDbEntity
  8
BEM
100
AcDbDimension
  2
*D2
 10
345.2163453128461
 20
405.6051870862914
 30
0.0
 11
302.7899384416528
 21
457.2239821129093
 31
0.0
 70
    32
  1
%%c<>
 71
     5
 42
133.0000000000003
  3
Standard
100
AcDbAlignedDimension
 13
241.3589588099043
 23
489.8382043789715
 33
0.0
 14
335.4041607077153
 24
395.7930024811604
 34
0.0
 50
315.0000000000003
100
AcDbRotatedDimension
1001
ACAD
1000
DSTYLE
1002
{
1070
    40
1040
2.0
1070
    41
1040
3.5
1070
    42
1040
1.0
1070
    43
1040
7.0
1070
    44
1040
1.0
1070
    73
1070
     0
1070
    74
1070
     0
1070
    77
1070
     1
1070
    78
1070
     8
1070
    79
1070
     2
1070
   140
1040
3.5
1070
   141
1040
1.5
1070
   146
1040
0.5142857142857144
1070
   147
1040
1.5
1070
   172
1070
     1
1070
   178
1070
     1
1070
   179
1070
     2
1070
   271
1070
     2
1070
   272
1070
     2
1070
   284
1070
     8
1070
   285
1070
     8
1070
   286
1070
     8
1070
   289
1070
     0
1070
   340
1005
24
1002
}
  0
ARC
  5
1F6D
102
{ACAD_REACTORS
330
2145
102
}
330
1E
100
AcDbEntity
  8
STEMPEL
100
AcDbCircle
 10
290.667635982386
 20
397.0184185329567
 30
0.0
 40
23.0
100
AcDbArc
 50
288.2112018947927
 51
315.0
  0
ARC
  5
1F6E
102
{ACAD_REACTORS
330
2145
330
21BA
102
}
330
1E
100
AcDbEntity
  8
STEMPEL
100
AcDbCircle
 10
290.6677777789906
 20
397.0185603295614
 30
0.0
 40
25.0
100
AcDbArc
 50
288.1119523822754
 51
315.0
  0
ARC
  5
1F6F
102
{ACAD_REACTORS
330
2145
102
}
330
1E
100
AcDbEntity
  8
STEMPEL
100
AcDbCircle
 10
276.3367081373299
 20
347.3321516285737
 30
0.0
 40
10.0
100
AcDbArc
 50
100.6988472432076
 51
135.0
  0
LINE
  5
1F70
102
{ACAD_REACTORS
330
2145
102
}
330
1E
100
AcDbEntity
  8
STEMPEL
100
AcDbLine
 10
292.2706470553357
 20
371.7513719208176
 30
0.0
 11
281.2592188401226
 21
360.7399437056045
 31
0.0
  0
LINE
  5
1F71
102
{ACAD_REACTORS
330
2145
330
21BA
102
}
330
1E
100
AcDbEntity
  8
STEMPEL
100
AcDbLine
 10
293.684860617709
 20
370.3371583584448
 30
0.0
 11
282.6734324024952
 21
359.3257301432316
 31
0.0
  0
ARC
  5
1F72
102
{ACAD_REACTORS
330
2145
330
21BA
102
}
330
1E
100
AcDbEntity
  8
STEMPEL
100
AcDbCircle
 10
276.3367081373299
 20
347.3321516285737
 30
0.0
 40
8.0
100
AcDbArc
 50
100.6988472432076
 51
135.0
  0
ARC
  5
1F73
102
{ACAD_REACTORS
330
2145
330
21BA
102
}
330
1E
100
AcDbEntity
  8
STEMPEL
100
AcDbCircle
 10
272.0668306846975
 20
369.9323318610297
 30
0.0
 40
15.0
100
AcDbArc
 50
280.6988472432076
 51
315.0
  0
ARC
  5
1F74
102
{ACAD_REACTORS
330
2145
102
}
330
1E
100
AcDbEntity
  8
STEMPEL
100
AcDbCircle
 10
272.0668306846975
 20
369.9323318610297
 30
0.0
 40
13.0
100
AcDbArc
 50
280.6988472432076
 51
315.0
  0
ARC
  5
1F75
102
{ACAD_REACTORS
330
2145
330
21BA
102
}
330
1E
100
AcDbEntity
  8
STEMPEL
100
AcDbCircle
 10
302.1701419919475
 20
361.8518769842062
 30
0.0
 40
12.0
100
AcDbArc
 50
108.1119523822754
 51
135.0
  0
ARC
  5
1F76
102
{ACAD_REACTORS
330
2145
102
}
330
1E
100
AcDbEntity
  8
STEMPEL
100
AcDbCircle
 10
302.1701419919475
 20
361.8518769842062
 30
0.0
 40
14.0
100
AcDbArc
 50
107.949631436622
 51
135.0
  0
LINE
  5
1F77
102
{ACAD_REACTORS
330
2145
102
}
330
1E
100
AcDbEntity
  8
STEMPEL
100
AcDbLine
 10
319.773741052088
 20
393.5976116680775
 30
0.0
 11
306.9310919496763
 21
380.7549625656659
 31
0.0
  0
LINE
  5
1F78
102
{ACAD_REACTORS
330
2145
330
218E
330
21BA
102
}
330
1E
100
AcDbEntity
  8
STEMPEL
100
AcDbLine
 10
321.187954614461
 20
392.1833981057044
 30
0.0
 11
308.3454473086543
 21
379.3408907998978
 31
0.0
  0
ARC
  5
1F79
102
{ACAD_REACTORS
330
2145
330
218E
102
}
330
1E
100
AcDbEntity
  8
STEMPEL
100
AcDbCircle
 10
303.5102850847974
 20
409.861067635368
 30
0.0
 40
25.0
100
AcDbArc
 50
315.0
 51
339.9999999999935
  0
ARC
  5
1F7A
102
{ACAD_REACTORS
330
2145
102
}
330
1E
100
AcDbEntity
  8
STEMPEL
100
AcDbCircle
 10
303.5102850847974
 20
409.861067635368
 30
0.0
 40
23.0
100
AcDbArc
 50
315.0
 51
339.9999999999935
  0
LINE
  5
1F7B
102
{ACAD_REACTORS
330
2145
102
}
330
1E
100
AcDbEntity
  8
STEMPEL
100
AcDbLine
 10
326.2117725522901
 20
404.9853906365856
 30
0.0
 11
325.1232153628731
 21
401.9946043388777
 31
0.0
  0
LINE
  5
1F7C
102
{ACAD_REACTORS
330
2145
330
218E
102
}
330
1E
100
AcDbEntity
  8
STEMPEL
100
AcDbLine
 10
327.7721845697096
 20
403.4249786191658
 30
0.0
 11
327.0026006044449
 21
401.3105640522262
 31
0.0
  0
LINE
  5
1F7D
102
{ACAD_REACTORS
330
218E
330
21BA
102
}
330
1E
100
AcDbEntity
  8
STEMPEL
100
AcDbLine
 10
320.2013649122045
 20
391.1968084034478
 30
0.0
 11
323.736898818137
 21
387.6612744975151
 31
0.0
  0
LINE
  5
1F7E
102
{ACAD_REACTORS
330
20DC
330
2158
102
}
330
1E
100
AcDbEntity
  8
STEMPEL
100
AcDbLine
 10
241.3589588099043
 20
489.8382043789715
 30
0.0
 11
134.2038902291464
 21
382.6831357982137
 31
0.0
  0
LINE
  5
1F7F
102
{ACAD_REACTORS
330
2158
330
218E
330
21BA
102
}
330
1E
100
AcDbEntity
  8
STEMPEL
100
AcDbLine
 10
243.1267257628705
 20
488.0704374260051
 30
0.0
 11
136.7038902291464
 21
381.6476018922809
 31
0.0
  0
LINE
  5
1F80
102
{ACAD_REACTORS
330
2145
102
}
330
1E
100
AcDbEntity
  8
STEMPEL
100
AcDbLine
 10
199.9691757691829
 20
423.6996839967209
 30
0.0
 11
186.5581832679469
 21
410.2886914954849
 31
0.0
  0
LINE
  5
1F81
102
{ACAD_REACTORS
330
2145
330
21BA
102
}
330
1E
100
AcDbEntity
  8
STEMPEL
100
AcDbLine
 10
198.5549622068098
 20
425.113897559094
 30
0.0
 11
185.1439697055739
 21
411.702905057858
 31
0.0
  0
ARC
  5
1F82
102
{ACAD_REACTORS
330
2145
330
21BA
102
}
330
1E
100
AcDbEntity
  8
STEMPEL
100
AcDbCircle
 10
242.5845166583055
 20
445.1018214502471
 30
0.0
 40
25.0
100
AcDbArc
 50
135.0
 51
161.8880476177246
  0
ARC
  5
1F83
102
{ACAD_REACTORS
330
2145
102
}
330
1E
100
AcDbEntity
  8
STEMPEL
100
AcDbCircle
 10
242.5843748617008
 20
445.101679653642
 30
0.0
 40
23.0
100
AcDbArc
 50
135.0
 51
161.7887981052072
  0
LINE
  5
1F84
102
{ACAD_REACTORS
330
2145
102
}
330
1E
100
AcDbEntity
  8
STEMPEL
100
AcDbLine
 10
217.3173282495617
 20
446.7046907265919
 30
0.0
 11
206.3059000343484
 21
435.6932625113786
 31
0.0
  0
LINE
  5
1F85
102
{ACAD_REACTORS
330
2145
330
21BA
102
}
330
1E
100
AcDbEntity
  8
STEMPEL
100
AcDbLine
 10
215.9031146871886
 20
448.1189042889651
 30
0.0
 11
204.8916864719754
 21
437.1074760737517
 31
0.0
  0
ARC
  5
1F86
102
{ACAD_REACTORS
330
2145
102
}
330
1E
100
AcDbEntity
  8
STEMPEL
100
AcDbCircle
 10
192.8981079573176
 20
430.7707518085863
 30
0.0
 40
10.0
100
AcDbArc
 50
315.0
 51
349.3011527567924
  0
ARC
  5
1F87
102
{ACAD_REACTORS
330
2145
330
21BA
102
}
330
1E
100
AcDbEntity
  8
STEMPEL
100
AcDbCircle
 10
192.8981079573176
 20
430.7707518085863
 30
0.0
 40
8.0
100
AcDbArc
 50
315.0
 51
349.3011527567924
  0
ARC
  5
1F88
102
{ACAD_REACTORS
330
2145
102
}
330
1E
100
AcDbEntity
  8
STEMPEL
100
AcDbCircle
 10
215.4982881897736
 20
426.5008743559535
 30
0.0
 40
13.0
100
AcDbArc
 50
135.0
 51
169.3011527567924
  0
ARC
  5
1F89
102
{ACAD_REACTORS
330
2145
330
21BA
102
}
330
1E
100
AcDbEntity
  8
STEMPEL
100
AcDbCircle
 10
215.4982881897736
 20
426.5008743559535
 30
0.0
 40
15.0
100
AcDbArc
 50
135.0
 51
169.3011527567924
  0
ARC
  5
1F8A
102
{ACAD_REACTORS
330
2145
330
21BA
102
}
330
1E
100
AcDbEntity
  8
STEMPEL
100
AcDbCircle
 10
207.4178333129502
 20
456.6041856632036
 30
0.0
 40
12.0
100
AcDbArc
 50
315.0
 51
341.8880476177246
  0
ARC
  5
1F8B
102
{ACAD_REACTORS
330
2145
102
}
330
1E
100
AcDbEntity
  8
STEMPEL
100
AcDbCircle
 10
207.4178333129502
 20
456.6041856632036
 30
0.0
 40
14.0
100
AcDbArc
 50
315.0
 51
342.050368563378
  0
LINE
  5
1F8D
102
{ACAD_REACTORS
330
2145
102
}
330
1E
100
AcDbEntity
  8
STEMPEL
100
AcDbLine
 10
239.1635679968214
 20
474.207784723344
 30
0.0
 11
226.3209188944101
 21
461.3651356209327
 31
0.0
  0
LINE
  5
1F8E
102
{ACAD_REACTORS
330
2145
330
218E
330
21BA
102
}
330
1E
100
AcDbEntity
  8
STEMPEL
100
AcDbLine
 10
237.7493544344483
 20
475.6219982857173
 30
0.0
 11
224.9068471286416
 21
462.7794909799106
 31
0.0
  0
LINE
  5
1F8F
102
{ACAD_REACTORS
330
2145
330
218E
102
}
330
1E
100
AcDbEntity
  8
STEMPEL
100
AcDbLine
 10
248.9909349479096
 20
482.206228240966
 30
0.0
 11
246.8765203809701
 21
481.4366442757012
 31
0.0
  0
ARC
  5
1F90
102
{ACAD_REACTORS
330
2145
102
}
330
1E
100
AcDbEntity
  8
STEMPEL
100
AcDbCircle
 10
255.427023964112
 20
457.9443287560536
 30
0.0
 40
23.0
100
AcDbArc
 50
110.0000000000065
 51
135.0
  0
ARC
  5
1F91
102
{ACAD_REACTORS
330
2145
330
218E
102
}
330
1E
100
AcDbEntity
  8
STEMPEL
100
AcDbCircle
 10
255.427023964112
 20
457.9443287560536
 30
0.0
 40
25.0
100
AcDbArc
 50
110.0000000000065
 51
135.0
  0
LINE
  5
1F92
102
{ACAD_REACTORS
330
218E
330
21BA
102
}
330
1E
100
AcDbEntity
  8
STEMPEL
100
AcDbLine
 10
233.227230826259
 20
478.1709424893936
 30
0.0
 11
236.7627647321918
 21
474.6354085834605
 31
0.0
  0
LINE
  5
1F93
102
{ACAD_REACTORS
330
2145
102
}
330
1E
100
AcDbEntity
  8
STEMPEL
100
AcDbLine
 10
250.5513469653295
 20
480.6458162235462
 30
0.0
 11
247.5605606676217
 21
479.5572590341294
 31
0.0
  0
ARC
  5
2012
102
{ACAD_REACTORS
330
20FB
102
}
330
1E
100
AcDbEntity
  8
STEMPEL
100
AcDbCircle
 10
270.7038902291463
 20
326.1429845342858
 30
0.0
 40
119.0
100
AcDbArc
 50
135.0
 51
179.9999999999999
  0
ARC
  5
2013
102
{ACAD_REACTORS
330
20FB
102
}
330
1E
100
AcDbEntity
  8
STEMPEL
100
AcDbCircle
 10
270.7038902291463
 20
326.1429845342858
 30
0.0
 40
21.0
100
AcDbArc
 50
135.0
 51
180.0
  0
LINE
  5
2014
102
{ACAD_REACTORS
330
2112
330
2158
102
}
330
1E
100
AcDbEntity
  8
STEMPEL
100
AcDbLine
 10
267.2038902291466
 20
327.5927320025922
 30
0.0
 11
264.7038902291464
 21
328.6282659085251
 31
0.0
  0
LINE
  5
2015
102
{ACAD_REACTORS
330
2112
330
2158
102
}
330
1E
100
AcDbEntity
  8
STEMPEL
100
AcDbLine
 10
136.7038902291465
 20
381.6476018922809
 30
0.0
 11
134.2038902291464
 21
382.6831357982137
 31
0.0
  0
DIMENSION
  5
2058
330
1E
100
AcDbEntity
  8
BEM
100
AcDbDimension
  2
*D3
 10
105.5936688281426
 20
231.1405042043275
 30
0.0
 11
99.09366882814261
 21
293.1392190523649
 31
0.0
 70
    32
 71
     5
 42
123.9974296960748
  3
Standard
100
AcDbAlignedDimension
 13
200.7038902291463
 23
355.1379339004023
 33
0.0
 14
150.3961598622669
 24
231.1405042043275
 34
0.0
 50
90.0
100
AcDbRotatedDimension
1001
ACAD
1000
DSTYLE
1002
{
1070
    40
1040
2.0
1070
    41
1040
3.5
1070
    42
1040
1.0
1070
    43
1040
7.0
1070
    44
1040
1.0
1070
    73
1070
     0
1070
    74
1070
     0
1070
    77
1070
     1
1070
    78
1070
     8
1070
    79
1070
     2
1070
   140
1040
3.5
1070
   141
1040
1.5
1070
   146
1040
0.5142857142857144
1070
   147
1040
1.5
1070
   172
1070
     1
1070
   178
1070
     1
1070
   179
1070
     2
1070
   271
1070
     2
1070
   272
1070
     2
1070
   284
1070
     8
1070
   285
1070
     8
1070
   286
1070
     8
1002
}
  0
DIMENSION
  5
2072
330
1E
100
AcDbEntity
  8
BEM
100
AcDbDimension
  2
*D4
 10
119.6235967332353
 20
231.1405042043275
 30
0.0
 11
113.1235967332353
 21
261.1405042043275
 31
0.0
 70
    32
 71
     5
 42
60.00000000000003
  3
Standard
100
AcDbAlignedDimension
 13
134.2038902291463
 23
291.1405042043275
 33
0.0
 14
150.3961598622669
 24
231.1405042043275
 34
0.0
 50
90.0
100
AcDbRotatedDimension
1001
ACAD
1000
DSTYLE
1002
{
1070
   279
1070
     1
1070
    40
1040
2.0
1070
    41
1040
3.5
1070
    42
1040
1.0
1070
    43
1040
7.0
1070
    44
1040
1.0
1070
    73
1070
     0
1070
    74
1070
     0
1070
    77
1070
     1
1070
    78
1070
     8
1070
    79
1070
     2
1070
   140
1040
3.5
1070
   141
1040
1.5
1070
   146
1040
0.5142857142857144
1070
   147
1040
1.5
1070
   172
1070
     1
1070
   178
1070
     1
1070
   179
1070
     2
1070
   271
1070
     2
1070
   272
1070
     2
1070
   284
1070
     8
1070
   285
1070
     8
1070
   286
1070
     8
1002
}
  0
DIMENSION
  5
20A3
330
1E
100
AcDbEntity
  8
BEM
100
AcDbDimension
  2
*D6
 10
229.7904748349974
 20
501.4066883538784
 30
0.0
 11
181.3554459924531
 21
462.164047666759
 31
0.0
 70
    32
  1
124
 71
     5
 42
123.9949493661166
 51
314.9999999999999
  3
Standard
100
AcDbAlignedDimension
 13
200.7038902291463
 23
355.1379339004023
 33
0.0
 14
241.3589588099043
 24
489.8382043789715
 34
0.0
 50
44.9999999999998
100
AcDbRotatedDimension
1001
ACAD
1000
DSTYLE
1002
{
1070
    40
1040
2.0
1070
    41
1040
3.5
1070
    42
1040
1.0
1070
    43
1040
7.0
1070
    44
1040
1.0
1070
    73
1070
     0
1070
    74
1070
     0
1070
    77
1070
     1
1070
    78
1070
     8
1070
    79
1070
     2
1070
   140
1040
3.5
1070
   141
1040
1.5
1070
   146
1040
0.5142857142857144
1070
   147
1040
1.5
1070
   172
1070
     1
1070
   178
1070
     1
1070
   179
1070
     2
1070
   271
1070
     2
1070
   272
1070
     2
1070
   284
1070
     8
1070
   285
1070
     8
1070
   286
1070
     8
1002
}
  0
ARC
  5
20CB
102
{ACAD_REACTORS
330
20DC
102
}
330
1E
100
AcDbEntity
  8
SCHRAFF
100
AcDbCircle
 10
135.9767464081977
 20
381.9487947247137
 30
0.0
 40
3.715850811836936
100
AcDbArc
 50
73.49658591702665
 51
241.5034140829721
  0
ARC
  5
20CD
102
{ACAD_REACTORS
330
20DC
102
}
330
1E
100
AcDbEntity
  8
SCHRAFF
100
AcDbCircle
 10
264.6978709299095
 20
328.630759183905
 30
0.0
 40
5.626886404379813
100
AcDbArc
 50
296.446705502542
 51
18.5532944974567
  0
HATCH
  5
20DC
330
1E
100
AcDbEntity
  8
SCHRAFF
100
AcDbHatch
 10
0.0
 20
0.0
 30
0.0
210
0.0
220
0.0
230
1.0
  2
_USER
 70
     0
 71
     1
 91
        2
 92
        7
 72
     1
 73
     1
 93
        3
 10
134.2038902291464
 20
382.6831357982137
 42
0.0
 10
137.0323173538926
 20
385.5115629229599
 42
0.9004579936430522
 10
134.2038902291464
 20
378.6831357982138
 42
0.0
 97
        3
330
20CB
330
1F20
330
1F7E
 92
        7
 72
     1
 73
     1
 93
        3
 10
270.0323173538929
 20
330.4211591273384
 42
0.0
 10
267.2038902291467
 20
327.5927320025922
 42
0.0
 10
267.2038902291466
 20
323.5927320025923
 42
0.3744148676727277
 97
        3
330
1F63
330
1F1E
330
20CD
 75
     0
 76
     0
 52
0.0
 41
0.1
 77
     0
 78
     1
 53
0.0
 43
-415.5719638323903
 44
2.366257552486558
 45
0.0
 46
0.1
 79
     0
 47
0.2640820356230193
 98
        2
 10
134.0245000822756
 20
383.6062408068778
 10
268.8015968084046
 20
326.828603345964
  0
HATCH
  5
20FB
330
1E
100
AcDbEntity
  8
SCHRAFF
100
AcDbHatch
 10
0.0
 20
0.0
 30
0.0
210
0.0
220
0.0
230
1.0
  2
_USER
 70
     0
 71
     1
 91
        2
 92
        7
 72
     1
 73
     1
 93
        8
 10
149.7038902291464
 20
239.0531823185082
 42
0.0
 10
150.3961598622669
 20
231.1405042043275
 42
0.0
 10
152.4037995373537
 20
231.1405042043275
 42
0.0
 10
151.7038902291462
 20
239.1405042043274
 42
0.0
 10
151.7038902291464
 20
326.142984534286
 42
-0.1989123673796574
 10
186.5581832679471
 20
410.2886914954849
 42
0.0
 10
185.143969705574
 20
411.702905057858
 42
0.1989123673796578
 10
149.7038902291464
 20
326.1429845342858
 42
0.0
 97
        8
330
2012
330
1E6F
330
1E71
330
1F12
330
1F0C
330
1F09
330
1F0B
330
1F11
 92
        7
 72
     1
 73
     1
 93
        8
 10
251.7038902291463
 20
326.1429845342858
 42
-0.1989123673796572
 10
257.2688613866019
 20
339.5780133768302
 42
0.0
 10
255.8546478242288
 20
340.9922269392033
 42
0.1989123673796571
 10
249.7038902291463
 20
326.1429845342858
 42
0.0
 10
249.7038902291463
 20
239.1405042043268
 42
0.0
 10
249.0039809209389
 20
231.1405042043275
 42
0.0
 10
251.0116205960258
 20
231.1405042043275
 42
0.0
 10
251.7038902291464
 20
239.0531823185078
 42
0.0
 97
        8
330
1E70
330
1E6F
330
2013
330
1F0F
330
1F0E
330
1F09
330
1F0D
330
1F10
 75
     0
 76
     0
 52
135.0
 41
2.0
 77
     0
 78
     1
 53
135.0
 43
-415.5719638323903
 44
2.366257552486558
 45
-1.414213562373095
 46
-1.414213562373094
 79
     0
 47
0.5775904923160468
 98
        2
 10
150.3154865136634
 20
306.458122125742
 10
250.8873146070182
 20
293.7511308209394
  0
HATCH
  5
2112
330
1E
100
AcDbEntity
  8
SCHRAFF
100
AcDbHatch
 10
0.0
 20
0.0
 30
0.0
210
0.0
220
0.0
230
1.0
  2
_USER
 70
     0
 71
     1
 91
        2
 92
        7
 72
     0
 73
     1
 93
        4
 10
267.2038902291466
 20
327.5927320025922
 10
264.7038902291464
 20
328.6282659085251
 10
264.7038902291464
 20
291.1405042043274
 10
267.2038902291463
 20
291.1405042043273
 97
        4
330
2014
330
1F1F
330
1F19
330
1F1E
 92
        7
 72
     0
 73
     1
 93
        4
 10
134.2038902291463
 20
291.1405042043275
 10
136.7038902291463
 20
291.1405042043276
 10
136.7038902291464
 20
381.6476018922809
 10
134.2038902291464
 20
382.6831357982137
 97
        4
330
2015
330
1F20
330
1F14
330
1F21
 75
     0
 76
     0
 52
45.0
 41
2.0
 77
     0
 78
     1
 53
45.0
 43
-415.5719638323903
 44
2.366257552486558
 45
-1.414213562373094
 46
1.414213562373095
 79
     0
 47
0.5775904923160468
 98
        2
 10
266.4932877460478
 20
313.9667983605541
 10
135.2875133776069
 20
333.6048745593316
  0
HATCH
  5
2145
330
1E
100
AcDbEntity
  8
SCHRAFF
100
AcDbHatch
 10
0.0
 20
0.0
 30
0.0
210
0.0
220
0.0
230
1.0
  2
_USER
 70
     0
 71
     1
 91
        2
 92
        7
 72
     1
 73
     1
 93
       20
 10
217.3173282495617
 20
446.7046907265919
 42
0.1171420130219736
 10
220.7117200420197
 20
452.2141314910244
 42
-0.1182991460894046
 10
226.3209188944101
 20
461.3651356209327
 42
0.0
 10
239.1635679968214
 20
474.207784723344
 42
-0.1095178116832425
 10
247.5605606676217
 20
479.5572590341294
 42
0.0
 10
250.5513469653295
 20
480.6458162235462
 42
0.0
 10
248.9909349479097
 20
482.206228240966
 42
0.0
 10
246.8765203809701
 20
481.4366442757012
 42
0.1095178116832427
 10
237.749354434448
 20
475.621998285717
 42
0.0
 10
224.9068471286416
 20
462.7794909799106
 42
0.1178625008509354
 10
218.8232441276599
 20
452.8736891617042
 42
-0.1178625008509371
 10
215.9031146871886
 20
448.1189042889651
 42
0.0
 10
204.8916864719754
 20
437.1074760737517
 42
0.1507946423587029
 10
200.7590402120849
 20
429.2855770424532
 42
-0.1507946423587019
 10
198.5549622068098
 20
425.113897559094
 42
0.0
 10
185.1439697055739
 20
411.702905057858
 42
0.0
 10
186.558183267947
 20
410.288691495485
 42
0.0
 10
199.9691757691829
 20
423.6996839967209
 42
0.1507946423587074
 10
202.7242732757768
 20
428.9142833509201
 42
-0.1507946423586966
 10
206.3059000343484
 20
435.6932625113786
 42
0.0
 97
       20
330
1F8B
330
1F83
330
1F8D
330
1F90
330
1F93
330
1F6B
330
1F8F
330
1F91
330
1F8E
330
1F82
330
1F8A
330
1F85
330
1F89
330
1F87
330
1F81
330
1E6F
330
1F80
330
1F86
330
1F88
330
1F84
 92
        7
 72
     1
 73
     1
 93
       20
 10
274.4802396796636
 20
357.1583169470328
 42
0.1507946423587078
 10
269.2656403254645
 20
354.403219440439
 42
0.0
 10
255.8546478242288
 20
340.9922269392033
 42
0.0
 10
257.2688613866016
 20
339.5780133768303
 42
0.0
 10
270.6798538878376
 20
352.9890058780659
 42
-0.1507946423587087
 10
274.8515333711968
 20
355.193083883341
 42
0.1507946423587001
 10
282.6734324024952
 20
359.3257301432316
 42
0.0
 10
293.684860617709
 20
370.3371583584448
 42
-0.1178625008509372
 10
298.4396454904481
 20
373.257287798916
 42
0.1178625008509344
 10
308.3454473086543
 20
379.3408907998978
 42
0.0
 10
321.187954614461
 20
392.1833981057044
 42
0.1095178116832388
 10
327.0026006044449
 20
401.3105640522262
 42
0.0
 10
327.7721845697097
 20
403.4249786191661
 42
0.0
 10
326.2117725522902
 20
404.9853906365855
 42
0.0
 10
325.1232153628731
 20
401.9946043388777
 42
-0.109517811683247
 10
319.7737410520876
 20
393.597611668077
 42
0.0
 10
306.9310919496763
 20
380.7549625656659
 42
-0.1182991460896499
 10
297.7800878197468
 20
375.1457637132686
 42
0.1171420130215641
 10
292.2706470553359
 20
371.7513719208178
 42
0.0
 10
281.2592188401226
 20
360.7399437056045
 42
-0.1507946423587051
 97
       20
330
1F71
330
1F75
330
1F6E
330
1F78
330
1F79
330
1F7C
330
1F6B
330
1F7B
330
1F7A
330
1F77
330
1F6D
330
1F76
330
1F70
330
1F74
330
1F6F
330
1F65
330
1E6F
330
1F66
330
1F72
330
1F73
 75
     0
 76
     0
 52
90.0
 41
2.0
 77
     0
 78
     1
 53
90.0
 43
-415.5719638323903
 44
2.366257552486558
 45
-2.0
 46
0.0000000000000001
 79
     0
 47
0.3706584673418717
 98
        2
 10
212.5721251733949
 20
443.2617962942436
 10
277.4832327734639
 20
357.2690301298078
  0
HATCH
  5
2158
330
1E
100
AcDbEntity
  8
SCHRAFF
100
AcDbHatch
 10
0.0
 20
0.0
 30
0.0
210
0.0
220
0.0
230
1.0
  2
_USER
 70
     0
 71
     1
 91
        2
 92
        7
 72
     0
 73
     1
 93
        4
 10
335.4041607077153
 20
395.7930024811604
 10
333.6363937547488
 20
397.560769434127
 10
264.7038902291468
 20
328.6282659085249
 10
267.2038902291466
 20
327.5927320025922
 97
        4
330
1F6B
330
1F64
330
2014
330
1F63
 92
        7
 72
     0
 73
     1
 93
        4
 10
243.1267257628707
 20
488.0704374260053
 10
241.3589588099043
 20
489.8382043789715
 10
134.2038902291463
 20
382.6831357982137
 10
136.7038902291464
 20
381.6476018922809
 97
        4
330
1F6B
330
1F7E
330
2015
330
1F7F
 75
     0
 76
     0
 52
135.0
 41
2.0
 77
     0
 78
     1
 53
135.0
 43
-415.5719638323903
 44
2.366257552486558
 45
-1.414213562373095
 46
-1.414213562373094
 79
     0
 47
0.3706584673418717
 98
        2
 10
319.0263434695125
 20
380.9911729543273
 10
193.2842520615731
 20
439.1845522746573
  0
HATCH
  5
218E
330
1E
100
AcDbEntity
  8
SCHRAFF
100
AcDbHatch
 10
0.0
 20
0.0
 30
0.0
210
0.0
220
0.0
230
1.0
  2
NET
 70
     0
 71
     1
 91
        2
 92
        7
 72
     1
 73
     1
 93
        6
 10
333.6363937547488
 20
397.5607694341269
 42
0.0
 10
327.7721845697097
 20
403.4249786191661
 42
0.0
 10
327.0026006044449
 20
401.3105640522262
 42
-0.1095178116832429
 10
321.1879546144607
 20
392.1833981057042
 42
0.0
 10
320.2013649122045
 20
391.196808403448
 42
0.0
 10
323.7368988181371
 20
387.6612744975152
 42
0.0
 97
        6
330
1F6B
330
1F7C
330
1F79
330
1F78
330
1F7D
330
1F64
 92
        7
 72
     1
 73
     1
 93
        6
 10
243.1267257628706
 20
488.0704374260052
 42
0.0
 10
233.2272308262589
 20
478.1709424893935
 42
0.0
 10
236.7627647321917
 20
474.6354085834607
 42
0.0
 10
237.7493544344483
 20
475.6219982857173
 42
-0.1095178116832394
 10
246.8765203809701
 20
481.4366442757012
 42
0.0
 10
248.9909349479098
 20
482.2062282409661
 42
0.0
 97
        6
330
1F7F
330
1F92
330
1F8E
330
1F91
330
1F8F
330
1F6B
 75
     0
 76
     1
 52
0.0
 41
20.0
 77
     0
 78
     2
 53
0.0
 43
-415.5719638323903
 44
2.366257552486558
 45
0.0
 46
2.5
 79
     0
 53
90.0
 43
-415.5719638323903
 44
2.366257552486558
 45
-2.5
 46
0.0000000000000002
 79
     0
 47
0.5496425657128408
 98
        2
 10
326.7916379007338
 20
394.5639620771156
 10
243.7369081211246
 20
483.6060581248168
  0
HATCH
  5
21BA
330
1E
100
AcDbEntity
  8
SCHRAFF
100
AcDbHatch
 10
0.0
 20
0.0
 30
0.0
210
0.0
220
0.0
230
1.0
  2
HONEY
 70
     0
 71
     1
 91
        2
 92
        7
 72
     1
 73
     1
 93
       15
 10
255.3160707241651
 20
337.2881633521478
 42
0.1580055272983518
 10
251.7038902291463
 20
326.1429845342858
 42
0.0
 10
251.7038902291463
 20
308.6405042043275
 42
0.0
 10
263.2038902291462
 20
308.6405042043276
 42
0.0
 10
264.7038902291464
 20
307.1405042043273
 42
0.0
 10
264.7038902291464
 20
328.6282659085245
 42
0.0
 10
323.7368988181369
 20
387.6612744975151
 42
0.0
 10
320.2013649122045
 20
391.1968084034478
 42
0.0
 10
308.3454473086543
 20
379.3408907998978
 42
-0.1178625008509397
 10
298.4396454904477
 20
373.2572877989158
 42
0.1178625008509262
 10
293.684860617709
 20
370.3371583584448
 42
0.0
 10
282.6734324024952
 20
359.3257301432316
 42
-0.150794642358701
 10
274.8515333711968
 20
355.1930838833409
 42
0.1507946423587069
 10
270.6798538878376
 20
352.9890058780659
 42
0.0
 10
259.3901817301614
 20
341.69933372039
 42
-0.4668457183923971
 97
       15
330
1F7D
330
1F78
330
1F6E
330
1F75
330
1F71
330
1F73
330
1F72
330
1F66
330
1E63
330
1E70
330
1F10
330
1F1C
330
1F1D
330
1F1F
330
1F64
 92
        7
 72
     1
 73
     1
 93
       15
 10
136.7038902291463
 20
307.1405042043275
 42
0.0
 10
138.2038902291463
 20
308.6405042043275
 42
0.0
 10
149.7038902291464
 20
308.6405042043274
 42
0.0
 10
149.7038902291464
 20
326.1429845342856
 42
-0.1924759693068981
 10
183.0489507642142
 20
409.5552833120985
 42
-0.5179147943324304
 10
187.2652900491335
 20
413.8242254014176
 42
0.0
 10
198.5549622068098
 20
425.113897559094
 42
0.1507946423587095
 10
200.7590402120849
 20
429.2855770424534
 42
-0.1507946423586988
 10
204.8916864719754
 20
437.1074760737517
 42
0.0
 10
215.9031146871886
 20
448.1189042889651
 42
0.1178625008509412
 10
218.82324412766
 20
452.8736891617044
 42
-0.1178625008509334
 10
224.9068471286416
 20
462.7794909799106
 42
0.0
 10
236.7627647321917
 20
474.6354085834607
 42
0.0
 10
233.227230826259
 20
478.1709424893935
 42
0.0
 10
136.7038902291464
 20
381.6476018922809
 42
0.0
 97
       15
330
1E65
330
1F81
330
1F87
330
1F89
330
1F85
330
1F8A
330
1F82
330
1F8E
330
1F92
330
1F7F
330
1F21
330
1F18
330
1F17
330
1F12
330
1E71
 75
     0
 76
     1
 52
0.0
 41
30.0
 77
     0
 78
     3
 53
0.0
 43
-415.5719638323903
 44
2.366257552486558
 45
5.625
 46
3.247595249999999
 79
     2
 49
3.75
 49
-7.5
 53
120.0
 43
-415.5719638323903
 44
2.366257552486558
 45
-5.624999987709673
 46
3.247595271287468
 79
     2
 49
3.749999999999999
 49
-7.499999999999999
 53
60.0
 43
-415.5719638323903
 44
2.366257552486558
 45
0.0000000122903263
 46
6.495190521287468
 79
     2
 49
-7.5
 49
3.75
 47
0.5496425657128408
 98
        2
 10
259.1377857016064
 20
332.4543522424776
 10
146.3813653697275
 20
370.9293319470642
  0
HATCH
  5
2250
330
1E
100
AcDbEntity
  8
SCHRAFF
100
AcDbHatch
 10
0.0
 20
0.0
 30
0.0
210
0.0
220
0.0
230
1.0
  2
NET
 70
     0
 71
     0
 91
        2
 92
        7
 72
     0
 73
     1
 93
        9
 10
264.7038902291464
 20
307.1405042043273
 10
263.2038902291461
 20
308.6405042043276
 10
251.7038902291464
 20
308.6405042043276
 10
251.7038902291464
 20
297.1405042043275
 10
256.7038902291463
 20
297.1405042043275
 10
261.3226923826634
 20
289.1405042043271
 10
267.2038902291465
 20
289.140504204327
 10
267.2038902291465
 20
291.1405042043274
 10
264.7038902291464
 20
291.1405042043274
 97
        0
 92
        7
 72
     0
 73
     1
 93
        9
 10
149.7038902291464
 20
308.6405042043275
 10
138.2038902291464
 20
308.6405042043276
 10
136.7038902291463
 20
307.1405042043275
 10
136.7038902291463
 20
291.1405042043274
 10
134.2038902291462
 20
291.1405042043275
 10
134.2038902291462
 20
289.1405042043275
 10
140.0850880756291
 20
289.1405042043274
 10
144.7038902291462
 20
297.1405042043275
 10
149.7038902291464
 20
297.1405042043274
 97
        0
 75
     0
 76
     1
 52
45.0
 41
20.0
 77
     0
 78
     2
 53
45.0
 43
-24.29610977085344
 44
-20.73448985485817
 45
-1.767766952966368
 46
1.767766952966368
 79
     0
 53
135.0
 43
-24.29610977085344
 44
-20.73448985485817
 45
-1.767766952966368
 46
-1.767766952966368
 79
     0
 47
0.1961114262777251
 98
        2
 10
260.4852556293764
 20
302.3384145938816
 10
148.0456189843144
 20
303.5150831325704
  0
LINE
  5
2251
330
1E
100
AcDbEntity
  8
STEMPEL
100
AcDbLine
 10
251.7038902291463
 20
289.1405042043272
 30
0.0
 11
267.2038902291465
 21
289.140504204327
 31
0.0
  0
LINE
  5
2252
330
1E
100
AcDbEntity
  8
STEMPEL
100
AcDbLine
 10
256.7038902291463
 20
297.1405042043275
 30
0.0
 11
261.3226923826634
 21
289.1405042043272
 31
0.0
  0
LINE
  5
2253
330
1E
100
AcDbEntity
  8
STEMPEL
100
AcDbLine
 10
134.2038902291462
 20
289.1405042043275
 30
0.0
 11
149.7038902291464
 21
289.1405042043274
 31
0.0
  0
LINE
  5
2254
330
1E
100
AcDbEntity
  8
STEMPEL
100
AcDbLine
 10
144.7038902291463
 20
297.1405042043275
 30
0.0
 11
140.0850880756292
 21
289.1405042043274
 31
0.0
  0
TEXT
  5
225C
330
1E
100
AcDbEntity
  8
TEXT
100
AcDbText
 10
148.622109822104
 20
73.14025471151666
 30
0.0
 40
4.0
  1
2007
 41
0.8
  7
GREEKS
100
AcDbText
  0
TEXT
  5
225D
330
1E
100
AcDbEntity
  8
TEXT
100
AcDbText
 10
170.398997108236
 20
63.10765040825732
 30
0.0
 40
4.0
  1
28.09.
 41
0.8
  7
GREEKS
 72
     1
 11
177.4085209177598
 21
63.10765040825732
 31
0.0
100
AcDbText
  0
LINE
  5
22A6
330
1E
100
AcDbEntity
  8
BEM
100
AcDbLine
 10
293.0290051693387
 20
447.4630488405948
 30
0.0
 11
295.5724585309722
 21
450.0065022022284
 31
0.0
  0
LINE
  5
22A7
330
1E
100
AcDbEntity
  8
BEM
100
AcDbLine
 10
200.7038902291463
 20
357.1379339004022
 30
0.0
 11
200.7038902291463
 21
467.1347088350207
 31
0.0
  0
ARC
  5
22A8
330
1E
100
AcDbEntity
  8
BEM
100
AcDbCircle
 10
200.7038902291463
 20
355.1379339004022
 30
0.0
 40
166.5203535106686
100
AcDbArc
 50
47.40871451754561
 51
87.59128548245442
  0
SOLID
  5
22A9
330
1E
100
AcDbEntity
  8
BEM
100
AcDbTrace
 10
314.2063076950909
 20
478.5723380611353
 30
0.0
 11
312.5914350345764
 21
476.8881080487062
 31
0.0
 12
318.4515614021211
 22
472.8856050733772
 32
0.0
 13
318.4515614021211
 23
472.8856050733772
 33
0.0
  0
SOLID
  5
22AA
330
1E
100
AcDbEntity
  8
BEM
100
AcDbTrace
 10
207.6778223178218
 20
520.3447493135443
 30
0.0
 11
207.7268653716857
 21
522.6775671854134
 31
0.0
 12
200.7038902291463
 22
521.6582874110708
 32
0.0
 13
200.7038902291463
 23
521.6582874110708
 33
0.0
  0
MTEXT
  5
22AB
330
1E
100
AcDbEntity
  8
BEM
 62
     1
100
AcDbMText
 10
266.9159129796301
 20
514.9878972167764
 30
0.0
 40
7.0
 41
0.0
 71
     5
 72
     1
  1
\A1;45°
 11
0.9238795325112871
 21
-0.3826834323650891
 31
0.0
 73
     1
 44
1.0
  0
LINE
  5
22AC
330
1E
100
AcDbEntity
  8
BEM
100
AcDbLine
 10
307.3502746214323
 20
461.7843182926884
 30
0.0
 11
319.8657749644941
 21
474.2998186357503
 31
0.0
  0
LINE
  5
22AD
330
1E
100
AcDbEntity
  8
BEM
100
AcDbLine
 10
200.7038902291463
 20
478.5516717570949
 30
0.0
 11
200.7038902291463
 21
523.6582874110708
 31
0.0
  0
ENDSEC
  0
SECTION
  2
OBJECTS
  0
DICTIONARY
  5
C
330
0
100
AcDbDictionary
281
     1
  3
ACAD_COLOR
350
DF
  3
ACAD_GROUP
350
D
  3
ACAD_LAYOUT
350
19
  3
ACAD_MATERIAL
350
DE
  3
ACAD_MLINESTYLE
350
16
  3
ACAD_PLOTSETTINGS
350
18
  3
ACAD_PLOTSTYLENAME
350
E
  3
AcDbVariableDictionary
350
25E
  0
DICTIONARY
  5
A0
330
1E
100
AcDbDictionary
280
     1
281
     1
  3
ACAD_LAYOUTSELFREF
360
D4
  0
DICTIONARY
  5
A2
330
1A
100
AcDbDictionary
280
     1
281
     1
  3
ACAD_LAYOUTSELFREF
360
D3
  0
DICTIONARY
  5
DF
102
{ACAD_REACTORS
330
C
102
}
330
C
100
AcDbDictionary
281
     1
  0
DICTIONARY
  5
D
102
{ACAD_REACTORS
330
C
102
}
330
C
100
AcDbDictionary
281
     1
  0
DICTIONARY
  5
19
102
{ACAD_REACTORS
330
C
102
}
330
C
100
AcDbDictionary
281
     1
  3
Layout1
350
1D
  3
Model
350
21
  0
DICTIONARY
  5
DE
102
{ACAD_REACTORS
330
C
102
}
330
C
100
AcDbDictionary
281
     1
  0
DICTIONARY
  5
16
102
{ACAD_REACTORS
330
C
102
}
330
C
100
AcDbDictionary
281
     1
  3
Standard
350
17
  0
DICTIONARY
  5
18
102
{ACAD_REACTORS
330
C
102
}
330
C
100
AcDbDictionary
281
     1
  0
ACDBDICTIONARYWDFLT
  5
E
102
{ACAD_REACTORS
330
C
102
}
330
C
100
AcDbDictionary
281
     1
  3
Normal
350
F
100
AcDbDictionaryWithDefault
340
F
  0
DICTIONARY
  5
25E
102
{ACAD_REACTORS
330
C
102
}
330
C
100
AcDbDictionary
281
     1
  3
DIMASSOC
350
25F
  3
PROJECTNAME
350
260
  0
XRECORD
  5
D4
102
{ACAD_REACTORS
330
A0
102
}
330
A0
100
AcDbXrecord
280
     1
340
1E
  0
XRECORD
  5
D3
102
{ACAD_REACTORS
330
A2
102
}
330
A2
100
AcDbXrecord
280
     1
340
1A
  0
LAYOUT
  5
1D
102
{ACAD_REACTORS
330
19
102
}
330
19
100
AcDbPlotSettings
  1

  2
\\NT_WORK01\HP LaserJet 5000 PCL 6
  4

  6

 40
0.0
 41
0.0
 42
0.0
 43
0.0
 44
0.0
 45
0.0
 46
0.0
 47
0.0
 48
0.0
 49
0.0
140
0.0
141
0.0
142
1.0
143
1.0
 70
   688
 72
     0
 73
     0
 74
     5
  7

 75
    16
147
1.0
 76
     0
 77
     2
 78
   300
148
0.0
149
0.0
100
AcDbLayout
  1
Layout1
 70
     0
 71
     1
 10
0.0
 20
0.0
 11
12.0
 21
9.0
 12
0.0
 22
0.0
 32
0.0
 14
1.000000000000000E+20
 24
1.000000000000000E+20
 34
1.000000000000000E+20
 15
-1.000000000000000E+20
 25
-1.000000000000000E+20
 35
-1.000000000000000E+20
146
0.0
 13
0.0
 23
0.0
 33
0.0
 16
1.0
 26
0.0
 36
0.0
 17
0.0
 27
1.0
 37
0.0
 76
     0
330
1A
  0
LAYOUT
  5
21
102
{ACAD_REACTORS
330
19
102
}
330
19
100
AcDbPlotSettings
  1

  2
RICOH Aficio 2027 PCL 6
  4
A4
  6

 40
5.027083
 41
5.027084999999999
 42
5.027084
 43
5.027069
 44
209.973328
 45
296.925995
 46
0.0
 47
2.06
 48
0.0
 49
0.0
140
0.0
141
0.0
142
1.0
143
2.100849152723284
 70
 11956
 72
     1
 73
     0
 74
     2
  7
monochrome1.ctb
 75
     0
147
0.4759980023809526
 76
     1
 77
     2
 78
   300
148
0.0
149
0.0
100
AcDbLayout
  1
Model
 70
     1
 71
     0
 10
0.0
 20
0.0
 11
12.0
 21
9.0
 12
0.0
 22
0.0
 32
0.0
 14
0.0
 24
0.0
 34
0.0
 15
0.0
 25
0.0
 35
0.0
146
0.0
 13
0.0
 23
0.0
 33
0.0
 16
1.0
 26
0.0
 36
0.0
 17
0.0
 27
1.0
 37
0.0
 76
     0
330
1E
  0
MLINESTYLE
  5
17
102
{ACAD_REACTORS
330
16
102
}
330
16
100
AcDbMlineStyle
  2
STANDARD
 70
     0
  3

 62
   256
 51
90.0
 52
90.0
 71
     2
 49
0.5
 62
   256
  6
BYLAYER
 49
-0.5
 62
   256
  6
BYLAYER
  0
ACDBPLACEHOLDER
  5
F
102
{ACAD_REACTORS
330
E
102
}
330
E
  0
DICTIONARYVAR
  5
25F
102
{ACAD_REACTORS
330
25E
102
}
330
25E
100
DictionaryVariables
280
     0
  1
1
  0
DICTIONARYVAR
  5
260
102
{ACAD_REACTORS
330
25E
102
}
330
25E
100
DictionaryVariables
280
     0
  1

  0
ENDSEC
  0
EOF
