  0
SECTION
  2
HEADER
  9
$ACADVER
  1
AC1018
  9
$ACADMAINTVER
 70
     2
  9
$DWGCODEPAGE
  3
ANSI_1252
  9
$INSBASE
 10
0.0
 20
0.0
 30
0.0
  9
$EXTMIN
 10
-0.0127968944558461
 20
-0.0180984650162373
 30
-0.0000000000000053
  9
$EXTMAX
 10
420.00961919835
 20
594.0136042948106
 30
0.0000000000000099
  9
$LIMMIN
 10
0.0
 20
0.0
  9
$LIMMAX
 10
419.9999999999999
 20
594.0000000000002
  9
$ORTHOMODE
 70
     0
  9
$REGENMODE
 70
     1
  9
$FILLMODE
 70
     1
  9
$QTEXTMODE
 70
     0
  9
$MIRRTEXT
 70
     1
  9
$LTSCALE
 40
20.0
  9
$ATTMODE
 70
     1
  9
$TEXTSIZE
 40
3.5
  9
$TRACEWID
 40
0.5
  9
$TEXTSTYLE
  7
STANDARD
  9
$CLAYER
  8
BEM
  9
$CELTYPE
  6
ByLayer
  9
$CECOLOR
 62
   256
  9
$CELTSCALE
 40
1.0
  9
$DISPSILH
 70
     0
  9
$DIMSCALE
 40
2.0
  9
$DIMASZ
 40
3.5
  9
$DIMEXO
 40
1.0
  9
$DIMDLI
 40
7.0
  9
$DIMRND
 40
0.0
  9
$DIMDLE
 40
0.0
  9
$DIMEXE
 40
1.0
  9
$DIMTP
 40
0.0
  9
$DIMTM
 40
0.0
  9
$DIMTXT
 40
3.5
  9
$DIMCEN
 40
1.5
  9
$DIMTSZ
 40
0.0
  9
$DIMTOL
 70
     0
  9
$DIMLIM
 70
     0
  9
$DIMTIH
 70
     0
  9
$DIMTOH
 70
     0
  9
$DIMSE1
 70
     0
  9
$DIMSE2
 70
     0
  9
$DIMTAD
 70
     1
  9
$DIMZIN
 70
     8
  9
$DIMBLK
  1

  9
$DIMASO
 70
     1
  9
$DIMSHO
 70
     0
  9
$DIMPOST
  1

  9
$DIMAPOST
  1

  9
$DIMALT
 70
     0
  9
$DIMALTD
 70
     2
  9
$DIMALTF
 40
25.4
  9
$DIMLFAC
 40
1.0
  9
$DIMTOFL
 70
     1
  9
$DIMTVP
 40
0.0
  9
$DIMTIX
 70
     0
  9
$DIMSOXD
 70
     0
  9
$DIMSAH
 70
     0
  9
$DIMBLK1
  1

  9
$DIMBLK2
  1

  9
$DIMSTYLE
  2
Standard
  9
$DIMCLRD
 70
     0
  9
$DIMCLRE
 70
     0
  9
$DIMCLRT
 70
     1
  9
$DIMTFAC
 40
0.5142857142857144
  9
$DIMGAP
 40
1.5
  9
$DIMJUST
 70
     0
  9
$DIMSD1
 70
     0
  9
$DIMSD2
 70
     0
  9
$DIMTOLJ
 70
     1
  9
$DIMTZIN
 70
     8
  9
$DIMALTZ
 70
     8
  9
$DIMALTTZ
 70
     8
  9
$DIMUPT
 70
     0
  9
$DIMDEC
 70
     2
  9
$DIMTDEC
 70
     2
  9
$DIMALTU
 70
     2
  9
$DIMALTTD
 70
     2
  9
$DIMTXSTY
  7
STANDARD
  9
$DIMAUNIT
 70
     0
  9
$DIMADEC
 70
     2
  9
$DIMALTRND
 40
0.0
  9
$DIMAZIN
 70
     2
  9
$DIMDSEP
 70
    46
  9
$DIMATFIT
 70
     3
  9
$DIMFRAC
 70
     0
  9
$DIMLDRBLK
  1

  9
$DIMLUNIT
 70
     2
  9
$DIMLWD
 70
    -2
  9
$DIMLWE
 70
    -2
  9
$DIMTMOVE
 70
     0
  9
$LUNITS
 70
     2
  9
$LUPREC
 70
     2
  9
$SKETCHINC
 40
1.0
  9
$FILLETRAD
 40
0.0
  9
$AUNITS
 70
     0
  9
$AUPREC
 70
     0
  9
$MENU
  1
ACAD
  9
$ELEVATION
 40
0.0
  9
$PELEVATION
 40
0.0
  9
$THICKNESS
 40
0.0
  9
$LIMCHECK
 70
     0
  9
$CHAMFERA
 40
0.0
  9
$CHAMFERB
 40
0.0
  9
$CHAMFERC
 40
0.0
  9
$CHAMFERD
 40
0.0
  9
$SKPOLY
 70
     0
  9
$TDCREATE
 40
2455397.823042361
  9
$TDUCREATE
 40
2455397.781375695
  9
$TDUPDATE
 40
2455532.535744815
  9
$TDUUPDATE
 40
2455532.494078148
  9
$TDINDWG
 40
0.2560277546
  9
$TDUSRTIMER
 40
0.2560277546
  9
$USRTIMER
 70
     1
  9
$ANGBASE
 50
0.0
  9
$ANGDIR
 70
     0
  9
$PDMODE
 70
     0
  9
$PDSIZE
 40
0.0
  9
$PLINEWID
 40
0.0
  9
$SPLFRAME
 70
     0
  9
$SPLINETYPE
 70
     6
  9
$SPLINESEGS
 70
     8
  9
$HANDSEED
  5
16E4
  9
$SURFTAB1
 70
     6
  9
$SURFTAB2
 70
     6
  9
$SURFTYPE
 70
     6
  9
$SURFU
 70
     6
  9
$SURFV
 70
     6
  9
$UCSBASE
  2

  9
$UCSNAME
  2

  9
$UCSORG
 10
0.0
 20
0.0
 30
0.0
  9
$UCSXDIR
 10
1.0
 20
0.0
 30
0.0
  9
$UCSYDIR
 10
0.0
 20
1.0
 30
0.0
  9
$UCSORTHOREF
  2

  9
$UCSORTHOVIEW
 70
     0
  9
$UCSORGTOP
 10
0.0
 20
0.0
 30
0.0
  9
$UCSORGBOTTOM
 10
0.0
 20
0.0
 30
0.0
  9
$UCSORGLEFT
 10
0.0
 20
0.0
 30
0.0
  9
$UCSORGRIGHT
 10
0.0
 20
0.0
 30
0.0
  9
$UCSORGFRONT
 10
0.0
 20
0.0
 30
0.0
  9
$UCSORGBACK
 10
0.0
 20
0.0
 30
0.0
  9
$PUCSBASE
  2

  9
$PUCSNAME
  2

  9
$PUCSORG
 10
0.0
 20
0.0
 30
0.0
  9
$PUCSXDIR
 10
1.0
 20
0.0
 30
0.0
  9
$PUCSYDIR
 10
0.0
 20
1.0
 30
0.0
  9
$PUCSORTHOREF
  2

  9
$PUCSORTHOVIEW
 70
     0
  9
$PUCSORGTOP
 10
0.0
 20
0.0
 30
0.0
  9
$PUCSORGBOTTOM
 10
0.0
 20
0.0
 30
0.0
  9
$PUCSORGLEFT
 10
0.0
 20
0.0
 30
0.0
  9
$PUCSORGRIGHT
 10
0.0
 20
0.0
 30
0.0
  9
$PUCSORGFRONT
 10
0.0
 20
0.0
 30
0.0
  9
$PUCSORGBACK
 10
0.0
 20
0.0
 30
0.0
  9
$USERI1
 70
     0
  9
$USERI2
 70
     0
  9
$USERI3
 70
     0
  9
$USERI4
 70
     0
  9
$USERI5
 70
     0
  9
$USERR1
 40
0.0
  9
$USERR2
 40
0.0
  9
$USERR3
 40
0.0
  9
$USERR4
 40
0.0
  9
$USERR5
 40
0.0
  9
$WORLDVIEW
 70
     1
  9
$SHADEDGE
 70
     3
  9
$SHADEDIF
 70
    70
  9
$TILEMODE
 70
     1
  9
$MAXACTVP
 70
    16
  9
$PINSBASE
 10
0.0
 20
0.0
 30
0.0
  9
$PLIMCHECK
 70
     0
  9
$PEXTMIN
 10
1.000000000000000E+20
 20
1.000000000000000E+20
 30
1.000000000000000E+20
  9
$PEXTMAX
 10
-1.000000000000000E+20
 20
-1.000000000000000E+20
 30
-1.000000000000000E+20
  9
$PLIMMIN
 10
0.0
 20
0.0
  9
$PLIMMAX
 10
12.0
 20
9.0
  9
$UNITMODE
 70
     0
  9
$VISRETAIN
 70
     0
  9
$PLINEGEN
 70
     0
  9
$PSLTSCALE
 70
     0
  9
$TREEDEPTH
 70
  3020
  9
$CMLSTYLE
  2
Standard
  9
$CMLJUST
 70
     0
  9
$CMLSCALE
 40
1.0
  9
$PROXYGRAPHICS
 70
     1
  9
$MEASUREMENT
 70
     0
  9
$CELWEIGHT
370
    -1
  9
$ENDCAPS
280
     0
  9
$JOINSTYLE
280
     0
  9
$LWDISPLAY
290
     0
  9
$INSUNITS
 70
     0
  9
$HYPERLINKBASE
  1

  9
$STYLESHEET
  1
monochrome 1.ctb
  9
$XEDIT
290
     1
  9
$CEPSNTYPE
380
     0
  9
$PSTYLEMODE
290
     1
  9
$FINGERPRINTGUID
  2
{D68B0D02-A558-11D7-B632-000102183313}
  9
$VERSIONGUID
  2
{EF29ED66-1FE5-41B5-B932-E1AF080783C5}
  9
$EXTNAMES
290
     1
  9
$PSVPSCALE
 40
0.0
  9
$OLESTARTUP
290
     0
  9
$SORTENTS
280
   127
  9
$INDEXCTL
280
     0
  9
$HIDETEXT
280
     0
  9
$XCLIPFRAME
290
     0
  9
$HALOGAP
280
     0
  9
$OBSCOLOR
 70
   257
  9
$OBSLTYPE
280
     0
  9
$INTERSECTIONDISPLAY
280
     0
  9
$INTERSECTIONCOLOR
 70
   257
  9
$DIMASSOC
280
     1
  9
$PROJECTNAME
  1

  0
ENDSEC
  0
SECTION
  2
CLASSES
  0
CLASS
  1
ACDBDICTIONARYWDFLT
  2
AcDbDictionaryWithDefault
  3
ObjectDBX Classes
 90
        0
 91
        1
280
     0
281
     0
  0
CLASS
  1
DICTIONARYVAR
  2
AcDbDictionaryVar
  3
ObjectDBX Classes
 90
        0
 91
        2
280
     0
281
     0
  0
ENDSEC
  0
SECTION
  2
TABLES
  0
TABLE
  2
VPORT
  5
8
330
0
100
AcDbSymbolTable
 70
     2
  0
VPORT
  5
16E3
330
8
100
AcDbSymbolTableRecord
100
AcDbViewportTableRecord
  2
*Active
 70
     0
 10
0.0
 20
0.0
 11
1.0
 21
1.0
 12
209.9984111519471
 22
296.9977529148971
 13
0.0
 23
0.0
 14
1.0
 24
1.0
 15
10.0
 25
10.0
 16
0.0
 26
0.0
 36
1.0
 17
0.0
 27
0.0
 37
0.0
 40
598.8287286232978
 41
1.336927223719676
 42
50.0
 43
0.0
 44
0.0
 50
0.0
 51
0.0
 71
     0
 72
  1500
 73
     1
 74
     0
 75
     0
 76
     0
 77
     0
 78
     0
281
     0
 65
     1
110
0.0
120
0.0
130
0.0
111
1.0
121
0.0
131
0.0
112
0.0
122
1.0
132
0.0
 79
     0
146
0.0
  0
ENDTAB
  0
TABLE
  2
LTYPE
  5
5
330
0
100
AcDbSymbolTable
 70
     2
  0
LTYPE
  5
13
330
5
100
AcDbSymbolTableRecord
100
AcDbLinetypeTableRecord
  2
ByBlock
 70
     0
  3

 72
    65
 73
     0
 40
0.0
  0
LTYPE
  5
14
330
5
100
AcDbSymbolTableRecord
100
AcDbLinetypeTableRecord
  2
ByLayer
 70
     0
  3

 72
    65
 73
     0
 40
0.0
  0
LTYPE
  5
15
330
5
100
AcDbSymbolTableRecord
100
AcDbLinetypeTableRecord
  2
Continuous
 70
     0
  3
Solid line
 72
    65
 73
     0
 40
0.0
  0
LTYPE
  5
25
330
5
100
AcDbSymbolTableRecord
100
AcDbLinetypeTableRecord
  2
STRICHPUNKT
 70
     0
  3
__ . __ . __ . __ . __ . __ . __ . __ . __ . __
 72
    65
 73
     4
 40
1.0
 49
0.5
 74
     0
 49
-0.25
 74
     0
 49
0.0
 74
     0
 49
-0.25
 74
     0
  0
ENDTAB
  0
TABLE
  2
LAYER
  5
2
330
0
100
AcDbSymbolTable
 70
     9
  0
LAYER
  5
10
330
2
100
AcDbSymbolTableRecord
100
AcDbLayerTableRecord
  2
0
 70
     0
 62
     7
  6
Continuous
370
    -3
390
F
  0
LAYER
  5
2A
330
2
100
AcDbSymbolTableRecord
100
AcDbLayerTableRecord
  2
VOLL
 70
     0
 62
     1
  6
Continuous
370
    -3
390
F
  0
LAYER
  5
2B
330
2
100
AcDbSymbolTableRecord
100
AcDbLayerTableRecord
  2
HILF
 70
     0
 62
     2
  6
Continuous
370
    -3
390
F
  0
LAYER
  5
2C
330
2
100
AcDbSymbolTableRecord
100
AcDbLayerTableRecord
  2
MITTEL
 70
     0
 62
     2
  6
STRICHPUNKT
370
    -3
390
F
  0
LAYER
  5
2F
330
2
100
AcDbSymbolTableRecord
100
AcDbLayerTableRecord
  2
BEM
 70
     0
 62
     7
  6
Continuous
370
    -3
390
F
  0
LAYER
  5
30
330
2
100
AcDbSymbolTableRecord
100
AcDbLayerTableRecord
  2
STEMPEL
 70
     0
 62
     3
  6
Continuous
370
    -3
390
F
  0
LAYER
  5
31
330
2
100
AcDbSymbolTableRecord
100
AcDbLayerTableRecord
  2
TEXT
 70
     0
 62
     7
  6
Continuous
370
    -3
390
F
  0
LAYER
  5
171
330
2
100
AcDbSymbolTableRecord
100
AcDbLayerTableRecord
  2
Defpoints
 70
     0
 62
     7
  6
Continuous
290
     0
370
    -3
390
F
  0
LAYER
  5
19C
330
2
100
AcDbSymbolTableRecord
100
AcDbLayerTableRecord
  2
SCHRAFF
 70
     0
 62
     7
  6
Continuous
370
    -3
390
F
  0
ENDTAB
  0
TABLE
  2
STYLE
  5
3
330
0
100
AcDbSymbolTable
 70
     2
  0
STYLE
  5
11
330
3
100
AcDbSymbolTableRecord
100
AcDbTextStyleTableRecord
  2
STANDARD
 70
     0
 40
0.0
 41
0.8
 50
0.0
 71
     0
 42
3.5
  3
simplex.shx
  4

  0
STYLE
  5
24
330
3
100
AcDbSymbolTableRecord
100
AcDbTextStyleTableRecord
  2
GREEKS
 70
     0
 40
0.0
 41
0.8
 50
0.0
 71
     0
 42
2.5
  3
SIMPLEX.shx
  4

  0
ENDTAB
  0
TABLE
  2
VIEW
  5
6
330
0
100
AcDbSymbolTable
 70
     0
  0
ENDTAB
  0
TABLE
  2
UCS
  5
7
330
0
100
AcDbSymbolTable
 70
     0
  0
ENDTAB
  0
TABLE
  2
APPID
  5
9
330
0
100
AcDbSymbolTable
 70
     1
  0
APPID
  5
12
330
9
100
AcDbSymbolTableRecord
100
AcDbRegAppTableRecord
  2
ACAD
 70
     0
  0
ENDTAB
  0
TABLE
  2
DIMSTYLE
  5
A
330
0
100
AcDbSymbolTable
 70
     1
100
AcDbDimStyleTable
 71
     1
340
9D
  0
DIMSTYLE
105
9D
102
{ACAD_REACTORS
330
1239
330
1238
330
12DE
330
12DB
330
145E
330
146B
330
14B9
102
}
330
A
100
AcDbSymbolTableRecord
100
AcDbDimStyleTableRecord
  2
Standard
 70
     0
340
11
  0
ENDTAB
  0
TABLE
  2
BLOCK_RECORD
  5
1
330
0
100
AcDbSymbolTable
 70
     8
  0
BLOCK_RECORD
  5
1E
102
{ACAD_XDICTIONARY
360
A0
102
}
330
1
100
AcDbSymbolTableRecord
100
AcDbBlockTableRecord
  2
*Model_Space
340
21
  0
BLOCK_RECORD
  5
1A
102
{ACAD_XDICTIONARY
360
A2
102
}
330
1
100
AcDbSymbolTableRecord
100
AcDbBlockTableRecord
  2
*Paper_Space
340
1D
  0
BLOCK_RECORD
  5
22
330
1
100
AcDbSymbolTableRecord
100
AcDbBlockTableRecord
  2
LOGO
340
0
102
{BLKREFS
331
9B
102
}
  0
BLOCK_RECORD
  5
126F
330
1
100
AcDbSymbolTableRecord
100
AcDbBlockTableRecord
  2
*D1
340
0
  0
BLOCK_RECORD
  5
127B
330
1
100
AcDbSymbolTableRecord
100
AcDbBlockTableRecord
  2
*D2
340
0
  0
BLOCK_RECORD
  5
1336
330
1
100
AcDbSymbolTableRecord
100
AcDbBlockTableRecord
  2
*D3
340
0
  0
BLOCK_RECORD
  5
135C
330
1
100
AcDbSymbolTableRecord
100
AcDbBlockTableRecord
  2
*D4
340
0
  0
BLOCK_RECORD
  5
145F
330
1
100
AcDbSymbolTableRecord
100
AcDbBlockTableRecord
  2
*D5
340
0
  0
BLOCK_RECORD
  5
146C
330
1
100
AcDbSymbolTableRecord
100
AcDbBlockTableRecord
  2
*D6
340
0
  0
BLOCK_RECORD
  5
14BA
330
1
100
AcDbSymbolTableRecord
100
AcDbBlockTableRecord
  2
*D7
340
0
  0
ENDTAB
  0
ENDSEC
  0
SECTION
  2
BLOCKS
  0
BLOCK
  5
35
330
1E
100
AcDbEntity
  8
0
100
AcDbBlockBegin
  2
*Model_Space
 70
     0
 10
0.0
 20
0.0
 30
0.0
  3
*Model_Space
  1

  0
ENDBLK
  5
36
330
1E
100
AcDbEntity
  8
0
100
AcDbBlockEnd
  0
BLOCK
  5
33
330
1A
100
AcDbEntity
 67
     1
  8
0
100
AcDbBlockBegin
  2
*Paper_Space
 70
     0
 10
0.0
 20
0.0
 30
0.0
  3
*Paper_Space
  1

  0
ENDBLK
  5
34
330
1A
100
AcDbEntity
 67
     1
  8
0
100
AcDbBlockEnd
  0
BLOCK
  5
37
330
22
100
AcDbEntity
  8
0
100
AcDbBlockBegin
  2
LOGO
 70
     0
 10
0.0
 20
0.0
 30
0.0
  3
LOGO
  1

  0
ARC
  5
38
330
22
100
AcDbEntity
  8
0
100
AcDbCircle
 10
11.59973089678112
 20
-9.271599258481501
 30
0.0
 40
4.5
100
AcDbArc
 50
270.0
 51
231.0575587310159
  0
LINE
  5
39
330
22
100
AcDbEntity
  8
0
100
AcDbLine
 10
3.599730896781125
 20
-4.771599258481529
 30
0.0
 11
3.599730896781153
 21
-11.77159925848133
 31
0.0
  0
LINE
  5
3A
330
22
100
AcDbEntity
  8
0
100
AcDbLine
 10
2.599730896781125
 20
-4.771599258481529
 30
0.0
 11
2.599730896781153
 21
-11.77159925848133
 31
0.0
  0
CIRCLE
  5
3B
330
22
100
AcDbEntity
  8
0
100
AcDbCircle
 10
11.59973089678112
 20
-9.271599258481501
 30
0.0
 40
3.5
  0
ARC
  5
3C
330
22
100
AcDbEntity
  8
0
100
AcDbCircle
 10
31.59973089678115
 20
-9.271599258481472
 30
0.0
 40
4.5
100
AcDbArc
 50
270.0
 51
231.0575587310182
  0
LINE
  5
3D
330
22
100
AcDbEntity
  8
0
100
AcDbLine
 10
17.59973089678112
 20
-4.771599258481472
 30
0.0
 11
17.59973089678115
 21
-13.77159925848147
 31
0.0
  0
ARC
  5
3E
330
22
100
AcDbEntity
  8
0
100
AcDbCircle
 10
22.59973089678116
 20
-7.271599258481472
 30
0.0
 40
2.5
100
AcDbArc
 50
293.1161887722295
 51
90.0
  0
CIRCLE
  5
3F
330
22
100
AcDbEntity
  8
0
100
AcDbCircle
 10
31.59973089678115
 20
-9.271599258481472
 30
0.0
 40
3.5
  0
ARC
  5
40
330
22
100
AcDbEntity
  8
0
100
AcDbCircle
 10
4.599730896781153
 20
-11.77159925848133
 30
0.0
 40
1.0
100
AcDbArc
 50
180.0
 51
270.0
  0
ARC
  5
41
330
22
100
AcDbEntity
  8
0
100
AcDbCircle
 10
4.599730896781153
 20
-11.77159925848133
 30
0.0
 40
2.0
100
AcDbArc
 50
179.9999999999992
 51
270.0
  0
LINE
  5
42
330
22
100
AcDbEntity
  8
0
100
AcDbLine
 10
11.59973089678115
 20
-13.77159925848144
 30
0.0
 11
4.599730896781153
 21
-13.77159925848147
 31
0.0
  0
LINE
  5
43
330
22
100
AcDbEntity
  8
0
100
AcDbLine
 10
8.771303772034769
 20
-12.77159925848136
 30
0.0
 11
4.599730896781153
 21
-12.77159925848133
 31
0.0
  0
LINE
  5
44
330
22
100
AcDbEntity
  8
0
100
AcDbLine
 10
31.59973089678115
 20
-13.77159925848147
 30
0.0
 11
23.6715276665056
 21
-13.77159925848144
 31
0.0
  0
LINE
  5
45
330
22
100
AcDbEntity
  8
0
100
AcDbLine
 10
23.56565672307022
 20
-9.51278021337896
 30
0.0
 11
24.4388546544846
 21
-12.77159925848144
 31
0.0
  0
LINE
  5
46
330
22
100
AcDbEntity
  8
0
100
AcDbLine
 10
22.59973089678116
 20
-9.771599258481472
 30
0.0
 11
18.59973089678112
 21
-9.771599258481472
 31
0.0
  0
LINE
  5
47
330
22
100
AcDbEntity
  8
0
100
AcDbLine
 10
18.59973089678115
 20
-13.77159925848144
 30
0.0
 11
17.59973089678115
 21
-13.77159925848144
 31
0.0
  0
LINE
  5
48
330
22
100
AcDbEntity
  8
0
100
AcDbLine
 10
18.59973089678115
 20
-9.771599258481472
 30
0.0
 11
18.59973089678115
 21
-13.77159925848144
 31
0.0
  0
LINE
  5
49
330
22
100
AcDbEntity
  8
0
100
AcDbLine
 10
22.59973089678116
 20
-9.771599258481472
 30
0.0
 11
23.67152766650562
 21
-13.77159925848147
 31
0.0
  0
ARC
  5
4A
330
22
100
AcDbEntity
  8
0
100
AcDbCircle
 10
22.59973089678116
 20
-7.271599258481472
 30
0.0
 40
2.5
100
AcDbArc
 50
270.0
 51
270.0000000000007
  0
LINE
  5
4B
330
22
100
AcDbEntity
  8
0
100
AcDbLine
 10
28.77130377203494
 20
-12.77159925848147
 30
0.0
 11
24.43885465448463
 21
-12.77159925848144
 31
0.0
  0
LINE
  5
4C
330
22
100
AcDbEntity
  8
0
100
AcDbLine
 10
3.599730896781125
 20
-4.771599258481472
 30
0.0
 11
2.599730896781125
 21
-4.771599258481472
 31
0.0
  0
LINE
  5
4D
330
22
100
AcDbEntity
  8
0
100
AcDbLine
 10
22.59973089678116
 20
-8.771599258481472
 30
0.0
 11
18.59973089678115
 21
-8.771599258481472
 31
0.0
  0
LINE
  5
4E
330
22
100
AcDbEntity
  8
0
100
AcDbLine
 10
22.59973089678116
 20
-5.771599258481472
 30
0.0
 11
18.59973089678115
 21
-5.771599258481472
 31
0.0
  0
LINE
  5
4F
330
22
100
AcDbEntity
  8
0
100
AcDbLine
 10
22.59973089678116
 20
-4.771599258481472
 30
0.0
 11
17.59973089678115
 21
-4.771599258481472
 31
0.0
  0
LINE
  5
50
330
22
100
AcDbEntity
  8
0
100
AcDbLine
 10
18.59973089678115
 20
-5.771599258481472
 30
0.0
 11
18.59973089678115
 21
-8.771599258481472
 31
0.0
  0
ARC
  5
51
330
22
100
AcDbEntity
  8
0
100
AcDbCircle
 10
22.59973089678116
 20
-7.271599258481472
 30
0.0
 40
1.5
100
AcDbArc
 50
270.0
 51
90.0
  0
ENDBLK
  5
52
330
22
100
AcDbEntity
  8
0
100
AcDbBlockEnd
  0
BLOCK
  5
1279
330
126F
100
AcDbEntity
  8
0
100
AcDbBlockBegin
  2
*D1
 70
     1
 10
0.0
 20
0.0
 30
0.0
  3
*D1
  1

  0
LINE
  5
1543
330
126F
100
AcDbEntity
  8
BEM
 62
     0
370
    -2
100
AcDbLine
 10
188.7438178978441
 20
244.9408447122412
 30
0.0
 11
188.7438178978441
 21
219.7197420194914
 31
0.0
  0
LINE
  5
1544
330
126F
100
AcDbEntity
  8
BEM
 62
     0
370
    -2
100
AcDbLine
 10
241.743817897836
 20
244.9408447123287
 30
0.0
 11
241.743817897836
 21
219.7197420194914
 31
0.0
  0
LINE
  5
1545
330
126F
100
AcDbEntity
  8
BEM
 62
     0
370
    -2
100
AcDbLine
 10
195.7438178978441
 20
221.7197420194914
 30
0.0
 11
234.743817897836
 21
221.7197420194914
 31
0.0
  0
SOLID
  5
1546
330
126F
100
AcDbEntity
  8
BEM
 62
     0
100
AcDbTrace
 10
195.7438178978441
 20
222.8864086861581
 30
0.0
 11
195.7438178978441
 21
220.5530753528248
 31
0.0
 12
188.7438178978441
 22
221.7197420194914
 32
0.0
 13
188.7438178978441
 23
221.7197420194914
 33
0.0
  0
SOLID
  5
1547
330
126F
100
AcDbEntity
  8
BEM
 62
     0
100
AcDbTrace
 10
234.743817897836
 20
222.8864086861581
 30
0.0
 11
234.743817897836
 21
220.5530753528248
 31
0.0
 12
241.743817897836
 22
221.7197420194914
 32
0.0
 13
241.743817897836
 23
221.7197420194914
 33
0.0
  0
MTEXT
  5
1548
330
126F
100
AcDbEntity
  8
BEM
 62
     1
100
AcDbMText
 10
215.2438178978401
 20
228.2197420194914
 30
0.0
 40
7.0
 41
0.0
 71
     5
 72
     1
  1
\A1;%%c53
  7
GREEKS
 73
     1
 44
1.0
  0
POINT
  5
1549
330
126F
100
AcDbEntity
  8
Defpoints
 62
     0
100
AcDbPoint
 10
188.7438178978441
 20
246.9408447122412
 30
0.0
  0
POINT
  5
154A
330
126F
100
AcDbEntity
  8
Defpoints
 62
     0
100
AcDbPoint
 10
241.743817897836
 20
246.9408447123287
 30
0.0
  0
POINT
  5
154B
330
126F
100
AcDbEntity
  8
Defpoints
 62
     0
100
AcDbPoint
 10
241.743817897836
 20
221.7197420194914
 30
0.0
  0
ENDBLK
  5
127A
330
126F
100
AcDbEntity
  8
0
100
AcDbBlockEnd
  0
BLOCK
  5
1285
330
127B
100
AcDbEntity
  8
0
100
AcDbBlockBegin
  2
*D2
 70
     1
 10
0.0
 20
0.0
 30
0.0
  3
*D2
  1

  0
LINE
  5
154C
330
127B
100
AcDbEntity
  8
BEM
 62
     0
370
    -2
100
AcDbLine
 10
188.7438178978441
 20
244.9408447122412
 30
0.0
 11
188.7438178978441
 21
219.7197420194914
 31
0.0
  0
LINE
  5
154D
330
127B
100
AcDbEntity
  8
BEM
 62
     0
370
    -2
100
AcDbLine
 10
241.743817897836
 20
244.9408447123287
 30
0.0
 11
241.743817897836
 21
219.7197420194914
 31
0.0
  0
LINE
  5
154E
330
127B
100
AcDbEntity
  8
BEM
 62
     0
370
    -2
100
AcDbLine
 10
195.7438178978441
 20
221.7197420194914
 30
0.0
 11
234.743817897836
 21
221.7197420194914
 31
0.0
  0
SOLID
  5
154F
330
127B
100
AcDbEntity
  8
BEM
 62
     0
100
AcDbTrace
 10
195.7438178978441
 20
222.8864086861581
 30
0.0
 11
195.7438178978441
 21
220.5530753528248
 31
0.0
 12
188.7438178978441
 22
221.7197420194914
 32
0.0
 13
188.7438178978441
 23
221.7197420194914
 33
0.0
  0
SOLID
  5
1550
330
127B
100
AcDbEntity
  8
BEM
 62
     0
100
AcDbTrace
 10
234.743817897836
 20
222.8864086861581
 30
0.0
 11
234.743817897836
 21
220.5530753528248
 31
0.0
 12
241.743817897836
 22
221.7197420194914
 32
0.0
 13
241.743817897836
 23
221.7197420194914
 33
0.0
  0
MTEXT
  5
1551
330
127B
100
AcDbEntity
  8
BEM
 62
     1
100
AcDbMText
 10
215.2438178978401
 20
228.2197420194914
 30
0.0
 40
7.0
 41
0.0
 71
     5
 72
     1
  1
\A1;%%c53
  7
GREEKS
 73
     1
 44
1.0
  0
POINT
  5
1552
330
127B
100
AcDbEntity
  8
Defpoints
 62
     0
100
AcDbPoint
 10
188.7438178978441
 20
246.9408447122412
 30
0.0
  0
POINT
  5
1553
330
127B
100
AcDbEntity
  8
Defpoints
 62
     0
100
AcDbPoint
 10
241.743817897836
 20
246.9408447123287
 30
0.0
  0
POINT
  5
1554
330
127B
100
AcDbEntity
  8
Defpoints
 62
     0
100
AcDbPoint
 10
241.743817897836
 20
221.7197420194914
 30
0.0
  0
ENDBLK
  5
1286
330
127B
100
AcDbEntity
  8
0
100
AcDbBlockEnd
  0
BLOCK
  5
1340
330
1336
100
AcDbEntity
  8
0
100
AcDbBlockBegin
  2
*D3
 70
     1
 10
0.0
 20
0.0
 30
0.0
  3
*D3
  1

  0
LINE
  5
16B0
330
1336
100
AcDbEntity
  8
BEM
 62
     0
370
    -2
100
AcDbLine
 10
265.8041038717721
 20
459.5021677680391
 30
0.0
 11
272.8557182498853
 21
466.5537821461526
 31
0.0
  0
LINE
  5
16B1
330
1336
100
AcDbEntity
  8
BEM
 62
     0
370
    -2
100
AcDbLine
 10
328.7366073973745
 20
396.5696642424362
 30
0.0
 11
335.7882217754895
 21
403.6212786205513
 31
0.0
  0
LINE
  5
16B2
330
1336
100
AcDbEntity
  8
BEM
 62
     0
370
    -2
100
AcDbLine
 10
276.3912521558182
 20
460.1898211154739
 30
0.0
 11
329.4242607448105
 21
407.156812526484
 31
0.0
  0
SOLID
  5
16B3
330
1336
100
AcDbEntity
  8
BEM
 62
     0
100
AcDbTrace
 10
277.2162100672025
 20
461.0147790268581
 30
0.0
 11
275.5662942444339
 21
459.3648632040895
 31
0.0
 12
271.4415046875123
 22
465.1395685837796
 32
0.0
 13
271.4415046875123
 23
465.1395685837796
 33
0.0
  0
SOLID
  5
16B4
330
1336
100
AcDbEntity
  8
BEM
 62
     0
100
AcDbTrace
 10
330.2492186561947
 20
407.9817704378682
 30
0.0
 11
328.5993028334262
 21
406.3318546150997
 31
0.0
 12
334.3740082131164
 22
402.2070650581782
 32
0.0
 13
334.3740082131164
 23
402.2070650581782
 33
0.0
  0
MTEXT
  5
16B5
330
1336
100
AcDbEntity
  8
BEM
 62
     1
100
AcDbMText
 10
307.5039505280267
 20
438.2695108986915
 30
0.0
 40
7.0
 41
0.0
 71
     5
 72
     1
  1
\A1;%%c89
  7
GREEKS
 11
0.7071067811865632
 21
-0.7071067811865319
 31
0.0
 73
     1
 44
1.0
  0
POINT
  5
16B6
330
1336
100
AcDbEntity
  8
Defpoints
 62
     0
100
AcDbPoint
 10
264.389890309399
 20
458.087954205666
 30
0.0
  0
POINT
  5
16B7
330
1336
100
AcDbEntity
  8
Defpoints
 62
     0
100
AcDbPoint
 10
327.3223938350015
 20
395.1554506800631
 30
0.0
  0
POINT
  5
16B8
330
1336
100
AcDbEntity
  8
Defpoints
 62
     0
100
AcDbPoint
 10
334.3740082131164
 20
402.2070650581782
 30
0.0
  0
ENDBLK
  5
1341
330
1336
100
AcDbEntity
  8
0
100
AcDbBlockEnd
  0
BLOCK
  5
1366
330
135C
100
AcDbEntity
  8
0
100
AcDbBlockBegin
  2
*D4
 70
     1
 10
0.0
 20
0.0
 30
0.0
  3
*D4
  1

  0
LINE
  5
16B9
330
135C
100
AcDbEntity
  8
BEM
 62
     0
370
    -2
100
AcDbLine
 10
265.8041038717721
 20
459.5021677680391
 30
0.0
 11
272.8557182498853
 21
466.5537821461526
 31
0.0
  0
LINE
  5
16BA
330
135C
100
AcDbEntity
  8
BEM
 62
     0
370
    -2
100
AcDbLine
 10
328.7366073973745
 20
396.5696642424362
 30
0.0
 11
335.7882217754895
 21
403.6212786205513
 31
0.0
  0
LINE
  5
16BB
330
135C
100
AcDbEntity
  8
BEM
 62
     0
370
    -2
100
AcDbLine
 10
276.3912521558182
 20
460.1898211154739
 30
0.0
 11
329.4242607448105
 21
407.156812526484
 31
0.0
  0
SOLID
  5
16BC
330
135C
100
AcDbEntity
  8
BEM
 62
     0
100
AcDbTrace
 10
277.2162100672025
 20
461.0147790268581
 30
0.0
 11
275.5662942444339
 21
459.3648632040895
 31
0.0
 12
271.4415046875123
 22
465.1395685837796
 32
0.0
 13
271.4415046875123
 23
465.1395685837796
 33
0.0
  0
SOLID
  5
16BD
330
135C
100
AcDbEntity
  8
BEM
 62
     0
100
AcDbTrace
 10
330.2492186561947
 20
407.9817704378682
 30
0.0
 11
328.5993028334262
 21
406.3318546150997
 31
0.0
 12
334.3740082131164
 22
402.2070650581782
 32
0.0
 13
334.3740082131164
 23
402.2070650581782
 33
0.0
  0
MTEXT
  5
16BE
330
135C
100
AcDbEntity
  8
BEM
 62
     1
100
AcDbMText
 10
307.5039505280267
 20
438.2695108986915
 30
0.0
 40
7.0
 41
0.0
 71
     5
 72
     1
  1
\A1;%%c89
  7
GREEKS
 11
0.7071067811865632
 21
-0.7071067811865319
 31
0.0
 73
     1
 44
1.0
  0
POINT
  5
16BF
330
135C
100
AcDbEntity
  8
Defpoints
 62
     0
100
AcDbPoint
 10
264.389890309399
 20
458.087954205666
 30
0.0
  0
POINT
  5
16C0
330
135C
100
AcDbEntity
  8
Defpoints
 62
     0
100
AcDbPoint
 10
327.3223938350015
 20
395.1554506800631
 30
0.0
  0
POINT
  5
16C1
330
135C
100
AcDbEntity
  8
Defpoints
 62
     0
100
AcDbPoint
 10
334.3740082131164
 20
402.2070650581782
 30
0.0
  0
ENDBLK
  5
1367
330
135C
100
AcDbEntity
  8
0
100
AcDbBlockEnd
  0
BLOCK
  5
1469
330
145F
100
AcDbEntity
  8
0
100
AcDbBlockBegin
  2
*D5
 70
     1
 10
0.0
 20
0.0
 30
0.0
  3
*D5
  1

  0
LINE
  5
14EC
330
145F
100
AcDbEntity
  8
BEM
 62
     0
370
    -2
100
AcDbLine
 10
168.7438178978356
 20
272.0063361266972
 30
0.0
 11
148.1250871623155
 21
272.0063361266972
 31
0.0
  0
LINE
  5
14ED
330
145F
100
AcDbEntity
  8
BEM
 62
     0
370
    -2
100
AcDbLine
 10
187.1755314591507
 20
242.0063361266971
 30
0.0
 11
148.1250871623155
 21
242.0063361266971
 31
0.0
  0
LINE
  5
14EE
330
145F
100
AcDbEntity
  8
BEM
 62
     0
370
    -2
100
AcDbLine
 10
150.1250871623155
 20
265.0063361266973
 30
0.0
 11
150.1250871623155
 21
249.0063361266971
 31
0.0
  0
SOLID
  5
14EF
330
145F
100
AcDbEntity
  8
BEM
 62
     0
100
AcDbTrace
 10
148.9584204956489
 20
265.0063361266973
 30
0.0
 11
151.2917538289822
 21
265.0063361266973
 31
0.0
 12
150.1250871623155
 22
272.0063361266972
 32
0.0
 13
150.1250871623155
 23
272.0063361266972
 33
0.0
  0
SOLID
  5
14F0
330
145F
100
AcDbEntity
  8
BEM
 62
     0
100
AcDbTrace
 10
148.9584204956489
 20
249.0063361266971
 30
0.0
 11
151.2917538289822
 21
249.0063361266971
 31
0.0
 12
150.1250871623155
 22
242.0063361266971
 32
0.0
 13
150.1250871623155
 23
242.0063361266971
 33
0.0
  0
MTEXT
  5
14F1
330
145F
100
AcDbEntity
  8
BEM
 62
     1
100
AcDbMText
 10
143.6250871623155
 20
257.0063361266972
 30
0.0
 40
7.0
 41
0.0
 71
     5
 72
     1
  1
\A1;30
 11
0.0000000000000001
 21
1.0
 31
0.0
 73
     1
 44
1.0
  0
POINT
  5
14F2
330
145F
100
AcDbEntity
  8
Defpoints
 62
     0
100
AcDbPoint
 10
170.7438178978356
 20
272.0063361266972
 30
0.0
  0
POINT
  5
14F3
330
145F
100
AcDbEntity
  8
Defpoints
 62
     0
100
AcDbPoint
 10
189.1755314591507
 20
242.0063361266971
 30
0.0
  0
POINT
  5
14F4
330
145F
100
AcDbEntity
  8
Defpoints
 62
     0
100
AcDbPoint
 10
150.1250871623155
 20
242.0063361266971
 30
0.0
  0
ENDBLK
  5
146A
330
145F
100
AcDbEntity
  8
0
100
AcDbBlockEnd
  0
BLOCK
  5
1476
330
146C
100
AcDbEntity
  8
0
100
AcDbBlockBegin
  2
*D6
 70
     1
 10
0.0
 20
0.0
 30
0.0
  3
*D6
  1

  0
LINE
  5
14E3
330
146C
100
AcDbEntity
  8
BEM
 62
     0
370
    -2
100
AcDbLine
 10
213.2438178978358
 20
346.0093782684996
 30
0.0
 11
134.3082039349865
 21
346.0093782684996
 31
0.0
  0
LINE
  5
14E4
330
146C
100
AcDbEntity
  8
BEM
 62
     0
370
    -2
100
AcDbLine
 10
187.1755314591507
 20
242.0063361266971
 30
0.0
 11
134.3082039349865
 21
242.0063361266971
 31
0.0
  0
LINE
  5
14E5
330
146C
100
AcDbEntity
  8
BEM
 62
     0
370
    -2
100
AcDbLine
 10
136.3082039349865
 20
339.0093782684996
 30
0.0
 11
136.3082039349865
 21
249.0063361266971
 31
0.0
  0
SOLID
  5
14E6
330
146C
100
AcDbEntity
  8
BEM
 62
     0
100
AcDbTrace
 10
135.1415372683199
 20
339.0093782684996
 30
0.0
 11
137.4748706016532
 21
339.0093782684996
 31
0.0
 12
136.3082039349865
 22
346.0093782684996
 32
0.0
 13
136.3082039349865
 23
346.0093782684996
 33
0.0
  0
SOLID
  5
14E7
330
146C
100
AcDbEntity
  8
BEM
 62
     0
100
AcDbTrace
 10
135.1415372683199
 20
249.0063361266971
 30
0.0
 11
137.4748706016531
 21
249.0063361266971
 31
0.0
 12
136.3082039349865
 22
242.0063361266971
 32
0.0
 13
136.3082039349865
 23
242.0063361266971
 33
0.0
  0
MTEXT
  5
14E8
330
146C
100
AcDbEntity
  8
BEM
 62
     1
100
AcDbMText
 10
129.8082039349865
 20
294.0078571975984
 30
0.0
 40
7.0
 41
0.0
 71
     5
 72
     1
  1
\A1;104
 11
0.0000000000000001
 21
1.0
 31
0.0
 73
     1
 44
1.0
  0
POINT
  5
14E9
330
146C
100
AcDbEntity
  8
Defpoints
 62
     0
100
AcDbPoint
 10
215.2438178978358
 20
346.0093782684996
 30
0.0
  0
POINT
  5
14EA
330
146C
100
AcDbEntity
  8
Defpoints
 62
     0
100
AcDbPoint
 10
189.1755314591507
 20
242.0063361266971
 30
0.0
  0
POINT
  5
14EB
330
146C
100
AcDbEntity
  8
Defpoints
 62
     0
100
AcDbPoint
 10
136.3082039349865
 20
242.0063361266971
 30
0.0
  0
ENDBLK
  5
1477
330
146C
100
AcDbEntity
  8
0
100
AcDbBlockEnd
  0
BLOCK
  5
14C4
330
14BA
100
AcDbEntity
  8
0
100
AcDbBlockBegin
  2
*D7
 70
     1
 10
0.0
 20
0.0
 30
0.0
  3
*D7
  1

  0
LINE
  5
14CF
330
14BA
100
AcDbEntity
  8
BEM
 62
     0
370
    -2
100
AcDbLine
 10
213.8296043354627
 20
347.4235918308727
 30
0.0
 11
167.7837082501147
 21
393.4694879162204
 31
0.0
  0
LINE
  5
14D0
330
14BA
100
AcDbEntity
  8
BEM
 62
     0
370
    -2
100
AcDbLine
 10
262.9756767470259
 20
459.5021677680391
 30
0.0
 11
248.3960324244794
 21
474.0818120905855
 31
0.0
  0
LINE
  5
14D1
330
14BA
100
AcDbEntity
  8
BEM
 62
     0
370
    -2
100
AcDbLine
 10
174.1476692807936
 20
397.0050218221532
 30
0.0
 11
244.8604985185467
 21
467.7178510599065
 31
0.0
  0
SOLID
  5
14D2
330
14BA
100
AcDbEntity
  8
BEM
 62
     0
100
AcDbTrace
 10
173.3227113694093
 20
397.8299797335375
 30
0.0
 11
174.9726271921779
 21
396.1800639107689
 31
0.0
 12
169.1979218124878
 22
392.0552743538474
 32
0.0
 13
169.1979218124878
 23
392.0552743538474
 33
0.0
  0
SOLID
  5
14D3
330
14BA
100
AcDbEntity
  8
BEM
 62
     0
100
AcDbTrace
 10
244.0355406071624
 20
468.5428089712909
 30
0.0
 11
245.685456429931
 21
466.8928931485223
 31
0.0
 12
249.8102459868525
 22
472.6675985282124
 32
0.0
 13
249.8102459868525
 23
472.6675985282124
 33
0.0
  0
MTEXT
  5
14D4
330
14BA
100
AcDbEntity
  8
BEM
 62
     1
100
AcDbMText
 10
204.9078898219576
 20
436.9576305187425
 30
0.0
 40
7.0
 41
0.0
 71
     5
 72
     1
  1
\A1;114
 11
0.7071067811865455
 21
0.7071067811865496
 31
0.0
 73
     1
 44
1.0
  0
POINT
  5
14D5
330
14BA
100
AcDbEntity
  8
Defpoints
 62
     0
100
AcDbPoint
 10
215.2438178978358
 20
346.0093782684996
 30
0.0
  0
POINT
  5
14D6
330
14BA
100
AcDbEntity
  8
Defpoints
 62
     0
100
AcDbPoint
 10
264.389890309399
 20
458.0879542056661
 30
0.0
  0
POINT
  5
14D7
330
14BA
100
AcDbEntity
  8
Defpoints
 62
     0
100
AcDbPoint
 10
249.8102459868525
 20
472.6675985282124
 30
0.0
  0
ENDBLK
  5
14C5
330
14BA
100
AcDbEntity
  8
0
100
AcDbBlockEnd
  0
ENDSEC
  0
SECTION
  2
ENTITIES
  0
LINE
  5
57
330
1E
100
AcDbEntity
  8
STEMPEL
100
AcDbLine
 10
410.0
 20
110.0
 30
0.0
 11
39.99999999999997
 21
110.0
 31
0.0
  0
LINE
  5
58
330
1E
100
AcDbEntity
  8
STEMPEL
100
AcDbLine
 10
146.0000000000001
 20
109.9999999999999
 30
0.0
 11
146.0
 21
9.999999999999971
 31
0.0
  0
LINE
  5
59
330
1E
100
AcDbEntity
  8
STEMPEL
100
AcDbLine
 10
230.0
 20
110.0
 30
0.0
 11
230.0
 21
9.999999999999971
 31
0.0
  0
LINE
  5
5A
330
1E
100
AcDbEntity
  8
STEMPEL
100
AcDbLine
 10
332.0
 20
109.9999999999997
 30
0.0
 11
332.0
 21
40.0
 31
0.0
  0
LINE
  5
5B
330
1E
100
AcDbEntity
  8
STEMPEL
100
AcDbLine
 10
145.9999999999999
 20
29.99999999999997
 30
0.0
 11
39.99999999999997
 21
29.99999999999997
 31
0.0
  0
LINE
  5
5C
330
1E
100
AcDbEntity
  8
STEMPEL
100
AcDbLine
 10
410.0
 20
40.0
 30
0.0
 11
146.0000000000001
 21
39.99999999999997
 31
0.0
  0
LINE
  5
5D
330
1E
100
AcDbEntity
  8
STEMPEL
100
AcDbLine
 10
410.0
 20
80.0
 30
0.0
 11
146.0000000000001
 21
79.99999999999994
 31
0.0
  0
LINE
  5
5E
330
1E
100
AcDbEntity
  8
VOLL
100
AcDbLine
 10
54.00000000000009
 20
110.0
 30
0.0
 11
53.99999999999997
 21
9.999999999999971
 31
0.0
  0
LINE
  5
5F
330
1E
100
AcDbEntity
  8
VOLL
100
AcDbLine
 10
104.0000000000001
 20
109.9999999999999
 30
0.0
 11
104.0
 21
9.999999999999971
 31
0.0
  0
LINE
  5
60
330
1E
100
AcDbEntity
  8
VOLL
100
AcDbLine
 10
124.0000000000001
 20
109.9999999999999
 30
0.0
 11
124.0
 21
9.999999999999971
 31
0.0
  0
LINE
  5
61
330
1E
100
AcDbEntity
  8
VOLL
100
AcDbLine
 10
164.0000000000001
 20
79.99999999999994
 30
0.0
 11
164.0000000000001
 21
39.99999999999997
 31
0.0
  0
LINE
  5
62
330
1E
100
AcDbEntity
  8
VOLL
100
AcDbLine
 10
190.0000000000001
 20
109.9999999999998
 30
0.0
 11
190.0
 21
39.99999999999997
 31
0.0
  0
LINE
  5
63
330
1E
100
AcDbEntity
  8
HILF
100
AcDbLine
 10
40.00000000000008
 20
100.0
 30
0.0
 11
146.0000000000001
 21
100.0
 31
0.0
  0
LINE
  5
64
330
1E
100
AcDbEntity
  8
HILF
100
AcDbLine
 10
40.00000000000008
 20
90.00000000000005
 30
0.0
 11
146.0000000000001
 21
90.00000000000005
 31
0.0
  0
LINE
  5
65
330
1E
100
AcDbEntity
  8
HILF
100
AcDbLine
 10
40.00000000000008
 20
79.99999999999994
 30
0.0
 11
146.0000000000001
 21
79.99999999999994
 31
0.0
  0
LINE
  5
66
330
1E
100
AcDbEntity
  8
HILF
100
AcDbLine
 10
40.00000000000008
 20
69.99999999999994
 30
0.0
 11
146.0000000000001
 21
69.99999999999994
 31
0.0
  0
LINE
  5
67
330
1E
100
AcDbEntity
  8
HILF
100
AcDbLine
 10
40.00000000000008
 20
59.99999999999997
 30
0.0
 11
146.0000000000001
 21
59.99999999999997
 31
0.0
  0
LINE
  5
68
330
1E
100
AcDbEntity
  8
HILF
100
AcDbLine
 10
40.00000000000008
 20
49.99999999999997
 30
0.0
 11
146.0000000000001
 21
49.99999999999997
 31
0.0
  0
LINE
  5
69
330
1E
100
AcDbEntity
  8
HILF
100
AcDbLine
 10
40.00000000000008
 20
39.99999999999997
 30
0.0
 11
146.0000000000001
 21
39.99999999999997
 31
0.0
  0
LINE
  5
6A
330
1E
100
AcDbEntity
  8
HILF
100
AcDbLine
 10
146.0000000000001
 20
69.99999999999994
 30
0.0
 11
230.0
 21
69.99999999999994
 31
0.0
  0
LINE
  5
6B
330
1E
100
AcDbEntity
  8
HILF
100
AcDbLine
 10
146.0000000000001
 20
59.99999999999997
 30
0.0
 11
230.0
 21
59.99999999999997
 31
0.0
  0
LINE
  5
6C
330
1E
100
AcDbEntity
  8
HILF
100
AcDbLine
 10
146.0000000000001
 20
49.99999999999997
 30
0.0
 11
230.0
 21
49.99999999999997
 31
0.0
  0
LINE
  5
6D
330
1E
100
AcDbEntity
  8
HILF
100
AcDbLine
 10
234.7736801096947
 20
84.03758247564139
 30
0.0
 11
324.8353916556311
 21
84.03758247564139
 31
0.0
  0
LINE
  5
6E
330
1E
100
AcDbEntity
  8
HILF
100
AcDbLine
 10
234.7736801096947
 20
69.99999999999994
 30
0.0
 11
324.835391655631
 21
69.99999999999994
 31
0.0
  0
LINE
  5
6F
330
1E
100
AcDbEntity
  8
HILF
100
AcDbLine
 10
234.7736801096947
 20
59.99999999999997
 30
0.0
 11
324.835391655631
 21
59.99999999999997
 31
0.0
  0
LINE
  5
70
330
1E
100
AcDbEntity
  8
HILF
100
AcDbLine
 10
234.7736801096947
 20
49.99999999999997
 30
0.0
 11
324.835391655631
 21
49.99999999999997
 31
0.0
  0
LINE
  5
71
330
1E
100
AcDbEntity
  8
VOLL
100
AcDbLine
 10
332.0
 20
60.0
 30
0.0
 11
410.0
 21
60.0
 31
0.0
  0
LINE
  5
72
330
1E
100
AcDbEntity
  8
HILF
100
AcDbLine
 10
336.7238616296993
 20
83.77983636955827
 30
0.0
 11
404.8588839326728
 21
83.77983636955827
 31
0.0
  0
LINE
  5
73
330
1E
100
AcDbEntity
  8
HILF
100
AcDbLine
 10
233.4909699289885
 20
14.89398258028314
 30
0.0
 11
404.8588839326728
 21
14.89398258028314
 31
0.0
  0
TEXT
  5
74
330
1E
100
AcDbEntity
  8
TEXT
100
AcDbText
 10
67.79509897490102
 20
18.67381894984132
 30
0.0
 40
4.0
  1
Änderung
 41
0.8
  7
GREEKS
 72
     1
 11
78.53795611775817
 21
18.67381894984132
 31
0.0
100
AcDbText
  0
TEXT
  5
75
330
1E
100
AcDbEntity
  8
TEXT
100
AcDbText
 10
153.5163572150377
 20
102.4620895087088
 30
0.0
 40
5.0
  1
Maßstab
 41
0.8
  7
GREEKS
100
AcDbText
  0
TEXT
  5
76
330
1E
100
AcDbEntity
  8
TEXT
100
AcDbText
 10
194.2858954734051
 20
102.4184168434819
 30
0.0
 40
5.0
  1
Zul. Abw.
 41
0.8
  7
GREEKS
100
AcDbText
  0
TEXT
  5
77
330
1E
100
AcDbEntity
  8
TEXT
100
AcDbText
 10
234.877940380901
 20
102.5489328011779
 30
0.0
 40
5.0
  1
Benennung
 41
0.8
  7
GREEKS
100
AcDbText
  0
TEXT
  5
78
330
1E
100
AcDbEntity
  8
TEXT
100
AcDbText
 10
336.178754957634
 20
102.3132034537136
 30
0.0
 40
5.0
  1
Zeichnungs Nr.
 41
0.8
  7
GREEKS
100
AcDbText
  0
TEXT
  5
79
330
1E
100
AcDbEntity
  8
TEXT
100
AcDbText
 10
234.742238391136
 20
30.84560570193057
 30
0.0
 40
5.0
  1
Bauvorhaben
 41
0.8
  7
GREEKS
100
AcDbText
  0
TEXT
  5
7A
330
1E
100
AcDbEntity
  8
TEXT
100
AcDbText
 10
336.7238616296993
 20
73.1811823709997
 30
0.0
 40
5.0
  1
Ersatz für:
 41
0.8
  7
GREEKS
100
AcDbText
  0
TEXT
  5
7B
330
1E
100
AcDbEntity
  8
TEXT
100
AcDbText
 10
48.26641107045756
 20
13.65465846027192
 30
0.0
 40
4.0
  1
Index
 50
90.0
 41
0.8
  7
GREEKS
100
AcDbText
  0
TEXT
  5
7C
330
1E
100
AcDbEntity
  8
TEXT
100
AcDbText
 10
110.6986119235389
 20
18.6715626933981
 30
0.0
 40
4.0
  1
Tag
 41
0.8
  7
GREEKS
 72
     1
 11
114.4319452568723
 21
18.6715626933981
 31
0.0
100
AcDbText
  0
TEXT
  5
7D
330
1E
100
AcDbEntity
  8
TEXT
100
AcDbText
 10
129.0122744386592
 20
18.59324216966408
 30
0.0
 40
4.0
  1
Name
 41
0.8
  7
GREEKS
 72
     1
 11
135.3360839624688
 21
18.59324216966408
 31
0.0
100
AcDbText
  0
TEXT
  5
7E
330
1E
100
AcDbEntity
  8
TEXT
100
AcDbText
 10
172.331167315365
 20
73.31880501229926
 30
0.0
 40
4.0
  1
Tag
 41
0.8
  7
GREEKS
100
AcDbText
  0
TEXT
  5
7F
330
1E
100
AcDbEntity
  8
TEXT
100
AcDbText
 10
202.4626584226295
 20
73.30961091915225
 30
0.0
 40
4.0
  1
Name
 41
0.8
  7
GREEKS
100
AcDbText
  0
TEXT
  5
80
330
1E
100
AcDbEntity
  8
TEXT
100
AcDbText
 10
147.5836127167615
 20
63.62990369617964
 30
0.0
 40
4.0
  1
Gez.
 41
0.8
  7
GREEKS
100
AcDbText
  0
TEXT
  5
81
330
1E
100
AcDbEntity
  8
TEXT
100
AcDbText
 10
147.5515086571672
 20
53.68926291428377
 30
0.0
 40
4.0
  1
Gepr.
 41
0.8
  7
GREEKS
100
AcDbText
  0
TEXT
  5
82
330
1E
100
AcDbEntity
  8
TEXT
100
AcDbText
 10
147.6006777387303
 20
43.52946389649807
 30
0.0
 40
4.0
  1
Norm.
 41
0.8
  7
GREEKS
100
AcDbText
  0
LINE
  5
83
330
1E
100
AcDbEntity
  8
STEMPEL
100
AcDbLine
 10
49.99999999999989
 20
10.0
 30
0.0
 11
410.0
 21
10.0
 31
0.0
  0
TEXT
  5
84
330
1E
100
AcDbEntity
  8
TEXT
100
AcDbText
 10
337.2400861497006
 20
52.07416177878602
 30
0.0
 40
5.0
  1
ersetzt durch:
 41
0.8
  7
GREEKS
100
AcDbText
  0
LINE
  5
85
330
1E
100
AcDbEntity
  8
STEMPEL
100
AcDbLine
 10
410.0
 20
10.0
 30
0.0
 11
39.99999999999989
 21
10.0
 31
0.0
  0
LINE
  5
86
330
1E
100
AcDbEntity
  8
STEMPEL
100
AcDbLine
 10
410.0
 20
10.0
 30
0.0
 11
410.0
 21
584.0
 31
0.0
  0
LINE
  5
87
330
1E
100
AcDbEntity
  8
STEMPEL
100
AcDbLine
 10
40.0
 20
10.0
 30
0.0
 11
39.99999999999989
 21
584.0
 31
0.0
  0
LINE
  5
88
330
1E
100
AcDbEntity
  8
STEMPEL
100
AcDbLine
 10
410.0
 20
584.0
 30
0.0
 11
39.99999999999989
 21
584.0
 31
0.0
  0
LINE
  5
89
330
1E
100
AcDbEntity
  8
HILF
100
AcDbLine
 10
0.0
 20
0.0
 30
0.0
 11
-0.0000000000001137
 21
594.0
 31
0.0
  0
LINE
  5
8A
330
1E
100
AcDbEntity
  8
HILF
100
AcDbLine
 10
419.9999999999999
 20
594.0000000000002
 30
0.0
 11
0.0
 21
594.0
 31
0.0
  0
LINE
  5
8B
330
1E
100
AcDbEntity
  8
HILF
100
AcDbLine
 10
420.0
 20
0.0
 30
0.0
 11
0.0
 21
0.0
 31
0.0
  0
LINE
  5
8C
330
1E
100
AcDbEntity
  8
HILF
100
AcDbLine
 10
31.08767135713856
 20
297.0
 30
0.0
 11
0.0000000000001137
 21
297.0
 31
0.0
  0
LINE
  5
8E
330
1E
100
AcDbEntity
  8
HILF
100
AcDbLine
 10
420.0
 20
-0.0000000000001137
 30
0.0
 11
419.9999999999999
 21
594.0
 31
0.0
  0
TEXT
  5
8F
330
1E
100
AcDbEntity
  8
VOLL
100
AcDbText
 10
78.07675471698113
 20
31.02594776470585
 30
0.0
 40
1.8
  1

  7
GREEKS
100
AcDbText
  0
TEXT
  5
90
330
1E
100
AcDbEntity
  8
TEXT
100
AcDbText
 10
41.85509950977674
 20
111.6719999999999
 30
0.0
 40
5.0
  1
Erstellt mit AUTOCAD 2004
 41
0.8
  7
GREEKS
100
AcDbText
  0
TEXT
  5
91
330
1E
100
AcDbEntity
  8
TEXT
100
AcDbText
 10
204.4216048581257
 20
63.0896391972351
 30
0.0
 40
4.0
  1
Koeh
 41
0.8
  7
GREEKS
 72
     1
 11
209.6787477152686
 21
63.0896391972351
 31
0.0
100
AcDbText
  0
TEXT
  5
92
330
1E
100
AcDbEntity
  8
TEXT
 62
     1
100
AcDbText
 10
346.7764207350748
 20
88.14901428913959
 30
0.0
 40
7.0
  1
58032050W
 41
0.8
  7
GREEKS
 72
     1
 11
370.7764207350748
 21
88.14901428913959
 31
0.0
100
AcDbText
  0
TEXT
  5
93
330
1E
100
AcDbEntity
  8
TEXT
 62
     1
100
AcDbText
 10
160.5006306481887
 20
88.14901428913959
 30
0.0
 40
7.0
  1
1:2
 41
0.8
  7
GREEKS
100
AcDbText
  0
TEXT
  5
95
330
1E
100
AcDbEntity
  8
TEXT
 62
     1
100
AcDbText
 10
236.8935731057402
 20
87.41748789253779
 30
0.0
 40
7.0
  1
Verbundrohr DN50
 41
0.8
  7
GREEKS
100
AcDbText
  0
TEXT
  5
98
330
1E
100
AcDbEntity
  8
TEXT
100
AcDbText
 10
235.1296391125315
 20
51.64011943042158
 30
0.0
 40
5.0
  1
EDV-Art.Nr. 58032.050X
 41
0.8
  7
GREEKS
100
AcDbText
  0
TEXT
  5
99
330
1E
100
AcDbEntity
  8
TEXT
100
AcDbText
 10
234.9837501577827
 20
42.62974153022632
 30
0.0
 40
4.0
  1
58032050W.DWG
 41
0.8
  7
GREEKS
100
AcDbText
  0
TEXT
  5
9A
330
1E
100
AcDbEntity
  8
TEXT
100
AcDbText
 10
192.626132208084
 20
90.76363841023022
 30
0.0
 40
4.0
  1
DIN EN1123-2
 41
0.8
  7
GREEKS
 72
     1
 11
209.6166083985602
 21
90.76363841023022
 31
0.0
100
AcDbText
  0
INSERT
  5
9B
330
1E
100
AcDbEntity
  8
STEMPEL
100
AcDbBlockReference
  2
LOGO
 10
150.9955485457794
 20
45.02105276448322
 30
0.0
 41
2.0
 42
2.0
 43
2.0
  0
TEXT
  5
210
330
1E
100
AcDbEntity
  8
TEXT
 62
     1
100
AcDbText
 10
249.8907046801682
 20
196.9713629716657
 30
0.0
 40
7.0
  1
Rohrende leicht eingezogen
 41
0.8
  7
GREEKS
100
AcDbText
  0
TEXT
  5
2C0
330
1E
100
AcDbEntity
  8
BEM
100
AcDbText
 10
417.3022923857165
 20
10.16790107998861
 30
0.0
 40
4.0
  1
Diese Zeichnung ist urheberrechtlich geschützt und bleibt unser Eigentum. Sie darf weder ganz noch teilweise verfielfältigt und nicht an Dritte weitergegeben werden.
 50
90.0
 41
0.8
  7
GREEKS
100
AcDbText
  0
TEXT
  5
77A
330
1E
100
AcDbEntity
  8
TEXT
100
AcDbText
 10
235.1296391125315
 20
71.64011943042154
 30
0.0
 40
5.0
  1
Bogen 45°
 41
0.8
  7
GREEKS
100
AcDbText
  0
TEXT
  5
78C
330
1E
100
AcDbEntity
  8
TEXT
 62
     1
100
AcDbText
 10
255.030129115258
 20
129.7422179729062
 30
0.0
 40
7.0
  1
und innenbeschichtet
 41
0.8
  7
GREEKS
100
AcDbText
  0
TEXT
  5
78D
330
1E
100
AcDbEntity
  8
TEXT
 62
     1
100
AcDbText
 10
199.8811895945471
 20
117.1473825875242
 30
0.0
 40
7.0
  1
Dämmung: 2 K-PU-Schaum
 41
0.8
  7
GREEKS
100
AcDbText
  0
TEXT
  5
78E
330
1E
100
AcDbEntity
  8
TEXT
 62
     1
100
AcDbText
 10
207.3756002392443
 20
141.011271812132
 30
0.0
 40
7.0
  1
Innenrohr: E195 EN10305 feuerverzinkt
 41
0.8
  7
GREEKS
100
AcDbText
  0
TEXT
  5
78F
330
1E
100
AcDbEntity
  8
TEXT
 62
     1
100
AcDbText
 10
203.6033828683802
 20
152.364339848487
 30
0.0
 40
7.0
  1
Außenrohr: E195 EN10305 feuerverzinkt
 41
0.8
  7
GREEKS
100
AcDbText
  0
ARC
  5
1177
102
{ACAD_REACTORS
330
15AF
330
163E
102
}
330
1E
100
AcDbEntity
  8
STEMPEL
100
AcDbCircle
 10
297.7438178978362
 20
311.8367593727198
 30
0.0
 40
56.0
100
AcDbArc
 50
134.9999999999998
 51
180.0
  0
ARC
  5
1178
102
{ACAD_REACTORS
330
15AF
330
163E
102
}
330
1E
100
AcDbEntity
  8
STEMPEL
100
AcDbCircle
 10
297.7438178978362
 20
311.8367593727198
 30
0.0
 40
109.0
100
AcDbArc
 50
135.000000000002
 51
180.000000000002
  0
ARC
  5
1179
330
1E
100
AcDbEntity
  8
MITTEL
100
AcDbCircle
 10
297.7438178978362
 20
311.8367593727198
 30
0.0
 40
82.5
100
AcDbArc
 50
135.0
 51
180.0
  0
LINE
  5
117B
330
1E
100
AcDbEntity
  8
MITTEL
100
AcDbLine
 10
215.2438178978358
 20
346.0093782684996
 30
0.0
 11
215.2438178978364
 21
237.0063361266971
 31
0.0
  0
LINE
  5
1186
330
1E
100
AcDbEntity
  8
MITTEL
100
AcDbLine
 10
299.391675978133
 20
430.1572363487972
 30
0.0
 11
215.2438178978358
 21
346.0093782684996
 31
0.0
  0
LINE
  5
1215
330
1E
100
AcDbEntity
  8
STEMPEL
100
AcDbLine
 10
240.2438178978361
 20
311.7167593727197
 30
0.0
 11
240.2438178978361
 21
247.0063361266909
 31
0.0
  0
LINE
  5
1216
102
{ACAD_REACTORS
330
15AF
102
}
330
1E
100
AcDbEntity
  8
STEMPEL
100
AcDbLine
 10
240.2438178978361
 20
311.8367593727198
 30
0.0
 11
240.2438178978361
 21
247.0063361266909
 31
0.0
  0
LINE
  5
1217
330
1E
100
AcDbEntity
  8
STEMPEL
100
AcDbLine
 10
241.743817897836
 20
311.7167593727197
 30
0.0
 11
241.743817897836
 21
246.9408447123287
 31
0.0
  0
LINE
  5
1218
102
{ACAD_REACTORS
330
15AF
330
163E
102
}
330
1E
100
AcDbEntity
  8
STEMPEL
100
AcDbLine
 10
241.743817897836
 20
311.8367593727198
 30
0.0
 11
241.743817897836
 21
246.9408447123287
 31
0.0
  0
LINE
  5
1219
102
{ACAD_REACTORS
330
163E
102
}
330
1E
100
AcDbEntity
  8
STEMPEL
100
AcDbLine
 10
258.1438178978361
 20
328.2396164426946
 30
0.0
 11
258.1438178978363
 21
272.0063361266969
 31
0.0
  0
LINE
  5
121A
102
{ACAD_REACTORS
330
1422
102
}
330
1E
100
AcDbEntity
  8
STEMPEL
100
AcDbLine
 10
259.7438178978363
 20
327.5768747428975
 30
0.0
 11
259.7438178978363
 21
270.0063361266967
 31
0.0
  0
LINE
  5
121B
330
1E
100
AcDbEntity
  8
STEMPEL
100
AcDbLine
 10
257.5850855859684
 20
288.0063361266971
 30
0.0
 11
241.7438178978365
 21
288.0063361266971
 31
0.0
  0
LINE
  5
121C
330
1E
100
AcDbEntity
  8
STEMPEL
100
AcDbLine
 10
259.7438178978355
 20
272.0063361266969
 30
0.0
 11
258.1438178978363
 21
272.0063361266969
 31
0.0
  0
LINE
  5
121D
330
1E
100
AcDbEntity
  8
STEMPEL
100
AcDbLine
 10
245.7438178978364
 20
278.0063361266972
 30
0.0
 11
241.7438178978365
 21
278.0063361266972
 31
0.0
  0
LINE
  5
121F
330
1E
100
AcDbEntity
  8
STEMPEL
100
AcDbLine
 10
258.1438178978364
 20
272.0063361266972
 30
0.0
 11
257.5850855859684
 21
288.0063361266971
 31
0.0
  0
LINE
  5
1220
102
{ACAD_REACTORS
330
163E
102
}
330
1E
100
AcDbEntity
  8
STEMPEL
100
AcDbLine
 10
257.5850855859684
 20
288.0063361266971
 30
0.0
 11
241.7438178978365
 21
288.0063361266971
 31
0.0
  0
LINE
  5
1222
330
1E
100
AcDbEntity
  8
STEMPEL
100
AcDbLine
 10
245.7438178978364
 20
278.0063361266972
 30
0.0
 11
241.7438178978365
 21
278.0063361266972
 31
0.0
  0
LINE
  5
1224
102
{ACAD_REACTORS
330
163E
102
}
330
1E
100
AcDbEntity
  8
STEMPEL
100
AcDbLine
 10
258.1438178978364
 20
272.0063361266972
 30
0.0
 11
257.5850855859684
 21
288.0063361266971
 31
0.0
  0
LINE
  5
1225
330
1E
100
AcDbEntity
  8
STEMPEL
100
AcDbLine
 10
190.2438178978359
 20
311.7167593727197
 30
0.0
 11
190.2438178978359
 21
247.0063361266971
 31
0.0
  0
LINE
  5
1226
330
1E
100
AcDbEntity
  8
STEMPEL
100
AcDbLine
 10
188.7438178978418
 20
311.716759372716
 30
0.0
 11
188.7438178978441
 21
246.9408447122412
 31
0.0
  0
LINE
  5
1227
102
{ACAD_REACTORS
330
15AF
102
}
330
1E
100
AcDbEntity
  8
STEMPEL
100
AcDbLine
 10
190.2438178978359
 20
311.8367593727198
 30
0.0
 11
190.2438178978359
 21
247.0063361266971
 31
0.0
  0
LINE
  5
1228
102
{ACAD_REACTORS
330
15AF
330
163E
102
}
330
1E
100
AcDbEntity
  8
STEMPEL
100
AcDbLine
 10
188.7438178978419
 20
311.8367593727159
 30
0.0
 11
188.7438178978441
 21
246.9408447122412
 31
0.0
  0
LINE
  5
1229
102
{ACAD_REACTORS
330
163E
102
}
330
1E
100
AcDbEntity
  8
STEMPEL
100
AcDbLine
 10
172.3438178978363
 20
363.7791400943058
 30
0.0
 11
172.3438178978364
 21
272.0063361266972
 31
0.0
  0
LINE
  5
122A
330
1E
100
AcDbEntity
  8
STEMPEL
100
AcDbLine
 10
172.9025502097043
 20
288.0063361266971
 30
0.0
 11
188.7438178978364
 21
288.0063361266971
 31
0.0
  0
LINE
  5
122C
330
1E
100
AcDbEntity
  8
STEMPEL
100
AcDbLine
 10
172.3438178978364
 20
272.0063361266972
 30
0.0
 11
170.7438178978356
 21
272.0063361266972
 31
0.0
  0
LINE
  5
122D
330
1E
100
AcDbEntity
  8
STEMPEL
100
AcDbLine
 10
172.3438178978364
 20
272.0063361266972
 30
0.0
 11
172.9025502097043
 21
288.0063361266971
 31
0.0
  0
LINE
  5
122E
330
1E
100
AcDbEntity
  8
STEMPEL
100
AcDbLine
 10
184.7438178978364
 20
278.0063361266972
 30
0.0
 11
188.7438178978364
 21
278.0063361266972
 31
0.0
  0
LINE
  5
122F
102
{ACAD_REACTORS
330
163E
102
}
330
1E
100
AcDbEntity
  8
STEMPEL
100
AcDbLine
 10
172.9025502097043
 20
288.0063361266971
 30
0.0
 11
188.7438178978364
 21
288.0063361266971
 31
0.0
  0
LINE
  5
1232
102
{ACAD_REACTORS
330
163E
102
}
330
1E
100
AcDbEntity
  8
STEMPEL
100
AcDbLine
 10
172.3438178978364
 20
272.0063361266972
 30
0.0
 11
172.9025502097043
 21
288.0063361266971
 31
0.0
  0
LINE
  5
1233
330
1E
100
AcDbEntity
  8
STEMPEL
100
AcDbLine
 10
184.7438178978364
 20
278.0063361266972
 30
0.0
 11
188.7438178978364
 21
278.0063361266972
 31
0.0
  0
LINE
  5
1234
102
{ACAD_REACTORS
330
1422
102
}
330
1E
100
AcDbEntity
  8
STEMPEL
100
AcDbLine
 10
170.7438178978364
 20
364.4418817941032
 30
0.0
 11
170.7438178978364
 21
270.0063361266973
 31
0.0
  0
DIMENSION
  5
1238
330
1E
100
AcDbEntity
  8
BEM
100
AcDbDimension
  2
*D2
 10
241.743817897836
 20
221.7197420194914
 30
0.0
 11
215.2438178978401
 21
228.2197420194914
 31
0.0
 70
    32
  1
%%c<>
 71
     5
 42
52.99999999999193
  3
Standard
100
AcDbAlignedDimension
 13
188.7438178978441
 23
246.9408447122412
 33
0.0
 14
241.743817897836
 24
246.9408447123287
 34
0.0
100
AcDbRotatedDimension
1001
ACAD
1000
DSTYLE
1002
{
1070
    40
1040
2.0
1070
    41
1040
3.5
1070
    42
1040
1.0
1070
    43
1040
7.0
1070
    44
1040
1.0
1070
    73
1070
     0
1070
    74
1070
     0
1070
    77
1070
     1
1070
    78
1070
     8
1070
    79
1070
     2
1070
   140
1040
3.5
1070
   141
1040
1.5
1070
   146
1040
0.5142857142857144
1070
   147
1040
1.5
1070
   172
1070
     1
1070
   178
1070
     1
1070
   179
1070
     2
1070
   271
1070
     2
1070
   272
1070
     2
1070
   284
1070
     8
1070
   285
1070
     8
1070
   286
1070
     8
1070
   289
1070
     0
1070
   340
1005
24
1002
}
  0
DIMENSION
  5
1239
330
1E
100
AcDbEntity
  8
BEM
100
AcDbDimension
  2
*D1
 10
241.743817897836
 20
221.7197420194914
 30
0.0
 11
215.2438178978401
 21
228.2197420194914
 31
0.0
 70
    32
  1
%%c<>
 71
     5
 42
52.99999999999193
  3
Standard
100
AcDbAlignedDimension
 13
188.7438178978441
 23
246.9408447122412
 33
0.0
 14
241.743817897836
 24
246.9408447123287
 34
0.0
100
AcDbRotatedDimension
1001
ACAD
1000
DSTYLE
1002
{
1070
    40
1040
2.0
1070
    41
1040
3.5
1070
    42
1040
1.0
1070
    43
1040
7.0
1070
    44
1040
1.0
1070
    73
1070
     0
1070
    74
1070
     0
1070
    77
1070
     1
1070
    78
1070
     8
1070
    79
1070
     2
1070
   140
1040
3.5
1070
   141
1040
1.5
1070
   146
1040
0.5142857142857144
1070
   147
1040
1.5
1070
   172
1070
     1
1070
   178
1070
     1
1070
   179
1070
     2
1070
   271
1070
     2
1070
   272
1070
     2
1070
   284
1070
     8
1070
   285
1070
     8
1070
   286
1070
     8
1070
   289
1070
     0
1070
   340
1005
24
1002
}
  0
LINE
  5
123A
330
1E
100
AcDbEntity
  8
HILF
100
AcDbLine
 10
238.7380881415217
 20
247.0063361266971
 30
0.0
 11
191.7495476541509
 21
247.006336126697
 31
0.0
  0
LINE
  5
123B
330
1E
100
AcDbEntity
  8
STEMPEL
100
AcDbLine
 10
241.312104336522
 20
242.0063361266971
 30
0.0
 11
189.1755314591507
 21
242.0063361266971
 31
0.0
  0
LINE
  5
123C
330
1E
100
AcDbEntity
  8
STEMPEL
100
AcDbLine
 10
188.7438178978441
 20
246.9408447122412
 30
0.0
 11
189.1755314591507
 21
242.0063361266971
 31
0.0
  0
LINE
  5
123D
330
1E
100
AcDbEntity
  8
STEMPEL
100
AcDbLine
 10
190.2438178978359
 20
247.0063361266972
 30
0.0
 11
190.6812612154656
 21
242.006336126697
 31
0.0
  0
LINE
  5
123E
330
1E
100
AcDbEntity
  8
STEMPEL
100
AcDbLine
 10
240.2438178978361
 20
247.0063361266909
 30
0.0
 11
239.8063745802072
 21
242.0063361266971
 31
0.0
  0
LINE
  5
123F
330
1E
100
AcDbEntity
  8
STEMPEL
100
AcDbLine
 10
241.743817897836
 20
246.9408447123287
 30
0.0
 11
241.312104336522
 21
242.0063361266971
 31
0.0
  0
LINE
  5
1240
330
1E
100
AcDbEntity
  8
HILF
100
AcDbLine
 10
238.7380881415217
 20
247.0063361266971
 30
0.0
 11
191.7495476541509
 21
247.006336126697
 31
0.0
  0
LINE
  5
1241
102
{ACAD_REACTORS
330
15AF
102
}
330
1E
100
AcDbEntity
  8
STEMPEL
100
AcDbLine
 10
241.312104336522
 20
242.0063361266971
 30
0.0
 11
189.1755314591507
 21
242.0063361266971
 31
0.0
  0
LINE
  5
1242
102
{ACAD_REACTORS
330
15AF
102
}
330
1E
100
AcDbEntity
  8
STEMPEL
100
AcDbLine
 10
188.7438178978441
 20
246.9408447122412
 30
0.0
 11
189.1755314591507
 21
242.0063361266971
 31
0.0
  0
LINE
  5
1243
102
{ACAD_REACTORS
330
15AF
102
}
330
1E
100
AcDbEntity
  8
STEMPEL
100
AcDbLine
 10
190.2438178978359
 20
247.0063361266972
 30
0.0
 11
190.6812612154656
 21
242.006336126697
 31
0.0
  0
LINE
  5
1244
102
{ACAD_REACTORS
330
15AF
102
}
330
1E
100
AcDbEntity
  8
STEMPEL
100
AcDbLine
 10
240.2438178978361
 20
247.0063361266909
 30
0.0
 11
239.8063745802072
 21
242.0063361266971
 31
0.0
  0
LINE
  5
1245
102
{ACAD_REACTORS
330
15AF
102
}
330
1E
100
AcDbEntity
  8
STEMPEL
100
AcDbLine
 10
241.743817897836
 20
246.9408447123287
 30
0.0
 11
241.312104336522
 21
242.0063361266971
 31
0.0
  0
LINE
  5
12B9
102
{ACAD_REACTORS
330
15DC
330
15F6
330
163E
102
}
330
1E
100
AcDbEntity
  8
STEMPEL
100
AcDbLine
 10
265.5212611592974
 20
456.9565833557674
 30
0.0
 11
172.3438178978363
 21
363.7791400943058
 31
0.0
  0
LINE
  5
12BA
102
{ACAD_REACTORS
330
1422
330
15DC
102
}
330
1E
100
AcDbEntity
  8
STEMPEL
100
AcDbLine
 10
264.389890309399
 20
458.087954205666
 30
0.0
 11
170.7438178978364
 21
364.4418817941032
 31
0.0
  0
ARC
  5
12BB
330
1E
100
AcDbEntity
  8
STEMPEL
100
AcDbCircle
 10
260.4359803515415
 20
415.9502780637347
 30
0.0
 40
10.5
100
AcDbArc
 50
135.0
 51
166.7883306170488
  0
LINE
  5
12BC
330
1E
100
AcDbEntity
  8
STEMPEL
100
AcDbLine
 10
250.2477546856681
 20
418.4899744592191
 30
0.0
 11
250.2450312945343
 21
418.4872510680852
 31
0.0
  0
ARC
  5
12BD
330
1E
100
AcDbEntity
  8
STEMPEL
100
AcDbCircle
 10
282.182111137615
 20
422.1400596637041
 30
0.0
 40
25.00003205712822
100
AcDbArc
 50
134.9082450082428
 51
154.4630994446846
  0
ARC
  5
12BE
330
1E
100
AcDbEntity
  8
STEMPEL
100
AcDbCircle
 10
281.4435371552611
 20
429.1796602744021
 30
0.0
 40
19.5
100
AcDbArc
 50
109.5405714311904
 51
135.0
  0
LINE
  5
12BF
330
1E
100
AcDbEntity
  8
STEMPEL
100
AcDbLine
 10
267.6549549221233
 20
442.9682425075399
 30
0.0
 11
264.5327511243309
 21
439.8460387097474
 31
0.0
  0
LINE
  5
12C0
330
1E
100
AcDbEntity
  8
STEMPEL
100
AcDbLine
 10
263.7018664941468
 20
438.9769881476947
 30
0.0
 11
255.6217662226859
 21
447.0570884191557
 31
0.0
  0
LINE
  5
12C1
330
1E
100
AcDbEntity
  8
STEMPEL
100
AcDbLine
 10
268.7156150939031
 20
441.9075823357601
 30
0.0
 11
265.5925488747791
 21
438.7845161166362
 31
0.0
  0
ARC
  5
12C2
330
1E
100
AcDbEntity
  8
STEMPEL
100
AcDbCircle
 10
250.6013080762615
 20
437.2283041606626
 30
0.0
 40
10.0
100
AcDbArc
 50
315.0
 51
334.4630994446846
  0
ARC
  5
12C3
330
1E
100
AcDbEntity
  8
STEMPEL
100
AcDbCircle
 10
250.6013080762615
 20
437.2283041606626
 30
0.0
 40
11.5
100
AcDbArc
 50
315.0
 51
334.4630994446846
  0
LINE
  5
12C4
330
1E
100
AcDbEntity
  8
STEMPEL
100
AcDbLine
 10
258.7330360599066
 20
429.0965761770173
 30
0.0
 11
253.0113591490829
 21
423.3748992661936
 31
0.0
  0
LINE
  5
12C5
330
1E
100
AcDbEntity
  8
STEMPEL
100
AcDbLine
 10
257.6723758881268
 20
430.1572363487974
 30
0.0
 11
251.950698977303
 21
424.4355594379733
 31
0.0
  0
LINE
  5
12C6
330
1E
100
AcDbEntity
  8
STEMPEL
100
AcDbLine
 10
265.565101779731
 20
438.757069021588
 30
0.0
 11
265.5650791119183
 21
438.7570916894007
 31
0.0
  0
ARC
  5
12C7
330
1E
100
AcDbEntity
  8
STEMPEL
100
AcDbCircle
 10
282.182111137615
 20
422.1400596637041
 30
0.0
 40
23.5000320571282
100
AcDbArc
 50
134.9053619552029
 51
154.4630994446846
  0
ARC
  5
12C8
330
1E
100
AcDbEntity
  8
STEMPEL
100
AcDbCircle
 10
281.4435371552611
 20
429.1796602744021
 30
0.0
 40
18.0
100
AcDbArc
 50
110.0000000000006
 51
135.0
  0
LINE
  5
12C9
330
1E
100
AcDbEntity
  8
STEMPEL
100
AcDbLine
 10
274.920799888443
 20
447.5570446266218
 30
0.0
 11
274.7741443604104
 21
447.5036663797273
 31
0.0
  0
LINE
  5
12CA
330
1E
100
AcDbEntity
  8
STEMPEL
100
AcDbLine
 10
276.0911089015078
 20
446.386735613557
 30
0.0
 11
275.2871745753996
 21
446.0941274485488
 31
0.0
  0
ARC
  5
12CB
102
{ACAD_REACTORS
330
15AF
102
}
330
1E
100
AcDbEntity
  8
STEMPEL
100
AcDbCircle
 10
260.4359803515415
 20
415.9502780637347
 30
0.0
 40
10.5
100
AcDbArc
 50
135.0
 51
166.7883306170488
  0
LINE
  5
12CC
102
{ACAD_REACTORS
330
15AF
102
}
330
1E
100
AcDbEntity
  8
STEMPEL
100
AcDbLine
 10
250.2477546856681
 20
418.4899744592191
 30
0.0
 11
250.2450312945343
 21
418.4872510680852
 31
0.0
  0
ARC
  5
12CD
102
{ACAD_REACTORS
330
15AF
330
15F6
330
163E
102
}
330
1E
100
AcDbEntity
  8
STEMPEL
100
AcDbCircle
 10
282.182111137615
 20
422.1400596637041
 30
0.0
 40
25.00003205712822
100
AcDbArc
 50
134.9082450082428
 51
154.4630994446846
  0
ARC
  5
12CE
102
{ACAD_REACTORS
330
15AF
330
15F6
102
}
330
1E
100
AcDbEntity
  8
STEMPEL
100
AcDbCircle
 10
281.4435371552611
 20
429.1796602744021
 30
0.0
 40
19.5
100
AcDbArc
 50
109.5405714311904
 51
135.0
  0
LINE
  5
12CF
102
{ACAD_REACTORS
330
15AF
330
15F6
102
}
330
1E
100
AcDbEntity
  8
STEMPEL
100
AcDbLine
 10
267.6549549221233
 20
442.9682425075399
 30
0.0
 11
264.5327511243309
 21
439.8460387097474
 31
0.0
  0
LINE
  5
12D0
102
{ACAD_REACTORS
330
15F6
330
163E
102
}
330
1E
100
AcDbEntity
  8
STEMPEL
100
AcDbLine
 10
263.7018664941468
 20
438.9769881476947
 30
0.0
 11
255.6217662226859
 21
447.0570884191557
 31
0.0
  0
LINE
  5
12D1
102
{ACAD_REACTORS
330
15AF
102
}
330
1E
100
AcDbEntity
  8
STEMPEL
100
AcDbLine
 10
268.7156150939031
 20
441.9075823357601
 30
0.0
 11
265.5925488747791
 21
438.7845161166362
 31
0.0
  0
ARC
  5
12D2
102
{ACAD_REACTORS
330
15AF
330
163E
102
}
330
1E
100
AcDbEntity
  8
STEMPEL
100
AcDbCircle
 10
250.6013080762615
 20
437.2283041606626
 30
0.0
 40
10.0
100
AcDbArc
 50
315.0
 51
334.4630994446846
  0
ARC
  5
12D3
102
{ACAD_REACTORS
330
15AF
102
}
330
1E
100
AcDbEntity
  8
STEMPEL
100
AcDbCircle
 10
250.6013080762615
 20
437.2283041606626
 30
0.0
 40
11.5
100
AcDbArc
 50
315.0
 51
334.4630994446846
  0
LINE
  5
12D4
102
{ACAD_REACTORS
330
15AF
102
}
330
1E
100
AcDbEntity
  8
STEMPEL
100
AcDbLine
 10
258.7330360599066
 20
429.0965761770173
 30
0.0
 11
253.0113591490829
 21
423.3748992661936
 31
0.0
  0
LINE
  5
12D5
102
{ACAD_REACTORS
330
15AF
330
163E
102
}
330
1E
100
AcDbEntity
  8
STEMPEL
100
AcDbLine
 10
257.6723758881268
 20
430.1572363487974
 30
0.0
 11
251.950698977303
 21
424.4355594379733
 31
0.0
  0
LINE
  5
12D6
330
1E
100
AcDbEntity
  8
STEMPEL
100
AcDbLine
 10
265.565101779731
 20
438.757069021588
 30
0.0
 11
265.5650791119183
 21
438.7570916894007
 31
0.0
  0
ARC
  5
12D7
102
{ACAD_REACTORS
330
15AF
102
}
330
1E
100
AcDbEntity
  8
STEMPEL
100
AcDbCircle
 10
282.182111137615
 20
422.1400596637041
 30
0.0
 40
23.5000320571282
100
AcDbArc
 50
134.9053619552029
 51
154.4630994446846
  0
ARC
  5
12D8
102
{ACAD_REACTORS
330
15AF
102
}
330
1E
100
AcDbEntity
  8
STEMPEL
100
AcDbCircle
 10
281.4435371552611
 20
429.1796602744021
 30
0.0
 40
18.0
100
AcDbArc
 50
110.0000000000006
 51
135.0
  0
LINE
  5
12D9
102
{ACAD_REACTORS
330
15F6
102
}
330
1E
100
AcDbEntity
  8
STEMPEL
100
AcDbLine
 10
274.920799888443
 20
447.5570446266218
 30
0.0
 11
274.7741443604104
 21
447.5036663797273
 31
0.0
  0
LINE
  5
12DA
102
{ACAD_REACTORS
330
15AF
102
}
330
1E
100
AcDbEntity
  8
STEMPEL
100
AcDbLine
 10
276.0911089015078
 20
446.386735613557
 30
0.0
 11
275.2871745753996
 21
446.0941274485488
 31
0.0
  0
DIMENSION
  5
12DB
330
1E
100
AcDbEntity
  8
BEM
100
AcDbDimension
  2
*D4
 10
334.3740082131164
 20
402.2070650581782
 30
0.0
 11
307.5039505280267
 21
438.2695108986915
 31
0.0
 70
    32
  1
%%c<>
 71
     5
 42
89.0
  3
Standard
100
AcDbAlignedDimension
 13
264.389890309399
 23
458.087954205666
 33
0.0
 14
327.3223938350016
 24
395.1554506800631
 34
0.0
 50
315.0000000000013
100
AcDbRotatedDimension
1001
ACAD
1000
DSTYLE
1002
{
1070
    40
1040
2.0
1070
    41
1040
3.5
1070
    42
1040
1.0
1070
    43
1040
7.0
1070
    44
1040
1.0
1070
    73
1070
     0
1070
    74
1070
     0
1070
    77
1070
     1
1070
    78
1070
     8
1070
    79
1070
     2
1070
   140
1040
3.5
1070
   141
1040
1.5
1070
   146
1040
0.5142857142857144
1070
   147
1040
1.5
1070
   172
1070
     1
1070
   178
1070
     1
1070
   179
1070
     2
1070
   271
1070
     2
1070
   272
1070
     2
1070
   284
1070
     8
1070
   285
1070
     8
1070
   286
1070
     8
1070
   289
1070
     0
1070
   340
1005
24
1002
}
  0
DIMENSION
  5
12DE
330
1E
100
AcDbEntity
  8
BEM
100
AcDbDimension
  2
*D3
 10
334.3740082131164
 20
402.2070650581782
 30
0.0
 11
307.5039505280267
 21
438.2695108986915
 31
0.0
 70
    32
  1
%%c<>
 71
     5
 42
89.0
  3
Standard
100
AcDbAlignedDimension
 13
264.389890309399
 23
458.087954205666
 33
0.0
 14
327.3223938350016
 24
395.1554506800631
 34
0.0
 50
315.0000000000013
100
AcDbRotatedDimension
1001
ACAD
1000
DSTYLE
1002
{
1070
    40
1040
2.0
1070
    41
1040
3.5
1070
    42
1040
1.0
1070
    43
1040
7.0
1070
    44
1040
1.0
1070
    73
1070
     0
1070
    74
1070
     0
1070
    77
1070
     1
1070
    78
1070
     8
1070
    79
1070
     2
1070
   140
1040
3.5
1070
   141
1040
1.5
1070
   146
1040
0.5142857142857144
1070
   147
1040
1.5
1070
   172
1070
     1
1070
   178
1070
     1
1070
   179
1070
     2
1070
   271
1070
     2
1070
   272
1070
     2
1070
   284
1070
     8
1070
   285
1070
     8
1070
   286
1070
     8
1070
   289
1070
     0
1070
   340
1005
24
1002
}
  0
LINE
  5
12E1
330
1E
100
AcDbEntity
  8
HILF
100
AcDbLine
 10
250.3624879565342
 20
414.8034402118879
 30
0.0
 11
284.0378798412237
 21
381.1280483271984
 31
0.0
  0
LINE
  5
12E2
330
1E
100
AcDbEntity
  8
HILF
100
AcDbLine
 10
252.3722723164651
 20
419.9473535852935
 30
0.0
 11
289.1817932146294
 21
383.1378326871293
 31
0.0
  0
LINE
  5
12E3
330
1E
100
AcDbEntity
  8
HILF
100
AcDbLine
 10
261.0648734322978
 20
429.513785378525
 30
0.0
 11
298.7482250078609
 21
391.8304338029619
 31
0.0
  0
ARC
  5
12E4
330
1E
100
AcDbEntity
  8
STEMPEL
100
AcDbCircle
 10
260.4359803515415
 20
415.9502780637347
 30
0.0
 40
12.0
100
AcDbArc
 50
135.0
 51
166.7883306170488
  0
ARC
  5
12E5
330
1E
100
AcDbEntity
  8
STEMPEL
100
AcDbCircle
 10
240.9653328584947
 20
420.5212611310305
 30
0.0
 40
8.0
100
AcDbArc
 50
315.0
 51
346.7883306170489
  0
ARC
  5
12E6
330
1E
100
AcDbEntity
  8
STEMPEL
100
AcDbCircle
 10
240.9653328584945
 20
420.5212611310304
 30
0.0
 40
9.5
100
AcDbArc
 50
315.0
 51
346.7883306170489
  0
LINE
  5
12E7
330
1E
100
AcDbEntity
  8
HILF
100
AcDbLine
 10
250.3624879565342
 20
414.8034402118879
 30
0.0
 11
284.0378798412237
 21
381.1280483271984
 31
0.0
  0
LINE
  5
12E8
330
1E
100
AcDbEntity
  8
HILF
100
AcDbLine
 10
252.3722723164651
 20
419.9473535852935
 30
0.0
 11
289.1817932146294
 21
383.1378326871293
 31
0.0
  0
LINE
  5
12E9
330
1E
100
AcDbEntity
  8
HILF
100
AcDbLine
 10
261.0648734322978
 20
429.513785378525
 30
0.0
 11
298.7482250078609
 21
391.8304338029619
 31
0.0
  0
LINE
  5
12EA
102
{ACAD_REACTORS
330
15AF
102
}
330
1E
100
AcDbEntity
  8
STEMPEL
100
AcDbLine
 10
247.6828472797667
 20
413.8037467097581
 30
0.0
 11
221.7298389202825
 21
387.8507383502741
 31
0.0
  0
LINE
  5
12EB
102
{ACAD_REACTORS
330
15AF
330
163E
102
}
330
1E
100
AcDbEntity
  8
STEMPEL
100
AcDbLine
 10
246.622187107987
 20
414.8644068815381
 30
0.0
 11
220.6691787485006
 21
388.91139852205
 31
0.0
  0
ARC
  5
12EC
102
{ACAD_REACTORS
330
15AF
330
163E
102
}
330
1E
100
AcDbEntity
  8
STEMPEL
100
AcDbCircle
 10
260.4359803515415
 20
415.9502780637347
 30
0.0
 40
12.0
100
AcDbArc
 50
135.0
 51
166.7883306170488
  0
ARC
  5
12ED
102
{ACAD_REACTORS
330
15AF
330
163E
102
}
330
1E
100
AcDbEntity
  8
STEMPEL
100
AcDbCircle
 10
240.9653328584947
 20
420.5212611310305
 30
0.0
 40
8.0
100
AcDbArc
 50
315.0
 51
346.7883306170489
  0
ARC
  5
12EE
102
{ACAD_REACTORS
330
15AF
102
}
330
1E
100
AcDbEntity
  8
STEMPEL
100
AcDbCircle
 10
240.9653328584945
 20
420.5212611310304
 30
0.0
 40
9.5
100
AcDbArc
 50
315.0
 51
346.7883306170489
  0
TEXT
  5
12EF
330
1E
100
AcDbEntity
  8
TEXT
 62
     1
100
AcDbText
 10
244.9558206993838
 20
383.1844008686611
 30
0.0
 40
7.0
  1
DN50
 50
45.00000000000001
 41
0.8
  7
GREEKS
100
AcDbText
  0
LINE
  5
12F0
330
1E
100
AcDbEntity
  8
STEMPEL
100
AcDbLine
 10
327.3223938350016
 20
395.1554506800631
 30
0.0
 11
264.389890309399
 21
458.087954205666
 31
0.0
  0
LINE
  5
12F1
102
{ACAD_REACTORS
330
15AF
102
}
330
1E
100
AcDbEntity
  8
STEMPEL
100
AcDbLine
 10
283.0381863390942
 20
378.4484076504309
 30
0.0
 11
257.0851779796095
 21
352.4953992909463
 31
0.0
  0
LINE
  5
12F2
102
{ACAD_REACTORS
330
1422
330
15DC
102
}
330
1E
100
AcDbEntity
  8
STEMPEL
100
AcDbLine
 10
327.3223938350016
 20
395.1554506800631
 30
0.0
 11
259.7438178978363
 21
327.5768747428975
 31
0.0
  0
ARC
  5
12F3
330
1E
100
AcDbEntity
  8
STEMPEL
100
AcDbCircle
 10
285.1847176930708
 20
391.2015407222055
 30
0.0
 40
12.0
100
AcDbArc
 50
283.2116693829511
 51
315.0
  0
ARC
  5
12F4
330
1E
100
AcDbEntity
  8
STEMPEL
100
AcDbCircle
 10
285.1847176930708
 20
391.2015407222055
 30
0.0
 40
10.5
100
AcDbArc
 50
283.2116693829511
 51
315.0
  0
ARC
  5
12F5
330
1E
100
AcDbEntity
  8
STEMPEL
100
AcDbCircle
 10
289.7557007603665
 20
371.7308932291587
 30
0.0
 40
9.5
100
AcDbArc
 50
103.2116693829511
 51
135.0
  0
LINE
  5
12F6
330
1E
100
AcDbEntity
  8
STEMPEL
100
AcDbLine
 10
287.7244140885551
 20
381.0133150563321
 30
0.0
 11
287.7216906974213
 21
381.0105916651983
 31
0.0
  0
ARC
  5
12F7
330
1E
100
AcDbEntity
  8
STEMPEL
100
AcDbCircle
 10
289.7557007603665
 20
371.7308932291587
 30
0.0
 40
8.0
100
AcDbArc
 50
103.2116693829511
 51
135.0
  0
LINE
  5
12F8
330
1E
100
AcDbEntity
  8
STEMPEL
100
AcDbLine
 10
316.2915280484913
 20
386.3873265933499
 30
0.0
 11
308.2114277770304
 21
394.467426864811
 31
0.0
  0
LINE
  5
12F9
330
1E
100
AcDbEntity
  8
STEMPEL
100
AcDbLine
 10
312.2026821368759
 20
398.4205152927876
 30
0.0
 11
309.0804783390833
 21
395.2983114949951
 31
0.0
  0
LINE
  5
12FA
330
1E
100
AcDbEntity
  8
STEMPEL
100
AcDbLine
 10
311.142021965096
 20
399.4811754645673
 30
0.0
 11
308.0189557459721
 21
396.3581092454433
 31
0.0
  0
ARC
  5
12FB
330
1E
100
AcDbEntity
  8
STEMPEL
100
AcDbCircle
 10
306.4627437899988
 20
381.3668684469253
 30
0.0
 40
11.5
100
AcDbArc
 50
115.5369005553154
 51
135.0
  0
ARC
  5
12FC
330
1E
100
AcDbEntity
  8
STEMPEL
100
AcDbCircle
 10
306.4627437899988
 20
381.3668684469253
 30
0.0
 40
10.0
100
AcDbArc
 50
115.5369005553154
 51
135.0
  0
LINE
  5
12FD
330
1E
100
AcDbEntity
  8
STEMPEL
100
AcDbLine
 10
298.3310158063535
 20
389.4985964305709
 30
0.0
 11
292.6093388955296
 21
383.7769195197468
 31
0.0
  0
LINE
  5
12FE
330
1E
100
AcDbEntity
  8
STEMPEL
100
AcDbLine
 10
299.3916759781331
 20
388.437936258791
 30
0.0
 11
293.6699990673094
 21
382.7162593479671
 31
0.0
  0
ARC
  5
12FF
330
1E
100
AcDbEntity
  8
STEMPEL
100
AcDbCircle
 10
291.3744992930402
 20
412.947671508279
 30
0.0
 40
23.5000320571282
100
AcDbArc
 50
295.5369005553154
 51
315.094638044797
  0
ARC
  5
1300
330
1E
100
AcDbEntity
  8
STEMPEL
100
AcDbCircle
 10
291.3744992930402
 20
412.947671508279
 30
0.0
 40
25.00003205712822
100
AcDbArc
 50
295.5369005553154
 51
315.0917549917637
  0
LINE
  5
1301
330
1E
100
AcDbEntity
  8
STEMPEL
100
AcDbLine
 10
307.9915086509239
 20
396.3306621503953
 30
0.0
 11
307.9915313187366
 21
396.3306394825824
 31
0.0
  0
ARC
  5
1302
330
1E
100
AcDbEntity
  8
STEMPEL
100
AcDbCircle
 10
298.4140999037384
 20
412.2090975259251
 30
0.0
 40
18.0
100
AcDbArc
 50
315.0
 51
339.9999999999935
  0
ARC
  5
1303
330
1E
100
AcDbEntity
  8
STEMPEL
100
AcDbCircle
 10
298.4140999037384
 20
412.2090975259251
 30
0.0
 40
19.5
100
AcDbArc
 50
315.0
 51
340.4594285688009
  0
LINE
  5
1304
330
1E
100
AcDbEntity
  8
STEMPEL
100
AcDbLine
 10
316.7914842559577
 20
405.6863602591072
 30
0.0
 11
316.7381060090634
 21
405.5397047310746
 31
0.0
  0
LINE
  5
1305
330
1E
100
AcDbEntity
  8
STEMPEL
100
AcDbLine
 10
315.621175242893
 20
406.856669272172
 30
0.0
 11
315.3285670778847
 21
406.0527349460638
 31
0.0
  0
LINE
  5
1306
102
{ACAD_REACTORS
330
15AF
330
15DC
330
15F6
102
}
330
1E
100
AcDbEntity
  8
STEMPEL
100
AcDbLine
 10
327.3223938350016
 20
395.1554506800631
 30
0.0
 11
264.389890309399
 21
458.087954205666
 31
0.0
  0
LINE
  5
1307
102
{ACAD_REACTORS
330
15AF
330
163E
102
}
330
1E
100
AcDbEntity
  8
STEMPEL
100
AcDbLine
 10
284.098846510874
 20
377.3877474786511
 30
0.0
 11
258.1458381513894
 21
351.4347391191667
 31
0.0
  0
LINE
  5
1308
102
{ACAD_REACTORS
330
15DC
330
15F6
330
163E
102
}
330
1E
100
AcDbEntity
  8
STEMPEL
100
AcDbLine
 10
326.191022985103
 20
396.2868215299616
 30
0.0
 11
258.1438178978361
 21
328.2396164426946
 31
0.0
  0
ARC
  5
1309
102
{ACAD_REACTORS
330
15AF
330
163E
102
}
330
1E
100
AcDbEntity
  8
STEMPEL
100
AcDbCircle
 10
285.1847176930708
 20
391.2015407222055
 30
0.0
 40
12.0
100
AcDbArc
 50
283.2116693829511
 51
315.0
  0
ARC
  5
130A
102
{ACAD_REACTORS
330
15AF
102
}
330
1E
100
AcDbEntity
  8
STEMPEL
100
AcDbCircle
 10
285.1847176930708
 20
391.2015407222055
 30
0.0
 40
10.5
100
AcDbArc
 50
283.2116693829511
 51
315.0
  0
ARC
  5
130B
102
{ACAD_REACTORS
330
15AF
102
}
330
1E
100
AcDbEntity
  8
STEMPEL
100
AcDbCircle
 10
289.7557007603665
 20
371.7308932291587
 30
0.0
 40
9.5
100
AcDbArc
 50
103.2116693829511
 51
135.0
  0
LINE
  5
130C
102
{ACAD_REACTORS
330
15AF
102
}
330
1E
100
AcDbEntity
  8
STEMPEL
100
AcDbLine
 10
287.7244140885551
 20
381.0133150563321
 30
0.0
 11
287.7216906974213
 21
381.0105916651983
 31
0.0
  0
ARC
  5
130D
102
{ACAD_REACTORS
330
15AF
330
163E
102
}
330
1E
100
AcDbEntity
  8
STEMPEL
100
AcDbCircle
 10
289.7557007603665
 20
371.7308932291587
 30
0.0
 40
8.0
100
AcDbArc
 50
103.2116693829511
 51
135.0
  0
LINE
  5
130E
102
{ACAD_REACTORS
330
15F6
330
163E
102
}
330
1E
100
AcDbEntity
  8
STEMPEL
100
AcDbLine
 10
316.2915280484913
 20
386.3873265933499
 30
0.0
 11
308.2114277770304
 21
394.467426864811
 31
0.0
  0
LINE
  5
130F
102
{ACAD_REACTORS
330
15AF
330
15F6
102
}
330
1E
100
AcDbEntity
  8
STEMPEL
100
AcDbLine
 10
312.2026821368759
 20
398.4205152927876
 30
0.0
 11
309.0804783390833
 21
395.2983114949951
 31
0.0
  0
LINE
  5
1310
102
{ACAD_REACTORS
330
15AF
102
}
330
1E
100
AcDbEntity
  8
STEMPEL
100
AcDbLine
 10
311.142021965096
 20
399.4811754645673
 30
0.0
 11
308.0189557459721
 21
396.3581092454433
 31
0.0
  0
ARC
  5
1311
102
{ACAD_REACTORS
330
15AF
102
}
330
1E
100
AcDbEntity
  8
STEMPEL
100
AcDbCircle
 10
306.4627437899988
 20
381.3668684469253
 30
0.0
 40
11.5
100
AcDbArc
 50
115.5369005553154
 51
135.0
  0
ARC
  5
1312
102
{ACAD_REACTORS
330
15AF
330
163E
102
}
330
1E
100
AcDbEntity
  8
STEMPEL
100
AcDbCircle
 10
306.4627437899988
 20
381.3668684469253
 30
0.0
 40
10.0
100
AcDbArc
 50
115.5369005553154
 51
135.0
  0
LINE
  5
1313
102
{ACAD_REACTORS
330
15AF
102
}
330
1E
100
AcDbEntity
  8
STEMPEL
100
AcDbLine
 10
298.3310158063535
 20
389.4985964305709
 30
0.0
 11
292.6093388955296
 21
383.7769195197468
 31
0.0
  0
LINE
  5
1314
102
{ACAD_REACTORS
330
15AF
330
163E
102
}
330
1E
100
AcDbEntity
  8
STEMPEL
100
AcDbLine
 10
299.3916759781331
 20
388.437936258791
 30
0.0
 11
293.6699990673094
 21
382.7162593479671
 31
0.0
  0
ARC
  5
1315
102
{ACAD_REACTORS
330
15AF
102
}
330
1E
100
AcDbEntity
  8
STEMPEL
100
AcDbCircle
 10
291.3744992930402
 20
412.947671508279
 30
0.0
 40
23.5000320571282
100
AcDbArc
 50
295.5369005553154
 51
315.094638044797
  0
ARC
  5
1316
102
{ACAD_REACTORS
330
15AF
330
15F6
330
163E
102
}
330
1E
100
AcDbEntity
  8
STEMPEL
100
AcDbCircle
 10
291.3744992930402
 20
412.947671508279
 30
0.0
 40
25.00003205712822
100
AcDbArc
 50
295.5369005553154
 51
315.0917549917637
  0
LINE
  5
1317
330
1E
100
AcDbEntity
  8
STEMPEL
100
AcDbLine
 10
307.9915086509239
 20
396.3306621503953
 30
0.0
 11
307.9915313187366
 21
396.3306394825824
 31
0.0
  0
ARC
  5
1318
102
{ACAD_REACTORS
330
15AF
102
}
330
1E
100
AcDbEntity
  8
STEMPEL
100
AcDbCircle
 10
298.4140999037384
 20
412.2090975259251
 30
0.0
 40
18.0
100
AcDbArc
 50
315.0
 51
339.9999999999935
  0
ARC
  5
1319
102
{ACAD_REACTORS
330
15AF
330
15F6
102
}
330
1E
100
AcDbEntity
  8
STEMPEL
100
AcDbCircle
 10
298.4140999037384
 20
412.2090975259251
 30
0.0
 40
19.5
100
AcDbArc
 50
315.0
 51
340.4594285688009
  0
LINE
  5
131A
102
{ACAD_REACTORS
330
15F6
102
}
330
1E
100
AcDbEntity
  8
STEMPEL
100
AcDbLine
 10
316.7914842559577
 20
405.6863602591072
 30
0.0
 11
316.7381060090634
 21
405.5397047310746
 31
0.0
  0
LINE
  5
131B
102
{ACAD_REACTORS
330
15AF
102
}
330
1E
100
AcDbEntity
  8
STEMPEL
100
AcDbLine
 10
315.621175242893
 20
406.856669272172
 30
0.0
 11
315.3285670778847
 21
406.0527349460638
 31
0.0
  0
ARC
  5
1416
102
{ACAD_REACTORS
330
15AF
102
}
330
1E
100
AcDbEntity
  8
STEMPEL
100
AcDbCircle
 10
297.7438178978362
 20
311.8367593727198
 30
0.0
 40
57.5
100
AcDbArc
 50
135.0
 51
180.0
  0
ARC
  5
1417
102
{ACAD_REACTORS
330
15AF
102
}
330
1E
100
AcDbEntity
  8
STEMPEL
100
AcDbCircle
 10
297.7438178978362
 20
311.8367593727198
 30
0.0
 40
107.5
100
AcDbArc
 50
134.9999999999997
 51
180.0
  0
ARC
  5
1419
102
{ACAD_REACTORS
330
1422
102
}
330
1E
100
AcDbEntity
  8
SCHRAFF
100
AcDbCircle
 10
172.6857115341503
 20
363.6375231132559
 30
0.0
 40
3.73939491568255
100
AcDbArc
 50
76.28577217798206
 51
238.7142278220187
  0
ARC
  5
141B
102
{ACAD_REACTORS
330
1422
102
}
330
1E
100
AcDbEntity
  8
SCHRAFF
100
AcDbCircle
 10
257.083172834225
 20
328.6789500129064
 30
0.0
 40
5.754146697413471
100
AcDbArc
 50
297.5412711717049
 51
17.45872882829458
  0
HATCH
  5
1422
330
1E
100
AcDbEntity
  8
SCHRAFF
100
AcDbHatch
 10
0.0
 20
0.0
 30
0.0
210
0.0
220
0.0
230
1.0
  2
_USER
 70
     0
 71
     1
 91
        2
 92
        7
 72
     1
 73
     1
 93
        3
 10
259.7438178978363
 20
323.5768747428975
 42
0.3635624169803293
 10
262.5722450225825
 20
330.4053018676437
 42
0.0
 10
259.7438178978363
 20
327.5768747428975
 42
0.0
 97
        3
330
12F2
330
121A
330
141B
 92
        7
 72
     1
 73
     1
 93
        3
 10
170.7438178978364
 20
364.4418817941031
 42
0.0
 10
173.5722450225825
 20
367.2703089188493
 42
0.8573190572767229
 10
170.7438178978364
 20
360.4418817941033
 42
0.0
 97
        3
330
1419
330
1234
330
12BA
 75
     0
 76
     0
 52
0.0
 41
0.1
 77
     0
 78
     1
 53
0.0
 43
-346.933714498592
 44
17.74855850669792
 45
0.0
 46
0.1
 79
     0
 47
0.2031821540544127
 98
        2
 10
260.8617402182708
 20
326.985042151294
 10
170.1784035172372
 20
364.9801049957723
  0
LINE
  5
1423
102
{ACAD_REACTORS
330
15DC
102
}
330
1E
100
AcDbEntity
  8
STEMPEL
100
AcDbLine
 10
259.7438178978363
 20
327.5768747428975
 30
0.0
 11
258.1438178978361
 21
328.2396164426946
 31
0.0
  0
LINE
  5
1424
102
{ACAD_REACTORS
330
15DC
102
}
330
1E
100
AcDbEntity
  8
STEMPEL
100
AcDbLine
 10
172.3438178978363
 20
363.7791400943063
 30
0.0
 11
170.7438178978364
 21
364.4418817941032
 31
0.0
  0
DIMENSION
  5
145E
330
1E
100
AcDbEntity
  8
BEM
100
AcDbDimension
  2
*D5
 10
150.1250871623155
 20
242.0063361266971
 30
0.0
 11
143.6250871623155
 21
257.0063361266972
 31
0.0
 70
    32
 71
     5
 42
30.0000000000002
  3
Standard
100
AcDbAlignedDimension
 13
170.7438178978356
 23
272.0063361266972
 33
0.0
 14
189.1755314591507
 24
242.0063361266971
 34
0.0
 50
90.0
100
AcDbRotatedDimension
1001
ACAD
1000
DSTYLE
1002
{
1070
   279
1070
     1
1070
    40
1040
2.0
1070
    41
1040
3.5
1070
    42
1040
1.0
1070
    43
1040
7.0
1070
    44
1040
1.0
1070
    73
1070
     0
1070
    74
1070
     0
1070
    77
1070
     1
1070
    78
1070
     8
1070
    79
1070
     2
1070
   140
1040
3.5
1070
   141
1040
1.5
1070
   146
1040
0.5142857142857144
1070
   147
1040
1.5
1070
   172
1070
     1
1070
   178
1070
     1
1070
   179
1070
     2
1070
   271
1070
     2
1070
   272
1070
     2
1070
   284
1070
     8
1070
   285
1070
     8
1070
   286
1070
     8
1002
}
  0
DIMENSION
  5
146B
330
1E
100
AcDbEntity
  8
BEM
100
AcDbDimension
  2
*D6
 10
136.3082039349865
 20
242.0063361266971
 30
0.0
 11
129.8082039349865
 21
294.0078571975984
 31
0.0
 70
    32
 71
     5
 42
104.0030421418026
  3
Standard
100
AcDbAlignedDimension
 13
215.2438178978358
 23
346.0093782684996
 33
0.0
 14
189.1755314591507
 24
242.0063361266971
 34
0.0
 50
90.0
100
AcDbRotatedDimension
1001
ACAD
1000
DSTYLE
1002
{
1070
    40
1040
2.0
1070
    41
1040
3.5
1070
    42
1040
1.0
1070
    43
1040
7.0
1070
    44
1040
1.0
1070
    73
1070
     0
1070
    74
1070
     0
1070
    77
1070
     1
1070
    78
1070
     8
1070
    79
1070
     2
1070
   140
1040
3.5
1070
   141
1040
1.5
1070
   146
1040
0.5142857142857144
1070
   147
1040
1.5
1070
   172
1070
     1
1070
   178
1070
     1
1070
   179
1070
     2
1070
   271
1070
     2
1070
   272
1070
     2
1070
   284
1070
     8
1070
   285
1070
     8
1070
   286
1070
     8
1002
}
  0
DIMENSION
  5
14B9
330
1E
100
AcDbEntity
  8
BEM
100
AcDbDimension
  2
*D7
 10
249.8102459868525
 20
472.6675985282124
 30
0.0
 11
204.9078898219576
 21
436.9576305187425
 31
0.0
 70
    32
 71
     5
 42
114.0030421418033
 51
314.9999999999999
  3
Standard
100
AcDbAlignedDimension
 13
215.2438178978358
 23
346.0093782684996
 33
0.0
 14
264.389890309399
 24
458.087954205666
 34
0.0
 50
44.99999999999985
100
AcDbRotatedDimension
1001
ACAD
1000
DSTYLE
1002
{
1070
    40
1040
2.0
1070
    41
1040
3.5
1070
    42
1040
1.0
1070
    43
1040
7.0
1070
    44
1040
1.0
1070
    73
1070
     0
1070
    74
1070
     0
1070
    77
1070
     1
1070
    78
1070
     8
1070
    79
1070
     2
1070
   140
1040
3.5
1070
   141
1040
1.5
1070
   146
1040
0.5142857142857144
1070
   147
1040
1.5
1070
   172
1070
     1
1070
   178
1070
     1
1070
   179
1070
     2
1070
   271
1070
     2
1070
   272
1070
     2
1070
   284
1070
     8
1070
   285
1070
     8
1070
   286
1070
     8
1002
}
  0
HATCH
  5
15AF
330
1E
100
AcDbEntity
  8
SCHRAFF
100
AcDbHatch
 10
0.0
 20
0.0
 30
0.0
210
0.0
220
0.0
230
1.0
  2
_USER
 70
     0
 71
     1
 91
        2
 92
        7
 72
     1
 73
     1
 93
       26
 10
241.743817897836
 20
311.8367593727198
 42
-0.1989123673796591
 10
258.1458381513894
 20
351.4347391191667
 42
0.0
 10
284.098846510874
 20
377.3877474786511
 42
-0.1395991324168538
 10
287.9273075334479
 20
379.5191522263774
 42
0.1395991324168688
 10
293.6699990673094
 20
382.7162593479671
 42
0.0
 10
299.3916759781331
 20
388.437936258791
 42
-0.0851285408962315
 10
302.1518207393189
 20
390.3899467714838
 42
0.0847252966061738
 10
309.0238593061978
 20
395.2416924621095
 42
0.0
 10
312.2026821368759
 20
398.4205152927876
 42
0.1115469390821207
 10
316.7909951507245
 20
405.6868493643402
 42
0.0
 10
315.6211752428928
 20
406.8566692721717
 42
0.0
 10
315.3285670778847
 20
406.0527349460638
 42
-0.1095178116832536
 10
311.1420219650959
 20
399.4811754645672
 42
0.0
 10
308.0189557459721
 20
396.3581092454433
 42
-0.0855444844067954
 10
301.5051822817193
 20
391.7434085201688
 42
0.0851285408962923
 10
298.3310158063533
 20
389.4985964305707
 42
0.0
 10
292.6093388955296
 20
383.7769195197468
 42
-0.1361061113099567
 10
287.7244140885551
 20
381.013315056332
 42
0.0
 10
287.7216906974213
 20
381.0105916651983
 42
0.1433758286905689
 10
283.0381863390941
 20
378.4484076504309
 42
0.0
 10
257.0851779796095
 20
352.4953992909463
 42
0.1989123673796568
 10
240.2438178978361
 20
311.83675937272
 42
0.0
 10
240.2438178978361
 20
247.0063361266909
 42
0.0
 10
239.8063745802071
 20
242.0063361266971
 42
0.0
 10
241.312104336522
 20
242.0063361266971
 42
0.0
 10
241.743817897836
 20
246.9408447123293
 42
0.0
 97
       26
330
1177
330
1307
330
130D
330
1309
330
1314
330
1312
330
1316
330
130F
330
1319
330
1306
330
131B
330
1318
330
1310
330
1315
330
1311
330
1313
330
130A
330
130C
330
130B
330
12F1
330
1416
330
1216
330
1244
330
1241
330
1245
330
1218
 92
        7
 72
     1
 73
     1
 93
       26
 10
190.2438178978359
 20
311.8367593727198
 42
-0.1989123673796596
 10
221.7298389202825
 20
387.8507383502741
 42
0.0
 10
247.6828472797667
 20
413.8037467097581
 42
0.1433758286905655
 10
250.2450312945342
 20
418.4872510680851
 42
0.0
 10
250.247754685668
 20
418.489974459219
 42
-0.1361061113099574
 10
253.0113591490829
 20
423.3748992661936
 42
0.0
 10
258.7330360599066
 20
429.0965761770173
 42
0.0851285408962593
 10
260.9778481495042
 20
432.2707426523819
 42
-0.0855444844068108
 10
265.5925488747791
 20
438.7845161166362
 42
0.0
 10
268.7156150939031
 20
441.9075823357601
 42
-0.1095178116832512
 10
275.2871745753996
 20
446.0941274485488
 42
0.0
 10
276.0911089015079
 20
446.3867356135571
 42
0.0
 10
274.9212889936766
 20
447.5565555213884
 42
0.1115469390821266
 10
267.6549549221233
 20
442.9682425075399
 42
0.0
 10
264.476132091611
 20
439.7894196770275
 42
0.0847252966085257
 10
259.6243864008203
 20
432.9173811099834
 42
-0.0851285408962463
 10
257.6723758881268
 20
430.1572363487974
 42
0.0
 10
251.950698977303
 20
424.4355594379733
 42
0.139599132416859
 10
248.7535918557134
 20
418.6928679041122
 42
-0.1395991324168515
 10
246.6221871079872
 20
414.8644068815384
 42
0.0
 10
220.6691787485006
 20
388.91139852205
 42
0.1989123673796547
 10
188.7438178978419
 20
311.8367593727145
 42
0.0
 10
188.743817897844
 20
246.9408447122412
 42
0.0
 10
189.1755314591507
 20
242.006336126697
 42
0.0
 10
190.6812612154656
 20
242.006336126697
 42
0.0
 10
190.2438178978359
 20
247.0063361266976
 42
0.0
 97
       26
330
1417
330
12EA
330
12EE
330
12CC
330
12CB
330
12D4
330
12D3
330
12D7
330
12D1
330
12D8
330
12DA
330
1306
330
12CE
330
12CF
330
12CD
330
12D2
330
12D5
330
12EC
330
12ED
330
12EB
330
1178
330
1228
330
1242
330
1241
330
1243
330
1227
 75
     0
 76
     0
 52
135.0
 41
2.0
 77
     0
 78
     1
 53
135.0
 43
0.0
 44
0.0
 45
-1.414213562373095
 46
-1.414213562373094
 79
     0
 47
0.5194131984492466
 98
        2
 10
241.2143769989816
 20
298.6782710472298
 10
189.2363203550926
 20
297.6394439671483
  0
HATCH
  5
15C8
330
1E
100
AcDbEntity
  8
SCHRAFF
100
AcDbHatch
 10
0.0
 20
0.0
 30
0.0
210
0.0
220
0.0
230
1.0
  2
_USER
 70
     0
 71
     0
 91
        2
 92
        7
 72
     0
 73
     1
 93
        4
 10
259.7438178978363
 20
327.5768747428975
 10
258.1438178978361
 20
328.2396164426945
 10
258.1438178978363
 20
272.0063361266969
 10
259.7438178978363
 20
272.0063361266969
 97
        0
 92
        7
 72
     0
 73
     1
 93
        4
 10
172.3438178978363
 20
363.7791400943063
 10
170.7438178978364
 20
364.4418817941031
 10
170.7438178978363
 20
272.0063361266972
 10
172.3438178978363
 20
272.0063361266972
 97
        0
 75
     0
 76
     0
 52
45.0
 41
2.0
 77
     0
 78
     1
 53
45.0
 43
0.0
 44
0.0
 45
-1.414213562373094
 46
1.414213562373095
 79
     0
 47
0.5194131984492466
 98
        2
 10
258.8869171738502
 20
306.4694692498599
 10
172.0835607736026
 20
328.2848225379153
  0
HATCH
  5
15DC
330
1E
100
AcDbEntity
  8
SCHRAFF
100
AcDbHatch
 10
0.0
 20
0.0
 30
0.0
210
0.0
220
0.0
230
1.0
  2
_USER
 70
     0
 71
     1
 91
        2
 92
        7
 72
     0
 73
     1
 93
        4
 10
327.3223938350016
 20
395.1554506800631
 10
326.1910229851032
 20
396.2868215299618
 10
258.1438178978361
 20
328.2396164426945
 10
259.7438178978363
 20
327.5768747428976
 97
        4
330
1306
330
1308
330
1423
330
12F2
 92
        7
 72
     0
 73
     1
 93
        4
 10
265.5212611592975
 20
456.9565833557676
 10
264.389890309399
 20
458.0879542056659
 10
170.7438178978364
 20
364.4418817941032
 10
172.3438178978366
 20
363.7791400943062
 97
        4
330
1306
330
12BA
330
1424
330
12B9
 75
     0
 76
     0
 52
135.0
 41
2.0
 77
     0
 78
     1
 53
135.0
 43
0.0
 44
0.0
 45
-1.414213562373095
 46
-1.414213562373094
 79
     0
 47
0.3292343518466689
 98
        2
 10
299.4246849346609
 20
368.8164343118549
 10
227.9302992528828
 20
419.8477599802993
  0
HATCH
  5
15F6
330
1E
100
AcDbEntity
  8
SCHRAFF
100
AcDbHatch
 10
0.0
 20
0.0
 30
0.0
210
0.0
220
0.0
230
1.0
  2
NET
 70
     0
 71
     1
 91
        2
 92
        7
 72
     1
 73
     1
 93
        7
 10
267.6549549221233
 20
442.9682425075399
 42
-0.1095178116831952
 10
274.7741443604073
 20
447.5036663797261
 42
0.0
 10
274.9207998884431
 20
447.5570446266218
 42
0.0
 10
265.5212611592975
 20
456.9565833557675
 42
0.0
 10
255.6217662226859
 20
447.0570884191557
 42
0.0
 10
263.701866494147
 20
438.9769881476945
 42
-0.0120251093634689
 10
264.5327511243309
 20
439.8460387097474
 42
0.0
 97
        7
330
12D9
330
1306
330
12B9
330
12D0
330
12CD
330
12CF
330
12CE
 92
        7
 72
     1
 73
     1
 93
        7
 10
316.7914842559576
 20
405.686360259107
 42
0.0
 10
316.7381060090674
 20
405.5397047310858
 42
-0.1095178116834025
 10
312.2026821368755
 20
398.4205152927872
 42
0.0
 10
309.0804783390833
 20
395.2983114949951
 42
-0.0120251093634704
 10
308.2114277770304
 20
394.467426864811
 42
0.0
 10
316.2915280484913
 20
386.3873265933498
 42
0.0
 10
326.191022985103
 20
396.2868215299616
 42
0.0
 97
        7
330
131A
330
1319
330
130F
330
1316
330
130E
330
1308
330
1306
 75
     0
 76
     1
 52
0.0
 41
15.0
 77
     0
 78
     2
 53
0.0
 43
0.0
 44
0.0
 45
0.0
 46
1.875
 79
     0
 53
90.0
 43
0.0
 44
0.0
 45
-1.875
 46
0.0000000000000001
 79
     0
 47
0.3292343518466689
 98
        2
 10
264.8306265645865
 20
445.1988044251216
 10
318.2043157745998
 20
398.1182921138029
  0
HATCH
  5
163E
330
1E
100
AcDbEntity
  8
SCHRAFF
100
AcDbHatch
 10
0.0
 20
0.0
 30
0.0
210
0.0
220
0.0
230
1.0
  2
HONEY
 70
     0
 71
     1
 91
        2
 92
        7
 72
     1
 73
     1
 93
       13
 10
316.2915280484913
 20
386.38732659335
 42
0.0
 10
308.2114277770306
 20
394.4674268648108
 42
-0.0734311771838333
 10
302.1518207393212
 20
390.389946771485
 42
0.0851285408963009
 10
299.391675978133
 20
388.4379362587909
 42
0.0
 10
293.6699990673094
 20
382.7162593479671
 42
-0.1395991324168512
 10
287.9273075334487
 20
379.5191522263775
 42
0.1395991324168829
 10
284.0988465108739
 20
377.387747478651
 42
0.0
 10
258.1458381513894
 20
351.4347391191667
 42
0.1989123673796576
 10
241.743817897836
 20
311.8367593727201
 42
0.0
 10
241.7438178978361
 20
288.0063361266972
 42
0.0
 10
257.5850855859684
 20
288.0063361266971
 42
0.0
 10
258.1438178978363
 20
272.0063361266996
 42
0.0
 10
258.1438178978361
 20
328.2396164426946
 42
0.0
 97
       13
330
130E
330
1316
330
1312
330
1314
330
1309
330
130D
330
1307
330
1177
330
1218
330
1220
330
1224
330
1219
330
1308
 92
        7
 72
     1
 73
     1
 93
       13
 10
220.6691787485006
 20
388.91139852205
 42
0.0
 10
246.622187107987
 20
414.8644068815381
 42
0.1395991324168617
 10
248.7535918557134
 20
418.6928679041122
 42
-0.1395991324168589
 10
251.950698977303
 20
424.4355594379733
 42
0.0
 10
257.6723758881268
 20
430.1572363487974
 42
0.0851285408962636
 10
259.6243864008205
 20
432.917381109984
 42
-0.0734311771838466
 10
263.701866494147
 20
438.9769881476945
 42
0.0
 10
255.6217662226859
 20
447.0570884191558
 42
0.0
 10
172.3438178978363
 20
363.7791400943058
 42
0.0
 10
172.3438178978364
 20
272.0063361266972
 42
0.0
 10
172.9025502097043
 20
288.0063361266971
 42
0.0
 10
188.7438178978427
 20
288.0063361266971
 42
0.0
 10
188.7438178978419
 20
311.8367593727159
 42
-0.1989123673796513
 97
       13
330
12EB
330
12ED
330
12EC
330
12D5
330
12D2
330
12CD
330
12D0
330
12B9
330
1229
330
1232
330
122F
330
1228
330
1178
 75
     0
 76
     1
 52
0.0
 41
25.0
 77
     0
 78
     3
 53
0.0
 43
0.0
 44
0.0
 45
4.6875
 46
2.706329374999999
 79
     2
 49
3.125
 49
-6.25
 53
120.0
 43
0.0
 44
0.0
 45
-4.687499989758061
 46
2.706329392739557
 79
     2
 49
3.125
 49
-6.25
 53
60.0
 43
0.0
 44
0.0
 45
0.0000000102419385
 46
5.412658767739556
 79
     2
 49
-6.25
 49
3.125
 47
0.4635122251217454
 98
        2
 10
265.6230870265336
 20
346.0962697391228
 10
204.3961992828295
 20
383.1772487185417
  0
TEXT
  5
1683
330
1E
100
AcDbEntity
  8
TEXT
100
AcDbText
 10
170.398997108236
 20
63.10765040825732
 30
0.0
 40
4.0
  1
28.09.
 41
0.8
  7
GREEKS
 72
     1
 11
177.4085209177598
 21
63.10765040825732
 31
0.0
100
AcDbText
  0
TEXT
  5
1684
330
1E
100
AcDbEntity
  8
TEXT
100
AcDbText
 10
148.622109822104
 20
73.14025471151666
 30
0.0
 40
4.0
  1
2007
 41
0.8
  7
GREEKS
100
AcDbText
  0
HATCH
  5
1698
330
1E
100
AcDbEntity
  8
SCHRAFF
100
AcDbHatch
 10
0.0
 20
0.0
 30
0.0
210
0.0
220
0.0
230
1.0
  2
NET
 70
     0
 71
     0
 91
        2
 92
        7
 72
     0
 73
     1
 93
       10
 10
257.5850855859684
 20
288.0063361266971
 10
241.743817897836
 20
288.0063361266971
 10
241.743817897836
 20
278.0063361266971
 10
245.7438178978363
 20
278.0063361266972
 10
249.2079195129743
 20
272.006336126697
 10
253.7438178978354
 20
272.006336126697
 10
253.7438178978354
 20
270.0063361266968
 10
259.7438178978362
 20
270.0063361266967
 10
259.7438178978361
 20
272.0063361266969
 10
258.1438178978364
 20
272.006336126697
 97
        0
 92
        7
 72
     0
 73
     1
 93
       10
 10
188.7438178978417
 20
288.0063361266972
 10
172.9025502097044
 20
288.0063361266973
 10
172.3438178978364
 20
272.0063361266972
 10
170.7438178978364
 20
272.0063361266973
 10
170.7438178978364
 20
270.0063361266972
 10
176.7438178978354
 20
270.0063361266972
 10
176.7438178978354
 20
272.0063361266972
 10
181.2797162826986
 20
272.0063361266972
 10
184.7438178978364
 20
278.0063361266972
 10
188.7438178978422
 20
278.0063361266972
 97
        0
 75
     0
 76
     1
 52
45.0
 41
20.0
 77
     0
 78
     2
 53
45.0
 43
-9.756182102163904
 44
-49.8686579324887
 45
-1.767766952966368
 46
1.767766952966368
 79
     0
 53
135.0
 43
-9.756182102163904
 44
-49.8686579324887
 45
-1.767766952966368
 46
-1.767766952966368
 79
     0
 47
0.1255994509103582
 98
        2
 10
249.3221985024854
 20
283.2896621478404
 10
183.468380579017
 20
284.2944580600727
  0
LINE
  5
1699
330
1E
100
AcDbEntity
  8
STEMPEL
100
AcDbLine
 10
253.7438178978354
 20
272.006336126697
 30
0.0
 11
241.743817897836
 21
272.006336126697
 31
0.0
  0
POINT
  5
169A
330
1E
100
AcDbEntity
  8
STEMPEL
100
AcDbPoint
 10
253.7438178978354
 20
270.006336126697
 30
0.0
  0
LINE
  5
169B
330
1E
100
AcDbEntity
  8
STEMPEL
100
AcDbLine
 10
253.7438178978354
 20
272.006336126697
 30
0.0
 11
253.7438178978354
 21
270.006336126697
 31
0.0
  0
LINE
  5
169C
330
1E
100
AcDbEntity
  8
STEMPEL
100
AcDbLine
 10
259.7438178978362
 20
270.0063361266967
 30
0.0
 11
241.743817897836
 21
270.0063361266968
 31
0.0
  0
LINE
  5
169D
330
1E
100
AcDbEntity
  8
STEMPEL
100
AcDbLine
 10
245.7438178978364
 20
278.0063361266972
 30
0.0
 11
249.2079195129742
 21
272.0063361266972
 31
0.0
  0
LINE
  5
169E
330
1E
100
AcDbEntity
  8
STEMPEL
100
AcDbLine
 10
245.7438178978364
 20
278.0063361266972
 30
0.0
 11
249.2079195129742
 21
272.0063361266972
 31
0.0
  0
LINE
  5
169F
330
1E
100
AcDbEntity
  8
STEMPEL
100
AcDbLine
 10
188.7438178978428
 20
270.0063361266972
 30
0.0
 11
170.7438178978364
 21
270.0063361266972
 31
0.0
  0
POINT
  5
16A0
330
1E
100
AcDbEntity
  8
STEMPEL
100
AcDbPoint
 10
176.7438178978353
 20
270.006336126697
 30
0.0
  0
LINE
  5
16A1
330
1E
100
AcDbEntity
  8
STEMPEL
100
AcDbLine
 10
176.7438178978353
 20
272.006336126697
 30
0.0
 11
176.7438178978353
 21
270.006336126697
 31
0.0
  0
LINE
  5
16A2
330
1E
100
AcDbEntity
  8
STEMPEL
100
AcDbLine
 10
188.7438178978426
 20
272.0063361266972
 30
0.0
 11
176.7438178978353
 21
272.0063361266972
 31
0.0
  0
LINE
  5
16A3
330
1E
100
AcDbEntity
  8
STEMPEL
100
AcDbLine
 10
184.7438178978364
 20
278.0063361266972
 30
0.0
 11
181.2797162826986
 21
272.0063361266972
 31
0.0
  0
LINE
  5
16A4
330
1E
100
AcDbEntity
  8
STEMPEL
100
AcDbLine
 10
188.7438178978426
 20
272.0063361266972
 30
0.0
 11
176.7438178978353
 21
272.0063361266972
 31
0.0
  0
LINE
  5
16A5
330
1E
100
AcDbEntity
  8
STEMPEL
100
AcDbLine
 10
184.7438178978364
 20
278.0063361266972
 30
0.0
 11
181.2797162826986
 21
272.0063361266972
 31
0.0
  0
LINE
  5
16D1
330
1E
100
AcDbEntity
  8
BEM
100
AcDbLine
 10
300.8058895405061
 20
431.5714499111703
 30
0.0
 11
301.9635843648803
 21
432.7291447355445
 31
0.0
  0
LINE
  5
16D2
330
1E
100
AcDbEntity
  8
BEM
100
AcDbLine
 10
215.2438178978358
 20
348.0093782684996
 30
0.0
 11
215.2438178978354
 21
433.3884841249415
 31
0.0
  0
ARC
  5
16D3
330
1E
100
AcDbEntity
  8
BEM
100
AcDbCircle
 10
215.2438178978358
 20
346.0093782684996
 30
0.0
 40
148.2858586311281
100
AcDbArc
 50
47.70496262638732
 51
87.2950373736131
  0
SOLID
  5
16D4
330
1E
100
AcDbEntity
  8
BEM
100
AcDbTrace
 10
315.8378129455601
 20
456.5390534043571
 30
0.0
 11
314.2272998364853
 21
454.8506541713727
 31
0.0
 12
320.097754089976
 22
450.8633144606403
 32
0.0
 13
320.097754089976
 23
450.8633144606403
 33
0.0
  0
SOLID
  5
16D5
330
1E
100
AcDbEntity
  8
BEM
100
AcDbTrace
 10
222.2143308574771
 20
492.9636738366924
 30
0.0
 11
222.2694046638538
 21
495.2963571243024
 31
0.0
 12
215.2438178978351
 22
494.2952368996277
 32
0.0
 13
215.2438178978351
 23
494.2952368996277
 33
0.0
  0
MTEXT
  5
16D6
330
1E
100
AcDbEntity
  8
BEM
 62
     1
100
AcDbMText
 10
274.477801560373
 20
489.0128649799846
 30
0.0
 40
7.0
 41
0.0
 71
     5
 72
     1
  1
\A1;45°
 11
0.9238795325112882
 21
-0.3826834323650863
 31
0.0
 73
     1
 44
1.0
  0
LINE
  5
16D7
330
1E
100
AcDbEntity
  8
BEM
100
AcDbLine
 10
215.2438178978354
 20
443.3524865992226
 30
0.0
 11
215.2438178978351
 21
496.2952368996278
 31
0.0
  0
LINE
  5
16D8
330
1E
100
AcDbEntity
  8
BEM
100
AcDbLine
 10
311.8938905686665
 20
442.6594509393308
 30
0.0
 11
321.5119676523491
 21
452.2775280230134
 31
0.0
  0
ENDSEC
  0
SECTION
  2
OBJECTS
  0
DICTIONARY
  5
C
330
0
100
AcDbDictionary
281
     1
  3
ACAD_COLOR
350
DF
  3
ACAD_GROUP
350
D
  3
ACAD_LAYOUT
350
19
  3
ACAD_MATERIAL
350
DE
  3
ACAD_MLINESTYLE
350
16
  3
ACAD_PLOTSETTINGS
350
18
  3
ACAD_PLOTSTYLENAME
350
E
  3
AcDbVariableDictionary
350
25E
  0
DICTIONARY
  5
A0
330
1E
100
AcDbDictionary
280
     1
281
     1
  3
ACAD_LAYOUTSELFREF
360
D4
  0
DICTIONARY
  5
A2
330
1A
100
AcDbDictionary
280
     1
281
     1
  3
ACAD_LAYOUTSELFREF
360
D3
  0
DICTIONARY
  5
DF
102
{ACAD_REACTORS
330
C
102
}
330
C
100
AcDbDictionary
281
     1
  0
DICTIONARY
  5
D
102
{ACAD_REACTORS
330
C
102
}
330
C
100
AcDbDictionary
281
     1
  0
DICTIONARY
  5
19
102
{ACAD_REACTORS
330
C
102
}
330
C
100
AcDbDictionary
281
     1
  3
Layout1
350
1D
  3
Model
350
21
  0
DICTIONARY
  5
DE
102
{ACAD_REACTORS
330
C
102
}
330
C
100
AcDbDictionary
281
     1
  0
DICTIONARY
  5
16
102
{ACAD_REACTORS
330
C
102
}
330
C
100
AcDbDictionary
281
     1
  3
Standard
350
17
  0
DICTIONARY
  5
18
102
{ACAD_REACTORS
330
C
102
}
330
C
100
AcDbDictionary
281
     1
  0
ACDBDICTIONARYWDFLT
  5
E
102
{ACAD_REACTORS
330
C
102
}
330
C
100
AcDbDictionary
281
     1
  3
Normal
350
F
100
AcDbDictionaryWithDefault
340
F
  0
DICTIONARY
  5
25E
102
{ACAD_REACTORS
330
C
102
}
330
C
100
AcDbDictionary
281
     1
  3
DIMASSOC
350
25F
  3
PROJECTNAME
350
260
  0
XRECORD
  5
D4
102
{ACAD_REACTORS
330
A0
102
}
330
A0
100
AcDbXrecord
280
     1
340
1E
  0
XRECORD
  5
D3
102
{ACAD_REACTORS
330
A2
102
}
330
A2
100
AcDbXrecord
280
     1
340
1A
  0
LAYOUT
  5
1D
102
{ACAD_REACTORS
330
19
102
}
330
19
100
AcDbPlotSettings
  1

  2
\\NT_WORK01\HP LaserJet 5000 PCL 6
  4

  6

 40
0.0
 41
0.0
 42
0.0
 43
0.0
 44
0.0
 45
0.0
 46
0.0
 47
0.0
 48
0.0
 49
0.0
140
0.0
141
0.0
142
1.0
143
1.0
 70
   688
 72
     0
 73
     0
 74
     5
  7

 75
    16
147
1.0
 76
     0
 77
     2
 78
   300
148
0.0
149
0.0
100
AcDbLayout
  1
Layout1
 70
     0
 71
     1
 10
0.0
 20
0.0
 11
12.0
 21
9.0
 12
0.0
 22
0.0
 32
0.0
 14
1.000000000000000E+20
 24
1.000000000000000E+20
 34
1.000000000000000E+20
 15
-1.000000000000000E+20
 25
-1.000000000000000E+20
 35
-1.000000000000000E+20
146
0.0
 13
0.0
 23
0.0
 33
0.0
 16
1.0
 26
0.0
 36
0.0
 17
0.0
 27
1.0
 37
0.0
 76
     0
330
1A
  0
LAYOUT
  5
21
102
{ACAD_REACTORS
330
19
102
}
330
19
100
AcDbPlotSettings
  1

  2
RICOH Aficio 2027 PCL 6
  4
A4
  6

 40
5.027083
 41
5.027084999999999
 42
5.027084
 43
5.027069
 44
209.973328
 45
296.925995
 46
0.0
 47
2.06
 48
0.0
 49
0.0
140
0.0
141
0.0
142
1.0
143
2.100849152723284
 70
 11956
 72
     1
 73
     0
 74
     2
  7
monochrome1.ctb
 75
     0
147
0.4759980023809526
 76
     1
 77
     2
 78
   300
148
0.0
149
0.0
100
AcDbLayout
  1
Model
 70
     1
 71
     0
 10
0.0
 20
0.0
 11
12.0
 21
9.0
 12
0.0
 22
0.0
 32
0.0
 14
0.0
 24
0.0
 34
0.0
 15
0.0
 25
0.0
 35
0.0
146
0.0
 13
0.0
 23
0.0
 33
0.0
 16
1.0
 26
0.0
 36
0.0
 17
0.0
 27
1.0
 37
0.0
 76
     0
330
1E
  0
MLINESTYLE
  5
17
102
{ACAD_REACTORS
330
16
102
}
330
16
100
AcDbMlineStyle
  2
STANDARD
 70
     0
  3

 62
   256
 51
90.0
 52
90.0
 71
     2
 49
0.5
 62
   256
  6
BYLAYER
 49
-0.5
 62
   256
  6
BYLAYER
  0
ACDBPLACEHOLDER
  5
F
102
{ACAD_REACTORS
330
E
102
}
330
E
  0
DICTIONARYVAR
  5
25F
102
{ACAD_REACTORS
330
25E
102
}
330
25E
100
DictionaryVariables
280
     0
  1
1
  0
DICTIONARYVAR
  5
260
102
{ACAD_REACTORS
330
25E
102
}
330
25E
100
DictionaryVariables
280
     0
  1

  0
ENDSEC
  0
EOF
