  0
SECTION
  2
HEADER
  9
$ACADVER
  1
AC1018
  9
$ACADMAINTVER
 70
     2
  9
$DWGCODEPAGE
  3
ANSI_1252
  9
$INSBASE
 10
0.0
 20
0.0
 30
0.0
  9
$EXTMIN
 10
-0.0064041928749248
 20
-0.0090573584946014
 30
-0.0000000000112498
  9
$EXTMAX
 10
420.0064100605654
 20
594.0090656570857
 30
0.0000000000002956
  9
$LIMMIN
 10
0.0
 20
0.0
  9
$LIMMAX
 10
419.9999999999999
 20
594.0000000000002
  9
$ORTHOMODE
 70
     0
  9
$REGENMODE
 70
     1
  9
$FILLMODE
 70
     1
  9
$QTEXTMODE
 70
     0
  9
$MIRRTEXT
 70
     1
  9
$LTSCALE
 40
20.0
  9
$ATTMODE
 70
     1
  9
$TEXTSIZE
 40
3.5
  9
$TRACEWID
 40
0.5
  9
$TEXTSTYLE
  7
STANDARD
  9
$CLAYER
  8
BEM
  9
$CELTYPE
  6
ByLayer
  9
$CECOLOR
 62
   256
  9
$CELTSCALE
 40
1.0
  9
$DISPSILH
 70
     0
  9
$DIMSCALE
 40
2.0
  9
$DIMASZ
 40
3.5
  9
$DIMEXO
 40
1.0
  9
$DIMDLI
 40
7.0
  9
$DIMRND
 40
0.0
  9
$DIMDLE
 40
0.0
  9
$DIMEXE
 40
1.0
  9
$DIMTP
 40
0.0
  9
$DIMTM
 40
0.0
  9
$DIMTXT
 40
3.5
  9
$DIMCEN
 40
1.5
  9
$DIMTSZ
 40
0.0
  9
$DIMTOL
 70
     0
  9
$DIMLIM
 70
     0
  9
$DIMTIH
 70
     0
  9
$DIMTOH
 70
     0
  9
$DIMSE1
 70
     0
  9
$DIMSE2
 70
     0
  9
$DIMTAD
 70
     1
  9
$DIMZIN
 70
     8
  9
$DIMBLK
  1

  9
$DIMASO
 70
     1
  9
$DIMSHO
 70
     0
  9
$DIMPOST
  1

  9
$DIMAPOST
  1

  9
$DIMALT
 70
     0
  9
$DIMALTD
 70
     2
  9
$DIMALTF
 40
25.4
  9
$DIMLFAC
 40
1.0
  9
$DIMTOFL
 70
     1
  9
$DIMTVP
 40
0.0
  9
$DIMTIX
 70
     0
  9
$DIMSOXD
 70
     0
  9
$DIMSAH
 70
     0
  9
$DIMBLK1
  1

  9
$DIMBLK2
  1

  9
$DIMSTYLE
  2
Standard
  9
$DIMCLRD
 70
     0
  9
$DIMCLRE
 70
     0
  9
$DIMCLRT
 70
     1
  9
$DIMTFAC
 40
0.5142857142857144
  9
$DIMGAP
 40
1.5
  9
$DIMJUST
 70
     0
  9
$DIMSD1
 70
     0
  9
$DIMSD2
 70
     0
  9
$DIMTOLJ
 70
     1
  9
$DIMTZIN
 70
     8
  9
$DIMALTZ
 70
     8
  9
$DIMALTTZ
 70
     8
  9
$DIMUPT
 70
     0
  9
$DIMDEC
 70
     2
  9
$DIMTDEC
 70
     2
  9
$DIMALTU
 70
     2
  9
$DIMALTTD
 70
     2
  9
$DIMTXSTY
  7
STANDARD
  9
$DIMAUNIT
 70
     0
  9
$DIMADEC
 70
     2
  9
$DIMALTRND
 40
0.0
  9
$DIMAZIN
 70
     2
  9
$DIMDSEP
 70
    46
  9
$DIMATFIT
 70
     3
  9
$DIMFRAC
 70
     0
  9
$DIMLDRBLK
  1

  9
$DIMLUNIT
 70
     2
  9
$DIMLWD
 70
    -2
  9
$DIMLWE
 70
    -2
  9
$DIMTMOVE
 70
     0
  9
$LUNITS
 70
     2
  9
$LUPREC
 70
     2
  9
$SKETCHINC
 40
1.0
  9
$FILLETRAD
 40
0.0
  9
$AUNITS
 70
     0
  9
$AUPREC
 70
     0
  9
$MENU
  1
ACAD
  9
$ELEVATION
 40
0.0
  9
$PELEVATION
 40
0.0
  9
$THICKNESS
 40
0.0
  9
$LIMCHECK
 70
     0
  9
$CHAMFERA
 40
0.0
  9
$CHAMFERB
 40
0.0
  9
$CHAMFERC
 40
0.0
  9
$CHAMFERD
 40
0.0
  9
$SKPOLY
 70
     0
  9
$TDCREATE
 40
2455397.823042361
  9
$TDUCREATE
 40
2455397.781375695
  9
$TDUPDATE
 40
2455532.532969028
  9
$TDUUPDATE
 40
2455532.491302361
  9
$TDINDWG
 40
0.3737591667
  9
$TDUSRTIMER
 40
0.3737591667
  9
$USRTIMER
 70
     1
  9
$ANGBASE
 50
0.0
  9
$ANGDIR
 70
     0
  9
$PDMODE
 70
     0
  9
$PDSIZE
 40
0.0
  9
$PLINEWID
 40
0.0
  9
$SPLFRAME
 70
     0
  9
$SPLINETYPE
 70
     6
  9
$SPLINESEGS
 70
     8
  9
$HANDSEED
  5
2311
  9
$SURFTAB1
 70
     6
  9
$SURFTAB2
 70
     6
  9
$SURFTYPE
 70
     6
  9
$SURFU
 70
     6
  9
$SURFV
 70
     6
  9
$UCSBASE
  2

  9
$UCSNAME
  2

  9
$UCSORG
 10
0.0
 20
0.0
 30
0.0
  9
$UCSXDIR
 10
1.0
 20
0.0
 30
0.0
  9
$UCSYDIR
 10
0.0
 20
1.0
 30
0.0
  9
$UCSORTHOREF
  2

  9
$UCSORTHOVIEW
 70
     0
  9
$UCSORGTOP
 10
0.0
 20
0.0
 30
0.0
  9
$UCSORGBOTTOM
 10
0.0
 20
0.0
 30
0.0
  9
$UCSORGLEFT
 10
0.0
 20
0.0
 30
0.0
  9
$UCSORGRIGHT
 10
0.0
 20
0.0
 30
0.0
  9
$UCSORGFRONT
 10
0.0
 20
0.0
 30
0.0
  9
$UCSORGBACK
 10
0.0
 20
0.0
 30
0.0
  9
$PUCSBASE
  2

  9
$PUCSNAME
  2

  9
$PUCSORG
 10
0.0
 20
0.0
 30
0.0
  9
$PUCSXDIR
 10
1.0
 20
0.0
 30
0.0
  9
$PUCSYDIR
 10
0.0
 20
1.0
 30
0.0
  9
$PUCSORTHOREF
  2

  9
$PUCSORTHOVIEW
 70
     0
  9
$PUCSORGTOP
 10
0.0
 20
0.0
 30
0.0
  9
$PUCSORGBOTTOM
 10
0.0
 20
0.0
 30
0.0
  9
$PUCSORGLEFT
 10
0.0
 20
0.0
 30
0.0
  9
$PUCSORGRIGHT
 10
0.0
 20
0.0
 30
0.0
  9
$PUCSORGFRONT
 10
0.0
 20
0.0
 30
0.0
  9
$PUCSORGBACK
 10
0.0
 20
0.0
 30
0.0
  9
$USERI1
 70
     0
  9
$USERI2
 70
     0
  9
$USERI3
 70
     0
  9
$USERI4
 70
     0
  9
$USERI5
 70
     0
  9
$USERR1
 40
0.0
  9
$USERR2
 40
0.0
  9
$USERR3
 40
0.0
  9
$USERR4
 40
0.0
  9
$USERR5
 40
0.0
  9
$WORLDVIEW
 70
     1
  9
$SHADEDGE
 70
     3
  9
$SHADEDIF
 70
    70
  9
$TILEMODE
 70
     1
  9
$MAXACTVP
 70
    16
  9
$PINSBASE
 10
0.0
 20
0.0
 30
0.0
  9
$PLIMCHECK
 70
     0
  9
$PEXTMIN
 10
1.000000000000000E+20
 20
1.000000000000000E+20
 30
1.000000000000000E+20
  9
$PEXTMAX
 10
-1.000000000000000E+20
 20
-1.000000000000000E+20
 30
-1.000000000000000E+20
  9
$PLIMMIN
 10
0.0
 20
0.0
  9
$PLIMMAX
 10
12.0
 20
9.0
  9
$UNITMODE
 70
     0
  9
$VISRETAIN
 70
     0
  9
$PLINEGEN
 70
     0
  9
$PSLTSCALE
 70
     0
  9
$TREEDEPTH
 70
  3020
  9
$CMLSTYLE
  2
Standard
  9
$CMLJUST
 70
     0
  9
$CMLSCALE
 40
1.0
  9
$PROXYGRAPHICS
 70
     1
  9
$MEASUREMENT
 70
     0
  9
$CELWEIGHT
370
    -1
  9
$ENDCAPS
280
     0
  9
$JOINSTYLE
280
     0
  9
$LWDISPLAY
290
     0
  9
$INSUNITS
 70
     0
  9
$HYPERLINKBASE
  1

  9
$STYLESHEET
  1
monochrome 1.ctb
  9
$XEDIT
290
     1
  9
$CEPSNTYPE
380
     0
  9
$PSTYLEMODE
290
     1
  9
$FINGERPRINTGUID
  2
{D68B0D02-A558-11D7-B632-000102183313}
  9
$VERSIONGUID
  2
{267A1362-2CC8-49A1-83B1-173B3F9BB921}
  9
$EXTNAMES
290
     1
  9
$PSVPSCALE
 40
0.0
  9
$OLESTARTUP
290
     0
  9
$SORTENTS
280
   127
  9
$INDEXCTL
280
     0
  9
$HIDETEXT
280
     0
  9
$XCLIPFRAME
290
     0
  9
$HALOGAP
280
     0
  9
$OBSCOLOR
 70
   257
  9
$OBSLTYPE
280
     0
  9
$INTERSECTIONDISPLAY
280
     0
  9
$INTERSECTIONCOLOR
 70
   257
  9
$DIMASSOC
280
     1
  9
$PROJECTNAME
  1

  0
ENDSEC
  0
SECTION
  2
CLASSES
  0
CLASS
  1
ACDBDICTIONARYWDFLT
  2
AcDbDictionaryWithDefault
  3
ObjectDBX Classes
 90
        0
 91
        1
280
     0
281
     0
  0
CLASS
  1
DICTIONARYVAR
  2
AcDbDictionaryVar
  3
ObjectDBX Classes
 90
        0
 91
        2
280
     0
281
     0
  0
ENDSEC
  0
SECTION
  2
TABLES
  0
TABLE
  2
VPORT
  5
8
330
0
100
AcDbSymbolTable
 70
     2
  0
VPORT
  5
2310
330
8
100
AcDbSymbolTableRecord
100
AcDbViewportTableRecord
  2
*Active
 70
     0
 10
0.0
 20
0.0
 11
1.0
 21
1.0
 12
210.0000029338453
 22
297.0000041492956
 13
0.0
 23
0.0
 14
1.0
 24
1.0
 15
10.0
 25
10.0
 16
0.0
 26
0.0
 36
1.0
 17
0.0
 27
0.0
 37
0.0
 40
598.8150392175905
 41
1.336927223719676
 42
50.0
 43
0.0
 44
0.0
 50
0.0
 51
0.0
 71
     0
 72
  1500
 73
     1
 74
     0
 75
     0
 76
     0
 77
     0
 78
     0
281
     0
 65
     1
110
0.0
120
0.0
130
0.0
111
1.0
121
0.0
131
0.0
112
0.0
122
1.0
132
0.0
 79
     0
146
0.0
  0
ENDTAB
  0
TABLE
  2
LTYPE
  5
5
330
0
100
AcDbSymbolTable
 70
     2
  0
LTYPE
  5
13
330
5
100
AcDbSymbolTableRecord
100
AcDbLinetypeTableRecord
  2
ByBlock
 70
     0
  3

 72
    65
 73
     0
 40
0.0
  0
LTYPE
  5
14
330
5
100
AcDbSymbolTableRecord
100
AcDbLinetypeTableRecord
  2
ByLayer
 70
     0
  3

 72
    65
 73
     0
 40
0.0
  0
LTYPE
  5
15
330
5
100
AcDbSymbolTableRecord
100
AcDbLinetypeTableRecord
  2
Continuous
 70
     0
  3
Solid line
 72
    65
 73
     0
 40
0.0
  0
LTYPE
  5
25
330
5
100
AcDbSymbolTableRecord
100
AcDbLinetypeTableRecord
  2
STRICHPUNKT
 70
     0
  3
__ . __ . __ . __ . __ . __ . __ . __ . __ . __
 72
    65
 73
     4
 40
1.0
 49
0.5
 74
     0
 49
-0.25
 74
     0
 49
0.0
 74
     0
 49
-0.25
 74
     0
  0
ENDTAB
  0
TABLE
  2
LAYER
  5
2
330
0
100
AcDbSymbolTable
 70
     9
  0
LAYER
  5
10
330
2
100
AcDbSymbolTableRecord
100
AcDbLayerTableRecord
  2
0
 70
     0
 62
     7
  6
Continuous
370
    -3
390
F
  0
LAYER
  5
2A
330
2
100
AcDbSymbolTableRecord
100
AcDbLayerTableRecord
  2
VOLL
 70
     0
 62
     1
  6
Continuous
370
    -3
390
F
  0
LAYER
  5
2B
330
2
100
AcDbSymbolTableRecord
100
AcDbLayerTableRecord
  2
HILF
 70
     0
 62
     2
  6
Continuous
370
    -3
390
F
  0
LAYER
  5
2C
330
2
100
AcDbSymbolTableRecord
100
AcDbLayerTableRecord
  2
MITTEL
 70
     0
 62
     2
  6
STRICHPUNKT
370
    -3
390
F
  0
LAYER
  5
2F
330
2
100
AcDbSymbolTableRecord
100
AcDbLayerTableRecord
  2
BEM
 70
     0
 62
     7
  6
Continuous
370
    -3
390
F
  0
LAYER
  5
30
330
2
100
AcDbSymbolTableRecord
100
AcDbLayerTableRecord
  2
STEMPEL
 70
     0
 62
     3
  6
Continuous
370
    -3
390
F
  0
LAYER
  5
31
330
2
100
AcDbSymbolTableRecord
100
AcDbLayerTableRecord
  2
TEXT
 70
     0
 62
     7
  6
Continuous
370
    -3
390
F
  0
LAYER
  5
171
330
2
100
AcDbSymbolTableRecord
100
AcDbLayerTableRecord
  2
Defpoints
 70
     0
 62
     7
  6
Continuous
290
     0
370
    -3
390
F
  0
LAYER
  5
19C
330
2
100
AcDbSymbolTableRecord
100
AcDbLayerTableRecord
  2
SCHRAFF
 70
     0
 62
     7
  6
Continuous
370
    -3
390
F
  0
ENDTAB
  0
TABLE
  2
STYLE
  5
3
330
0
100
AcDbSymbolTable
 70
     2
  0
STYLE
  5
11
330
3
100
AcDbSymbolTableRecord
100
AcDbTextStyleTableRecord
  2
STANDARD
 70
     0
 40
0.0
 41
0.8
 50
0.0
 71
     0
 42
3.5
  3
simplex.shx
  4

  0
STYLE
  5
24
330
3
100
AcDbSymbolTableRecord
100
AcDbTextStyleTableRecord
  2
GREEKS
 70
     0
 40
0.0
 41
0.8
 50
0.0
 71
     0
 42
2.5
  3
SIMPLEX.shx
  4

  0
ENDTAB
  0
TABLE
  2
VIEW
  5
6
330
0
100
AcDbSymbolTable
 70
     0
  0
ENDTAB
  0
TABLE
  2
UCS
  5
7
330
0
100
AcDbSymbolTable
 70
     0
  0
ENDTAB
  0
TABLE
  2
APPID
  5
9
330
0
100
AcDbSymbolTable
 70
     1
  0
APPID
  5
12
330
9
100
AcDbSymbolTableRecord
100
AcDbRegAppTableRecord
  2
ACAD
 70
     0
  0
ENDTAB
  0
TABLE
  2
DIMSTYLE
  5
A
330
0
100
AcDbSymbolTable
 70
     1
100
AcDbDimStyleTable
 71
     1
340
9D
  0
DIMSTYLE
105
9D
102
{ACAD_REACTORS
330
1F19
330
1F22
330
1F79
330
22C1
330
22E3
330
22F9
102
}
330
A
100
AcDbSymbolTableRecord
100
AcDbDimStyleTableRecord
  2
Standard
 70
     0
340
11
  0
ENDTAB
  0
TABLE
  2
BLOCK_RECORD
  5
1
330
0
100
AcDbSymbolTable
 70
     7
  0
BLOCK_RECORD
  5
1E
102
{ACAD_XDICTIONARY
360
A0
102
}
330
1
100
AcDbSymbolTableRecord
100
AcDbBlockTableRecord
  2
*Model_Space
340
21
  0
BLOCK_RECORD
  5
1A
102
{ACAD_XDICTIONARY
360
A2
102
}
330
1
100
AcDbSymbolTableRecord
100
AcDbBlockTableRecord
  2
*Paper_Space
340
1D
  0
BLOCK_RECORD
  5
22
330
1
100
AcDbSymbolTableRecord
100
AcDbBlockTableRecord
  2
LOGO
340
0
102
{BLKREFS
331
9B
102
}
  0
BLOCK_RECORD
  5
1F3B
330
1
100
AcDbSymbolTableRecord
100
AcDbBlockTableRecord
  2
*D1
340
0
  0
BLOCK_RECORD
  5
1F47
330
1
100
AcDbSymbolTableRecord
100
AcDbBlockTableRecord
  2
*D2
340
0
  0
BLOCK_RECORD
  5
1FB1
330
1
100
AcDbSymbolTableRecord
100
AcDbBlockTableRecord
  2
*D3
340
0
  0
BLOCK_RECORD
  5
22C2
330
1
100
AcDbSymbolTableRecord
100
AcDbBlockTableRecord
  2
*D4
340
0
  0
BLOCK_RECORD
  5
22E4
330
1
100
AcDbSymbolTableRecord
100
AcDbBlockTableRecord
  2
*D5
340
0
  0
BLOCK_RECORD
  5
22FA
330
1
100
AcDbSymbolTableRecord
100
AcDbBlockTableRecord
  2
*D6
340
0
  0
ENDTAB
  0
ENDSEC
  0
SECTION
  2
BLOCKS
  0
BLOCK
  5
35
330
1E
100
AcDbEntity
  8
0
100
AcDbBlockBegin
  2
*Model_Space
 70
     0
 10
0.0
 20
0.0
 30
0.0
  3
*Model_Space
  1

  0
ENDBLK
  5
36
330
1E
100
AcDbEntity
  8
0
100
AcDbBlockEnd
  0
BLOCK
  5
33
330
1A
100
AcDbEntity
 67
     1
  8
0
100
AcDbBlockBegin
  2
*Paper_Space
 70
     0
 10
0.0
 20
0.0
 30
0.0
  3
*Paper_Space
  1

  0
ENDBLK
  5
34
330
1A
100
AcDbEntity
 67
     1
  8
0
100
AcDbBlockEnd
  0
BLOCK
  5
37
330
22
100
AcDbEntity
  8
0
100
AcDbBlockBegin
  2
LOGO
 70
     0
 10
0.0
 20
0.0
 30
0.0
  3
LOGO
  1

  0
ARC
  5
38
330
22
100
AcDbEntity
  8
0
100
AcDbCircle
 10
11.59973089678112
 20
-9.271599258481501
 30
0.0
 40
4.5
100
AcDbArc
 50
270.0
 51
231.0575587310159
  0
LINE
  5
39
330
22
100
AcDbEntity
  8
0
100
AcDbLine
 10
3.599730896781125
 20
-4.771599258481529
 30
0.0
 11
3.599730896781153
 21
-11.77159925848133
 31
0.0
  0
LINE
  5
3A
330
22
100
AcDbEntity
  8
0
100
AcDbLine
 10
2.599730896781125
 20
-4.771599258481529
 30
0.0
 11
2.599730896781153
 21
-11.77159925848133
 31
0.0
  0
CIRCLE
  5
3B
330
22
100
AcDbEntity
  8
0
100
AcDbCircle
 10
11.59973089678112
 20
-9.271599258481501
 30
0.0
 40
3.5
  0
ARC
  5
3C
330
22
100
AcDbEntity
  8
0
100
AcDbCircle
 10
31.59973089678115
 20
-9.271599258481472
 30
0.0
 40
4.5
100
AcDbArc
 50
270.0
 51
231.0575587310182
  0
LINE
  5
3D
330
22
100
AcDbEntity
  8
0
100
AcDbLine
 10
17.59973089678112
 20
-4.771599258481472
 30
0.0
 11
17.59973089678115
 21
-13.77159925848147
 31
0.0
  0
ARC
  5
3E
330
22
100
AcDbEntity
  8
0
100
AcDbCircle
 10
22.59973089678116
 20
-7.271599258481472
 30
0.0
 40
2.5
100
AcDbArc
 50
293.1161887722295
 51
90.0
  0
CIRCLE
  5
3F
330
22
100
AcDbEntity
  8
0
100
AcDbCircle
 10
31.59973089678115
 20
-9.271599258481472
 30
0.0
 40
3.5
  0
ARC
  5
40
330
22
100
AcDbEntity
  8
0
100
AcDbCircle
 10
4.599730896781153
 20
-11.77159925848133
 30
0.0
 40
1.0
100
AcDbArc
 50
180.0
 51
270.0
  0
ARC
  5
41
330
22
100
AcDbEntity
  8
0
100
AcDbCircle
 10
4.599730896781153
 20
-11.77159925848133
 30
0.0
 40
2.0
100
AcDbArc
 50
179.9999999999992
 51
270.0
  0
LINE
  5
42
330
22
100
AcDbEntity
  8
0
100
AcDbLine
 10
11.59973089678115
 20
-13.77159925848144
 30
0.0
 11
4.599730896781153
 21
-13.77159925848147
 31
0.0
  0
LINE
  5
43
330
22
100
AcDbEntity
  8
0
100
AcDbLine
 10
8.771303772034769
 20
-12.77159925848136
 30
0.0
 11
4.599730896781153
 21
-12.77159925848133
 31
0.0
  0
LINE
  5
44
330
22
100
AcDbEntity
  8
0
100
AcDbLine
 10
31.59973089678115
 20
-13.77159925848147
 30
0.0
 11
23.6715276665056
 21
-13.77159925848144
 31
0.0
  0
LINE
  5
45
330
22
100
AcDbEntity
  8
0
100
AcDbLine
 10
23.56565672307022
 20
-9.51278021337896
 30
0.0
 11
24.4388546544846
 21
-12.77159925848144
 31
0.0
  0
LINE
  5
46
330
22
100
AcDbEntity
  8
0
100
AcDbLine
 10
22.59973089678116
 20
-9.771599258481472
 30
0.0
 11
18.59973089678112
 21
-9.771599258481472
 31
0.0
  0
LINE
  5
47
330
22
100
AcDbEntity
  8
0
100
AcDbLine
 10
18.59973089678115
 20
-13.77159925848144
 30
0.0
 11
17.59973089678115
 21
-13.77159925848144
 31
0.0
  0
LINE
  5
48
330
22
100
AcDbEntity
  8
0
100
AcDbLine
 10
18.59973089678115
 20
-9.771599258481472
 30
0.0
 11
18.59973089678115
 21
-13.77159925848144
 31
0.0
  0
LINE
  5
49
330
22
100
AcDbEntity
  8
0
100
AcDbLine
 10
22.59973089678116
 20
-9.771599258481472
 30
0.0
 11
23.67152766650562
 21
-13.77159925848147
 31
0.0
  0
ARC
  5
4A
330
22
100
AcDbEntity
  8
0
100
AcDbCircle
 10
22.59973089678116
 20
-7.271599258481472
 30
0.0
 40
2.5
100
AcDbArc
 50
270.0
 51
270.0000000000007
  0
LINE
  5
4B
330
22
100
AcDbEntity
  8
0
100
AcDbLine
 10
28.77130377203494
 20
-12.77159925848147
 30
0.0
 11
24.43885465448463
 21
-12.77159925848144
 31
0.0
  0
LINE
  5
4C
330
22
100
AcDbEntity
  8
0
100
AcDbLine
 10
3.599730896781125
 20
-4.771599258481472
 30
0.0
 11
2.599730896781125
 21
-4.771599258481472
 31
0.0
  0
LINE
  5
4D
330
22
100
AcDbEntity
  8
0
100
AcDbLine
 10
22.59973089678116
 20
-8.771599258481472
 30
0.0
 11
18.59973089678115
 21
-8.771599258481472
 31
0.0
  0
LINE
  5
4E
330
22
100
AcDbEntity
  8
0
100
AcDbLine
 10
22.59973089678116
 20
-5.771599258481472
 30
0.0
 11
18.59973089678115
 21
-5.771599258481472
 31
0.0
  0
LINE
  5
4F
330
22
100
AcDbEntity
  8
0
100
AcDbLine
 10
22.59973089678116
 20
-4.771599258481472
 30
0.0
 11
17.59973089678115
 21
-4.771599258481472
 31
0.0
  0
LINE
  5
50
330
22
100
AcDbEntity
  8
0
100
AcDbLine
 10
18.59973089678115
 20
-5.771599258481472
 30
0.0
 11
18.59973089678115
 21
-8.771599258481472
 31
0.0
  0
ARC
  5
51
330
22
100
AcDbEntity
  8
0
100
AcDbCircle
 10
22.59973089678116
 20
-7.271599258481472
 30
0.0
 40
1.5
100
AcDbArc
 50
270.0
 51
90.0
  0
ENDBLK
  5
52
330
22
100
AcDbEntity
  8
0
100
AcDbBlockEnd
  0
BLOCK
  5
1F45
330
1F3B
100
AcDbEntity
  8
0
100
AcDbBlockBegin
  2
*D1
 70
     1
 10
0.0
 20
0.0
 30
0.0
  3
*D1
  1

  0
LINE
  5
2262
330
1F3B
100
AcDbEntity
  8
BEM
 62
     0
370
    -2
100
AcDbLine
 10
144.892665178287
 20
240.9591917464254
 30
0.0
 11
144.892665178287
 21
212.9030177297
 31
0.0
  0
LINE
  5
2263
330
1F3B
100
AcDbEntity
  8
BEM
 62
     0
370
    -2
100
AcDbLine
 10
246.892665178287
 20
240.9591917464254
 30
0.0
 11
246.892665178287
 21
212.9030177297
 31
0.0
  0
LINE
  5
2264
330
1F3B
100
AcDbEntity
  8
BEM
 62
     0
370
    -2
100
AcDbLine
 10
151.892665178287
 20
214.9030177297
 30
0.0
 11
239.892665178287
 21
214.9030177297
 31
0.0
  0
SOLID
  5
2265
330
1F3B
100
AcDbEntity
  8
BEM
 62
     0
100
AcDbTrace
 10
151.892665178287
 20
216.0696843963667
 30
0.0
 11
151.892665178287
 21
213.7363510630334
 31
0.0
 12
144.892665178287
 22
214.9030177297
 32
0.0
 13
144.892665178287
 23
214.9030177297
 33
0.0
  0
SOLID
  5
2266
330
1F3B
100
AcDbEntity
  8
BEM
 62
     0
100
AcDbTrace
 10
239.892665178287
 20
216.0696843963667
 30
0.0
 11
239.892665178287
 21
213.7363510630334
 31
0.0
 12
246.892665178287
 22
214.9030177297
 32
0.0
 13
246.892665178287
 23
214.9030177297
 33
0.0
  0
MTEXT
  5
2267
330
1F3B
100
AcDbEntity
  8
BEM
 62
     1
100
AcDbMText
 10
195.892665178287
 20
221.4030177297
 30
0.0
 40
7.0
 41
0.0
 71
     5
 72
     1
  1
\A1;%%c102
  7
GREEKS
 73
     1
 44
1.0
  0
POINT
  5
2268
330
1F3B
100
AcDbEntity
  8
Defpoints
 62
     0
100
AcDbPoint
 10
144.892665178287
 20
242.9591917464254
 30
0.0
  0
POINT
  5
2269
330
1F3B
100
AcDbEntity
  8
Defpoints
 62
     0
100
AcDbPoint
 10
246.892665178287
 20
242.9591917464254
 30
0.0
  0
POINT
  5
226A
330
1F3B
100
AcDbEntity
  8
Defpoints
 62
     0
100
AcDbPoint
 10
246.892665178287
 20
214.9030177297
 30
0.0
  0
ENDBLK
  5
1F46
330
1F3B
100
AcDbEntity
  8
0
100
AcDbBlockEnd
  0
BLOCK
  5
1F51
330
1F47
100
AcDbEntity
  8
0
100
AcDbBlockBegin
  2
*D2
 70
     1
 10
0.0
 20
0.0
 30
0.0
  3
*D2
  1

  0
LINE
  5
2259
330
1F47
100
AcDbEntity
  8
BEM
 62
     0
370
    -2
100
AcDbLine
 10
127.392665178287
 20
295.0465136322449
 30
0.0
 11
112.8910088886591
 21
295.0465136322449
 31
0.0
  0
LINE
  5
225A
330
1F47
100
AcDbEntity
  8
BEM
 62
     0
370
    -2
100
AcDbLine
 10
143.5849348114076
 20
235.0465136322448
 30
0.0
 11
112.8910088886591
 21
235.0465136322448
 31
0.0
  0
LINE
  5
225B
330
1F47
100
AcDbEntity
  8
BEM
 62
     0
370
    -2
100
AcDbLine
 10
114.8910088886591
 20
288.0465136322449
 30
0.0
 11
114.8910088886591
 21
242.0465136322448
 31
0.0
  0
SOLID
  5
225C
330
1F47
100
AcDbEntity
  8
BEM
 62
     0
100
AcDbTrace
 10
113.7243422219925
 20
288.0465136322449
 30
0.0
 11
116.0576755553258
 21
288.0465136322449
 31
0.0
 12
114.8910088886591
 22
295.0465136322449
 32
0.0
 13
114.8910088886591
 23
295.0465136322449
 33
0.0
  0
SOLID
  5
225D
330
1F47
100
AcDbEntity
  8
BEM
 62
     0
100
AcDbTrace
 10
113.7243422219925
 20
242.0465136322448
 30
0.0
 11
116.0576755553258
 21
242.0465136322448
 31
0.0
 12
114.8910088886591
 22
235.0465136322448
 32
0.0
 13
114.8910088886591
 23
235.0465136322448
 33
0.0
  0
MTEXT
  5
225E
330
1F47
100
AcDbEntity
  8
BEM
 62
     1
100
AcDbMText
 10
108.3910088886591
 20
265.0465136322448
 30
0.0
 40
7.0
 41
0.0
 71
     5
 72
     1
  1
\A1;60
 11
0.0000000000000001
 21
1.0
 31
0.0
 73
     1
 44
1.0
  0
POINT
  5
225F
330
1F47
100
AcDbEntity
  8
Defpoints
 62
     0
100
AcDbPoint
 10
129.3926651782869
 20
295.0465136322448
 30
0.0
  0
POINT
  5
2260
330
1F47
100
AcDbEntity
  8
Defpoints
 62
     0
100
AcDbPoint
 10
145.5849348114076
 20
235.0465136322448
 30
0.0
  0
POINT
  5
2261
330
1F47
100
AcDbEntity
  8
Defpoints
 62
     0
100
AcDbPoint
 10
114.8910088886591
 20
235.0465136322448
 30
0.0
  0
ENDBLK
  5
1F52
330
1F47
100
AcDbEntity
  8
0
100
AcDbBlockEnd
  0
BLOCK
  5
1FBB
330
1FB1
100
AcDbEntity
  8
0
100
AcDbBlockBegin
  2
*D3
 70
     1
 10
0.0
 20
0.0
 30
0.0
  3
*D3
  1

  0
LINE
  5
22B8
330
1FB1
100
AcDbEntity
  8
BEM
 62
     0
370
    -2
100
AcDbLine
 10
310.3570998305663
 20
491.4729906020697
 30
0.0
 11
321.9373318692203
 21
495.6878503700354
 31
0.0
  0
LINE
  5
22B9
330
1FB1
100
AcDbEntity
  8
BEM
 62
     0
370
    -2
100
AcDbLine
 10
355.8457788928802
 20
366.4938720375436
 30
0.0
 11
367.4260109315341
 21
370.7087318055095
 31
0.0
  0
LINE
  5
22BA
330
1FB1
100
AcDbEntity
  8
BEM
 62
     0
370
    -2
100
AcDbLine
 10
322.4520876309281
 20
488.4259617378828
 30
0.0
 11
363.1524846866826
 21
376.6025398643595
 31
0.0
  0
SOLID
  5
22BB
330
1FB1
100
AcDbEntity
  8
BEM
 62
     0
100
AcDbTrace
 10
323.5483956885117
 20
488.8249852384294
 30
0.0
 11
321.3557795733446
 21
488.0269382373362
 31
0.0
 12
320.0579466276484
 22
495.0038100833841
 32
0.0
 13
320.0579466276484
 23
495.0038100833841
 33
0.0
  0
SOLID
  5
22BC
330
1FB1
100
AcDbEntity
  8
BEM
 62
     0
100
AcDbTrace
 10
364.2487927442662
 20
377.0015633649062
 30
0.0
 11
362.056176629099
 21
376.2035163638129
 31
0.0
 12
365.5466256899623
 22
370.0246915188581
 32
0.0
 13
365.5466256899623
 23
370.0246915188581
 33
0.0
  0
MTEXT
  5
22BD
330
1FB1
100
AcDbEntity
  8
BEM
 62
     1
100
AcDbMText
 10
348.9102881939138
 20
434.7373817327379
 30
0.0
 40
7.0
 41
0.0
 71
     5
 72
     1
  1
\A1;%%c133
  7
GREEKS
 11
0.3420201433256671
 21
-0.939692620785909
 31
0.0
 73
     1
 44
1.0
  0
POINT
  5
22BE
330
1FB1
100
AcDbEntity
  8
Defpoints
 62
     0
100
AcDbPoint
 10
308.4777145889945
 20
490.7889503154183
 30
0.0
  0
POINT
  5
22BF
330
1FB1
100
AcDbEntity
  8
Defpoints
 62
     0
100
AcDbPoint
 10
353.9663936513083
 20
365.8098317508923
 30
0.0
  0
POINT
  5
22C0
330
1FB1
100
AcDbEntity
  8
Defpoints
 62
     0
100
AcDbPoint
 10
365.5466256899623
 20
370.0246915188581
 30
0.0
  0
ENDBLK
  5
1FBC
330
1FB1
100
AcDbEntity
  8
0
100
AcDbBlockEnd
  0
BLOCK
  5
22CD
330
22C2
100
AcDbEntity
  8
0
100
AcDbBlockBegin
  2
*D4
 70
     1
 10
0.0
 20
0.0
 30
0.0
  3
*D4
  1

  0
LINE
  5
22D9
330
22C2
100
AcDbEntity
  8
BEM
 62
     0
370
    -2
100
AcDbLine
 10
195.8926651782869
 20
381.0435216368826
 30
0.0
 11
195.8926651782869
 21
483.7161479446208
 31
0.0
  0
ARC
  5
22DA
330
22C2
100
AcDbEntity
  8
BEM
 62
     0
370
    -2
100
AcDbCircle
 10
195.8926651782869
 20
379.0435216368826
 30
0.0
 40
102.6726263077382
100
AcDbArc
 50
23.90706061908892
 51
86.09293938091111
  0
SOLID
  5
22DB
330
22C2
100
AcDbEntity
  8
BEM
 62
     0
100
AcDbTrace
 10
290.838461728678
 20
421.0882031781754
 30
0.0
 11
288.6743245228572
 21
420.2158760613054
 31
0.0
 12
292.3733744763776
 22
414.1596280022781
 32
0.0
 13
292.3733744763776
 23
414.1596280022781
 33
0.0
  0
SOLID
  5
22DC
330
22C2
100
AcDbEntity
  8
BEM
 62
     0
100
AcDbTrace
 10
202.8488263842757
 20
480.3115368285435
 30
0.0
 11
202.9283672215987
 21
482.6435140367602
 31
0.0
 12
195.8926651782869
 22
481.7161479446208
 32
0.0
 13
195.8926651782869
 23
481.7161479446208
 33
0.0
  0
MTEXT
  5
22DD
330
22C2
100
AcDbEntity
  8
BEM
 62
     1
100
AcDbMText
 10
239.115457755365
 20
479.2954669385472
 30
0.0
 40
7.0
 41
0.0
 71
     5
 72
     1
  1
\A1;70°
 11
0.9182882989282694
 21
-0.3959123641052717
 31
0.0
 73
     1
 44
1.0
  0
POINT
  5
22DE
330
22C2
100
AcDbEntity
  8
Defpoints
 62
     0
100
AcDbPoint
 10
270.5740272656153
 20
449.5017528785893
 30
0.0
  0
POINT
  5
22DF
330
22C2
100
AcDbEntity
  8
Defpoints
 62
     0
100
AcDbPoint
 10
195.8926651782869
 20
379.0435216368826
 30
0.0
  0
POINT
  5
22E0
330
22C2
100
AcDbEntity
  8
Defpoints
 62
     0
100
AcDbPoint
 10
335.518780144902
 20
429.8632714109614
 30
0.0
  0
POINT
  5
22E1
330
22C2
100
AcDbEntity
  8
Defpoints
 62
     0
100
AcDbPoint
 10
195.8926651782869
 20
379.0435216368826
 30
0.0
  0
POINT
  5
22E2
330
22C2
100
AcDbEntity
  8
Defpoints
 62
     0
100
AcDbPoint
 10
195.8926651782869
 20
230.0465136322449
 30
0.0
  0
ENDBLK
  5
22CE
330
22C2
100
AcDbEntity
  8
0
100
AcDbBlockEnd
  0
BLOCK
  5
22EE
330
22E4
100
AcDbEntity
  8
0
100
AcDbBlockBegin
  2
*D5
 70
     1
 10
0.0
 20
0.0
 30
0.0
  3
*D5
  1

  0
LINE
  5
22F0
330
22E4
100
AcDbEntity
  8
BEM
 62
     0
370
    -2
100
AcDbLine
 10
195.2086248916356
 20
380.9229068784544
 30
0.0
 11
157.9068639964512
 21
483.4086526438686
 31
0.0
  0
LINE
  5
22F1
330
22E4
100
AcDbEntity
  8
BEM
 62
     0
370
    -2
100
AcDbLine
 10
307.7936743023432
 20
492.6683355569903
 30
0.0
 11
293.2362529383159
 21
532.6645220401413
 31
0.0
  0
LINE
  5
22F2
330
22E4
100
AcDbEntity
  8
BEM
 62
     0
370
    -2
100
AcDbLine
 10
165.1687526286039
 20
483.9234084055765
 30
0.0
 11
287.3424448794659
 21
528.3909957952898
 31
0.0
  0
SOLID
  5
22F3
330
22E4
100
AcDbEntity
  8
BEM
 62
     0
100
AcDbTrace
 10
164.7697291280572
 20
485.0197164631601
 30
0.0
 11
165.5677761291505
 21
482.8271003479929
 31
0.0
 12
158.5909042831025
 22
481.5292674022968
 32
0.0
 13
158.5909042831025
 23
481.5292674022968
 33
0.0
  0
SOLID
  5
22F4
330
22E4
100
AcDbEntity
  8
BEM
 62
     0
100
AcDbTrace
 10
286.9434213789193
 20
529.4873038528735
 30
0.0
 11
287.7414683800125
 21
527.2946877377062
 31
0.0
 12
293.9202932249673
 22
530.7851367985695
 32
0.0
 13
293.9202932249673
 23
530.7851367985695
 33
0.0
  0
MTEXT
  5
22F5
330
22E4
100
AcDbEntity
  8
BEM
 62
     1
100
AcDbMText
 10
224.032467822418
 20
512.2652041355415
 30
0.0
 40
7.0
 41
0.0
 71
     5
 72
     1
  1
\A1;144
 11
0.9396926207859078
 21
0.3420201433256703
 31
0.0
 73
     1
 44
1.0
  0
POINT
  5
22F6
330
22E4
100
AcDbEntity
  8
Defpoints
 62
     0
100
AcDbPoint
 10
195.8926651782869
 20
379.0435216368826
 30
0.0
  0
POINT
  5
22F7
330
22E4
100
AcDbEntity
  8
Defpoints
 62
     0
100
AcDbPoint
 10
308.4777145889946
 20
490.7889503154185
 30
0.0
  0
POINT
  5
22F8
330
22E4
100
AcDbEntity
  8
Defpoints
 62
     0
100
AcDbPoint
 10
293.9202932249673
 20
530.7851367985695
 30
0.0
  0
ENDBLK
  5
22EF
330
22E4
100
AcDbEntity
  8
0
100
AcDbBlockEnd
  0
BLOCK
  5
2304
330
22FA
100
AcDbEntity
  8
0
100
AcDbBlockBegin
  2
*D6
 70
     1
 10
0.0
 20
0.0
 30
0.0
  3
*D6
  1

  0
LINE
  5
22FB
330
22FA
100
AcDbEntity
  8
BEM
 62
     0
370
    -2
100
AcDbLine
 10
143.5849348114076
 20
235.0465136322448
 30
0.0
 11
95.31976985461367
 21
235.0465136322448
 31
0.0
  0
LINE
  5
22FC
330
22FA
100
AcDbEntity
  8
BEM
 62
     0
370
    -2
100
AcDbLine
 10
193.8926651782869
 20
379.0435216368826
 30
0.0
 11
95.31976985461369
 21
379.0435216368827
 31
0.0
  0
LINE
  5
22FD
330
22FA
100
AcDbEntity
  8
BEM
 62
     0
370
    -2
100
AcDbLine
 10
97.31976985461367
 20
242.0465136322448
 30
0.0
 11
97.3197698546137
 21
372.0435216368827
 31
0.0
  0
SOLID
  5
22FE
330
22FA
100
AcDbEntity
  8
BEM
 62
     0
100
AcDbTrace
 10
96.15310318794699
 20
242.0465136322448
 30
0.0
 11
98.48643652128034
 21
242.0465136322448
 31
0.0
 12
97.31976985461367
 22
235.0465136322448
 32
0.0
 13
97.31976985461367
 23
235.0465136322448
 33
0.0
  0
SOLID
  5
22FF
330
22FA
100
AcDbEntity
  8
BEM
 62
     0
100
AcDbTrace
 10
96.15310318794703
 20
372.0435216368827
 30
0.0
 11
98.48643652128037
 21
372.0435216368827
 31
0.0
 12
97.3197698546137
 22
379.0435216368827
 32
0.0
 13
97.3197698546137
 23
379.0435216368827
 33
0.0
  0
MTEXT
  5
2300
330
22FA
100
AcDbEntity
  8
BEM
 62
     1
100
AcDbMText
 10
90.81976985461363
 20
307.0450176345638
 30
0.0
 40
7.0
 41
0.0
 71
     5
 72
     1
  1
\A1;144
 11
0.0000000000000001
 21
1.0
 31
0.0
 73
     1
 44
1.0
  0
POINT
  5
2301
330
22FA
100
AcDbEntity
  8
Defpoints
 62
     0
100
AcDbPoint
 10
145.5849348114076
 20
235.0465136322448
 30
0.0
  0
POINT
  5
2302
330
22FA
100
AcDbEntity
  8
Defpoints
 62
     0
100
AcDbPoint
 10
195.8926651782869
 20
379.0435216368826
 30
0.0
  0
POINT
  5
2303
330
22FA
100
AcDbEntity
  8
Defpoints
 62
     0
100
AcDbPoint
 10
97.3197698546137
 20
379.0435216368827
 30
0.0
  0
ENDBLK
  5
2305
330
22FA
100
AcDbEntity
  8
0
100
AcDbBlockEnd
  0
ENDSEC
  0
SECTION
  2
ENTITIES
  0
LINE
  5
57
330
1E
100
AcDbEntity
  8
STEMPEL
100
AcDbLine
 10
410.0
 20
110.0
 30
0.0
 11
39.99999999999997
 21
110.0
 31
0.0
  0
LINE
  5
58
330
1E
100
AcDbEntity
  8
STEMPEL
100
AcDbLine
 10
146.0000000000001
 20
109.9999999999999
 30
0.0
 11
146.0
 21
9.999999999999971
 31
0.0
  0
LINE
  5
59
330
1E
100
AcDbEntity
  8
STEMPEL
100
AcDbLine
 10
230.0
 20
110.0
 30
0.0
 11
230.0
 21
9.999999999999971
 31
0.0
  0
LINE
  5
5A
330
1E
100
AcDbEntity
  8
STEMPEL
100
AcDbLine
 10
332.0
 20
109.9999999999997
 30
0.0
 11
332.0
 21
40.0
 31
0.0
  0
LINE
  5
5B
330
1E
100
AcDbEntity
  8
STEMPEL
100
AcDbLine
 10
145.9999999999999
 20
29.99999999999997
 30
0.0
 11
39.99999999999997
 21
29.99999999999997
 31
0.0
  0
LINE
  5
5C
330
1E
100
AcDbEntity
  8
STEMPEL
100
AcDbLine
 10
410.0
 20
40.0
 30
0.0
 11
146.0000000000001
 21
39.99999999999997
 31
0.0
  0
LINE
  5
5D
330
1E
100
AcDbEntity
  8
STEMPEL
100
AcDbLine
 10
410.0
 20
80.0
 30
0.0
 11
146.0000000000001
 21
79.99999999999994
 31
0.0
  0
LINE
  5
5E
330
1E
100
AcDbEntity
  8
VOLL
100
AcDbLine
 10
54.00000000000009
 20
110.0
 30
0.0
 11
53.99999999999997
 21
9.999999999999971
 31
0.0
  0
LINE
  5
5F
330
1E
100
AcDbEntity
  8
VOLL
100
AcDbLine
 10
104.0000000000001
 20
109.9999999999999
 30
0.0
 11
104.0
 21
9.999999999999971
 31
0.0
  0
LINE
  5
60
330
1E
100
AcDbEntity
  8
VOLL
100
AcDbLine
 10
124.0000000000001
 20
109.9999999999999
 30
0.0
 11
124.0
 21
9.999999999999971
 31
0.0
  0
LINE
  5
61
330
1E
100
AcDbEntity
  8
VOLL
100
AcDbLine
 10
164.0000000000001
 20
79.99999999999994
 30
0.0
 11
164.0000000000001
 21
39.99999999999997
 31
0.0
  0
LINE
  5
62
330
1E
100
AcDbEntity
  8
VOLL
100
AcDbLine
 10
190.0000000000001
 20
109.9999999999998
 30
0.0
 11
190.0
 21
39.99999999999997
 31
0.0
  0
LINE
  5
63
330
1E
100
AcDbEntity
  8
HILF
100
AcDbLine
 10
40.00000000000008
 20
100.0
 30
0.0
 11
146.0000000000001
 21
100.0
 31
0.0
  0
LINE
  5
64
330
1E
100
AcDbEntity
  8
HILF
100
AcDbLine
 10
40.00000000000008
 20
90.00000000000005
 30
0.0
 11
146.0000000000001
 21
90.00000000000005
 31
0.0
  0
LINE
  5
65
330
1E
100
AcDbEntity
  8
HILF
100
AcDbLine
 10
40.00000000000008
 20
79.99999999999994
 30
0.0
 11
146.0000000000001
 21
79.99999999999994
 31
0.0
  0
LINE
  5
66
330
1E
100
AcDbEntity
  8
HILF
100
AcDbLine
 10
40.00000000000008
 20
69.99999999999994
 30
0.0
 11
146.0000000000001
 21
69.99999999999994
 31
0.0
  0
LINE
  5
67
330
1E
100
AcDbEntity
  8
HILF
100
AcDbLine
 10
40.00000000000008
 20
59.99999999999997
 30
0.0
 11
146.0000000000001
 21
59.99999999999997
 31
0.0
  0
LINE
  5
68
330
1E
100
AcDbEntity
  8
HILF
100
AcDbLine
 10
40.00000000000008
 20
49.99999999999997
 30
0.0
 11
146.0000000000001
 21
49.99999999999997
 31
0.0
  0
LINE
  5
69
330
1E
100
AcDbEntity
  8
HILF
100
AcDbLine
 10
40.00000000000008
 20
39.99999999999997
 30
0.0
 11
146.0000000000001
 21
39.99999999999997
 31
0.0
  0
LINE
  5
6A
330
1E
100
AcDbEntity
  8
HILF
100
AcDbLine
 10
146.0000000000001
 20
69.99999999999994
 30
0.0
 11
230.0
 21
69.99999999999994
 31
0.0
  0
LINE
  5
6B
330
1E
100
AcDbEntity
  8
HILF
100
AcDbLine
 10
146.0000000000001
 20
59.99999999999997
 30
0.0
 11
230.0
 21
59.99999999999997
 31
0.0
  0
LINE
  5
6C
330
1E
100
AcDbEntity
  8
HILF
100
AcDbLine
 10
146.0000000000001
 20
49.99999999999997
 30
0.0
 11
230.0
 21
49.99999999999997
 31
0.0
  0
LINE
  5
6D
330
1E
100
AcDbEntity
  8
HILF
100
AcDbLine
 10
234.7736801096947
 20
84.03758247564139
 30
0.0
 11
324.8353916556311
 21
84.03758247564139
 31
0.0
  0
LINE
  5
6E
330
1E
100
AcDbEntity
  8
HILF
100
AcDbLine
 10
234.7736801096947
 20
69.99999999999994
 30
0.0
 11
324.835391655631
 21
69.99999999999994
 31
0.0
  0
LINE
  5
6F
330
1E
100
AcDbEntity
  8
HILF
100
AcDbLine
 10
234.7736801096947
 20
59.99999999999997
 30
0.0
 11
324.835391655631
 21
59.99999999999997
 31
0.0
  0
LINE
  5
70
330
1E
100
AcDbEntity
  8
HILF
100
AcDbLine
 10
234.7736801096947
 20
49.99999999999997
 30
0.0
 11
324.835391655631
 21
49.99999999999997
 31
0.0
  0
LINE
  5
71
330
1E
100
AcDbEntity
  8
VOLL
100
AcDbLine
 10
332.0
 20
60.0
 30
0.0
 11
410.0
 21
60.0
 31
0.0
  0
LINE
  5
72
330
1E
100
AcDbEntity
  8
HILF
100
AcDbLine
 10
336.7238616296993
 20
83.77983636955827
 30
0.0
 11
404.8588839326728
 21
83.77983636955827
 31
0.0
  0
LINE
  5
73
330
1E
100
AcDbEntity
  8
HILF
100
AcDbLine
 10
233.4909699289885
 20
14.89398258028314
 30
0.0
 11
404.8588839326728
 21
14.89398258028314
 31
0.0
  0
TEXT
  5
74
330
1E
100
AcDbEntity
  8
TEXT
100
AcDbText
 10
67.79509897490102
 20
18.67381894984132
 30
0.0
 40
4.0
  1
Änderung
 41
0.8
  7
GREEKS
 72
     1
 11
78.53795611775817
 21
18.67381894984132
 31
0.0
100
AcDbText
  0
TEXT
  5
75
330
1E
100
AcDbEntity
  8
TEXT
100
AcDbText
 10
153.5163572150377
 20
102.4620895087088
 30
0.0
 40
5.0
  1
Maßstab
 41
0.8
  7
GREEKS
100
AcDbText
  0
TEXT
  5
76
330
1E
100
AcDbEntity
  8
TEXT
100
AcDbText
 10
194.2858954734051
 20
102.4184168434819
 30
0.0
 40
5.0
  1
Zul. Abw.
 41
0.8
  7
GREEKS
100
AcDbText
  0
TEXT
  5
77
330
1E
100
AcDbEntity
  8
TEXT
100
AcDbText
 10
234.877940380901
 20
102.5489328011779
 30
0.0
 40
5.0
  1
Benennung
 41
0.8
  7
GREEKS
100
AcDbText
  0
TEXT
  5
78
330
1E
100
AcDbEntity
  8
TEXT
100
AcDbText
 10
336.178754957634
 20
102.3132034537136
 30
0.0
 40
5.0
  1
Zeichnungs Nr.
 41
0.8
  7
GREEKS
100
AcDbText
  0
TEXT
  5
79
330
1E
100
AcDbEntity
  8
TEXT
100
AcDbText
 10
234.742238391136
 20
30.84560570193057
 30
0.0
 40
5.0
  1
Bauvorhaben
 41
0.8
  7
GREEKS
100
AcDbText
  0
TEXT
  5
7A
330
1E
100
AcDbEntity
  8
TEXT
100
AcDbText
 10
336.7238616296993
 20
73.1811823709997
 30
0.0
 40
5.0
  1
Ersatz für:
 41
0.8
  7
GREEKS
100
AcDbText
  0
TEXT
  5
7B
330
1E
100
AcDbEntity
  8
TEXT
100
AcDbText
 10
48.26641107045756
 20
13.65465846027192
 30
0.0
 40
4.0
  1
Index
 50
90.0
 41
0.8
  7
GREEKS
100
AcDbText
  0
TEXT
  5
7C
330
1E
100
AcDbEntity
  8
TEXT
100
AcDbText
 10
110.6986119235389
 20
18.6715626933981
 30
0.0
 40
4.0
  1
Tag
 41
0.8
  7
GREEKS
 72
     1
 11
114.4319452568723
 21
18.6715626933981
 31
0.0
100
AcDbText
  0
TEXT
  5
7D
330
1E
100
AcDbEntity
  8
TEXT
100
AcDbText
 10
129.0122744386592
 20
18.59324216966408
 30
0.0
 40
4.0
  1
Name
 41
0.8
  7
GREEKS
 72
     1
 11
135.3360839624688
 21
18.59324216966408
 31
0.0
100
AcDbText
  0
TEXT
  5
7E
330
1E
100
AcDbEntity
  8
TEXT
100
AcDbText
 10
172.331167315365
 20
73.31880501229926
 30
0.0
 40
4.0
  1
Tag
 41
0.8
  7
GREEKS
100
AcDbText
  0
TEXT
  5
7F
330
1E
100
AcDbEntity
  8
TEXT
100
AcDbText
 10
202.4626584226295
 20
73.30961091915225
 30
0.0
 40
4.0
  1
Name
 41
0.8
  7
GREEKS
100
AcDbText
  0
TEXT
  5
80
330
1E
100
AcDbEntity
  8
TEXT
100
AcDbText
 10
147.5836127167615
 20
63.62990369617964
 30
0.0
 40
4.0
  1
Gez.
 41
0.8
  7
GREEKS
100
AcDbText
  0
TEXT
  5
81
330
1E
100
AcDbEntity
  8
TEXT
100
AcDbText
 10
147.5515086571672
 20
53.68926291428377
 30
0.0
 40
4.0
  1
Gepr.
 41
0.8
  7
GREEKS
100
AcDbText
  0
TEXT
  5
82
330
1E
100
AcDbEntity
  8
TEXT
100
AcDbText
 10
147.6006777387303
 20
43.52946389649807
 30
0.0
 40
4.0
  1
Norm.
 41
0.8
  7
GREEKS
100
AcDbText
  0
LINE
  5
83
330
1E
100
AcDbEntity
  8
STEMPEL
100
AcDbLine
 10
49.99999999999989
 20
10.0
 30
0.0
 11
410.0
 21
10.0
 31
0.0
  0
TEXT
  5
84
330
1E
100
AcDbEntity
  8
TEXT
100
AcDbText
 10
337.2400861497006
 20
52.07416177878602
 30
0.0
 40
5.0
  1
ersetzt durch:
 41
0.8
  7
GREEKS
100
AcDbText
  0
LINE
  5
85
330
1E
100
AcDbEntity
  8
STEMPEL
100
AcDbLine
 10
410.0
 20
10.0
 30
0.0
 11
39.99999999999989
 21
10.0
 31
0.0
  0
LINE
  5
86
330
1E
100
AcDbEntity
  8
STEMPEL
100
AcDbLine
 10
410.0
 20
10.0
 30
0.0
 11
410.0
 21
584.0
 31
0.0
  0
LINE
  5
87
330
1E
100
AcDbEntity
  8
STEMPEL
100
AcDbLine
 10
40.0
 20
10.0
 30
0.0
 11
39.99999999999989
 21
584.0
 31
0.0
  0
LINE
  5
88
330
1E
100
AcDbEntity
  8
STEMPEL
100
AcDbLine
 10
410.0
 20
584.0
 30
0.0
 11
39.99999999999989
 21
584.0
 31
0.0
  0
LINE
  5
89
330
1E
100
AcDbEntity
  8
HILF
100
AcDbLine
 10
0.0
 20
0.0
 30
0.0
 11
-0.0000000000001137
 21
594.0
 31
0.0
  0
LINE
  5
8A
330
1E
100
AcDbEntity
  8
HILF
100
AcDbLine
 10
419.9999999999999
 20
594.0000000000002
 30
0.0
 11
0.0
 21
594.0
 31
0.0
  0
LINE
  5
8B
330
1E
100
AcDbEntity
  8
HILF
100
AcDbLine
 10
420.0
 20
0.0
 30
0.0
 11
0.0
 21
0.0
 31
0.0
  0
LINE
  5
8C
330
1E
100
AcDbEntity
  8
HILF
100
AcDbLine
 10
31.08767135713856
 20
297.0
 30
0.0
 11
0.0000000000001137
 21
297.0
 31
0.0
  0
LINE
  5
8E
330
1E
100
AcDbEntity
  8
HILF
100
AcDbLine
 10
420.0
 20
-0.0000000000001137
 30
0.0
 11
419.9999999999999
 21
594.0
 31
0.0
  0
TEXT
  5
8F
330
1E
100
AcDbEntity
  8
VOLL
100
AcDbText
 10
78.07675471698113
 20
31.02594776470585
 30
0.0
 40
1.8
  1

  7
GREEKS
100
AcDbText
  0
TEXT
  5
90
330
1E
100
AcDbEntity
  8
TEXT
100
AcDbText
 10
41.85509950977674
 20
111.6719999999999
 30
0.0
 40
5.0
  1
Erstellt mit AUTOCAD 2004
 41
0.8
  7
GREEKS
100
AcDbText
  0
TEXT
  5
91
330
1E
100
AcDbEntity
  8
TEXT
100
AcDbText
 10
204.4216048581257
 20
63.0896391972351
 30
0.0
 40
4.0
  1
Koeh
 41
0.8
  7
GREEKS
 72
     1
 11
209.6787477152686
 21
63.0896391972351
 31
0.0
100
AcDbText
  0
TEXT
  5
92
330
1E
100
AcDbEntity
  8
TEXT
 62
     1
100
AcDbText
 10
347.8430874017415
 20
88.14901428913959
 30
0.0
 40
7.0
  1
58031100W
 41
0.8
  7
GREEKS
 72
     1
 11
370.7764207350748
 21
88.14901428913959
 31
0.0
100
AcDbText
  0
TEXT
  5
93
330
1E
100
AcDbEntity
  8
TEXT
 62
     1
100
AcDbText
 10
160.5006306481887
 20
88.14901428913959
 30
0.0
 40
7.0
  1
1:2
 41
0.8
  7
GREEKS
100
AcDbText
  0
TEXT
  5
95
330
1E
100
AcDbEntity
  8
TEXT
 62
     1
100
AcDbText
 10
236.8935731057402
 20
87.41748789253779
 30
0.0
 40
7.0
  1
Verbundrohr DN100
 41
0.8
  7
GREEKS
100
AcDbText
  0
TEXT
  5
98
330
1E
100
AcDbEntity
  8
TEXT
100
AcDbText
 10
235.1296391125315
 20
51.64011943042158
 30
0.0
 40
5.0
  1
EDV-Art.Nr. 58031.100X
 41
0.8
  7
GREEKS
100
AcDbText
  0
TEXT
  5
99
330
1E
100
AcDbEntity
  8
TEXT
100
AcDbText
 10
234.9837501577827
 20
42.62974153022632
 30
0.0
 40
4.0
  1
58031100W.DWG
 41
0.8
  7
GREEKS
100
AcDbText
  0
TEXT
  5
9A
330
1E
100
AcDbEntity
  8
TEXT
100
AcDbText
 10
192.626132208084
 20
90.76363841023022
 30
0.0
 40
4.0
  1
DIN EN1123-2
 41
0.8
  7
GREEKS
 72
     1
 11
209.6166083985602
 21
90.76363841023022
 31
0.0
100
AcDbText
  0
INSERT
  5
9B
330
1E
100
AcDbEntity
  8
STEMPEL
100
AcDbBlockReference
  2
LOGO
 10
150.9955485457794
 20
45.02105276448322
 30
0.0
 41
2.0
 42
2.0
 43
2.0
  0
TEXT
  5
210
330
1E
100
AcDbEntity
  8
TEXT
 62
     1
100
AcDbText
 10
264.0988358474205
 20
231.2847026999482
 30
0.0
 40
7.0
  1
Rohrende leicht eingezogen
 41
0.8
  7
GREEKS
100
AcDbText
  0
TEXT
  5
2C0
330
1E
100
AcDbEntity
  8
BEM
100
AcDbText
 10
417.3022923857165
 20
10.16790107998861
 30
0.0
 40
4.0
  1
Diese Zeichnung ist urheberrechtlich geschützt und bleibt unser Eigentum. Sie darf weder ganz noch teilweise verfielfältigt und nicht an Dritte weitergegeben werden.
 50
90.0
 41
0.8
  7
GREEKS
100
AcDbText
  0
TEXT
  5
77A
330
1E
100
AcDbEntity
  8
TEXT
100
AcDbText
 10
235.1296391125315
 20
71.64011943042154
 30
0.0
 40
5.0
  1
Bogen 70°
 41
0.8
  7
GREEKS
100
AcDbText
  0
TEXT
  5
78C
330
1E
100
AcDbEntity
  8
TEXT
 62
     1
100
AcDbText
 10
255.030129115258
 20
129.7422179729062
 30
0.0
 40
7.0
  1
und innenbeschichtet
 41
0.8
  7
GREEKS
100
AcDbText
  0
TEXT
  5
78D
330
1E
100
AcDbEntity
  8
TEXT
 62
     1
100
AcDbText
 10
199.8811895945471
 20
117.1473825875242
 30
0.0
 40
7.0
  1
Dämmung: 2 K-PU-Schaum
 41
0.8
  7
GREEKS
100
AcDbText
  0
TEXT
  5
78E
330
1E
100
AcDbEntity
  8
TEXT
 62
     1
100
AcDbText
 10
207.3756002392443
 20
141.011271812132
 30
0.0
 40
7.0
  1
Innenrohr: E195 EN10305 feuerverzinkt
 41
0.8
  7
GREEKS
100
AcDbText
  0
TEXT
  5
78F
330
1E
100
AcDbEntity
  8
TEXT
 62
     1
100
AcDbText
 10
203.6033828683802
 20
152.364339848487
 30
0.0
 40
7.0
  1
Außenrohr: E195 EN10305 feuerverzinkt
 41
0.8
  7
GREEKS
100
AcDbText
  0
HATCH
  5
1E58
330
1E
100
AcDbEntity
  8
SCHRAFF
100
AcDbHatch
 10
0.0
 20
0.0
 30
0.0
210
0.0
220
0.0
230
1.0
  2
_USER
 70
     0
 71
     0
 91
        1
 92
        7
 72
     1
 73
     1
 93
        3
 10
262.2133603174569
 20
348.9092141871125
 42
0.0
 10
259.3942824550992
 20
347.8831537571354
 42
0.0396603450432839
 10
256.656720634202
 20
346.6331298439222
 42
0.4668457183924206
 97
        0
 75
     0
 76
     0
 52
17.0
 41
0.1
 77
     0
 78
     1
 53
17.0
 43
140.6591410810749
 44
-71.13117972627873
 45
-0.0292371704722737
 46
0.0956304755963036
 79
     0
 47
0.0375630882859892
 98
        1
 10
259.8926203430869
 20
347.7298327827152
  0
ARC
  5
1E59
102
{ACAD_REACTORS
330
21E2
102
}
330
1E
100
AcDbEntity
  8
SCHRAFF
100
AcDbCircle
 10
258.4818222914862
 20
350.0982782169061
 30
0.0
 40
3.916407704288974
100
AcDbArc
 50
242.2241200089056
 51
342.3253887528229
  0
HATCH
  5
1E5A
330
1E
100
AcDbEntity
  8
SCHRAFF
100
AcDbHatch
 10
0.0
 20
0.0
 30
0.0
210
0.0
220
0.0
230
1.0
  2
_USER
 70
     0
 71
     0
 91
        1
 92
        7
 72
     1
 73
     1
 93
        3
 10
221.7018716862681
 20
442.6707880288183
 42
-0.0061990617211105
 10
224.508227835881
 20
443.731801077298
 42
0.0
 10
227.3273056982388
 20
444.757861507275
 42
0.517914794332429
 97
        0
 75
     0
 76
     0
 52
17.0
 41
0.1
 77
     0
 78
     1
 53
17.0
 43
140.6591410810749
 44
-71.13117972627873
 45
-0.0292371704722737
 46
0.0956304755963036
 79
     0
 47
0.0369692041059943
 98
        1
 10
225.360472942794
 20
444.5167446304128
  0
ARC
  5
1E5B
102
{ACAD_REACTORS
330
21E2
102
}
330
1E
100
AcDbEntity
  8
SCHRAFF
100
AcDbCircle
 10
225.2517976928315
 20
441.7272741785056
 30
0.0
 40
3.673172067547026
100
AcDbArc
 50
55.59457440321806
 51
165.1158039427673
  0
LINE
  5
1E65
102
{ACAD_REACTORS
330
2161
330
219C
102
}
330
1E
100
AcDbEntity
  8
STEMPEL
100
AcDbLine
 10
224.508227835881
 20
443.731801077298
 30
0.0
 11
259.3942824550993
 21
347.8831537571354
 31
0.0
  0
ARC
  5
1E66
102
{ACAD_REACTORS
330
2161
330
21E2
102
}
330
1E
100
AcDbEntity
  8
STEMPEL
100
AcDbCircle
 10
265.892665178287
 20
330.0289939622031
 30
0.0
 40
19.0
100
AcDbArc
 50
110.0000000000002
 51
180.0
  0
ARC
  5
1E67
102
{ACAD_REACTORS
330
2161
330
21E2
102
}
330
1E
100
AcDbEntity
  8
STEMPEL
100
AcDbCircle
 10
265.892665178287
 20
330.0289939622031
 30
0.0
 40
121.0
100
AcDbArc
 50
109.9999999999996
 51
180.0
  0
ARC
  5
1E68
330
1E
100
AcDbEntity
  8
MITTEL
100
AcDbCircle
 10
265.892665178287
 20
330.0289939622031
 30
0.0
 40
70.0
100
AcDbArc
 50
110.0000000000001
 51
180.0
  0
LINE
  5
1E84
330
1E
100
AcDbEntity
  8
MITTEL
100
AcDbLine
 10
195.8926651782869
 20
379.0435216368826
 30
0.0
 11
195.8926651782869
 21
230.0465136322448
 31
0.0
  0
LINE
  5
1E85
330
1E
100
AcDbEntity
  8
MITTEL
100
AcDbLine
 10
335.518780144902
 20
429.8632714109614
 30
0.0
 11
195.8926651782869
 21
379.0435216368826
 31
0.0
  0
LINE
  5
1F13
102
{ACAD_REACTORS
330
2150
330
2173
102
}
330
1E
100
AcDbEntity
  8
STEMPEL
100
AcDbLine
 10
262.3926651782872
 20
326.3758474021297
 30
0.0
 11
262.3926651782871
 21
293.0465136322444
 31
0.0
  0
LINE
  5
1F14
102
{ACAD_REACTORS
330
2173
330
21E2
102
}
330
1E
100
AcDbEntity
  8
STEMPEL
100
AcDbLine
 10
259.8926651782869
 20
327.1640943743268
 30
0.0
 11
259.8926651782871
 21
295.0465136322447
 31
0.0
  0
LINE
  5
1F15
102
{ACAD_REACTORS
330
2161
102
}
330
1E
100
AcDbEntity
  8
STEMPEL
100
AcDbLine
 10
244.892665178287
 20
330.0289939622031
 30
0.0
 11
244.892665178287
 21
243.0465136322447
 31
0.0
  0
LINE
  5
1F16
102
{ACAD_REACTORS
330
2161
330
21E2
102
}
330
1E
100
AcDbEntity
  8
STEMPEL
100
AcDbLine
 10
246.892665178287
 20
330.0289939622031
 30
0.0
 11
246.892665178287
 21
242.9591917464254
 31
0.0
  0
LINE
  5
1F17
330
1E
100
AcDbEntity
  8
HILF
100
AcDbLine
 10
148.9003048533736
 20
243.0465136322448
 30
0.0
 11
242.8850255032003
 21
243.0465136322447
 31
0.0
  0
LINE
  5
1F18
102
{ACAD_REACTORS
330
2161
102
}
330
1E
100
AcDbEntity
  8
STEMPEL
100
AcDbLine
 10
145.5849348114076
 20
235.0465136322448
 30
0.0
 11
246.2003955451663
 21
235.0465136322448
 31
0.0
  0
DIMENSION
  5
1F19
330
1E
100
AcDbEntity
  8
BEM
100
AcDbDimension
  2
*D1
 10
246.892665178287
 20
214.9030177297
 30
0.0
 11
195.892665178287
 21
221.4030177297
 31
0.0
 70
    32
  1
%%c<>
 71
     5
 42
101.9999999999999
  3
Standard
100
AcDbAlignedDimension
 13
144.892665178287
 23
242.9591917464254
 33
0.0
 14
246.892665178287
 24
242.9591917464254
 34
0.0
100
AcDbRotatedDimension
1001
ACAD
1000
DSTYLE
1002
{
1070
    40
1040
2.0
1070
    41
1040
3.5
1070
    42
1040
1.0
1070
    43
1040
7.0
1070
    44
1040
1.0
1070
    73
1070
     0
1070
    74
1070
     0
1070
    77
1070
     1
1070
    78
1070
     8
1070
    79
1070
     2
1070
   140
1040
3.5
1070
   141
1040
1.5
1070
   146
1040
0.5142857142857144
1070
   147
1040
1.5
1070
   172
1070
     1
1070
   178
1070
     1
1070
   179
1070
     2
1070
   271
1070
     2
1070
   272
1070
     2
1070
   284
1070
     8
1070
   285
1070
     8
1070
   286
1070
     8
1070
   289
1070
     0
1070
   340
1005
24
1002
}
  0
LINE
  5
1F1A
102
{ACAD_REACTORS
330
2161
102
}
330
1E
100
AcDbEntity
  8
STEMPEL
100
AcDbLine
 10
246.892665178287
 20
242.9591917464254
 30
0.0
 11
246.2003955451664
 21
235.0465136322447
 31
0.0
  0
LINE
  5
1F1B
102
{ACAD_REACTORS
330
2161
102
}
330
1E
100
AcDbEntity
  8
STEMPEL
100
AcDbLine
 10
244.892665178287
 20
243.0465136322447
 30
0.0
 11
244.1927558700796
 21
235.0465136322447
 31
0.0
  0
LINE
  5
1F1C
102
{ACAD_REACTORS
330
2173
102
}
330
1E
100
AcDbEntity
  8
STEMPEL
100
AcDbLine
 10
262.392665178287
 20
295.0465136322447
 30
0.0
 11
259.892665178287
 21
295.0465136322447
 31
0.0
  0
LINE
  5
1F1E
330
1E
100
AcDbEntity
  8
STEMPEL
100
AcDbLine
 10
251.8926651782869
 20
301.0465136322448
 30
0.0
 11
246.892665178287
 21
301.0465136322448
 31
0.0
  0
LINE
  5
1F1F
102
{ACAD_REACTORS
330
21E2
102
}
330
1E
100
AcDbEntity
  8
STEMPEL
100
AcDbLine
 10
258.3926651782868
 20
312.5465136322448
 30
0.0
 11
246.892665178287
 21
312.5465136322448
 31
0.0
  0
LINE
  5
1F20
102
{ACAD_REACTORS
330
21E2
102
}
330
1E
100
AcDbEntity
  8
STEMPEL
100
AcDbLine
 10
259.8926651782869
 20
311.0465136322448
 30
0.0
 11
258.3926651782868
 21
312.5465136322448
 31
0.0
  0
DIMENSION
  5
1F22
330
1E
100
AcDbEntity
  8
BEM
100
AcDbDimension
  2
*D2
 10
114.8910088886591
 20
235.0465136322448
 30
0.0
 11
108.3910088886591
 21
265.0465136322448
 31
0.0
 70
    32
 71
     5
 42
60.00000000000003
  3
Standard
100
AcDbAlignedDimension
 13
129.3926651782869
 23
295.0465136322448
 33
0.0
 14
145.5849348114076
 24
235.0465136322448
 34
0.0
 50
90.0
100
AcDbRotatedDimension
1001
ACAD
1000
DSTYLE
1002
{
1070
   279
1070
     1
1070
    40
1040
2.0
1070
    41
1040
3.5
1070
    42
1040
1.0
1070
    43
1040
7.0
1070
    44
1040
1.0
1070
    73
1070
     0
1070
    74
1070
     0
1070
    77
1070
     1
1070
    78
1070
     8
1070
    79
1070
     2
1070
   140
1040
3.5
1070
   141
1040
1.5
1070
   146
1040
0.5142857142857144
1070
   147
1040
1.5
1070
   172
1070
     1
1070
   178
1070
     1
1070
   179
1070
     2
1070
   271
1070
     2
1070
   272
1070
     2
1070
   284
1070
     8
1070
   285
1070
     8
1070
   286
1070
     8
1002
}
  0
LINE
  5
1F23
102
{ACAD_REACTORS
330
2150
330
2173
102
}
330
1E
100
AcDbEntity
  8
STEMPEL
100
AcDbLine
 10
129.392665178287
 20
368.3105863230346
 30
0.0
 11
129.3926651782869
 21
293.0465136322447
 31
0.0
  0
LINE
  5
1F24
102
{ACAD_REACTORS
330
2173
330
21E2
102
}
330
1E
100
AcDbEntity
  8
STEMPEL
100
AcDbLine
 10
131.8926651782869
 20
367.5223393508373
 30
0.0
 11
131.8926651782869
 21
295.0465136322448
 31
0.0
  0
LINE
  5
1F25
102
{ACAD_REACTORS
330
2161
102
}
330
1E
100
AcDbEntity
  8
STEMPEL
100
AcDbLine
 10
146.892665178287
 20
330.0289939622032
 30
0.0
 11
146.8926651782869
 21
243.0465136322448
 31
0.0
  0
LINE
  5
1F26
102
{ACAD_REACTORS
330
2161
330
21E2
102
}
330
1E
100
AcDbEntity
  8
STEMPEL
100
AcDbLine
 10
144.892665178287
 20
330.0289939622031
 30
0.0
 11
144.892665178287
 21
242.9591917464254
 31
0.0
  0
LINE
  5
1F27
102
{ACAD_REACTORS
330
2161
102
}
330
1E
100
AcDbEntity
  8
STEMPEL
100
AcDbLine
 10
146.8926651782869
 20
243.0465136322448
 30
0.0
 11
147.5925744864944
 21
235.0465136322448
 31
0.0
  0
LINE
  5
1F28
102
{ACAD_REACTORS
330
2161
102
}
330
1E
100
AcDbEntity
  8
STEMPEL
100
AcDbLine
 10
144.892665178287
 20
242.9591917464254
 30
0.0
 11
145.5849348114076
 21
235.0465136322448
 31
0.0
  0
LINE
  5
1F2A
102
{ACAD_REACTORS
330
2173
102
}
330
1E
100
AcDbEntity
  8
STEMPEL
100
AcDbLine
 10
129.392665178287
 20
295.0465136322448
 30
0.0
 11
131.892665178287
 21
295.0465136322447
 31
0.0
  0
LINE
  5
1F2C
330
1E
100
AcDbEntity
  8
STEMPEL
100
AcDbLine
 10
144.8926651782869
 20
301.0465136322448
 30
0.0
 11
139.8926651782869
 21
301.0465136322448
 31
0.0
  0
LINE
  5
1F2D
102
{ACAD_REACTORS
330
21E2
102
}
330
1E
100
AcDbEntity
  8
STEMPEL
100
AcDbLine
 10
144.8926651782869
 20
312.5465136322447
 30
0.0
 11
133.392665178287
 21
312.5465136322448
 31
0.0
  0
LINE
  5
1F2E
102
{ACAD_REACTORS
330
21E2
102
}
330
1E
100
AcDbEntity
  8
STEMPEL
100
AcDbLine
 10
131.8926651782869
 20
311.0465136322448
 30
0.0
 11
133.392665178287
 21
312.5465136322448
 31
0.0
  0
ARC
  5
1F6E
102
{ACAD_REACTORS
330
2161
102
}
330
1E
100
AcDbEntity
  8
STEMPEL
100
AcDbCircle
 10
265.892665178287
 20
330.0289939622031
 30
0.0
 40
119.0
100
AcDbArc
 50
109.9999999999997
 51
179.9999999999999
  0
ARC
  5
1F6F
102
{ACAD_REACTORS
330
2161
102
}
330
1E
100
AcDbEntity
  8
STEMPEL
100
AcDbCircle
 10
265.892665178287
 20
330.0289939622031
 30
0.0
 40
21.0
100
AcDbArc
 50
110.0000000000002
 51
180.0
  0
LINE
  5
1F70
102
{ACAD_REACTORS
330
2150
330
21A5
102
}
330
1E
100
AcDbEntity
  8
STEMPEL
100
AcDbLine
 10
353.9663936513083
 20
365.8098317508922
 30
0.0
 11
268.1284295417977
 21
334.5673678450197
 31
0.0
  0
LINE
  5
1F71
102
{ACAD_REACTORS
330
21A5
330
21B2
330
21E2
102
}
330
1E
100
AcDbEntity
  8
STEMPEL
100
AcDbLine
 10
353.111343292994
 20
368.159063302857
 30
0.0
 11
266.5326693203526
 21
336.6470030545774
 31
0.0
  0
LINE
  5
1F72
102
{ACAD_REACTORS
330
219C
102
}
330
1E
100
AcDbEntity
  8
STEMPEL
100
AcDbLine
 10
276.5324594432978
 20
356.2492955953775
 30
0.0
 11
258.7102421684477
 21
349.7625389987071
 31
0.0
  0
LINE
  5
1F73
102
{ACAD_REACTORS
330
219C
330
21E2
102
}
330
1E
100
AcDbEntity
  8
STEMPEL
100
AcDbLine
 10
277.2164997299492
 20
354.3699103538058
 30
0.0
 11
259.3942824550992
 21
347.8831537571354
 31
0.0
  0
LINE
  5
1F74
330
1E
100
AcDbEntity
  8
HILF
100
AcDbLine
 10
246.3436782169326
 20
447.8141191391592
 30
0.0
 11
278.7452713514678
 21
358.7914736476675
 31
0.0
  0
LINE
  5
1F75
330
1E
100
AcDbEntity
  8
HILF
100
AcDbLine
 10
285.5581479835972
 20
358.139879031984
 30
0.0
 11
251.1438075571305
 21
452.6925022591256
 31
0.0
  0
LINE
  5
1F76
330
1E
100
AcDbEntity
  8
HILF
100
AcDbLine
 10
272.1045786794753
 20
461.4157851532064
 30
0.0
 11
307.2222483854639
 21
364.930780612137
 31
0.0
  0
LINE
  5
1F78
102
{ACAD_REACTORS
330
219C
330
21A5
330
21B2
102
}
330
1E
100
AcDbEntity
  8
STEMPEL
100
AcDbLine
 10
308.4777145889944
 20
490.7889503154183
 30
0.0
 11
353.9663936513083
 21
365.8098317508922
 31
0.0
  0
DIMENSION
  5
1F79
330
1E
100
AcDbEntity
  8
BEM
100
AcDbDimension
  2
*D3
 10
365.5466256899623
 20
370.0246915188581
 30
0.0
 11
348.9102881939138
 21
434.7373817327379
 31
0.0
 70
    32
  1
%%c<>
 71
     5
 42
133.0000000000001
  3
Standard
100
AcDbAlignedDimension
 13
308.4777145889944
 23
490.7889503154183
 33
0.0
 14
353.9663936513083
 24
365.8098317508922
 34
0.0
 50
289.9999999999999
100
AcDbRotatedDimension
1001
ACAD
1000
DSTYLE
1002
{
1070
    40
1040
2.0
1070
    41
1040
3.5
1070
    42
1040
1.0
1070
    43
1040
7.0
1070
    44
1040
1.0
1070
    73
1070
     0
1070
    74
1070
     0
1070
    77
1070
     1
1070
    78
1070
     8
1070
    79
1070
     2
1070
   140
1040
3.5
1070
   141
1040
1.5
1070
   146
1040
0.5142857142857144
1070
   147
1040
1.5
1070
   172
1070
     1
1070
   178
1070
     1
1070
   179
1070
     2
1070
   271
1070
     2
1070
   272
1070
     2
1070
   284
1070
     8
1070
   285
1070
     8
1070
   286
1070
     8
1070
   289
1070
     0
1070
   340
1005
24
1002
}
  0
ARC
  5
1F7A
102
{ACAD_REACTORS
330
219C
102
}
330
1E
100
AcDbEntity
  8
STEMPEL
100
AcDbCircle
 10
313.9392161295041
 20
385.8269081767332
 30
0.0
 40
23.0
100
AcDbArc
 50
263.2112018947928
 51
290.0
  0
ARC
  5
1F7B
102
{ACAD_REACTORS
330
219C
330
21E2
102
}
330
1E
100
AcDbEntity
  8
STEMPEL
100
AcDbCircle
 10
313.9394045667056
 20
385.8269767622656
 30
0.0
 40
25.0
100
AcDbArc
 50
263.1119523822754
 51
290.0
  0
ARC
  5
1F7C
102
{ACAD_REACTORS
330
219C
102
}
330
1E
100
AcDbEntity
  8
STEMPEL
100
AcDbCircle
 10
279.9526608765546
 20
346.8523693875184
 30
0.0
 40
10.0
100
AcDbArc
 50
75.69884724320759
 51
110.0
  0
LINE
  5
1F7D
102
{ACAD_REACTORS
330
219C
102
}
330
1E
100
AcDbEntity
  8
STEMPEL
100
AcDbLine
 10
304.713722229081
 20
362.2497253235325
 30
0.0
 11
290.0803484396424
 21
356.9236128372857
 31
0.0
  0
LINE
  5
1F7E
102
{ACAD_REACTORS
330
219C
330
21E2
102
}
330
1E
100
AcDbEntity
  8
STEMPEL
100
AcDbLine
 10
305.3977625157326
 20
360.3703400819608
 30
0.0
 11
290.7643887262934
 21
355.0442275957141
 31
0.0
  0
ARC
  5
1F7F
102
{ACAD_REACTORS
330
219C
330
21E2
102
}
330
1E
100
AcDbEntity
  8
STEMPEL
100
AcDbCircle
 10
279.9526608765546
 20
346.8523693875184
 30
0.0
 40
8.0
100
AcDbArc
 50
75.69884724320759
 51
110.0
  0
ARC
  5
1F80
102
{ACAD_REACTORS
330
219C
330
21E2
102
}
330
1E
100
AcDbEntity
  8
STEMPEL
100
AcDbCircle
 10
285.6340865764088
 20
369.1396169075026
 30
0.0
 40
15.0
100
AcDbArc
 50
255.6988472432076
 51
290.0
  0
ARC
  5
1F81
102
{ACAD_REACTORS
330
219C
102
}
330
1E
100
AcDbEntity
  8
STEMPEL
100
AcDbCircle
 10
285.6340865764088
 20
369.1396169075026
 30
0.0
 40
13.0
100
AcDbArc
 50
255.6988472432076
 51
290.0
  0
ARC
  5
1F82
102
{ACAD_REACTORS
330
219C
330
21E2
102
}
330
1E
100
AcDbEntity
  8
STEMPEL
100
AcDbCircle
 10
309.5020042356406
 20
349.0940286325298
 30
0.0
 40
12.0
100
AcDbArc
 50
83.11195238227538
 51
110.0
  0
ARC
  5
1F83
102
{ACAD_REACTORS
330
219C
102
}
330
1E
100
AcDbEntity
  8
STEMPEL
100
AcDbCircle
 10
309.5020042356406
 20
349.0940286325298
 30
0.0
 40
14.0
100
AcDbArc
 50
82.94963143662201
 51
110.0
  0
LINE
  5
1F84
102
{ACAD_REACTORS
330
219C
102
}
330
1E
100
AcDbEntity
  8
STEMPEL
100
AcDbLine
 10
338.8726103534959
 20
370.4258327465451
 30
0.0
 11
321.8056794259942
 21
364.2139778986573
 31
0.0
  0
LINE
  5
1F85
102
{ACAD_REACTORS
330
219C
330
21B2
330
21E2
102
}
330
1E
100
AcDbEntity
  8
STEMPEL
100
AcDbLine
 10
339.5566506401471
 20
368.5464475049734
 30
0.0
 11
322.4899081498474
 21
362.334661242618
 31
0.0
  0
ARC
  5
1F86
102
{ACAD_REACTORS
330
219C
330
21B2
102
}
330
1E
100
AcDbEntity
  8
STEMPEL
100
AcDbCircle
 10
331.0061470570056
 20
392.0387630246211
 30
0.0
 40
25.0
100
AcDbArc
 50
290.0
 51
314.9999999999935
  0
ARC
  5
1F87
102
{ACAD_REACTORS
330
219C
102
}
330
1E
100
AcDbEntity
  8
STEMPEL
100
AcDbCircle
 10
331.0061470570056
 20
392.0387630246211
 30
0.0
 40
23.0
100
AcDbArc
 50
290.0
 51
314.9999999999935
  0
LINE
  5
1F88
102
{ACAD_REACTORS
330
219C
102
}
330
1E
100
AcDbEntity
  8
STEMPEL
100
AcDbLine
 10
349.5201317880746
 20
378.0258358211091
 30
0.0
 11
347.269603024296
 21
375.7753070573305
 31
0.0
  0
LINE
  5
1F89
102
{ACAD_REACTORS
330
219C
330
21B2
102
}
330
1E
100
AcDbEntity
  8
STEMPEL
100
AcDbLine
 10
350.2748867360462
 20
375.9521636443348
 30
0.0
 11
348.6838165866691
 21
374.3610934949574
 31
0.0
  0
LINE
  5
1F8A
102
{ACAD_REACTORS
330
21B2
330
21E2
102
}
330
1E
100
AcDbEntity
  8
STEMPEL
100
AcDbLine
 10
338.2455458853632
 20
368.069244400227
 30
0.0
 11
339.9556466019912
 21
363.3707812962976
 31
0.0
  0
LINE
  5
1F8C
102
{ACAD_REACTORS
330
2150
330
21A5
102
}
330
1E
100
AcDbEntity
  8
STEMPEL
100
AcDbLine
 10
308.4777145889944
 20
490.7889503154183
 30
0.0
 11
183.2339857609261
 21
445.2039609934934
 31
0.0
  0
LINE
  5
1F8D
102
{ACAD_REACTORS
330
21A5
330
21B2
330
21E2
102
}
330
1E
100
AcDbEntity
  8
STEMPEL
100
AcDbLine
 10
309.3327649473083
 20
488.4397187634535
 30
0.0
 11
184.8297459823709
 21
443.1243257839358
 31
0.0
  0
LINE
  5
1F8E
102
{ACAD_REACTORS
330
219C
102
}
330
1E
100
AcDbEntity
  8
STEMPEL
100
AcDbLine
 10
243.0144853973825
 20
448.3391724323966
 30
0.0
 11
225.1922681225327
 21
441.8524158357264
 31
0.0
  0
LINE
  5
1F8F
102
{ACAD_REACTORS
330
219C
330
21E2
102
}
330
1E
100
AcDbEntity
  8
STEMPEL
100
AcDbLine
 10
242.3304451107313
 20
450.2185576739685
 30
0.0
 11
224.5082278358818
 21
443.7318010772985
 31
0.0
  0
TEXT
  5
1F90
330
1E
100
AcDbEntity
  8
TEXT
 62
     1
100
AcDbText
 10
289.1091191978448
 20
444.5090124900926
 30
0.0
 40
7.0
  1
DN100
 50
20.00000000000001
 41
0.8
  7
GREEKS
100
AcDbText
  0
ARC
  5
1F91
102
{ACAD_REACTORS
330
219C
330
21E2
102
}
330
1E
100
AcDbEntity
  8
STEMPEL
100
AcDbCircle
 10
290.6820348205604
 20
449.7260749757078
 30
0.0
 40
25.0
100
AcDbArc
 50
110.0
 51
136.8880476177246
  0
ARC
  5
1F92
102
{ACAD_REACTORS
330
219C
102
}
330
1E
100
AcDbEntity
  8
STEMPEL
100
AcDbCircle
 10
290.6818463833587
 20
449.7260063901752
 30
0.0
 40
23.0
100
AcDbArc
 50
110.0
 51
136.7887981052072
  0
LINE
  5
1F93
102
{ACAD_REACTORS
330
219C
102
}
330
1E
100
AcDbEntity
  8
STEMPEL
100
AcDbLine
 10
268.4595870365602
 20
461.8571431268391
 30
0.0
 11
253.8262132471214
 21
456.5310306405922
 31
0.0
  0
LINE
  5
1F94
102
{ACAD_REACTORS
330
219C
330
21E2
102
}
330
1E
100
AcDbEntity
  8
STEMPEL
100
AcDbLine
 10
267.7755467499088
 20
463.736528368411
 30
0.0
 11
253.14217296047
 21
458.4104158821639
 31
0.0
  0
ARC
  5
1F95
102
{ACAD_REACTORS
330
219C
102
}
330
1E
100
AcDbEntity
  8
STEMPEL
100
AcDbCircle
 10
239.5942839641259
 20
457.7360986402556
 30
0.0
 40
10.0
100
AcDbArc
 50
290.0
 51
324.3011527567924
  0
ARC
  5
1F96
102
{ACAD_REACTORS
330
219C
330
21E2
102
}
330
1E
100
AcDbEntity
  8
STEMPEL
100
AcDbCircle
 10
239.5942839641259
 20
457.7360986402556
 30
0.0
 40
8.0
100
AcDbArc
 50
290.0
 51
324.3011527567924
  0
ARC
  5
1F97
102
{ACAD_REACTORS
330
219C
102
}
330
1E
100
AcDbEntity
  8
STEMPEL
100
AcDbCircle
 10
258.2724751103551
 20
444.3150265703752
 30
0.0
 40
13.0
100
AcDbArc
 50
110.0
 51
144.3011527567924
  0
ARC
  5
1F98
102
{ACAD_REACTORS
330
219C
330
21E2
102
}
330
1E
100
AcDbEntity
  8
STEMPEL
100
AcDbCircle
 10
258.2724751103551
 20
444.3150265703752
 30
0.0
 40
15.0
100
AcDbArc
 50
110.0
 51
144.3011527567924
  0
ARC
  5
1F99
102
{ACAD_REACTORS
330
219C
330
21E2
102
}
330
1E
100
AcDbEntity
  8
STEMPEL
100
AcDbCircle
 10
263.671305030001
 20
475.0128398178417
 30
0.0
 40
12.0
100
AcDbArc
 50
290.0
 51
316.8880476177247
  0
ARC
  5
1F9A
102
{ACAD_REACTORS
330
219C
102
}
330
1E
100
AcDbEntity
  8
STEMPEL
100
AcDbCircle
 10
263.671305030001
 20
475.0128398178417
 30
0.0
 40
14.0
100
AcDbArc
 50
290.0
 51
317.050368563378
  0
LINE
  5
1F9C
102
{ACAD_REACTORS
330
219C
102
}
330
1E
100
AcDbEntity
  8
STEMPEL
100
AcDbLine
 10
299.8823140143697
 20
477.5507915161388
 30
0.0
 11
282.8153830868682
 21
471.338936668251
 31
0.0
  0
LINE
  5
1F9D
102
{ACAD_REACTORS
330
219C
330
21B2
330
21E2
102
}
330
1E
100
AcDbEntity
  8
STEMPEL
100
AcDbLine
 10
299.1982737277183
 20
479.4301767577108
 30
0.0
 11
282.1315312374186
 21
473.2183904953554
 31
0.0
  0
LINE
  5
1F9E
102
{ACAD_REACTORS
330
219C
330
21B2
102
}
330
1E
100
AcDbEntity
  8
STEMPEL
100
AcDbLine
 10
312.1692215042563
 20
480.6466184219757
 30
0.0
 11
309.9276708795513
 21
480.8427286903567
 31
0.0
  0
ARC
  5
1F9F
102
{ACAD_REACTORS
330
219C
102
}
330
1E
100
AcDbEntity
  8
STEMPEL
100
AcDbCircle
 10
307.7487773108602
 20
455.9378612380633
 30
0.0
 40
23.0
100
AcDbArc
 50
85.00000000000655
 51
110.0
  0
ARC
  5
1FA0
102
{ACAD_REACTORS
330
219C
330
21B2
102
}
330
1E
100
AcDbEntity
  8
STEMPEL
100
AcDbCircle
 10
307.7487773108602
 20
455.9378612380633
 30
0.0
 40
25.0
100
AcDbArc
 50
85.00000000000655
 51
110.0
  0
LINE
  5
1FA1
102
{ACAD_REACTORS
330
21B2
330
21E2
102
}
330
1E
100
AcDbEntity
  8
STEMPEL
100
AcDbLine
 10
296.1770682563058
 20
483.6514367568941
 30
0.0
 11
297.887168972934
 21
478.9529736529643
 31
0.0
  0
LINE
  5
1FA2
102
{ACAD_REACTORS
330
219C
102
}
330
1E
100
AcDbEntity
  8
STEMPEL
100
AcDbLine
 10
312.9239764522281
 20
478.5729462452013
 30
0.0
 11
309.7533593940562
 21
478.8503392941733
 31
0.0
  0
LINE
  5
2034
102
{ACAD_REACTORS
330
216A
330
21E2
102
}
330
1E
100
AcDbEntity
  8
STEMPEL
100
AcDbLine
 10
266.5326693203526
 20
336.6470030545774
 30
0.0
 11
259.8926651782869
 21
327.1640943743268
 31
0.0
  0
LINE
  5
2035
102
{ACAD_REACTORS
330
2150
330
216A
102
}
330
1E
100
AcDbEntity
  8
STEMPEL
100
AcDbLine
 10
268.1284295417977
 20
334.5673678450197
 30
0.0
 11
262.3926651782872
 21
326.3758474021297
 31
0.0
  0
LINE
  5
2036
102
{ACAD_REACTORS
330
216A
330
21E2
102
}
330
1E
100
AcDbEntity
  8
STEMPEL
100
AcDbLine
 10
184.8297459823709
 20
443.1243257839358
 30
0.0
 11
131.8926651782869
 21
367.5223393508373
 31
0.0
  0
LINE
  5
2037
102
{ACAD_REACTORS
330
2150
330
216A
102
}
330
1E
100
AcDbEntity
  8
STEMPEL
100
AcDbLine
 10
183.2339857609261
 20
445.2039609934934
 30
0.0
 11
129.392665178287
 21
368.3105863230346
 31
0.0
  0
LINE
  5
2038
330
1E
100
AcDbEntity
  8
MITTEL
100
AcDbLine
 10
225.6812076513615
 20
389.8856644192563
 30
0.0
 11
195.892665178287
 21
347.3432168625822
 31
0.0
  0
LINE
  5
203A
102
{ACAD_REACTORS
330
216A
330
21A5
102
}
330
1E
100
AcDbEntity
  8
STEMPEL
100
AcDbLine
 10
183.2339857609261
 20
445.2039609934934
 30
0.0
 11
184.8297459823709
 21
443.1243257839357
 31
0.0
  0
LINE
  5
203B
102
{ACAD_REACTORS
330
216A
330
2173
102
}
330
1E
100
AcDbEntity
  8
STEMPEL
100
AcDbLine
 10
129.392665178287
 20
368.3105863230346
 30
0.0
 11
131.8926651782869
 21
367.5223393508372
 31
0.0
  0
LINE
  5
203D
102
{ACAD_REACTORS
330
216A
330
21A5
102
}
330
1E
100
AcDbEntity
  8
STEMPEL
100
AcDbLine
 10
266.5326693203525
 20
336.6470030545775
 30
0.0
 11
268.1284295417976
 21
334.5673678450197
 31
0.0
  0
LINE
  5
203E
102
{ACAD_REACTORS
330
216A
330
2173
102
}
330
1E
100
AcDbEntity
  8
STEMPEL
100
AcDbLine
 10
259.8926651782871
 20
327.1640943743271
 30
0.0
 11
262.392665178287
 21
326.3758474021297
 31
0.0
  0
ARC
  5
2140
102
{ACAD_REACTORS
330
2150
102
}
330
1E
100
AcDbEntity
  8
SCHRAFF
100
AcDbCircle
 10
184.555455516773
 20
443.4817880782313
 30
0.0
 40
3.935746620257382
100
AcDbArc
 50
51.73695199399078
 51
203.2630480060083
  0
ARC
  5
2141
102
{ACAD_REACTORS
330
2150
102
}
330
1E
100
AcDbEntity
  8
SCHRAFF
100
AcDbCircle
 10
266.1399517300683
 20
337.1588025825969
 30
0.0
 40
5.876007009370229
100
AcDbArc
 50
267.0165844573369
 51
347.983415542665
  0
ARC
  5
2142
102
{ACAD_REACTORS
330
2150
102
}
330
1E
100
AcDbEntity
  8
SCHRAFF
100
AcDbCircle
 10
131.4629476337715
 20
367.657828772183
 30
0.0
 40
3.935746620257382
100
AcDbArc
 50
86.7369519939915
 51
238.263048006009
  0
ARC
  5
2143
102
{ACAD_REACTORS
330
2150
102
}
330
1E
100
AcDbEntity
  8
SCHRAFF
100
AcDbCircle
 10
259.27741361197
 20
327.3580824480429
 30
0.0
 40
5.876007009370229
100
AcDbArc
 50
302.0165844573348
 51
22.98341554266289
  0
HATCH
  5
2150
330
1E
100
AcDbEntity
  8
SCHRAFF
100
AcDbHatch
 10
0.0
 20
0.0
 30
0.0
210
0.0
220
0.0
230
1.0
  2
_USER
 70
     0
 71
     1
 91
        4
 92
        7
 72
     1
 73
     1
 93
        3
 10
180.9396800155218
 20
441.9273528163373
 42
0.0
 10
183.2339857609261
 20
445.2039609934934
 42
0.0
 10
186.9927562440697
 20
446.572041566796
 42
0.7779609988326819
 97
        3
330
2037
330
1F8C
330
2140
 92
        7
 72
     1
 73
     1
 93
        3
 10
268.1284295417976
 20
334.5673678450197
 42
0.0
 10
265.8341237963933
 20
331.2907596678635
 42
0.368755061663037
 10
271.8872000249413
 20
335.9354484183224
 42
0.0
 97
        3
330
1F70
330
2035
330
2141
 92
        7
 72
     1
 73
     1
 93
        3
 10
262.3926651782872
 20
326.3758474021296
 42
0.0
 10
262.3926651782872
 20
322.3758474021296
 42
0.3687550616630324
 10
264.6869709236914
 20
329.6524555792857
 42
0.0
 97
        3
330
2035
330
1F13
330
2143
 92
        7
 72
     1
 73
     1
 93
        3
 10
129.392665178287
 20
364.3105863230346
 42
0.0
 10
129.392665178287
 20
368.3105863230346
 42
0.0
 10
131.6869709236912
 20
371.5871945001905
 42
0.7779609988326897
 97
        3
330
2037
330
2142
330
1F23
 75
     0
 76
     0
 52
0.0
 41
0.1
 77
     0
 78
     1
 53
0.0
 43
-390.7444596458568
 44
16.56532211257217
 45
0.0
 46
0.1
 79
     0
 47
0.3121137601695975
 98
        4
 10
183.9483583786523
 20
446.6236876786151
 10
269.5280133906367
 20
333.9506196485861
 10
263.5936574266643
 20
326.1477754432478
 10
128.3528154423507
 20
366.7225650311218
  0
HATCH
  5
2161
330
1E
100
AcDbEntity
  8
SCHRAFF
100
AcDbHatch
 10
0.0
 20
0.0
 30
0.0
210
0.0
220
0.0
230
1.0
  2
_USER
 70
     0
 71
     1
 91
        2
 92
        7
 72
     1
 73
     1
 93
        8
 10
244.892665178287
 20
243.0465136322449
 42
0.0
 10
244.1927558700796
 20
235.0465136322448
 42
0.0
 10
246.2003955451664
 20
235.0465136322448
 42
0.0
 10
246.892665178287
 20
242.9591917464253
 42
0.0
 10
246.892665178287
 20
330.0289939622031
 42
-0.3152987888789835
 10
259.3942824550993
 20
347.8831537571354
 42
0.0
 10
258.710242168448
 20
349.7625389987072
 42
0.3152987888789843
 10
244.892665178287
 20
330.0289939622031
 42
0.0
 97
        8
330
1E66
330
1E65
330
1F6F
330
1F15
330
1F1B
330
1F18
330
1F1A
330
1F16
 92
        7
 72
     1
 73
     1
 93
        8
 10
146.892665178287
 20
330.0289939622032
 42
-0.3152987888789831
 10
225.1922681225324
 20
441.8524158357262
 42
0.0
 10
224.508227835881
 20
443.731801077298
 42
0.3152987888789832
 10
144.892665178287
 20
330.0289939622031
 42
0.0
 10
144.892665178287
 20
242.9591917464252
 42
0.0
 10
145.5849348114075
 20
235.0465136322447
 42
0.0
 10
147.5925744864944
 20
235.0465136322448
 42
0.0
 10
146.8926651782869
 20
243.0465136322446
 42
0.0
 97
        8
330
1F6E
330
1E65
330
1E67
330
1F26
330
1F28
330
1F18
330
1F27
330
1F25
 75
     0
 76
     0
 52
135.0
 41
2.0
 77
     0
 78
     1
 53
135.0
 43
-390.7444596458568
 44
16.56532211257217
 45
-1.414213562373095
 46
-1.414213562373094
 79
     0
 47
0.5333884424698151
 98
        2
 10
245.8407052600069
 20
291.1689069497949
 10
146.5602843438628
 20
312.5044440866143
  0
HATCH
  5
216A
330
1E
100
AcDbEntity
  8
SCHRAFF
100
AcDbHatch
 10
0.0
 20
0.0
 30
0.0
210
0.0
220
0.0
230
1.0
  2
_USER
 70
     0
 71
     1
 91
        2
 92
        7
 72
     0
 73
     1
 93
        4
 10
259.8926651782872
 20
327.164094374327
 10
262.3926651782871
 20
326.3758474021295
 10
268.1284295417976
 20
334.5673678450196
 10
266.5326693203525
 20
336.6470030545773
 97
        4
330
203D
330
2034
330
203E
330
2035
 92
        7
 72
     0
 73
     1
 93
        4
 10
184.8297459823709
 20
443.1243257839357
 10
183.2339857609261
 20
445.2039609934934
 10
129.392665178287
 20
368.3105863230346
 10
131.8926651782869
 20
367.5223393508373
 97
        4
330
203A
330
2037
330
203B
330
2036
 75
     0
 76
     0
 52
135.0
 41
2.0
 77
     0
 78
     1
 53
135.0
 43
-390.7444596458568
 44
16.56532211257217
 45
-1.414213562373095
 46
-1.414213562373094
 79
     0
 47
0.5333884424698151
 98
        2
 10
263.4549724007911
 20
331.173039606115
 10
149.7628793490816
 20
394.6462649321873
  0
HATCH
  5
2173
330
1E
100
AcDbEntity
  8
SCHRAFF
100
AcDbHatch
 10
0.0
 20
0.0
 30
0.0
210
0.0
220
0.0
230
1.0
  2
_USER
 70
     0
 71
     1
 91
        2
 92
        7
 72
     0
 73
     1
 93
        4
 10
259.8926651782871
 20
295.0465136322446
 10
262.3926651782871
 20
295.0465136322447
 10
262.3926651782872
 20
326.3758474021297
 10
259.8926651782869
 20
327.1640943743272
 97
        4
330
203E
330
1F14
330
1F1C
330
1F13
 92
        7
 72
     0
 73
     1
 93
        4
 10
131.8926651782869
 20
367.5223393508372
 10
129.392665178287
 20
368.3105863230346
 10
129.3926651782869
 20
295.0465136322447
 10
131.892665178287
 20
295.0465136322447
 97
        4
330
203B
330
1F23
330
1F2A
330
1F24
 75
     0
 76
     0
 52
45.0
 41
2.0
 77
     0
 78
     1
 53
45.0
 43
-390.7444596458568
 44
16.56532211257217
 45
-1.414213562373094
 46
1.414213562373095
 79
     0
 47
0.5333884424698151
 98
        2
 10
260.7861423317891
 20
311.4376677195717
 10
131.081079641905
 20
321.0386592212269
  0
HATCH
  5
219C
330
1E
100
AcDbEntity
  8
SCHRAFF
100
AcDbHatch
 10
0.0
 20
0.0
 30
0.0
210
0.0
220
0.0
230
1.0
  2
_USER
 70
     0
 71
     1
 91
        2
 92
        7
 72
     1
 73
     1
 93
       20
 10
268.4595870365602
 20
461.8571431268391
 42
0.1171420130217669
 10
273.8643410293382
 20
465.4158602348575
 42
-0.1182991460895299
 10
282.8153830868682
 20
471.338936668251
 42
0.0
 10
299.8823140143697
 20
477.5507915161388
 42
-0.1095178116832418
 10
309.7533593940562
 20
478.8503392941733
 42
0.0
 10
312.9239764522282
 20
478.5729462452013
 42
0.0
 10
312.1692215042564
 20
480.6466184219757
 42
0.0
 10
309.9276708795513
 20
480.8427286903567
 42
0.1095178116832433
 10
299.1982737277179
 20
479.4301767577107
 42
0.0
 10
282.1315312374186
 20
473.2183904953554
 42
0.1178625008509359
 10
272.4315417188311
 20
466.8117268960686
 42
-0.1178625008509348
 10
267.7755467499089
 20
463.736528368411
 42
0.0
 10
253.14217296047
 20
458.4104158821639
 42
0.1507946423587024
 10
246.0910461019448
 20
453.0678996594277
 42
-0.1507946423587043
 10
242.3304451107312
 20
450.2185576739685
 42
0.0
 10
224.5082278358809
 20
443.7318010772981
 42
0.0
 10
225.1922681225322
 20
441.8524158357263
 42
0.0
 10
243.0144853973825
 20
448.3391724323966
 42
0.1507946423587062
 10
247.7152366363995
 20
451.9008499142207
 42
-0.1507946423587022
 10
253.8262132471214
 20
456.5310306405922
 42
0.0
 97
       20
330
1F92
330
1F9C
330
1F9F
330
1FA2
330
1F78
330
1F9E
330
1FA0
330
1F9D
330
1F91
330
1F99
330
1F94
330
1F98
330
1F96
330
1F8F
330
1E65
330
1F8E
330
1F95
330
1F97
330
1F93
330
1F9A
 92
        7
 72
     1
 73
     1
 93
       20
 10
305.3977625157326
 20
360.3703400819608
 42
-0.1178625008509381
 10
310.94116109977
 20
361.0074172151469
 42
0.1178625008509341
 10
322.4899081498474
 20
362.334661242618
 42
0.0
 10
339.5566506401471
 20
368.5464475049734
 42
0.1095178116832411
 10
348.6838165866691
 20
374.3610934949574
 42
0.0
 10
350.2748867360463
 20
375.952163644335
 42
0.0
 10
349.5201317880746
 20
378.025835821109
 42
0.0
 10
347.269603024296
 20
375.7753070573305
 42
-0.1095178116832449
 10
338.8726103534955
 20
370.425832746545
 42
0.0
 10
321.8056794259942
 20
364.2139778986573
 42
-0.118299146089675
 10
311.1415032550743
 20
362.9976987582656
 42
0.1171420130215213
 10
304.7137222290813
 20
362.2497253235326
 42
0.0
 10
290.0803484396424
 20
356.9236128372857
 42
-0.1507946423587065
 10
282.4228459634477
 20
356.5424770049029
 42
0.1507946423587078
 10
276.5324594432979
 20
356.2492955953775
 42
0.0
 10
258.7102421684479
 20
349.7625389987072
 42
0.0
 10
259.3942824550993
 20
347.8831537571354
 42
0.0
 10
277.2164997299492
 20
354.3699103538058
 42
-0.1507946423587076
 10
281.9288089460691
 20
354.6044554814259
 42
0.1507946423587008
 10
290.7643887262934
 20
355.0442275957141
 42
0.0
 97
       20
330
1F82
330
1F7B
330
1F85
330
1F86
330
1F89
330
1F78
330
1F88
330
1F87
330
1F84
330
1F7A
330
1F83
330
1F7D
330
1F81
330
1F7C
330
1F72
330
1E65
330
1F73
330
1F7F
330
1F80
330
1F7E
 75
     0
 76
     0
 52
75.0
 41
2.0
 77
     0
 78
     1
 53
75.0
 43
-390.7444596458568
 44
16.56532211257217
 45
-1.931851652578136
 46
0.5176380902050415
 79
     0
 47
0.3433425631417993
 98
        2
 10
268.1606216000805
 20
462.5475588215408
 10
300.457648615039
 20
359.5447887440355
  0
HATCH
  5
21A5
330
1E
100
AcDbEntity
  8
SCHRAFF
100
AcDbHatch
 10
0.0
 20
0.0
 30
0.0
210
0.0
220
0.0
230
1.0
  2
_USER
 70
     0
 71
     1
 91
        2
 92
        7
 72
     0
 73
     1
 93
        4
 10
309.3327649473086
 20
488.4397187634536
 10
308.4777145889944
 20
490.7889503154183
 10
183.233985760926
 20
445.2039609934934
 10
184.8297459823708
 20
443.1243257839357
 97
        4
330
1F78
330
1F8C
330
203A
330
1F8D
 92
        7
 72
     0
 73
     1
 93
        4
 10
266.5326693203525
 20
336.6470030545774
 10
268.1284295417976
 20
334.5673678450197
 10
353.9663936513083
 20
365.8098317508922
 10
353.111343292994
 20
368.159063302857
 97
        4
330
1F78
330
1F71
330
203D
330
1F70
 75
     0
 76
     0
 52
165.0
 41
2.0
 77
     0
 78
     1
 53
165.0
 43
-390.7444596458568
 44
16.56532211257217
 45
-0.5176380902050421
 46
-1.931851652578136
 79
     0
 47
0.3433425631417993
 98
        2
 10
275.719499689973
 20
477.3112896564616
 10
300.1140637371273
 20
347.8711418231055
  0
HATCH
  5
21B2
330
1E
100
AcDbEntity
  8
SCHRAFF
100
AcDbHatch
 10
0.0
 20
0.0
 30
0.0
210
0.0
220
0.0
230
1.0
  2
NET
 70
     0
 71
     1
 91
        2
 92
        7
 72
     1
 73
     1
 93
        6
 10
309.9276708795513
 20
480.8427286903567
 42
0.0
 10
312.1692215042564
 20
480.6466184219757
 42
0.0
 10
309.3327649473086
 20
488.4397187634536
 42
0.0
 10
296.1770682563058
 20
483.6514367568941
 42
0.0
 10
297.8871689729341
 20
478.9529736529645
 42
0.0
 10
299.1982737277183
 20
479.4301767577108
 42
-0.1095178116832396
 97
        6
330
1F8D
330
1FA1
330
1F9D
330
1FA0
330
1F9E
330
1F78
 92
        7
 72
     1
 73
     1
 93
        6
 10
353.1113432929942
 20
368.159063302857
 42
0.0
 10
350.2748867360464
 20
375.952163644335
 42
0.0
 10
348.6838165866691
 20
374.3610934949574
 42
-0.109517811683241
 10
339.5566506401471
 20
368.5464475049734
 42
0.0
 10
338.2455458853632
 20
368.0692444002271
 42
0.0
 10
339.9556466019912
 20
363.3707812962975
 42
0.0
 97
        6
330
1F89
330
1F86
330
1F85
330
1F8A
330
1F71
330
1F78
 75
     0
 76
     1
 52
75.0
 41
20.0
 77
     0
 78
     2
 53
75.0
 43
-390.7444596458568
 44
16.56532211257217
 45
-2.41481456572267
 46
0.6470476127563019
 79
     0
 53
165.0
 43
-390.7444596458568
 44
16.56532211257217
 45
-0.647047612756302
 46
-2.41481456572267
 79
     0
 47
0.3433425631417993
 98
        2
 10
307.3293569491084
 20
483.4914560850197
 10
348.5596042595648
 20
369.5017236233471
  0
HATCH
  5
21E2
330
1E
100
AcDbEntity
  8
SCHRAFF
100
AcDbHatch
 10
0.0
 20
0.0
 30
0.0
210
0.0
220
0.0
230
1.0
  2
HONEY
 70
     0
 71
     1
 91
        2
 92
        7
 72
     1
 73
     1
 93
       16
 10
246.892665178287
 20
330.0289939622031
 42
0.0
 10
246.8926651782869
 20
312.5465136322448
 42
0.0
 10
258.3926651782868
 20
312.5465136322448
 42
0.0
 10
259.8926651782869
 20
311.0465136322448
 42
0.0
 10
259.8926651782869
 20
327.1640943743268
 42
0.0
 10
266.5326693203526
 20
336.6470030545775
 42
0.0
 10
339.9556466019912
 20
363.3707812962975
 42
0.0
 10
338.2455458853631
 20
368.0692444002271
 42
0.0
 10
322.4899081498474
 20
362.334661242618
 42
-0.1178625008509401
 10
310.9411610997694
 20
361.0074172151468
 42
0.1178625008509271
 10
305.3977625157325
 20
360.3703400819608
 42
0.0
 10
290.7643887262934
 20
355.0442275957141
 42
-0.1507946423587007
 10
281.9288089460691
 20
354.604455481426
 42
0.1507946423587076
 10
277.2164997299492
 20
354.3699103538058
 42
0.0
 10
262.2133603174569
 20
348.9092141871124
 42
-0.4668457183923947
 10
256.6567206342021
 20
346.6331298439222
 42
0.2722341936942743
 97
       16
330
1F71
330
1F8A
330
1F85
330
1F7B
330
1F82
330
1F7E
330
1F80
330
1F7F
330
1F73
330
1E59
330
1E66
330
1F16
330
1F1F
330
1F20
330
1F14
330
2034
 92
        7
 72
     1
 73
     1
 93
       16
 10
221.701871686268
 20
442.6707880288183
 42
-0.517914794332423
 10
227.3273056982386
 20
444.7578615072751
 42
0.0
 10
242.3304451107313
 20
450.2185576739685
 42
0.1507946423587046
 10
246.0910461019448
 20
453.0678996594278
 42
-0.1507946423587013
 10
253.14217296047
 20
458.4104158821639
 42
0.0
 10
267.7755467499088
 20
463.736528368411
 42
0.1178625008509461
 10
272.4315417188313
 20
466.8117268960688
 42
-0.1178625008509318
 10
282.1315312374186
 20
473.2183904953554
 42
0.0
 10
297.8871689729339
 20
478.9529736529644
 42
0.0
 10
296.1770682563057
 20
483.6514367568942
 42
0.0
 10
184.8297459823709
 20
443.1243257839358
 42
0.0
 10
131.8926651782869
 20
367.5223393508374
 42
0.0
 10
131.8926651782869
 20
311.0465136322448
 42
0.0
 10
133.3926651782871
 20
312.5465136322449
 42
0.0
 10
144.892665178287
 20
312.5465136322447
 42
0.0
 10
144.892665178287
 20
330.0289939622031
 42
-0.3084967527773483
 97
       16
330
1E5B
330
1F8F
330
1F96
330
1F98
330
1F94
330
1F99
330
1F91
330
1F9D
330
1FA1
330
1F8D
330
2036
330
1F24
330
1F2E
330
1F2D
330
1F26
330
1E67
 75
     0
 76
     1
 52
0.0
 41
30.0
 77
     0
 78
     3
 53
0.0
 43
-390.7444596458568
 44
16.56532211257217
 45
5.625
 46
3.247595249999999
 79
     2
 49
3.75
 49
-7.5
 53
120.0
 43
-390.7444596458568
 44
16.56532211257217
 45
-5.624999987709673
 46
3.247595271287468
 79
     2
 49
3.749999999999999
 49
-7.499999999999999
 53
60.0
 43
-390.7444596458568
 44
16.56532211257217
 45
0.0000000122903263
 46
6.495190521287468
 79
     2
 49
-7.5
 49
3.75
 47
0.5520221002456486
 98
        2
 10
252.6887552433145
 20
332.3120220296035
 10
139.444185408061
 20
337.2802218987388
  0
HATCH
  5
22A0
330
1E
100
AcDbEntity
  8
SCHRAFF
100
AcDbHatch
 10
0.0
 20
0.0
 30
0.0
210
0.0
220
0.0
230
1.0
  2
NET
 70
     0
 71
     0
 91
        2
 92
        7
 72
     0
 73
     1
 93
        9
 10
259.8926651782871
 20
311.0465136322446
 10
258.3926651782868
 20
312.5465136322449
 10
246.892665178287
 20
312.5465136322449
 10
246.892665178287
 20
301.0465136322448
 10
251.8926651782869
 20
301.0465136322448
 10
256.5114673318041
 20
293.0465136322444
 10
262.3926651782871
 20
293.0465136322443
 10
262.3926651782871
 20
295.0465136322447
 10
259.8926651782871
 20
295.0465136322447
 97
        0
 92
        7
 72
     0
 73
     1
 93
        9
 10
144.8926651782871
 20
312.5465136322447
 10
133.392665178287
 20
312.5465136322449
 10
131.8926651782869
 20
311.0465136322448
 10
131.8926651782869
 20
295.0465136322447
 10
129.3926651782869
 20
295.0465136322448
 10
129.3926651782869
 20
293.0465136322448
 10
135.2738630247698
 20
293.0465136322447
 10
139.8926651782869
 20
301.0465136322448
 10
144.892665178287
 20
301.0465136322447
 97
        0
 75
     0
 76
     1
 52
45.0
 41
20.0
 77
     0
 78
     2
 53
45.0
 43
-29.10733482171276
 44
-16.82848042694087
 45
-1.767766952966368
 46
1.767766952966368
 79
     0
 53
135.0
 43
-29.10733482171276
 44
-16.82848042694087
 45
-1.767766952966368
 46
-1.767766952966368
 79
     0
 47
0.1961114262777251
 98
        2
 10
255.674030578517
 20
306.2444240217989
 10
143.2343939334551
 20
307.4210925604877
  0
LINE
  5
22A1
330
1E
100
AcDbEntity
  8
STEMPEL
100
AcDbLine
 10
246.892665178287
 20
293.0465136322445
 30
0.0
 11
262.3926651782871
 21
293.0465136322443
 31
0.0
  0
LINE
  5
22A2
330
1E
100
AcDbEntity
  8
STEMPEL
100
AcDbLine
 10
251.8926651782869
 20
301.0465136322448
 30
0.0
 11
256.5114673318041
 21
293.0465136322445
 31
0.0
  0
LINE
  5
22A3
330
1E
100
AcDbEntity
  8
STEMPEL
100
AcDbLine
 10
129.3926651782869
 20
293.0465136322448
 30
0.0
 11
144.8926651782871
 21
293.0465136322447
 31
0.0
  0
LINE
  5
22A4
330
1E
100
AcDbEntity
  8
STEMPEL
100
AcDbLine
 10
139.8926651782869
 20
301.0465136322448
 30
0.0
 11
135.2738630247698
 21
293.0465136322447
 31
0.0
  0
TEXT
  5
22AC
330
1E
100
AcDbEntity
  8
TEXT
100
AcDbText
 10
148.622109822104
 20
73.14025471151666
 30
0.0
 40
4.0
  1
2007
 41
0.8
  7
GREEKS
100
AcDbText
  0
TEXT
  5
22AD
330
1E
100
AcDbEntity
  8
TEXT
100
AcDbText
 10
170.398997108236
 20
63.10765040825732
 30
0.0
 40
4.0
  1
28.09.
 41
0.8
  7
GREEKS
 72
     1
 11
177.4085209177598
 21
63.10765040825732
 31
0.0
100
AcDbText
  0
DIMENSION
  5
22C1
330
1E
100
AcDbEntity
  8
BEM
100
AcDbDimension
  2
*D4
 10
195.8926651782869
 20
230.0465136322448
 30
0.0
 11
236.5420273886807
 21
473.3265929955134
 31
0.0
 70
   162
 71
     5
 42
1.221730476396029
  3
Standard
100
AcDb2LineAngularDimension
 13
335.518780144902
 23
429.8632714109614
 33
0.0
 14
195.8926651782869
 24
379.0435216368826
 34
0.0
 15
195.8926651782869
 25
379.0435216368826
 35
0.0
 16
270.5740272656153
 26
449.5017528785893
 36
0.0
1001
ACAD
1000
DSTYLE
1002
{
1070
    40
1040
2.0
1070
    41
1040
3.5
1070
    42
1040
1.0
1070
    43
1040
7.0
1070
    44
1040
1.0
1070
    73
1070
     0
1070
    74
1070
     0
1070
    77
1070
     1
1070
    78
1070
     8
1070
    79
1070
     2
1070
   140
1040
3.5
1070
   141
1040
1.5
1070
   146
1040
0.5142857142857144
1070
   147
1040
1.5
1070
   172
1070
     1
1070
   178
1070
     1
1070
   179
1070
     2
1070
   271
1070
     2
1070
   272
1070
     2
1070
   284
1070
     8
1070
   285
1070
     8
1070
   286
1070
     8
1002
}
  0
DIMENSION
  5
22E3
330
1E
100
AcDbEntity
  8
BEM
100
AcDbDimension
  2
*D5
 10
293.9202932249673
 20
530.7851367985695
 30
0.0
 11
224.0324678224181
 21
512.2652041355415
 31
0.0
 70
    32
  1
144
 71
     5
 42
144.01452767468
 51
339.9999999999999
  3
Standard
100
AcDbAlignedDimension
 13
195.8926651782869
 23
379.0435216368826
 33
0.0
 14
308.4777145889946
 24
490.7889503154184
 34
0.0
 50
20.00000000000007
100
AcDbRotatedDimension
1001
ACAD
1000
DSTYLE
1002
{
1070
    40
1040
2.0
1070
    41
1040
3.5
1070
    42
1040
1.0
1070
    43
1040
7.0
1070
    44
1040
1.0
1070
    73
1070
     0
1070
    74
1070
     0
1070
    77
1070
     1
1070
    78
1070
     8
1070
    79
1070
     2
1070
   140
1040
3.5
1070
   141
1040
1.5
1070
   146
1040
0.5142857142857144
1070
   147
1040
1.5
1070
   172
1070
     1
1070
   178
1070
     1
1070
   179
1070
     2
1070
   271
1070
     2
1070
   272
1070
     2
1070
   284
1070
     8
1070
   285
1070
     8
1070
   286
1070
     8
1002
}
  0
DIMENSION
  5
22F9
330
1E
100
AcDbEntity
  8
BEM
100
AcDbDimension
  2
*D6
 10
97.3197698546137
 20
379.0435216368827
 30
0.0
 11
90.81976985461363
 21
307.0450176345638
 31
0.0
 70
    32
 71
     5
 42
143.9970080046379
  3
Standard
100
AcDbAlignedDimension
 13
145.5849348114076
 23
235.0465136322448
 33
0.0
 14
195.8926651782869
 24
379.0435216368826
 34
0.0
 50
90.0
100
AcDbRotatedDimension
1001
ACAD
1000
DSTYLE
1002
{
1070
    40
1040
2.0
1070
    41
1040
3.5
1070
    42
1040
1.0
1070
    43
1040
7.0
1070
    44
1040
1.0
1070
    73
1070
     0
1070
    74
1070
     0
1070
    77
1070
     1
1070
    78
1070
     8
1070
    79
1070
     2
1070
   140
1040
3.5
1070
   141
1040
1.5
1070
   146
1040
0.5142857142857144
1070
   147
1040
1.5
1070
   172
1070
     1
1070
   178
1070
     1
1070
   179
1070
     2
1070
   271
1070
     2
1070
   272
1070
     2
1070
   284
1070
     8
1070
   285
1070
     8
1070
   286
1070
     8
1002
}
  0
ENDSEC
  0
SECTION
  2
OBJECTS
  0
DICTIONARY
  5
C
330
0
100
AcDbDictionary
281
     1
  3
ACAD_COLOR
350
DF
  3
ACAD_GROUP
350
D
  3
ACAD_LAYOUT
350
19
  3
ACAD_MATERIAL
350
DE
  3
ACAD_MLINESTYLE
350
16
  3
ACAD_PLOTSETTINGS
350
18
  3
ACAD_PLOTSTYLENAME
350
E
  3
AcDbVariableDictionary
350
25E
  0
DICTIONARY
  5
A0
330
1E
100
AcDbDictionary
280
     1
281
     1
  3
ACAD_LAYOUTSELFREF
360
D4
  0
DICTIONARY
  5
A2
330
1A
100
AcDbDictionary
280
     1
281
     1
  3
ACAD_LAYOUTSELFREF
360
D3
  0
DICTIONARY
  5
DF
102
{ACAD_REACTORS
330
C
102
}
330
C
100
AcDbDictionary
281
     1
  0
DICTIONARY
  5
D
102
{ACAD_REACTORS
330
C
102
}
330
C
100
AcDbDictionary
281
     1
  0
DICTIONARY
  5
19
102
{ACAD_REACTORS
330
C
102
}
330
C
100
AcDbDictionary
281
     1
  3
Layout1
350
1D
  3
Model
350
21
  0
DICTIONARY
  5
DE
102
{ACAD_REACTORS
330
C
102
}
330
C
100
AcDbDictionary
281
     1
  0
DICTIONARY
  5
16
102
{ACAD_REACTORS
330
C
102
}
330
C
100
AcDbDictionary
281
     1
  3
Standard
350
17
  0
DICTIONARY
  5
18
102
{ACAD_REACTORS
330
C
102
}
330
C
100
AcDbDictionary
281
     1
  0
ACDBDICTIONARYWDFLT
  5
E
102
{ACAD_REACTORS
330
C
102
}
330
C
100
AcDbDictionary
281
     1
  3
Normal
350
F
100
AcDbDictionaryWithDefault
340
F
  0
DICTIONARY
  5
25E
102
{ACAD_REACTORS
330
C
102
}
330
C
100
AcDbDictionary
281
     1
  3
DIMASSOC
350
25F
  3
PROJECTNAME
350
260
  0
XRECORD
  5
D4
102
{ACAD_REACTORS
330
A0
102
}
330
A0
100
AcDbXrecord
280
     1
340
1E
  0
XRECORD
  5
D3
102
{ACAD_REACTORS
330
A2
102
}
330
A2
100
AcDbXrecord
280
     1
340
1A
  0
LAYOUT
  5
1D
102
{ACAD_REACTORS
330
19
102
}
330
19
100
AcDbPlotSettings
  1

  2
\\NT_WORK01\HP LaserJet 5000 PCL 6
  4

  6

 40
0.0
 41
0.0
 42
0.0
 43
0.0
 44
0.0
 45
0.0
 46
0.0
 47
0.0
 48
0.0
 49
0.0
140
0.0
141
0.0
142
1.0
143
1.0
 70
   688
 72
     0
 73
     0
 74
     5
  7

 75
    16
147
1.0
 76
     0
 77
     2
 78
   300
148
0.0
149
0.0
100
AcDbLayout
  1
Layout1
 70
     0
 71
     1
 10
0.0
 20
0.0
 11
12.0
 21
9.0
 12
0.0
 22
0.0
 32
0.0
 14
1.000000000000000E+20
 24
1.000000000000000E+20
 34
1.000000000000000E+20
 15
-1.000000000000000E+20
 25
-1.000000000000000E+20
 35
-1.000000000000000E+20
146
0.0
 13
0.0
 23
0.0
 33
0.0
 16
1.0
 26
0.0
 36
0.0
 17
0.0
 27
1.0
 37
0.0
 76
     0
330
1A
  0
LAYOUT
  5
21
102
{ACAD_REACTORS
330
19
102
}
330
19
100
AcDbPlotSettings
  1

  2
RICOH Aficio 2027 PCL 6
  4
A4
  6

 40
5.027083
 41
5.027084999999999
 42
5.027084
 43
5.027069
 44
209.973328
 45
296.925995
 46
0.0
 47
2.06
 48
0.0
 49
0.0
140
0.0
141
0.0
142
1.0
143
2.100849152723284
 70
 11956
 72
     1
 73
     0
 74
     2
  7
monochrome1.ctb
 75
     0
147
0.4759980023809526
 76
     1
 77
     2
 78
   300
148
0.0
149
0.0
100
AcDbLayout
  1
Model
 70
     1
 71
     0
 10
0.0
 20
0.0
 11
12.0
 21
9.0
 12
0.0
 22
0.0
 32
0.0
 14
0.0
 24
0.0
 34
0.0
 15
0.0
 25
0.0
 35
0.0
146
0.0
 13
0.0
 23
0.0
 33
0.0
 16
1.0
 26
0.0
 36
0.0
 17
0.0
 27
1.0
 37
0.0
 76
     0
330
1E
  0
MLINESTYLE
  5
17
102
{ACAD_REACTORS
330
16
102
}
330
16
100
AcDbMlineStyle
  2
STANDARD
 70
     0
  3

 62
   256
 51
90.0
 52
90.0
 71
     2
 49
0.5
 62
   256
  6
BYLAYER
 49
-0.5
 62
   256
  6
BYLAYER
  0
ACDBPLACEHOLDER
  5
F
102
{ACAD_REACTORS
330
E
102
}
330
E
  0
DICTIONARYVAR
  5
25F
102
{ACAD_REACTORS
330
25E
102
}
330
25E
100
DictionaryVariables
280
     0
  1
1
  0
DICTIONARYVAR
  5
260
102
{ACAD_REACTORS
330
25E
102
}
330
25E
100
DictionaryVariables
280
     0
  1

  0
ENDSEC
  0
EOF
