  0
SECTION
  2
HEADER
  9
$ACADVER
  1
AC1018
  9
$ACADMAINTVER
 70
     2
  9
$DWGCODEPAGE
  3
ANSI_1252
  9
$INSBASE
 10
0.0
 20
0.0
 30
0.0
  9
$EXTMIN
 10
-0.0080052410942244
 20
-0.011321698118536
 30
-0.0000000000112498
  9
$EXTMAX
 10
525.0080125757063
 20
742.5113320713569
 30
0.0000000000002956
  9
$LIMMIN
 10
0.0
 20
0.0
  9
$LIMMAX
 10
524.9999999999999
 20
742.4999999999999
  9
$ORTHOMODE
 70
     0
  9
$REGENMODE
 70
     1
  9
$FILLMODE
 70
     1
  9
$QTEXTMODE
 70
     0
  9
$MIRRTEXT
 70
     1
  9
$LTSCALE
 40
25.0
  9
$ATTMODE
 70
     1
  9
$TEXTSIZE
 40
3.5
  9
$TRACEWID
 40
0.5
  9
$TEXTSTYLE
  7
STANDARD
  9
$CLAYER
  8
BEM
  9
$CELTYPE
  6
ByLayer
  9
$CECOLOR
 62
   256
  9
$CELTSCALE
 40
1.0
  9
$DISPSILH
 70
     0
  9
$DIMSCALE
 40
2.5
  9
$DIMASZ
 40
3.5
  9
$DIMEXO
 40
1.0
  9
$DIMDLI
 40
7.0
  9
$DIMRND
 40
0.0
  9
$DIMDLE
 40
0.0
  9
$DIMEXE
 40
1.0
  9
$DIMTP
 40
0.0
  9
$DIMTM
 40
0.0
  9
$DIMTXT
 40
3.5
  9
$DIMCEN
 40
1.5
  9
$DIMTSZ
 40
0.0
  9
$DIMTOL
 70
     0
  9
$DIMLIM
 70
     0
  9
$DIMTIH
 70
     0
  9
$DIMTOH
 70
     0
  9
$DIMSE1
 70
     0
  9
$DIMSE2
 70
     0
  9
$DIMTAD
 70
     1
  9
$DIMZIN
 70
     8
  9
$DIMBLK
  1

  9
$DIMASO
 70
     1
  9
$DIMSHO
 70
     0
  9
$DIMPOST
  1

  9
$DIMAPOST
  1

  9
$DIMALT
 70
     0
  9
$DIMALTD
 70
     2
  9
$DIMALTF
 40
25.4
  9
$DIMLFAC
 40
1.0
  9
$DIMTOFL
 70
     1
  9
$DIMTVP
 40
0.0
  9
$DIMTIX
 70
     0
  9
$DIMSOXD
 70
     0
  9
$DIMSAH
 70
     0
  9
$DIMBLK1
  1

  9
$DIMBLK2
  1

  9
$DIMSTYLE
  2
Standard
  9
$DIMCLRD
 70
     0
  9
$DIMCLRE
 70
     0
  9
$DIMCLRT
 70
     1
  9
$DIMTFAC
 40
0.5142857142857144
  9
$DIMGAP
 40
1.5
  9
$DIMJUST
 70
     0
  9
$DIMSD1
 70
     0
  9
$DIMSD2
 70
     0
  9
$DIMTOLJ
 70
     1
  9
$DIMTZIN
 70
     8
  9
$DIMALTZ
 70
     8
  9
$DIMALTTZ
 70
     8
  9
$DIMUPT
 70
     0
  9
$DIMDEC
 70
     2
  9
$DIMTDEC
 70
     2
  9
$DIMALTU
 70
     2
  9
$DIMALTTD
 70
     2
  9
$DIMTXSTY
  7
STANDARD
  9
$DIMAUNIT
 70
     0
  9
$DIMADEC
 70
     2
  9
$DIMALTRND
 40
0.0
  9
$DIMAZIN
 70
     2
  9
$DIMDSEP
 70
    46
  9
$DIMATFIT
 70
     3
  9
$DIMFRAC
 70
     0
  9
$DIMLDRBLK
  1

  9
$DIMLUNIT
 70
     2
  9
$DIMLWD
 70
    -2
  9
$DIMLWE
 70
    -2
  9
$DIMTMOVE
 70
     0
  9
$LUNITS
 70
     2
  9
$LUPREC
 70
     2
  9
$SKETCHINC
 40
1.0
  9
$FILLETRAD
 40
67.5
  9
$AUNITS
 70
     0
  9
$AUPREC
 70
     0
  9
$MENU
  1
ACAD
  9
$ELEVATION
 40
0.0
  9
$PELEVATION
 40
0.0
  9
$THICKNESS
 40
0.0
  9
$LIMCHECK
 70
     0
  9
$CHAMFERA
 40
0.0
  9
$CHAMFERB
 40
0.0
  9
$CHAMFERC
 40
0.0
  9
$CHAMFERD
 40
0.0
  9
$SKPOLY
 70
     0
  9
$TDCREATE
 40
2455397.823042361
  9
$TDUCREATE
 40
2455397.781375695
  9
$TDUPDATE
 40
2455532.532681921
  9
$TDUUPDATE
 40
2455532.491015254
  9
$TDINDWG
 40
0.3584335185
  9
$TDUSRTIMER
 40
0.3584335185
  9
$USRTIMER
 70
     1
  9
$ANGBASE
 50
0.0
  9
$ANGDIR
 70
     0
  9
$PDMODE
 70
     0
  9
$PDSIZE
 40
0.0
  9
$PLINEWID
 40
0.0
  9
$SPLFRAME
 70
     0
  9
$SPLINETYPE
 70
     6
  9
$SPLINESEGS
 70
     8
  9
$HANDSEED
  5
269F
  9
$SURFTAB1
 70
     6
  9
$SURFTAB2
 70
     6
  9
$SURFTYPE
 70
     6
  9
$SURFU
 70
     6
  9
$SURFV
 70
     6
  9
$UCSBASE
  2

  9
$UCSNAME
  2

  9
$UCSORG
 10
0.0
 20
0.0
 30
0.0
  9
$UCSXDIR
 10
1.0
 20
0.0
 30
0.0
  9
$UCSYDIR
 10
0.0
 20
1.0
 30
0.0
  9
$UCSORTHOREF
  2

  9
$UCSORTHOVIEW
 70
     0
  9
$UCSORGTOP
 10
0.0
 20
0.0
 30
0.0
  9
$UCSORGBOTTOM
 10
0.0
 20
0.0
 30
0.0
  9
$UCSORGLEFT
 10
0.0
 20
0.0
 30
0.0
  9
$UCSORGRIGHT
 10
0.0
 20
0.0
 30
0.0
  9
$UCSORGFRONT
 10
0.0
 20
0.0
 30
0.0
  9
$UCSORGBACK
 10
0.0
 20
0.0
 30
0.0
  9
$PUCSBASE
  2

  9
$PUCSNAME
  2

  9
$PUCSORG
 10
0.0
 20
0.0
 30
0.0
  9
$PUCSXDIR
 10
1.0
 20
0.0
 30
0.0
  9
$PUCSYDIR
 10
0.0
 20
1.0
 30
0.0
  9
$PUCSORTHOREF
  2

  9
$PUCSORTHOVIEW
 70
     0
  9
$PUCSORGTOP
 10
0.0
 20
0.0
 30
0.0
  9
$PUCSORGBOTTOM
 10
0.0
 20
0.0
 30
0.0
  9
$PUCSORGLEFT
 10
0.0
 20
0.0
 30
0.0
  9
$PUCSORGRIGHT
 10
0.0
 20
0.0
 30
0.0
  9
$PUCSORGFRONT
 10
0.0
 20
0.0
 30
0.0
  9
$PUCSORGBACK
 10
0.0
 20
0.0
 30
0.0
  9
$USERI1
 70
     0
  9
$USERI2
 70
     0
  9
$USERI3
 70
     0
  9
$USERI4
 70
     0
  9
$USERI5
 70
     0
  9
$USERR1
 40
0.0
  9
$USERR2
 40
0.0
  9
$USERR3
 40
0.0
  9
$USERR4
 40
0.0
  9
$USERR5
 40
0.0
  9
$WORLDVIEW
 70
     1
  9
$SHADEDGE
 70
     3
  9
$SHADEDIF
 70
    70
  9
$TILEMODE
 70
     1
  9
$MAXACTVP
 70
    16
  9
$PINSBASE
 10
0.0
 20
0.0
 30
0.0
  9
$PLIMCHECK
 70
     0
  9
$PEXTMIN
 10
1.000000000000000E+20
 20
1.000000000000000E+20
 30
1.000000000000000E+20
  9
$PEXTMAX
 10
-1.000000000000000E+20
 20
-1.000000000000000E+20
 30
-1.000000000000000E+20
  9
$PLIMMIN
 10
0.0
 20
0.0
  9
$PLIMMAX
 10
12.0
 20
9.0
  9
$UNITMODE
 70
     0
  9
$VISRETAIN
 70
     0
  9
$PLINEGEN
 70
     0
  9
$PSLTSCALE
 70
     0
  9
$TREEDEPTH
 70
  3020
  9
$CMLSTYLE
  2
Standard
  9
$CMLJUST
 70
     0
  9
$CMLSCALE
 40
1.0
  9
$PROXYGRAPHICS
 70
     1
  9
$MEASUREMENT
 70
     0
  9
$CELWEIGHT
370
    -1
  9
$ENDCAPS
280
     0
  9
$JOINSTYLE
280
     0
  9
$LWDISPLAY
290
     0
  9
$INSUNITS
 70
     0
  9
$HYPERLINKBASE
  1

  9
$STYLESHEET
  1
monochrome 1.ctb
  9
$XEDIT
290
     1
  9
$CEPSNTYPE
380
     0
  9
$PSTYLEMODE
290
     1
  9
$FINGERPRINTGUID
  2
{D68B0D02-A558-11D7-B632-000102183313}
  9
$VERSIONGUID
  2
{AB6D9DD4-6357-4376-B3F6-D5BDF23D40F3}
  9
$EXTNAMES
290
     1
  9
$PSVPSCALE
 40
0.0
  9
$OLESTARTUP
290
     0
  9
$SORTENTS
280
   127
  9
$INDEXCTL
280
     0
  9
$HIDETEXT
280
     0
  9
$XCLIPFRAME
290
     0
  9
$HALOGAP
280
     0
  9
$OBSCOLOR
 70
   257
  9
$OBSLTYPE
280
     0
  9
$INTERSECTIONDISPLAY
280
     0
  9
$INTERSECTIONCOLOR
 70
   257
  9
$DIMASSOC
280
     1
  9
$PROJECTNAME
  1

  0
ENDSEC
  0
SECTION
  2
CLASSES
  0
CLASS
  1
ACDBDICTIONARYWDFLT
  2
AcDbDictionaryWithDefault
  3
ObjectDBX Classes
 90
        0
 91
        1
280
     0
281
     0
  0
CLASS
  1
DICTIONARYVAR
  2
AcDbDictionaryVar
  3
ObjectDBX Classes
 90
        0
 91
        2
280
     0
281
     0
  0
ENDSEC
  0
SECTION
  2
TABLES
  0
TABLE
  2
VPORT
  5
8
330
0
100
AcDbSymbolTable
 70
     2
  0
VPORT
  5
269E
330
8
100
AcDbSymbolTableRecord
100
AcDbViewportTableRecord
  2
*Active
 70
     0
 10
0.0
 20
0.0
 11
1.0
 21
1.0
 12
262.5000036673061
 22
371.2500051866192
 13
0.0
 23
0.0
 14
1.0
 24
1.0
 15
10.0
 25
10.0
 16
0.0
 26
0.0
 36
1.0
 17
0.0
 27
0.0
 37
0.0
 40
748.5187990219881
 41
1.336927223719676
 42
50.0
 43
0.0
 44
0.0
 50
0.0
 51
0.0
 71
     0
 72
  1500
 73
     1
 74
     0
 75
     0
 76
     0
 77
     0
 78
     0
281
     0
 65
     1
110
0.0
120
0.0
130
0.0
111
1.0
121
0.0
131
0.0
112
0.0
122
1.0
132
0.0
 79
     0
146
0.0
  0
ENDTAB
  0
TABLE
  2
LTYPE
  5
5
330
0
100
AcDbSymbolTable
 70
     2
  0
LTYPE
  5
13
330
5
100
AcDbSymbolTableRecord
100
AcDbLinetypeTableRecord
  2
ByBlock
 70
     0
  3

 72
    65
 73
     0
 40
0.0
  0
LTYPE
  5
14
330
5
100
AcDbSymbolTableRecord
100
AcDbLinetypeTableRecord
  2
ByLayer
 70
     0
  3

 72
    65
 73
     0
 40
0.0
  0
LTYPE
  5
15
330
5
100
AcDbSymbolTableRecord
100
AcDbLinetypeTableRecord
  2
Continuous
 70
     0
  3
Solid line
 72
    65
 73
     0
 40
0.0
  0
LTYPE
  5
25
330
5
100
AcDbSymbolTableRecord
100
AcDbLinetypeTableRecord
  2
STRICHPUNKT
 70
     0
  3
__ . __ . __ . __ . __ . __ . __ . __ . __ . __
 72
    65
 73
     4
 40
1.0
 49
0.5
 74
     0
 49
-0.25
 74
     0
 49
0.0
 74
     0
 49
-0.25
 74
     0
  0
ENDTAB
  0
TABLE
  2
LAYER
  5
2
330
0
100
AcDbSymbolTable
 70
     9
  0
LAYER
  5
10
330
2
100
AcDbSymbolTableRecord
100
AcDbLayerTableRecord
  2
0
 70
     0
 62
     7
  6
Continuous
370
    -3
390
F
  0
LAYER
  5
2A
330
2
100
AcDbSymbolTableRecord
100
AcDbLayerTableRecord
  2
VOLL
 70
     0
 62
     1
  6
Continuous
370
    -3
390
F
  0
LAYER
  5
2B
330
2
100
AcDbSymbolTableRecord
100
AcDbLayerTableRecord
  2
HILF
 70
     0
 62
     2
  6
Continuous
370
    -3
390
F
  0
LAYER
  5
2C
330
2
100
AcDbSymbolTableRecord
100
AcDbLayerTableRecord
  2
MITTEL
 70
     0
 62
     2
  6
STRICHPUNKT
370
    -3
390
F
  0
LAYER
  5
2F
330
2
100
AcDbSymbolTableRecord
100
AcDbLayerTableRecord
  2
BEM
 70
     0
 62
     7
  6
Continuous
370
    -3
390
F
  0
LAYER
  5
30
330
2
100
AcDbSymbolTableRecord
100
AcDbLayerTableRecord
  2
STEMPEL
 70
     0
 62
     3
  6
Continuous
370
    -3
390
F
  0
LAYER
  5
31
330
2
100
AcDbSymbolTableRecord
100
AcDbLayerTableRecord
  2
TEXT
 70
     0
 62
     7
  6
Continuous
370
    -3
390
F
  0
LAYER
  5
171
330
2
100
AcDbSymbolTableRecord
100
AcDbLayerTableRecord
  2
Defpoints
 70
     0
 62
     7
  6
Continuous
290
     0
370
    -3
390
F
  0
LAYER
  5
19C
330
2
100
AcDbSymbolTableRecord
100
AcDbLayerTableRecord
  2
SCHRAFF
 70
     0
 62
     7
  6
Continuous
370
    -3
390
F
  0
ENDTAB
  0
TABLE
  2
STYLE
  5
3
330
0
100
AcDbSymbolTable
 70
     2
  0
STYLE
  5
11
330
3
100
AcDbSymbolTableRecord
100
AcDbTextStyleTableRecord
  2
STANDARD
 70
     0
 40
0.0
 41
0.8
 50
0.0
 71
     0
 42
3.5
  3
simplex.shx
  4

  0
STYLE
  5
24
330
3
100
AcDbSymbolTableRecord
100
AcDbTextStyleTableRecord
  2
GREEKS
 70
     0
 40
0.0
 41
0.8
 50
0.0
 71
     0
 42
2.5
  3
SIMPLEX.shx
  4

  0
ENDTAB
  0
TABLE
  2
VIEW
  5
6
330
0
100
AcDbSymbolTable
 70
     0
  0
ENDTAB
  0
TABLE
  2
UCS
  5
7
330
0
100
AcDbSymbolTable
 70
     0
  0
ENDTAB
  0
TABLE
  2
APPID
  5
9
330
0
100
AcDbSymbolTable
 70
     1
  0
APPID
  5
12
330
9
100
AcDbSymbolTableRecord
100
AcDbRegAppTableRecord
  2
ACAD
 70
     0
  0
ENDTAB
  0
TABLE
  2
DIMSTYLE
  5
A
330
0
100
AcDbSymbolTable
 70
     1
100
AcDbDimStyleTable
 71
     1
340
9D
  0
DIMSTYLE
105
9D
102
{ACAD_REACTORS
330
2229
330
221A
330
22B3
330
264F
330
265C
330
2669
102
}
330
A
100
AcDbSymbolTableRecord
100
AcDbDimStyleTableRecord
  2
Standard
 70
     0
340
11
  0
ENDTAB
  0
TABLE
  2
BLOCK_RECORD
  5
1
330
0
100
AcDbSymbolTable
 70
     7
  0
BLOCK_RECORD
  5
1E
102
{ACAD_XDICTIONARY
360
A0
102
}
330
1
100
AcDbSymbolTableRecord
100
AcDbBlockTableRecord
  2
*Model_Space
340
21
  0
BLOCK_RECORD
  5
1A
102
{ACAD_XDICTIONARY
360
A2
102
}
330
1
100
AcDbSymbolTableRecord
100
AcDbBlockTableRecord
  2
*Paper_Space
340
1D
  0
BLOCK_RECORD
  5
22
330
1
100
AcDbSymbolTableRecord
100
AcDbBlockTableRecord
  2
LOGO
340
0
102
{BLKREFS
331
9B
102
}
  0
BLOCK_RECORD
  5
2248
330
1
100
AcDbSymbolTableRecord
100
AcDbBlockTableRecord
  2
*D1
340
0
  0
BLOCK_RECORD
  5
2254
330
1
100
AcDbSymbolTableRecord
100
AcDbBlockTableRecord
  2
*D2
340
0
  0
BLOCK_RECORD
  5
22CC
330
1
100
AcDbSymbolTableRecord
100
AcDbBlockTableRecord
  2
*D3
340
0
  0
BLOCK_RECORD
  5
2650
330
1
100
AcDbSymbolTableRecord
100
AcDbBlockTableRecord
  2
*D4
340
0
  0
BLOCK_RECORD
  5
265D
330
1
100
AcDbSymbolTableRecord
100
AcDbBlockTableRecord
  2
*D5
340
0
  0
BLOCK_RECORD
  5
266A
330
1
100
AcDbSymbolTableRecord
100
AcDbBlockTableRecord
  2
*D6
340
0
  0
ENDTAB
  0
ENDSEC
  0
SECTION
  2
BLOCKS
  0
BLOCK
  5
35
330
1E
100
AcDbEntity
  8
0
100
AcDbBlockBegin
  2
*Model_Space
 70
     0
 10
0.0
 20
0.0
 30
0.0
  3
*Model_Space
  1

  0
ENDBLK
  5
36
330
1E
100
AcDbEntity
  8
0
100
AcDbBlockEnd
  0
BLOCK
  5
33
330
1A
100
AcDbEntity
 67
     1
  8
0
100
AcDbBlockBegin
  2
*Paper_Space
 70
     0
 10
0.0
 20
0.0
 30
0.0
  3
*Paper_Space
  1

  0
ENDBLK
  5
34
330
1A
100
AcDbEntity
 67
     1
  8
0
100
AcDbBlockEnd
  0
BLOCK
  5
37
330
22
100
AcDbEntity
  8
0
100
AcDbBlockBegin
  2
LOGO
 70
     0
 10
0.0
 20
0.0
 30
0.0
  3
LOGO
  1

  0
ARC
  5
38
330
22
100
AcDbEntity
  8
0
100
AcDbCircle
 10
11.59973089678112
 20
-9.271599258481501
 30
0.0
 40
4.5
100
AcDbArc
 50
270.0
 51
231.0575587310159
  0
LINE
  5
39
330
22
100
AcDbEntity
  8
0
100
AcDbLine
 10
3.599730896781125
 20
-4.771599258481529
 30
0.0
 11
3.599730896781153
 21
-11.77159925848133
 31
0.0
  0
LINE
  5
3A
330
22
100
AcDbEntity
  8
0
100
AcDbLine
 10
2.599730896781125
 20
-4.771599258481529
 30
0.0
 11
2.599730896781153
 21
-11.77159925848133
 31
0.0
  0
CIRCLE
  5
3B
330
22
100
AcDbEntity
  8
0
100
AcDbCircle
 10
11.59973089678112
 20
-9.271599258481501
 30
0.0
 40
3.5
  0
ARC
  5
3C
330
22
100
AcDbEntity
  8
0
100
AcDbCircle
 10
31.59973089678115
 20
-9.271599258481472
 30
0.0
 40
4.5
100
AcDbArc
 50
270.0
 51
231.0575587310182
  0
LINE
  5
3D
330
22
100
AcDbEntity
  8
0
100
AcDbLine
 10
17.59973089678112
 20
-4.771599258481472
 30
0.0
 11
17.59973089678115
 21
-13.77159925848147
 31
0.0
  0
ARC
  5
3E
330
22
100
AcDbEntity
  8
0
100
AcDbCircle
 10
22.59973089678116
 20
-7.271599258481472
 30
0.0
 40
2.5
100
AcDbArc
 50
293.1161887722295
 51
90.0
  0
CIRCLE
  5
3F
330
22
100
AcDbEntity
  8
0
100
AcDbCircle
 10
31.59973089678115
 20
-9.271599258481472
 30
0.0
 40
3.5
  0
ARC
  5
40
330
22
100
AcDbEntity
  8
0
100
AcDbCircle
 10
4.599730896781153
 20
-11.77159925848133
 30
0.0
 40
1.0
100
AcDbArc
 50
180.0
 51
270.0
  0
ARC
  5
41
330
22
100
AcDbEntity
  8
0
100
AcDbCircle
 10
4.599730896781153
 20
-11.77159925848133
 30
0.0
 40
2.0
100
AcDbArc
 50
179.9999999999992
 51
270.0
  0
LINE
  5
42
330
22
100
AcDbEntity
  8
0
100
AcDbLine
 10
11.59973089678115
 20
-13.77159925848144
 30
0.0
 11
4.599730896781153
 21
-13.77159925848147
 31
0.0
  0
LINE
  5
43
330
22
100
AcDbEntity
  8
0
100
AcDbLine
 10
8.771303772034769
 20
-12.77159925848136
 30
0.0
 11
4.599730896781153
 21
-12.77159925848133
 31
0.0
  0
LINE
  5
44
330
22
100
AcDbEntity
  8
0
100
AcDbLine
 10
31.59973089678115
 20
-13.77159925848147
 30
0.0
 11
23.6715276665056
 21
-13.77159925848144
 31
0.0
  0
LINE
  5
45
330
22
100
AcDbEntity
  8
0
100
AcDbLine
 10
23.56565672307022
 20
-9.51278021337896
 30
0.0
 11
24.4388546544846
 21
-12.77159925848144
 31
0.0
  0
LINE
  5
46
330
22
100
AcDbEntity
  8
0
100
AcDbLine
 10
22.59973089678116
 20
-9.771599258481472
 30
0.0
 11
18.59973089678112
 21
-9.771599258481472
 31
0.0
  0
LINE
  5
47
330
22
100
AcDbEntity
  8
0
100
AcDbLine
 10
18.59973089678115
 20
-13.77159925848144
 30
0.0
 11
17.59973089678115
 21
-13.77159925848144
 31
0.0
  0
LINE
  5
48
330
22
100
AcDbEntity
  8
0
100
AcDbLine
 10
18.59973089678115
 20
-9.771599258481472
 30
0.0
 11
18.59973089678115
 21
-13.77159925848144
 31
0.0
  0
LINE
  5
49
330
22
100
AcDbEntity
  8
0
100
AcDbLine
 10
22.59973089678116
 20
-9.771599258481472
 30
0.0
 11
23.67152766650562
 21
-13.77159925848147
 31
0.0
  0
ARC
  5
4A
330
22
100
AcDbEntity
  8
0
100
AcDbCircle
 10
22.59973089678116
 20
-7.271599258481472
 30
0.0
 40
2.5
100
AcDbArc
 50
270.0
 51
270.0000000000007
  0
LINE
  5
4B
330
22
100
AcDbEntity
  8
0
100
AcDbLine
 10
28.77130377203494
 20
-12.77159925848147
 30
0.0
 11
24.43885465448463
 21
-12.77159925848144
 31
0.0
  0
LINE
  5
4C
330
22
100
AcDbEntity
  8
0
100
AcDbLine
 10
3.599730896781125
 20
-4.771599258481472
 30
0.0
 11
2.599730896781125
 21
-4.771599258481472
 31
0.0
  0
LINE
  5
4D
330
22
100
AcDbEntity
  8
0
100
AcDbLine
 10
22.59973089678116
 20
-8.771599258481472
 30
0.0
 11
18.59973089678115
 21
-8.771599258481472
 31
0.0
  0
LINE
  5
4E
330
22
100
AcDbEntity
  8
0
100
AcDbLine
 10
22.59973089678116
 20
-5.771599258481472
 30
0.0
 11
18.59973089678115
 21
-5.771599258481472
 31
0.0
  0
LINE
  5
4F
330
22
100
AcDbEntity
  8
0
100
AcDbLine
 10
22.59973089678116
 20
-4.771599258481472
 30
0.0
 11
17.59973089678115
 21
-4.771599258481472
 31
0.0
  0
LINE
  5
50
330
22
100
AcDbEntity
  8
0
100
AcDbLine
 10
18.59973089678115
 20
-5.771599258481472
 30
0.0
 11
18.59973089678115
 21
-8.771599258481472
 31
0.0
  0
ARC
  5
51
330
22
100
AcDbEntity
  8
0
100
AcDbCircle
 10
22.59973089678116
 20
-7.271599258481472
 30
0.0
 40
1.5
100
AcDbArc
 50
270.0
 51
90.0
  0
ENDBLK
  5
52
330
22
100
AcDbEntity
  8
0
100
AcDbBlockEnd
  0
BLOCK
  5
2252
330
2248
100
AcDbEntity
  8
0
100
AcDbBlockBegin
  2
*D1
 70
     1
 10
0.0
 20
0.0
 30
0.0
  3
*D1
  1

  0
LINE
  5
25CF
330
2248
100
AcDbEntity
  8
BEM
 62
     0
370
    -2
100
AcDbLine
 10
187.5363513622191
 20
309.9939162126207
 30
0.0
 11
187.5363513622191
 21
281.0208043703589
 31
0.0
  0
LINE
  5
25D0
330
2248
100
AcDbEntity
  8
BEM
 62
     0
370
    -2
100
AcDbLine
 10
276.536351362219
 20
309.9939162126213
 30
0.0
 11
276.536351362219
 21
281.0208043703589
 31
0.0
  0
LINE
  5
25D1
330
2248
100
AcDbEntity
  8
BEM
 62
     0
370
    -2
100
AcDbLine
 10
196.286351362219
 20
283.5208043703588
 30
0.0
 11
267.7863513622189
 21
283.5208043703588
 31
0.0
  0
SOLID
  5
25D2
330
2248
100
AcDbEntity
  8
BEM
 62
     0
100
AcDbTrace
 10
196.286351362219
 20
284.9791377036922
 30
0.0
 11
196.286351362219
 21
282.0624710370255
 31
0.0
 12
187.5363513622191
 22
283.5208043703588
 32
0.0
 13
187.5363513622191
 23
283.5208043703588
 33
0.0
  0
SOLID
  5
25D3
330
2248
100
AcDbEntity
  8
BEM
 62
     0
100
AcDbTrace
 10
267.7863513622189
 20
284.9791377036922
 30
0.0
 11
267.7863513622189
 21
282.0624710370255
 31
0.0
 12
276.536351362219
 22
283.5208043703588
 32
0.0
 13
276.536351362219
 23
283.5208043703588
 33
0.0
  0
MTEXT
  5
25D4
330
2248
100
AcDbEntity
  8
BEM
 62
     1
100
AcDbMText
 10
232.036351362219
 20
291.6458043703589
 30
0.0
 40
8.75
 41
0.0
 71
     5
 72
     1
  1
\A1;%%C89
 73
     1
 44
1.0
  0
POINT
  5
25D5
330
2248
100
AcDbEntity
  8
Defpoints
 62
     0
100
AcDbPoint
 10
187.5363513622191
 20
312.4939162126207
 30
0.0
  0
POINT
  5
25D6
330
2248
100
AcDbEntity
  8
Defpoints
 62
     0
100
AcDbPoint
 10
276.536351362219
 20
312.4939162126214
 30
0.0
  0
POINT
  5
25D7
330
2248
100
AcDbEntity
  8
Defpoints
 62
     0
100
AcDbPoint
 10
276.536351362219
 20
283.5208043703588
 30
0.0
  0
ENDBLK
  5
2253
330
2248
100
AcDbEntity
  8
0
100
AcDbBlockEnd
  0
BLOCK
  5
225E
330
2254
100
AcDbEntity
  8
0
100
AcDbBlockBegin
  2
*D2
 70
     1
 10
0.0
 20
0.0
 30
0.0
  3
*D2
  1

  0
LINE
  5
263D
330
2254
100
AcDbEntity
  8
BEM
 62
     0
370
    -2
100
AcDbLine
 10
163.0363513622189
 20
355.8652466800693
 30
0.0
 11
146.8593332687716
 21
355.8652466800693
 31
0.0
  0
LINE
  5
263E
330
2254
100
AcDbEntity
  8
BEM
 62
     0
370
    -2
100
AcDbLine
 10
186.0862153245301
 20
305.8652466800693
 30
0.0
 11
146.8593332687716
 21
305.8652466800693
 31
0.0
  0
LINE
  5
263F
330
2254
100
AcDbEntity
  8
BEM
 62
     0
370
    -2
100
AcDbLine
 10
149.3593332687716
 20
347.1152466800693
 30
0.0
 11
149.3593332687716
 21
314.6152466800693
 31
0.0
  0
SOLID
  5
2640
330
2254
100
AcDbEntity
  8
BEM
 62
     0
100
AcDbTrace
 10
147.9009999354382
 20
347.1152466800693
 30
0.0
 11
150.8176666021049
 21
347.1152466800693
 31
0.0
 12
149.3593332687716
 22
355.8652466800693
 32
0.0
 13
149.3593332687716
 23
355.8652466800693
 33
0.0
  0
SOLID
  5
2641
330
2254
100
AcDbEntity
  8
BEM
 62
     0
100
AcDbTrace
 10
147.9009999354382
 20
314.6152466800693
 30
0.0
 11
150.8176666021049
 21
314.6152466800693
 31
0.0
 12
149.3593332687716
 22
305.8652466800693
 32
0.0
 13
149.3593332687716
 23
305.8652466800693
 33
0.0
  0
MTEXT
  5
2642
330
2254
100
AcDbEntity
  8
BEM
 62
     1
100
AcDbMText
 10
141.2343332687715
 20
330.8652466800694
 30
0.0
 40
8.75
 41
0.0
 71
     5
 72
     1
  1
\A1;50
 11
0.0000000000000001
 21
1.0
 31
0.0
 73
     1
 44
1.0
  0
POINT
  5
2643
330
2254
100
AcDbEntity
  8
Defpoints
 62
     0
100
AcDbPoint
 10
165.5363513622189
 20
355.8652466800693
 30
0.0
  0
POINT
  5
2644
330
2254
100
AcDbEntity
  8
Defpoints
 62
     0
100
AcDbPoint
 10
188.5862153245301
 20
305.8652466800693
 30
0.0
  0
POINT
  5
2645
330
2254
100
AcDbEntity
  8
Defpoints
 62
     0
100
AcDbPoint
 10
149.3593332687716
 20
305.8652466800693
 30
0.0
  0
ENDBLK
  5
225F
330
2254
100
AcDbEntity
  8
0
100
AcDbBlockEnd
  0
BLOCK
  5
22D6
330
22CC
100
AcDbEntity
  8
0
100
AcDbBlockBegin
  2
*D3
 70
     1
 10
0.0
 20
0.0
 30
0.0
  3
*D3
  1

  0
LINE
  5
2646
330
22CC
100
AcDbEntity
  8
BEM
 62
     0
370
    -2
100
AcDbLine
 10
403.3394182283181
 20
611.9832226220501
 30
0.0
 11
419.2933957687646
 21
617.789995564923
 31
0.0
  0
LINE
  5
2647
330
22CC
100
AcDbEntity
  8
BEM
 62
     0
370
    -2
100
AcDbLine
 10
448.8280972906318
 20
487.0041040575241
 30
0.0
 11
464.7820748310712
 21
492.8108770003945
 31
0.0
  0
LINE
  5
2648
330
22CC
100
AcDbEntity
  8
BEM
 62
     0
370
    -2
100
AcDbLine
 10
419.9368404708989
 20
608.7126347747321
 30
0.0
 11
459.4401670250071
 21
500.1781370739574
 31
0.0
  0
SOLID
  5
2649
330
22CC
100
AcDbEntity
  8
BEM
 62
     0
100
AcDbTrace
 10
421.3072255428784
 20
609.2114141504152
 30
0.0
 11
418.5664553989194
 21
608.2138553990489
 31
0.0
 12
416.9441642167997
 22
616.9349452066089
 32
0.0
 13
416.9441642167997
 23
616.9349452066089
 33
0.0
  0
SOLID
  5
264A
330
22CC
100
AcDbEntity
  8
BEM
 62
     0
100
AcDbTrace
 10
460.8105520969867
 20
500.6769164496406
 30
0.0
 11
458.0697819530277
 21
499.6793576982741
 31
0.0
 12
462.4328432791063
 22
491.9558266420805
 32
0.0
 13
462.4328432791063
 23
491.9558266420805
 33
0.0
  0
MTEXT
  5
264B
330
22CC
100
AcDbEntity
  8
BEM
 62
     1
100
AcDbMText
 10
447.3235062918385
 20
557.2242995888652
 30
0.0
 40
8.75
 41
0.0
 71
     5
 72
     1
  1
\A1;%%c133
 11
0.3420201433256133
 21
-0.9396926207859285
 31
0.0
 73
     1
 44
1.0
  0
POINT
  5
264C
330
22CC
100
AcDbEntity
  8
Defpoints
 62
     0
100
AcDbPoint
 10
400.9901866763533
 20
611.128172263736
 30
0.0
  0
POINT
  5
264D
330
22CC
100
AcDbEntity
  8
Defpoints
 62
     0
100
AcDbPoint
 10
446.4788657386669
 20
486.1490536992102
 30
0.0
  0
POINT
  5
264E
330
22CC
100
AcDbEntity
  8
Defpoints
 62
     0
100
AcDbPoint
 10
462.4328432791063
 20
491.9558266420805
 30
0.0
  0
ENDBLK
  5
22D7
330
22CC
100
AcDbEntity
  8
0
100
AcDbBlockEnd
  0
BLOCK
  5
265A
330
2650
100
AcDbEntity
  8
0
100
AcDbBlockBegin
  2
*D4
 70
     1
 10
0.0
 20
0.0
 30
0.0
  3
*D4
  1

  0
LINE
  5
2651
330
2650
100
AcDbEntity
  8
BEM
 62
     0
370
    -2
100
AcDbLine
 10
186.0862153245301
 20
305.8652466800693
 30
0.0
 11
124.9738997208446
 21
305.8652466800694
 31
0.0
  0
LINE
  5
2652
330
2650
100
AcDbEntity
  8
BEM
 62
     0
370
    -2
100
AcDbLine
 10
229.536351362219
 20
478.866183374629
 30
0.0
 11
124.9738997208446
 21
478.866183374629
 31
0.0
  0
LINE
  5
2653
330
2650
100
AcDbEntity
  8
BEM
 62
     0
370
    -2
100
AcDbLine
 10
127.4738997208446
 20
314.6152466800693
 30
0.0
 11
127.4738997208446
 21
470.116183374629
 31
0.0
  0
SOLID
  5
2654
330
2650
100
AcDbEntity
  8
BEM
 62
     0
100
AcDbTrace
 10
126.0155663875113
 20
314.6152466800693
 30
0.0
 11
128.9322330541779
 21
314.6152466800693
 31
0.0
 12
127.4738997208446
 22
305.8652466800694
 32
0.0
 13
127.4738997208446
 23
305.8652466800694
 33
0.0
  0
SOLID
  5
2655
330
2650
100
AcDbEntity
  8
BEM
 62
     0
100
AcDbTrace
 10
126.0155663875113
 20
470.116183374629
 30
0.0
 11
128.932233054178
 21
470.1161833746289
 31
0.0
 12
127.4738997208446
 22
478.866183374629
 32
0.0
 13
127.4738997208446
 23
478.866183374629
 33
0.0
  0
MTEXT
  5
2656
330
2650
100
AcDbEntity
  8
BEM
 62
     1
100
AcDbMText
 10
119.3488997208446
 20
392.3657150273492
 30
0.0
 40
8.75
 41
0.0
 71
     5
 72
     1
  1
\A1;173
 11
0.0000000000000001
 21
1.0
 31
0.0
 73
     1
 44
1.0
  0
POINT
  5
2657
330
2650
100
AcDbEntity
  8
Defpoints
 62
     0
100
AcDbPoint
 10
188.5862153245301
 20
305.8652466800693
 30
0.0
  0
POINT
  5
2658
330
2650
100
AcDbEntity
  8
Defpoints
 62
     0
100
AcDbPoint
 10
232.036351362219
 20
478.866183374629
 30
0.0
  0
POINT
  5
2659
330
2650
100
AcDbEntity
  8
Defpoints
 62
     0
100
AcDbPoint
 10
127.4738997208446
 20
478.866183374629
 30
0.0
  0
ENDBLK
  5
265B
330
2650
100
AcDbEntity
  8
0
100
AcDbBlockEnd
  0
BLOCK
  5
2667
330
265D
100
AcDbEntity
  8
0
100
AcDbBlockBegin
  2
*D5
 70
     1
 10
0.0
 20
0.0
 30
0.0
  3
*D5
  1

  0
LINE
  5
268B
330
265D
100
AcDbEntity
  8
BEM
 62
     0
370
    -2
100
AcDbLine
 10
231.1813010039048
 20
481.2154149265936
 30
0.0
 11
190.0679659316191
 21
594.1733746761703
 31
0.0
  0
LINE
  5
268C
330
265D
100
AcDbEntity
  8
BEM
 62
     0
370
    -2
100
AcDbLine
 10
400.1351363180392
 20
613.4774038157006
 30
0.0
 11
381.7661407769106
 21
663.9458042830143
 31
0.0
  0
LINE
  5
268D
330
265D
100
AcDbEntity
  8
BEM
 62
     0
370
    -2
100
AcDbLine
 10
199.14532672181
 20
594.8168193783051
 30
0.0
 11
374.398880703348
 21
658.60389647695
 31
0.0
  0
SOLID
  5
268E
330
265D
100
AcDbEntity
  8
BEM
 62
     0
100
AcDbTrace
 10
198.6465473461267
 20
596.1872044502845
 30
0.0
 11
199.6441060974932
 21
593.4464343063257
 31
0.0
 12
190.9230162899333
 22
591.8241431242055
 32
0.0
 13
190.9230162899333
 23
591.8241431242055
 33
0.0
  0
SOLID
  5
268F
330
265D
100
AcDbEntity
  8
BEM
 62
     0
100
AcDbTrace
 10
373.9001013276647
 20
659.9742815489293
 30
0.0
 11
374.8976600790312
 21
657.2335114049706
 31
0.0
 12
382.6211911352248
 22
661.5965727310496
 32
0.0
 13
382.6211911352248
 23
661.5965727310496
 33
0.0
  0
MTEXT
  5
2690
330
265D
100
AcDbEntity
  8
BEM
 62
     1
100
AcDbMText
 10
283.9931900480579
 20
634.3453604715129
 30
0.0
 40
8.75
 41
0.0
 71
     5
 72
     1
  1
\A1;204
 11
0.9396926207859085
 21
0.3420201433256686
 31
0.0
 73
     1
 44
1.0
  0
POINT
  5
2691
330
265D
100
AcDbEntity
  8
Defpoints
 62
     0
100
AcDbPoint
 10
232.036351362219
 20
478.8661833746289
 30
0.0
  0
POINT
  5
2692
330
265D
100
AcDbEntity
  8
Defpoints
 62
     0
100
AcDbPoint
 10
400.9901866763533
 20
611.1281722637358
 30
0.0
  0
POINT
  5
2693
330
265D
100
AcDbEntity
  8
Defpoints
 62
     0
100
AcDbPoint
 10
382.6211911352248
 20
661.5965727310496
 30
0.0
  0
ENDBLK
  5
2668
330
265D
100
AcDbEntity
  8
0
100
AcDbBlockEnd
  0
BLOCK
  5
2675
330
266A
100
AcDbEntity
  8
0
100
AcDbBlockBegin
  2
*D6
 70
     1
 10
0.0
 20
0.0
 30
0.0
  3
*D6
  1

  0
LINE
  5
2681
330
266A
100
AcDbEntity
  8
BEM
 62
     0
370
    -2
100
AcDbLine
 10
232.036351362219
 20
481.3661833746289
 30
0.0
 11
232.036351362219
 21
588.241405497949
 31
0.0
  0
ARC
  5
2682
330
266A
100
AcDbEntity
  8
BEM
 62
     0
370
    -2
100
AcDbCircle
 10
232.036351362219
 20
478.8661833746289
 30
0.0
 40
106.87522212332
100
AcDbArc
 50
24.69218387291084
 51
85.30781612708919
  0
SOLID
  5
2683
330
266A
100
AcDbEntity
  8
BEM
 62
     0
100
AcDbTrace
 10
330.4882746445622
 20
524.0670324021001
 30
0.0
 11
327.7906375017758
 21
522.9581147810372
 31
0.0
 12
332.4662089363576
 22
515.4196621632094
 32
0.0
 13
332.4662089363576
 23
515.4196621632094
 33
0.0
  0
SOLID
  5
2684
330
266A
100
AcDbEntity
  8
BEM
 62
     0
100
AcDbTrace
 10
240.719319271521
 20
583.9261081677183
 30
0.0
 11
240.8387147348768
 21
586.8403300480448
 31
0.0
 12
232.036351362219
 22
585.7414054979488
 32
0.0
 13
232.036351362219
 23
585.7414054979488
 33
0.0
  0
MTEXT
  5
2685
330
266A
100
AcDbEntity
  8
BEM
 62
     1
100
AcDbMText
 10
274.5741586827104
 20
585.709929269172
 30
0.0
 40
8.75
 41
0.0
 71
     5
 72
     1
  1
\A1;70°
 11
0.9290742567433444
 21
-0.3698932622484521
 31
0.0
 73
     1
 44
1.0
  0
POINT
  5
2686
330
266A
100
AcDbEntity
  8
Defpoints
 62
     0
100
AcDbPoint
 10
309.7745708719867
 20
552.2084108521207
 30
0.0
  0
POINT
  5
2687
330
266A
100
AcDbEntity
  8
Defpoints
 62
     0
100
AcDbPoint
 10
232.036351362219
 20
478.8661833746289
 30
0.0
  0
POINT
  5
2688
330
266A
100
AcDbEntity
  8
Defpoints
 62
     0
100
AcDbPoint
 10
428.4329893114398
 20
550.3487136981014
 30
0.0
  0
POINT
  5
2689
330
266A
100
AcDbEntity
  8
Defpoints
 62
     0
100
AcDbPoint
 10
232.036351362219
 20
478.8661833746289
 30
0.0
  0
POINT
  5
268A
330
266A
100
AcDbEntity
  8
Defpoints
 62
     0
100
AcDbPoint
 10
232.036351362219
 20
300.8652466800693
 30
0.0
  0
ENDBLK
  5
2676
330
266A
100
AcDbEntity
  8
0
100
AcDbBlockEnd
  0
ENDSEC
  0
SECTION
  2
ENTITIES
  0
LINE
  5
57
330
1E
100
AcDbEntity
  8
STEMPEL
100
AcDbLine
 10
512.5
 20
137.5
 30
0.0
 11
49.99999999999996
 21
137.5
 31
0.0
  0
LINE
  5
58
330
1E
100
AcDbEntity
  8
STEMPEL
100
AcDbLine
 10
182.5000000000001
 20
137.4999999999999
 30
0.0
 11
182.5
 21
12.49999999999996
 31
0.0
  0
LINE
  5
59
330
1E
100
AcDbEntity
  8
STEMPEL
100
AcDbLine
 10
287.5
 20
137.5
 30
0.0
 11
287.5
 21
12.49999999999996
 31
0.0
  0
LINE
  5
5A
330
1E
100
AcDbEntity
  8
STEMPEL
100
AcDbLine
 10
415.0
 20
137.4999999999997
 30
0.0
 11
415.0
 21
50.0
 31
0.0
  0
LINE
  5
5B
330
1E
100
AcDbEntity
  8
STEMPEL
100
AcDbLine
 10
182.4999999999998
 20
37.49999999999996
 30
0.0
 11
49.99999999999996
 21
37.49999999999996
 31
0.0
  0
LINE
  5
5C
330
1E
100
AcDbEntity
  8
STEMPEL
100
AcDbLine
 10
512.5
 20
50.0
 30
0.0
 11
182.5000000000001
 21
49.99999999999996
 31
0.0
  0
LINE
  5
5D
330
1E
100
AcDbEntity
  8
STEMPEL
100
AcDbLine
 10
512.5
 20
100.0
 30
0.0
 11
182.5000000000001
 21
99.99999999999992
 31
0.0
  0
LINE
  5
5E
330
1E
100
AcDbEntity
  8
VOLL
100
AcDbLine
 10
67.50000000000011
 20
137.5
 30
0.0
 11
67.49999999999997
 21
12.49999999999996
 31
0.0
  0
LINE
  5
5F
330
1E
100
AcDbEntity
  8
VOLL
100
AcDbLine
 10
130.0000000000001
 20
137.4999999999999
 30
0.0
 11
130.0
 21
12.49999999999996
 31
0.0
  0
LINE
  5
60
330
1E
100
AcDbEntity
  8
VOLL
100
AcDbLine
 10
155.0000000000001
 20
137.4999999999999
 30
0.0
 11
155.0
 21
12.49999999999996
 31
0.0
  0
LINE
  5
61
330
1E
100
AcDbEntity
  8
VOLL
100
AcDbLine
 10
205.0000000000002
 20
99.99999999999992
 30
0.0
 11
205.0000000000002
 21
49.99999999999996
 31
0.0
  0
LINE
  5
62
330
1E
100
AcDbEntity
  8
VOLL
100
AcDbLine
 10
237.5000000000001
 20
137.4999999999998
 30
0.0
 11
237.5
 21
49.99999999999996
 31
0.0
  0
LINE
  5
63
330
1E
100
AcDbEntity
  8
HILF
100
AcDbLine
 10
50.0000000000001
 20
125.0
 30
0.0
 11
182.5000000000001
 21
125.0
 31
0.0
  0
LINE
  5
64
330
1E
100
AcDbEntity
  8
HILF
100
AcDbLine
 10
50.0000000000001
 20
112.5
 30
0.0
 11
182.5000000000001
 21
112.5
 31
0.0
  0
LINE
  5
65
330
1E
100
AcDbEntity
  8
HILF
100
AcDbLine
 10
50.0000000000001
 20
99.99999999999992
 30
0.0
 11
182.5000000000001
 21
99.99999999999992
 31
0.0
  0
LINE
  5
66
330
1E
100
AcDbEntity
  8
HILF
100
AcDbLine
 10
50.0000000000001
 20
87.49999999999992
 30
0.0
 11
182.5000000000001
 21
87.49999999999992
 31
0.0
  0
LINE
  5
67
330
1E
100
AcDbEntity
  8
HILF
100
AcDbLine
 10
50.0000000000001
 20
74.99999999999997
 30
0.0
 11
182.5000000000001
 21
74.99999999999997
 31
0.0
  0
LINE
  5
68
330
1E
100
AcDbEntity
  8
HILF
100
AcDbLine
 10
50.0000000000001
 20
62.49999999999996
 30
0.0
 11
182.5000000000001
 21
62.49999999999996
 31
0.0
  0
LINE
  5
69
330
1E
100
AcDbEntity
  8
HILF
100
AcDbLine
 10
50.0000000000001
 20
49.99999999999996
 30
0.0
 11
182.5000000000001
 21
49.99999999999996
 31
0.0
  0
LINE
  5
6A
330
1E
100
AcDbEntity
  8
HILF
100
AcDbLine
 10
182.5000000000001
 20
87.49999999999992
 30
0.0
 11
287.5
 21
87.49999999999992
 31
0.0
  0
LINE
  5
6B
330
1E
100
AcDbEntity
  8
HILF
100
AcDbLine
 10
182.5000000000001
 20
74.99999999999997
 30
0.0
 11
287.5
 21
74.99999999999997
 31
0.0
  0
LINE
  5
6C
330
1E
100
AcDbEntity
  8
HILF
100
AcDbLine
 10
182.5000000000001
 20
62.49999999999996
 30
0.0
 11
287.5
 21
62.49999999999996
 31
0.0
  0
LINE
  5
6D
330
1E
100
AcDbEntity
  8
HILF
100
AcDbLine
 10
293.4671001371185
 20
105.0469780945517
 30
0.0
 11
406.0442395695388
 21
105.0469780945517
 31
0.0
  0
LINE
  5
6E
330
1E
100
AcDbEntity
  8
HILF
100
AcDbLine
 10
293.4671001371185
 20
87.49999999999992
 30
0.0
 11
406.0442395695387
 21
87.49999999999992
 31
0.0
  0
LINE
  5
6F
330
1E
100
AcDbEntity
  8
HILF
100
AcDbLine
 10
293.4671001371185
 20
74.99999999999997
 30
0.0
 11
406.0442395695387
 21
74.99999999999997
 31
0.0
  0
LINE
  5
70
330
1E
100
AcDbEntity
  8
HILF
100
AcDbLine
 10
293.4671001371185
 20
62.49999999999996
 30
0.0
 11
406.0442395695387
 21
62.49999999999996
 31
0.0
  0
LINE
  5
71
330
1E
100
AcDbEntity
  8
VOLL
100
AcDbLine
 10
415.0
 20
75.0
 30
0.0
 11
512.5
 21
75.0
 31
0.0
  0
LINE
  5
72
330
1E
100
AcDbEntity
  8
HILF
100
AcDbLine
 10
420.9048270371241
 20
104.7247954619478
 30
0.0
 11
506.073604915841
 21
104.7247954619478
 31
0.0
  0
LINE
  5
73
330
1E
100
AcDbEntity
  8
HILF
100
AcDbLine
 10
291.8637124112356
 20
18.61747822535392
 30
0.0
 11
506.073604915841
 21
18.61747822535392
 31
0.0
  0
TEXT
  5
74
330
1E
100
AcDbEntity
  8
TEXT
100
AcDbText
 10
84.74387371862629
 20
23.34227368730165
 30
0.0
 40
5.0
  1
Änderung
 41
0.8
  7
GREEKS
 72
     1
 11
98.17244514719773
 21
23.34227368730165
 31
0.0
100
AcDbText
  0
TEXT
  5
75
330
1E
100
AcDbEntity
  8
TEXT
100
AcDbText
 10
191.8954465187971
 20
128.0776118858861
 30
0.0
 40
6.25
  1
Maßstab
 41
0.8
  7
GREEKS
100
AcDbText
  0
TEXT
  5
76
330
1E
100
AcDbEntity
  8
TEXT
100
AcDbText
 10
242.8573693417564
 20
128.0230210543524
 30
0.0
 40
6.25
  1
Zul. Abw.
 41
0.8
  7
GREEKS
100
AcDbText
  0
TEXT
  5
77
330
1E
100
AcDbEntity
  8
TEXT
100
AcDbText
 10
293.5974254761262
 20
128.1861660014724
 30
0.0
 40
6.25
  1
Benennung
 41
0.8
  7
GREEKS
100
AcDbText
  0
TEXT
  5
78
330
1E
100
AcDbEntity
  8
TEXT
100
AcDbText
 10
420.2234436970425
 20
127.891504317142
 30
0.0
 40
6.25
  1
Zeichnungs Nr.
 41
0.8
  7
GREEKS
100
AcDbText
  0
TEXT
  5
79
330
1E
100
AcDbEntity
  8
TEXT
100
AcDbText
 10
293.42779798892
 20
38.55700712741321
 30
0.0
 40
6.25
  1
Bauvorhaben
 41
0.8
  7
GREEKS
100
AcDbText
  0
TEXT
  5
7A
330
1E
100
AcDbEntity
  8
TEXT
100
AcDbText
 10
420.9048270371241
 20
91.47647796374961
 30
0.0
 40
6.25
  1
Ersatz für:
 41
0.8
  7
GREEKS
100
AcDbText
  0
TEXT
  5
7B
330
1E
100
AcDbEntity
  8
TEXT
100
AcDbText
 10
60.33301383807195
 20
17.06832307533989
 30
0.0
 40
5.0
  1
Index
 50
90.0
 41
0.8
  7
GREEKS
100
AcDbText
  0
TEXT
  5
7C
330
1E
100
AcDbEntity
  8
TEXT
100
AcDbText
 10
138.3732649044237
 20
23.33945336674763
 30
0.0
 40
5.0
  1
Tag
 41
0.8
  7
GREEKS
 72
     1
 11
143.0399315710903
 21
23.33945336674763
 31
0.0
100
AcDbText
  0
TEXT
  5
7D
330
1E
100
AcDbEntity
  8
TEXT
100
AcDbText
 10
161.2653430483241
 20
23.2415527120801
 30
0.0
 40
5.0
  1
Name
 41
0.8
  7
GREEKS
 72
     1
 11
169.170104953086
 21
23.2415527120801
 31
0.0
100
AcDbText
  0
TEXT
  5
7E
330
1E
100
AcDbEntity
  8
TEXT
100
AcDbText
 10
215.4139591442064
 20
91.64850626537408
 30
0.0
 40
5.0
  1
Tag
 41
0.8
  7
GREEKS
100
AcDbText
  0
TEXT
  5
7F
330
1E
100
AcDbEntity
  8
TEXT
100
AcDbText
 10
253.0783230282869
 20
91.63701364894031
 30
0.0
 40
5.0
  1
Name
 41
0.8
  7
GREEKS
100
AcDbText
  0
TEXT
  5
80
330
1E
100
AcDbEntity
  8
TEXT
100
AcDbText
 10
184.4795158959519
 20
79.53737962022455
 30
0.0
 40
5.0
  1
Gez.
 41
0.8
  7
GREEKS
100
AcDbText
  0
TEXT
  5
81
330
1E
100
AcDbEntity
  8
TEXT
100
AcDbText
 10
184.439385821459
 20
67.11157864285471
 30
0.0
 40
5.0
  1
Gepr.
 41
0.8
  7
GREEKS
100
AcDbText
  0
TEXT
  5
82
330
1E
100
AcDbEntity
  8
TEXT
100
AcDbText
 10
184.5008471734129
 20
54.41182987062259
 30
0.0
 40
5.0
  1
Norm.
 41
0.8
  7
GREEKS
100
AcDbText
  0
LINE
  5
83
330
1E
100
AcDbEntity
  8
STEMPEL
100
AcDbLine
 10
62.49999999999985
 20
12.5
 30
0.0
 11
512.5
 21
12.5
 31
0.0
  0
TEXT
  5
84
330
1E
100
AcDbEntity
  8
TEXT
100
AcDbText
 10
421.5501076871257
 20
65.09270222348252
 30
0.0
 40
6.25
  1
ersetzt durch:
 41
0.8
  7
GREEKS
100
AcDbText
  0
LINE
  5
85
330
1E
100
AcDbEntity
  8
STEMPEL
100
AcDbLine
 10
512.5
 20
12.5
 30
0.0
 11
49.99999999999985
 21
12.5
 31
0.0
  0
LINE
  5
86
330
1E
100
AcDbEntity
  8
STEMPEL
100
AcDbLine
 10
512.5
 20
12.5
 30
0.0
 11
512.5
 21
730.0
 31
0.0
  0
LINE
  5
87
330
1E
100
AcDbEntity
  8
STEMPEL
100
AcDbLine
 10
50.0
 20
12.5
 30
0.0
 11
49.99999999999985
 21
730.0
 31
0.0
  0
LINE
  5
88
330
1E
100
AcDbEntity
  8
STEMPEL
100
AcDbLine
 10
512.5
 20
730.0
 30
0.0
 11
49.99999999999985
 21
730.0
 31
0.0
  0
LINE
  5
89
330
1E
100
AcDbEntity
  8
HILF
100
AcDbLine
 10
0.0
 20
0.0
 30
0.0
 11
-0.0000000000001421
 21
742.4999999999999
 31
0.0
  0
LINE
  5
8A
330
1E
100
AcDbEntity
  8
HILF
100
AcDbLine
 10
524.9999999999999
 20
742.5000000000002
 30
0.0
 11
0.0
 21
742.4999999999999
 31
0.0
  0
LINE
  5
8B
330
1E
100
AcDbEntity
  8
HILF
100
AcDbLine
 10
525.0
 20
0.0
 30
0.0
 11
0.0
 21
0.0
 31
0.0
  0
LINE
  5
8C
330
1E
100
AcDbEntity
  8
HILF
100
AcDbLine
 10
38.8595891964232
 20
371.2500000000001
 30
0.0
 11
0.0000000000001421
 21
371.2500000000001
 31
0.0
  0
LINE
  5
8E
330
1E
100
AcDbEntity
  8
HILF
100
AcDbLine
 10
525.0
 20
-0.0000000000001421
 30
0.0
 11
524.9999999999999
 21
742.4999999999999
 31
0.0
  0
TEXT
  5
8F
330
1E
100
AcDbEntity
  8
VOLL
100
AcDbText
 10
78.07675471698113
 20
31.02594776470585
 30
0.0
 40
1.8
  1

  7
GREEKS
100
AcDbText
  0
TEXT
  5
90
330
1E
100
AcDbEntity
  8
TEXT
100
AcDbText
 10
52.31887438722093
 20
139.5899999999999
 30
0.0
 40
6.25
  1
Erstellt mit AUTOCAD 2004
 41
0.8
  7
GREEKS
100
AcDbText
  0
TEXT
  5
91
330
1E
100
AcDbEntity
  8
TEXT
100
AcDbText
 10
255.5270060726571
 20
78.86204899654387
 30
0.0
 40
5.0
  1
Koeh
 41
0.8
  7
GREEKS
 72
     1
 11
262.0984346440857
 21
78.86204899654387
 31
0.0
100
AcDbText
  0
TEXT
  5
92
330
1E
100
AcDbEntity
  8
TEXT
 62
     1
100
AcDbText
 10
434.1371925855101
 20
110.1862678614245
 30
0.0
 40
8.75
  1
58031080W
 41
0.8
  7
GREEKS
 72
     1
 11
463.4705259188434
 21
110.1862678614245
 31
0.0
100
AcDbText
  0
TEXT
  5
93
330
1E
100
AcDbEntity
  8
TEXT
 62
     1
100
AcDbText
 10
200.6257883102358
 20
110.1862678614245
 30
0.0
 40
8.75
  1
1:2.5
 41
0.8
  7
GREEKS
100
AcDbText
  0
TEXT
  5
95
330
1E
100
AcDbEntity
  8
TEXT
 62
     1
100
AcDbText
 10
296.1169663821753
 20
109.2718598656722
 30
0.0
 40
8.75
  1
Verbundrohr DN80
 41
0.8
  7
GREEKS
100
AcDbText
  0
TEXT
  5
98
330
1E
100
AcDbEntity
  8
TEXT
100
AcDbText
 10
293.9120488906644
 20
64.55014928802699
 30
0.0
 40
6.25
  1
EDV-Art.Nr. 58031.080X
 41
0.8
  7
GREEKS
100
AcDbText
  0
TEXT
  5
99
330
1E
100
AcDbEntity
  8
TEXT
100
AcDbText
 10
293.7296876972284
 20
53.28717691278291
 30
0.0
 40
5.0
  1
58031080W.DWG
 41
0.8
  7
GREEKS
100
AcDbText
  0
TEXT
  5
9A
330
1E
100
AcDbEntity
  8
TEXT
100
AcDbText
 10
240.782665260105
 20
113.4545480127878
 30
0.0
 40
5.0
  1
DIN EN1123-2
 41
0.8
  7
GREEKS
 72
     1
 11
262.0207604982003
 21
113.4545480127878
 31
0.0
100
AcDbText
  0
INSERT
  5
9B
330
1E
100
AcDbEntity
  8
STEMPEL
100
AcDbBlockReference
  2
LOGO
 10
188.7444356822243
 20
56.27631595560402
 30
0.0
 41
2.5
 42
2.5
 43
2.5
  0
TEXT
  5
2C0
330
1E
100
AcDbEntity
  8
BEM
100
AcDbText
 10
521.6278654821457
 20
12.70987634998576
 30
0.0
 40
5.0
  1
Diese Zeichnung ist urheberrechtlich geschützt und bleibt unser Eigentum. Sie darf weder ganz noch teilweise verfielfältigt und nicht an Dritte weitergegeben werden.
 50
90.0
 41
0.8
  7
GREEKS
100
AcDbText
  0
TEXT
  5
77A
330
1E
100
AcDbEntity
  8
TEXT
100
AcDbText
 10
293.9120488906644
 20
89.55014928802695
 30
0.0
 40
6.25
  1
Bogen 70°
 41
0.8
  7
GREEKS
100
AcDbText
  0
TEXT
  5
78C
330
1E
100
AcDbEntity
  8
TEXT
 62
     1
100
AcDbText
 10
318.7876613940725
 20
162.1777724661328
 30
0.0
 40
8.75
  1
und innenbeschichtet
 41
0.8
  7
GREEKS
100
AcDbText
  0
TEXT
  5
78D
330
1E
100
AcDbEntity
  8
TEXT
 62
     1
100
AcDbText
 10
249.8514869931839
 20
146.4342282344052
 30
0.0
 40
8.75
  1
Dämmung: 2 K-PU-Schaum
 41
0.8
  7
GREEKS
100
AcDbText
  0
TEXT
  5
78E
330
1E
100
AcDbEntity
  8
TEXT
 62
     1
100
AcDbText
 10
259.2195002990553
 20
176.264089765165
 30
0.0
 40
8.75
  1
Innenrohr: E195 EN10305 feuerverzinkt
 41
0.8
  7
GREEKS
100
AcDbText
  0
TEXT
  5
78F
330
1E
100
AcDbEntity
  8
TEXT
 62
     1
100
AcDbText
 10
254.5042285854753
 20
190.4554248106087
 30
0.0
 40
8.75
  1
Außenrohr: E195 EN10305 feuerverzinkt
 41
0.8
  7
GREEKS
100
AcDbText
  0
TEXT
  5
188F
330
1E
100
AcDbEntity
  8
TEXT
 62
     1
100
AcDbText
 10
302.7027527764936
 20
327.3812570237748
 30
0.0
 40
8.75
  1
Rohrende leicht eingezogen
 41
0.8
  7
GREEKS
100
AcDbText
  0
ARC
  5
2173
102
{ACAD_REACTORS
330
250F
102
}
330
1E
100
AcDbEntity
  8
STEMPEL
100
AcDbCircle
 10
365.536351362219
 20
385.3884770236327
 30
0.0
 40
89.0
100
AcDbArc
 50
110.0000000000026
 51
180.0
  0
ARC
  5
2174
102
{ACAD_REACTORS
330
250F
102
}
330
1E
100
AcDbEntity
  8
STEMPEL
100
AcDbCircle
 10
365.536351362219
 20
385.3884770236327
 30
0.0
 40
178.0
100
AcDbArc
 50
110.0000000000026
 51
180.0
  0
ARC
  5
2176
330
1E
100
AcDbEntity
  8
MITTEL
100
AcDbCircle
 10
365.536351362219
 20
385.3884770236327
 30
0.0
 40
133.5
100
AcDbArc
 50
110.0000000000026
 51
180.0
  0
LINE
  5
217A
330
1E
100
AcDbEntity
  8
MITTEL
100
AcDbLine
 10
232.036351362219
 20
478.866183374629
 30
0.0
 11
232.036351362219
 21
300.8652466800693
 31
0.0
  0
LINE
  5
2192
330
1E
100
AcDbEntity
  8
MITTEL
100
AcDbLine
 10
428.4329893114398
 20
550.3487136981013
 30
0.0
 11
232.036351362219
 21
478.866183374629
 31
0.0
  0
LINE
  5
2210
102
{ACAD_REACTORS
330
250F
102
}
330
1E
100
AcDbEntity
  8
STEMPEL
100
AcDbLine
 10
274.9363513622189
 20
386.1784770236327
 30
0.0
 11
274.9363513622191
 21
312.6198372670784
 31
0.0
  0
LINE
  5
2211
102
{ACAD_REACTORS
330
250F
102
}
330
1E
100
AcDbEntity
  8
STEMPEL
100
AcDbLine
 10
276.536351362219
 20
386.1784770236328
 30
0.0
 11
276.536351362219
 21
312.4939162126214
 31
0.0
  0
LINE
  5
2212
330
1E
100
AcDbEntity
  8
STEMPEL
100
AcDbLine
 10
281.036351362219
 20
361.8652466800693
 30
0.0
 11
276.5363513622187
 21
361.8652466800693
 31
0.0
  0
LINE
  5
2213
330
1E
100
AcDbEntity
  8
STEMPEL
100
AcDbLine
 10
296.036351362219
 20
355.8652466800693
 30
0.0
 11
295.5474180437562
 21
369.8664650260312
 31
0.0
  0
LINE
  5
2214
330
1E
100
AcDbEntity
  8
STEMPEL
100
AcDbLine
 10
295.5474180437562
 20
369.8664650260312
 30
0.0
 11
293.477619050351
 21
371.8652466800693
 31
0.0
  0
LINE
  5
2215
102
{ACAD_REACTORS
330
2521
102
}
330
1E
100
AcDbEntity
  8
STEMPEL
100
AcDbLine
 10
298.536351362219
 20
355.8652466800693
 30
0.0
 11
296.036351362219
 21
355.8652466800693
 31
0.0
  0
LINE
  5
2216
330
1E
100
AcDbEntity
  8
STEMPEL
100
AcDbLine
 10
293.477619050351
 20
371.8652466800693
 30
0.0
 11
276.536351362219
 21
371.8652466800693
 31
0.0
  0
LINE
  5
2218
102
{ACAD_REACTORS
330
2521
102
}
330
1E
100
AcDbEntity
  8
STEMPEL
100
AcDbLine
 10
298.5363513622191
 20
406.5134958785245
 30
0.0
 11
298.536351362219
 21
353.8652466800694
 31
0.0
  0
LINE
  5
2219
102
{ACAD_REACTORS
330
2521
102
}
330
1E
100
AcDbEntity
  8
STEMPEL
100
AcDbLine
 10
296.036351362219
 20
407.301742850722
 30
0.0
 11
296.036351362219
 21
355.8652466800693
 31
0.0
  0
DIMENSION
  5
221A
330
1E
100
AcDbEntity
  8
BEM
100
AcDbDimension
  2
*D2
 10
149.3593332687716
 20
305.8652466800693
 30
0.0
 11
141.2343332687715
 21
330.8652466800694
 31
0.0
 70
    32
 71
     5
 42
50.0
  3
Standard
100
AcDbAlignedDimension
 13
165.5363513622189
 23
355.8652466800693
 33
0.0
 14
188.5862153245301
 24
305.8652466800693
 34
0.0
 50
90.0
100
AcDbRotatedDimension
1001
ACAD
1000
DSTYLE
1002
{
1070
    40
1040
2.5
1070
    41
1040
3.5
1070
    42
1040
1.0
1070
    43
1040
7.0
1070
    44
1040
1.0
1070
    73
1070
     0
1070
    74
1070
     0
1070
    77
1070
     1
1070
    78
1070
     8
1070
    79
1070
     2
1070
   140
1040
3.5
1070
   141
1040
1.5
1070
   146
1040
0.5142857142857144
1070
   147
1040
1.5
1070
   172
1070
     1
1070
   178
1070
     1
1070
   179
1070
     2
1070
   271
1070
     2
1070
   272
1070
     2
1070
   284
1070
     8
1070
   285
1070
     8
1070
   286
1070
     8
1002
}
  0
LINE
  5
221B
330
1E
100
AcDbEntity
  8
STEMPEL
100
AcDbLine
 10
168.0363513622192
 20
355.8652466800693
 30
0.0
 11
168.525284680682
 21
369.8664650260312
 31
0.0
  0
LINE
  5
221C
330
1E
100
AcDbEntity
  8
STEMPEL
100
AcDbLine
 10
168.525284680682
 20
369.8664650260312
 30
0.0
 11
170.5950836740869
 21
371.8652466800693
 31
0.0
  0
LINE
  5
221D
102
{ACAD_REACTORS
330
2521
102
}
330
1E
100
AcDbEntity
  8
STEMPEL
100
AcDbLine
 10
165.5363513622189
 20
448.448234799429
 30
0.0
 11
165.536351362219
 21
353.8652466800694
 31
0.0
  0
LINE
  5
221E
102
{ACAD_REACTORS
330
2521
102
}
330
1E
100
AcDbEntity
  8
STEMPEL
100
AcDbLine
 10
168.0363513622188
 20
447.6599878272316
 30
0.0
 11
168.0363513622189
 21
355.8652466800693
 31
0.0
  0
LINE
  5
2220
330
1E
100
AcDbEntity
  8
STEMPEL
100
AcDbLine
 10
183.0363513622192
 20
361.8652466800693
 30
0.0
 11
187.5363513622192
 21
361.8652466800693
 31
0.0
  0
LINE
  5
2221
102
{ACAD_REACTORS
330
250F
102
}
330
1E
100
AcDbEntity
  8
STEMPEL
100
AcDbLine
 10
187.5363513622191
 20
386.1784770236326
 30
0.0
 11
187.5363513622191
 21
312.4939162126207
 31
0.0
  0
LINE
  5
2222
102
{ACAD_REACTORS
330
250F
102
}
330
1E
100
AcDbEntity
  8
STEMPEL
100
AcDbLine
 10
189.1363513622191
 20
386.1784770236327
 30
0.0
 11
189.1363513622191
 21
312.6198372670777
 31
0.0
  0
LINE
  5
2223
330
1E
100
AcDbEntity
  8
STEMPEL
100
AcDbLine
 10
170.5950836740869
 20
371.8652466800693
 30
0.0
 11
187.5363513622192
 21
371.8652466800693
 31
0.0
  0
LINE
  5
2224
102
{ACAD_REACTORS
330
2521
102
}
330
1E
100
AcDbEntity
  8
STEMPEL
100
AcDbLine
 10
168.0363513622189
 20
355.8652466800692
 30
0.0
 11
165.5363513622189
 21
355.8652466800693
 31
0.0
  0
LINE
  5
2226
330
1E
100
AcDbEntity
  8
HILF
100
AcDbLine
 10
273.2964640284119
 20
312.4939162126206
 30
0.0
 11
190.7762386960261
 21
312.4939162126206
 31
0.0
  0
POINT
  5
2227
330
1E
100
AcDbEntity
  8
STEMPEL
100
AcDbPoint
 10
275.4864873999079
 20
305.8652466800693
 30
0.0
  0
LINE
  5
2228
102
{ACAD_REACTORS
330
250F
102
}
330
1E
100
AcDbEntity
  8
STEMPEL
100
AcDbLine
 10
275.4864873999078
 20
305.8652466800693
 30
0.0
 11
188.5862153245301
 21
305.8652466800693
 31
0.0
  0
DIMENSION
  5
2229
330
1E
100
AcDbEntity
  8
BEM
100
AcDbDimension
  2
*D1
 10
276.536351362219
 20
283.5208043703588
 30
0.0
 11
232.036351362219
 21
291.6458043703589
 31
0.0
 70
    32
  1
%%C<>
 71
     5
 42
88.99999999999989
  3
Standard
100
AcDbAlignedDimension
 13
187.5363513622191
 23
312.4939162126207
 33
0.0
 14
276.536351362219
 24
312.4939162126214
 34
0.0
 50
180.0
100
AcDbRotatedDimension
1001
ACAD
1000
DSTYLE
1002
{
1070
    40
1040
2.5
1070
    41
1040
3.5
1070
    42
1040
1.0
1070
    43
1040
7.0
1070
    44
1040
1.0
1070
    73
1070
     0
1070
    74
1070
     0
1070
    77
1070
     1
1070
    78
1070
     8
1070
    79
1070
     2
1070
   140
1040
3.5
1070
   141
1040
1.5
1070
   146
1040
0.5142857142857144
1070
   147
1040
1.5
1070
   172
1070
     1
1070
   178
1070
     1
1070
   179
1070
     2
1070
   271
1070
     2
1070
   272
1070
     2
1070
   284
1070
     8
1070
   285
1070
     8
1070
   286
1070
     8
1002
}
  0
LINE
  5
222A
102
{ACAD_REACTORS
330
250F
102
}
330
1E
100
AcDbEntity
  8
STEMPEL
100
AcDbLine
 10
276.536351362219
 20
312.4939162126214
 30
0.0
 11
275.4864873999078
 21
305.8652466800693
 31
0.0
  0
LINE
  5
222B
102
{ACAD_REACTORS
330
250F
102
}
330
1E
100
AcDbEntity
  8
STEMPEL
100
AcDbLine
 10
274.9363513622191
 20
312.6198372670784
 30
0.0
 11
273.8665437330044
 21
305.8652466800693
 31
0.0
  0
LINE
  5
222C
102
{ACAD_REACTORS
330
250F
102
}
330
1E
100
AcDbEntity
  8
STEMPEL
100
AcDbLine
 10
187.5363513622191
 20
312.4939162126207
 30
0.0
 11
188.5862153245301
 21
305.8652466800693
 31
0.0
  0
LINE
  5
222D
102
{ACAD_REACTORS
330
250F
102
}
330
1E
100
AcDbEntity
  8
STEMPEL
100
AcDbLine
 10
189.1363513622191
 20
312.6198372670777
 30
0.0
 11
190.2061589914337
 21
305.8652466800693
 31
0.0
  0
ARC
  5
2285
102
{ACAD_REACTORS
330
250F
102
}
330
1E
100
AcDbEntity
  8
STEMPEL
100
AcDbCircle
 10
365.536351362219
 20
385.3884770236327
 30
0.0
 40
90.6
100
AcDbArc
 50
110.0000000000026
 51
180.0
  0
ARC
  5
2286
102
{ACAD_REACTORS
330
250F
102
}
330
1E
100
AcDbEntity
  8
STEMPEL
100
AcDbCircle
 10
365.536351362219
 20
385.3884770236327
 30
0.0
 40
176.4
100
AcDbArc
 50
110.0000000000026
 51
180.0
  0
TEXT
  5
2287
330
1E
100
AcDbEntity
  8
TEXT
 62
     1
100
AcDbText
 10
332.7511993786226
 20
537.9908985817117
 30
0.0
 40
7.0
  1
DN80
 50
20.00000000000001
 41
0.8
  7
GREEKS
100
AcDbText
  0
LINE
  5
2288
102
{ACAD_REACTORS
330
23AA
102
}
330
1E
100
AcDbEntity
  8
STEMPEL
100
AcDbLine
 10
389.783934690444
 20
603.9058582469778
 30
0.0
 11
389.1987709792028
 21
602.5915590327758
 31
0.0
  0
LINE
  5
2289
102
{ACAD_REACTORS
330
23AA
102
}
330
1E
100
AcDbEntity
  8
STEMPEL
100
AcDbLine
 10
401.8452370346673
 20
608.7789407117709
 30
0.0
 11
389.783934690444
 21
603.9058582469778
 31
0.0
  0
LINE
  5
228A
102
{ACAD_REACTORS
330
23AA
330
250F
102
}
330
1E
100
AcDbEntity
  8
STEMPEL
100
AcDbLine
 10
407.3977956561521
 20
593.523411279044
 30
0.0
 11
404.9704317447539
 21
593.7357781035434
 31
0.0
  0
LINE
  5
228B
102
{ACAD_REACTORS
330
250F
102
}
330
1E
100
AcDbEntity
  8
STEMPEL
100
AcDbLine
 10
408.0015996145292
 20
591.8644735376248
 30
0.0
 11
404.8309825563577
 21
592.1418665865965
 31
0.0
  0
ARC
  5
228C
102
{ACAD_REACTORS
330
250F
102
}
330
1E
100
AcDbEntity
  8
STEMPEL
100
AcDbCircle
 10
396.3598911995258
 20
566.4501005262861
 30
0.0
 40
25.00009324312574
100
AcDbArc
 50
109.8435140456689
 51
135.2111779316821
  0
ARC
  5
228D
102
{ACAD_REACTORS
330
250F
102
}
330
1E
100
AcDbEntity
  8
STEMPEL
100
AcDbCircle
 10
396.3598911995258
 20
566.4501005262861
 30
0.0
 40
23.40009324312573
100
AcDbArc
 50
109.8435140456689
 51
135.2111779316851
  0
LINE
  5
228E
102
{ACAD_REACTORS
330
23AA
330
250F
102
}
330
1E
100
AcDbEntity
  8
STEMPEL
100
AcDbLine
 10
394.4127049473503
 20
592.3458270018199
 30
0.0
 11
387.7452253589526
 21
589.9190628940657
 31
0.0
  0
LINE
  5
228F
102
{ACAD_REACTORS
330
250F
102
}
330
1E
100
AcDbEntity
  8
STEMPEL
100
AcDbLine
 10
394.9599371766711
 20
590.8423188085625
 30
0.0
 11
388.2924575882734
 21
588.4155547008083
 31
0.0
  0
ARC
  5
2290
102
{ACAD_REACTORS
330
250F
102
}
330
1E
100
AcDbEntity
  8
STEMPEL
100
AcDbCircle
 10
370.1412634082236
 20
592.5572558048905
 30
0.0
 40
12.0
100
AcDbArc
 50
290.0
 51
315.1220601866324
  0
ARC
  5
2291
102
{ACAD_REACTORS
330
250F
102
}
330
1E
100
AcDbEntity
  8
STEMPEL
100
AcDbCircle
 10
370.1412634082236
 20
592.5572558048905
 30
0.0
 40
13.6
100
AcDbArc
 50
290.0
 51
315.1220601866353
  0
ARC
  5
2292
102
{ACAD_REACTORS
330
23AA
330
250F
102
}
330
1E
100
AcDbEntity
  8
STEMPEL
100
AcDbCircle
 10
402.8264004731619
 20
569.2293885304866
 30
0.0
 40
24.6
100
AcDbArc
 50
85.0000000000036
 51
110.0
  0
ARC
  5
2293
102
{ACAD_REACTORS
330
250F
102
}
330
1E
100
AcDbEntity
  8
STEMPEL
100
AcDbCircle
 10
402.8264004731619
 20
569.2293885304866
 30
0.0
 40
23.0
100
AcDbArc
 50
85.00000000000655
 51
110.0
  0
ARC
  5
2294
102
{ACAD_REACTORS
330
250F
102
}
330
1E
100
AcDbEntity
  8
STEMPEL
100
AcDbCircle
 10
344.4103388894983
 20
575.6363029953452
 30
0.0
 40
8.0
100
AcDbArc
 50
290.0
 51
322.3280641221609
  0
ARC
  5
2295
102
{ACAD_REACTORS
330
250F
102
}
330
1E
100
AcDbEntity
  8
STEMPEL
100
AcDbCircle
 10
344.4103388894983
 20
575.6363029953452
 30
0.0
 40
9.599999999999999
100
AcDbArc
 50
290.0
 51
322.3280641221609
  0
ARC
  5
2296
102
{ACAD_REACTORS
330
250F
102
}
330
1E
100
AcDbEntity
  8
STEMPEL
100
AcDbCircle
 10
360.240798307843
 20
563.4135146635388
 30
0.0
 40
10.4
100
AcDbArc
 50
110.0
 51
142.3280641221609
  0
ARC
  5
2297
102
{ACAD_REACTORS
330
250F
102
}
330
1E
100
AcDbEntity
  8
STEMPEL
100
AcDbCircle
 10
360.240798307843
 20
563.4135146635388
 30
0.0
 40
12.0
100
AcDbArc
 50
110.0
 51
142.3280641221609
  0
LINE
  5
2298
102
{ACAD_REACTORS
330
250F
102
}
330
1E
100
AcDbEntity
  8
STEMPEL
100
AcDbLine
 10
374.2455051281317
 20
581.2809443554599
 30
0.0
 11
356.1365565879345
 21
574.6898261129697
 31
0.0
  0
LINE
  5
2299
102
{ACAD_REACTORS
330
250F
102
}
330
1E
100
AcDbEntity
  8
STEMPEL
100
AcDbLine
 10
374.7927373574529
 20
579.7774361622025
 30
0.0
 11
356.6837888172557
 21
573.1863179197124
 31
0.0
  0
LINE
  5
229A
102
{ACAD_REACTORS
330
23AA
330
250F
102
}
330
1E
100
AcDbEntity
  8
STEMPEL
100
AcDbLine
 10
440.0712567588683
 20
503.7538146839017
 30
0.0
 11
438.3482948866111
 21
502.0308528116443
 31
0.0
  0
LINE
  5
229B
102
{ACAD_REACTORS
330
250F
102
}
330
1E
100
AcDbEntity
  8
STEMPEL
100
AcDbLine
 10
439.4674528004911
 20
505.4127524253212
 30
0.0
 11
437.2169240367128
 21
503.1622236615428
 31
0.0
  0
ARC
  5
229C
102
{ACAD_REACTORS
330
250F
102
}
330
1E
100
AcDbEntity
  8
STEMPEL
100
AcDbCircle
 10
414.2133426811255
 20
517.3981457212619
 30
0.0
 40
25.00009324312574
100
AcDbArc
 50
264.7888220683149
 51
290.1564859543311
  0
ARC
  5
229D
102
{ACAD_REACTORS
330
250F
102
}
330
1E
100
AcDbEntity
  8
STEMPEL
100
AcDbCircle
 10
414.2133426811255
 20
517.3981457212619
 30
0.0
 40
23.40009324312573
100
AcDbArc
 50
264.7888220683149
 51
290.1564859543311
  0
LINE
  5
229E
102
{ACAD_REACTORS
330
23AA
330
250F
102
}
330
1E
100
AcDbEntity
  8
STEMPEL
100
AcDbLine
 10
429.3671635952335
 20
496.3092411575001
 30
0.0
 11
422.6996840068357
 21
493.8824770497459
 31
0.0
  0
LINE
  5
229F
102
{ACAD_REACTORS
330
250F
102
}
330
1E
100
AcDbEntity
  8
STEMPEL
100
AcDbLine
 10
428.8199313659123
 20
497.8127493507574
 30
0.0
 11
422.1524517775145
 21
495.3859852430032
 31
0.0
  0
ARC
  5
22A0
102
{ACAD_REACTORS
330
250F
102
}
330
1E
100
AcDbEntity
  8
STEMPEL
100
AcDbCircle
 10
410.9100644926435
 20
480.5458954072105
 30
0.0
 40
12.0
100
AcDbArc
 50
84.87793981336464
 51
110.0
  0
ARC
  5
22A1
102
{ACAD_REACTORS
330
250F
102
}
330
1E
100
AcDbEntity
  8
STEMPEL
100
AcDbCircle
 10
410.9100644926435
 20
480.5458954072105
 30
0.0
 40
13.6
100
AcDbArc
 50
84.87793981336464
 51
110.0
  0
ARC
  5
22A2
102
{ACAD_REACTORS
330
250F
102
}
330
1E
100
AcDbEntity
  8
STEMPEL
100
AcDbCircle
 10
420.9534680694222
 20
519.4256796288333
 30
0.0
 40
23.0
100
AcDbArc
 50
290.0
 51
314.9999999999935
  0
ARC
  5
22A3
102
{ACAD_REACTORS
330
23AA
330
250F
102
}
330
1E
100
AcDbEntity
  8
STEMPEL
100
AcDbCircle
 10
420.9534680694222
 20
519.4256796288333
 30
0.0
 40
24.6
100
AcDbArc
 50
290.0
 51
314.9999999999935
  0
ARC
  5
22A4
102
{ACAD_REACTORS
330
250F
102
}
330
1E
100
AcDbEntity
  8
STEMPEL
100
AcDbCircle
 10
384.5926325126305
 20
496.5074000635822
 30
0.0
 40
12.0
100
AcDbArc
 50
257.6719358778392
 51
290.0
  0
ARC
  5
22A5
102
{ACAD_REACTORS
330
250F
102
}
330
1E
100
AcDbEntity
  8
STEMPEL
100
AcDbCircle
 10
380.3224539386935
 20
476.9685778128249
 30
0.0
 40
8.0
100
AcDbArc
 50
77.67193587783918
 51
110.0
  0
ARC
  5
22A6
102
{ACAD_REACTORS
330
250F
102
}
330
1E
100
AcDbEntity
  8
STEMPEL
100
AcDbCircle
 10
384.5926325126305
 20
496.5074000635822
 30
0.0
 40
10.4
100
AcDbArc
 50
257.6719358778392
 51
290.0
  0
POINT
  5
22A7
330
1E
100
AcDbEntity
  8
STEMPEL
100
AcDbPoint
 10
383.1960315196883
 20
484.5889477451594
 30
0.0
  0
ARC
  5
22A8
102
{ACAD_REACTORS
330
250F
102
}
330
1E
100
AcDbEntity
  8
STEMPEL
100
AcDbCircle
 10
380.3224539386935
 20
476.9685778128249
 30
0.0
 40
9.599999999999999
100
AcDbArc
 50
77.67193587783918
 51
110.0
  0
LINE
  5
22A9
102
{ACAD_REACTORS
330
250F
102
}
330
1E
100
AcDbEntity
  8
STEMPEL
100
AcDbLine
 10
406.8058227727354
 20
491.8222068566414
 30
0.0
 11
388.6968742325383
 21
485.2310886141514
 31
0.0
  0
LINE
  5
22AA
102
{ACAD_REACTORS
330
250F
102
}
330
1E
100
AcDbEntity
  8
STEMPEL
100
AcDbLine
 10
406.2585905434142
 20
493.3257150498991
 30
0.0
 11
388.1496420032173
 21
486.7345968074089
 31
0.0
  0
LINE
  5
22AB
102
{ACAD_REACTORS
330
23AA
102
}
330
1E
100
AcDbEntity
  8
STEMPEL
100
AcDbLine
 10
433.251964713433
 20
484.4784272906401
 30
0.0
 11
431.9588880538121
 21
485.1091029170508
 31
0.0
  0
LINE
  5
22AC
102
{ACAD_REACTORS
330
23AA
102
}
330
1E
100
AcDbEntity
  8
STEMPEL
100
AcDbLine
 10
445.6238153803529
 20
488.4982852511748
 30
0.0
 11
433.251964713433
 21
484.4784272906401
 31
0.0
  0
LINE
  5
22AD
102
{ACAD_REACTORS
330
23AA
102
}
330
1E
100
AcDbEntity
  8
STEMPEL
100
AcDbLine
 10
431.9588880538121
 20
485.1091029170508
 30
0.0
 11
428.056058840449
 21
495.8320380527537
 31
0.0
  0
LINE
  5
22AE
330
1E
100
AcDbEntity
  8
HILF
100
AcDbLine
 10
408.2409232951539
 20
495.5097079316931
 30
0.0
 11
377.7151359103967
 21
579.3786194823867
 31
0.0
  0
LINE
  5
22AF
330
1E
100
AcDbEntity
  8
HILF
100
AcDbLine
 10
384.2379127703129
 20
487.7145521799659
 30
0.0
 11
354.3171335469291
 21
569.9212174687
 31
0.0
  0
LINE
  5
22B0
330
1E
100
AcDbEntity
  8
HILF
100
AcDbLine
 10
378.6611200131232
 20
488.0446768367479
 30
0.0
 11
350.2572624838887
 21
566.0836340237255
 31
0.0
  0
LINE
  5
22B2
102
{ACAD_REACTORS
330
23AA
330
250F
330
252A
102
}
330
1E
100
AcDbEntity
  8
STEMPEL
100
AcDbLine
 10
446.4788657386669
 20
486.14905369921
 30
0.0
 11
400.9901866763533
 21
611.1281722637358
 31
0.0
  0
DIMENSION
  5
22B3
330
1E
100
AcDbEntity
  8
BEM
100
AcDbDimension
  2
*D3
 10
462.4328432791063
 20
491.9558266420805
 30
0.0
 11
447.3235062918385
 21
557.2242995888652
 31
0.0
 70
    32
  1
%%c<>
 71
     5
 42
132.9999999999999
  3
Standard
100
AcDbAlignedDimension
 13
400.9901866763533
 23
611.1281722637358
 33
0.0
 14
446.4788657386669
 24
486.14905369921
 34
0.0
 50
109.9999999999966
100
AcDbRotatedDimension
1001
ACAD
1000
DSTYLE
1002
{
1070
    40
1040
2.5
1070
    41
1040
3.5
1070
    42
1040
1.0
1070
    43
1040
7.0
1070
    44
1040
1.0
1070
    73
1070
     0
1070
    74
1070
     0
1070
    77
1070
     1
1070
    78
1070
     8
1070
    79
1070
     2
1070
   140
1040
3.5
1070
   141
1040
1.5
1070
   146
1040
0.5142857142857144
1070
   147
1040
1.5
1070
   172
1070
     1
1070
   178
1070
     1
1070
   179
1070
     2
1070
   271
1070
     2
1070
   272
1070
     2
1070
   284
1070
     8
1070
   285
1070
     8
1070
   286
1070
     8
1002
}
  0
LINE
  5
22B4
102
{ACAD_REACTORS
330
23AA
102
}
330
1E
100
AcDbEntity
  8
STEMPEL
100
AcDbLine
 10
393.1016001925658
 20
591.8686238970734
 30
0.0
 11
389.1987709792028
 21
602.5915590327758
 31
0.0
  0
LINE
  5
22B6
102
{ACAD_REACTORS
330
252A
102
}
330
1E
100
AcDbEntity
  8
STEMPEL
100
AcDbLine
 10
400.9901866763533
 20
611.1281722637358
 30
0.0
 11
237.875533646622
 21
551.7592937882541
 31
0.0
  0
LINE
  5
22B7
102
{ACAD_REACTORS
330
252A
102
}
330
1E
100
AcDbEntity
  8
STEMPEL
100
AcDbLine
 10
401.845237034667
 20
608.7789407117711
 30
0.0
 11
239.4712938680669
 21
549.6796585786963
 31
0.0
  0
LINE
  5
22B8
102
{ACAD_REACTORS
330
252A
102
}
330
1E
100
AcDbEntity
  8
STEMPEL
100
AcDbLine
 10
446.4788657386669
 20
486.14905369921
 30
0.0
 11
322.769977427494
 21
441.1227006397806
 31
0.0
  0
LINE
  5
22B9
102
{ACAD_REACTORS
330
252A
102
}
330
1E
100
AcDbEntity
  8
STEMPEL
100
AcDbLine
 10
445.6238153803529
 20
488.4982852511748
 30
0.0
 11
321.1742172060491
 21
443.2023358493386
 31
0.0
  0
LINE
  5
22BA
102
{ACAD_REACTORS
330
250F
102
}
330
1E
100
AcDbEntity
  8
STEMPEL
100
AcDbLine
 10
377.5862927920879
 20
484.4861187791122
 30
0.0
 11
335.2938940565995
 21
469.0929445036768
 31
0.0
  0
LINE
  5
22BB
102
{ACAD_REACTORS
330
250F
102
}
330
1E
100
AcDbEntity
  8
STEMPEL
100
AcDbLine
 10
377.0390605627666
 20
485.9896269723697
 30
0.0
 11
334.7466618272782
 21
470.5964526969341
 31
0.0
  0
LINE
  5
22BC
102
{ACAD_REACTORS
330
250F
102
}
330
1E
100
AcDbEntity
  8
STEMPEL
100
AcDbLine
 10
347.1465000361035
 20
568.1187620290581
 30
0.0
 11
304.8541013006151
 21
552.7255877536227
 31
0.0
  0
LINE
  5
22BD
102
{ACAD_REACTORS
330
250F
102
}
330
1E
100
AcDbEntity
  8
STEMPEL
100
AcDbLine
 10
347.6937322654245
 20
566.6152538358005
 30
0.0
 11
305.4013335299359
 21
551.222079560365
 31
0.0
  0
LINE
  5
233B
102
{ACAD_REACTORS
330
2518
102
}
330
1E
100
AcDbEntity
  8
STEMPEL
100
AcDbLine
 10
321.1742172060491
 20
443.2023358493386
 30
0.0
 11
296.036351362219
 21
407.301742850722
 31
0.0
  0
LINE
  5
233C
102
{ACAD_REACTORS
330
2518
102
}
330
1E
100
AcDbEntity
  8
STEMPEL
100
AcDbLine
 10
322.769977427494
 20
441.1227006397806
 30
0.0
 11
298.5363513622191
 21
406.5134958785245
 31
0.0
  0
LINE
  5
233D
330
1E
100
AcDbEntity
  8
MITTEL
100
AcDbLine
 10
280.3227555370582
 20
496.4409972140177
 30
0.0
 11
232.036351362219
 21
427.480865338977
 31
0.0
  0
LINE
  5
233E
102
{ACAD_REACTORS
330
2518
102
}
330
1E
100
AcDbEntity
  8
STEMPEL
100
AcDbLine
 10
239.4712938680669
 20
549.6796585786963
 30
0.0
 11
168.0363513622187
 21
447.6599878272314
 31
0.0
  0
LINE
  5
233F
102
{ACAD_REACTORS
330
2518
102
}
330
1E
100
AcDbEntity
  8
STEMPEL
100
AcDbLine
 10
237.875533646622
 20
551.7592937882541
 30
0.0
 11
165.5363513622189
 21
448.4482347994291
 31
0.0
  0
LINE
  5
2340
102
{ACAD_REACTORS
330
2518
330
252A
102
}
330
1E
100
AcDbEntity
  8
STEMPEL
100
AcDbLine
 10
322.769977427494
 20
441.1227006397806
 30
0.0
 11
321.1742172060491
 21
443.2023358493384
 31
0.0
  0
LINE
  5
2341
102
{ACAD_REACTORS
330
2518
330
2521
102
}
330
1E
100
AcDbEntity
  8
STEMPEL
100
AcDbLine
 10
298.5363513622191
 20
406.5134958785245
 30
0.0
 11
296.0363513622188
 21
407.3017428507219
 31
0.0
  0
LINE
  5
2342
102
{ACAD_REACTORS
330
2518
330
2521
102
}
330
1E
100
AcDbEntity
  8
STEMPEL
100
AcDbLine
 10
168.0363513622191
 20
447.6599878272316
 30
0.0
 11
165.5363513622189
 21
448.4482347994291
 31
0.0
  0
LINE
  5
2343
102
{ACAD_REACTORS
330
2518
330
252A
102
}
330
1E
100
AcDbEntity
  8
STEMPEL
100
AcDbLine
 10
239.4712938680672
 20
549.6796585786965
 30
0.0
 11
237.875533646622
 21
551.7592937882541
 31
0.0
  0
HATCH
  5
23AA
330
1E
100
AcDbEntity
  8
SCHRAFF
100
AcDbHatch
 10
0.0
 20
0.0
 30
0.0
210
0.0
220
0.0
230
1.0
  2
NET
 70
     0
 71
     1
 91
        2
 92
        7
 72
     1
 73
     1
 93
        7
 10
401.8452370346674
 20
608.7789407117709
 42
0.0
 10
389.7839346904439
 20
603.9058582469778
 42
0.0
 10
389.1987709792028
 20
602.591559032776
 42
0.0
 10
393.1016001925657
 20
591.8686238970734
 42
0.0
 10
394.4127049473503
 20
592.3458270018199
 42
-0.1095178116832385
 10
404.9704317447539
 20
593.7357781035434
 42
0.0
 10
407.3977956561521
 20
593.5234112790441
 42
0.0
 97
        7
330
2289
330
2288
330
22B4
330
228E
330
2292
330
228A
330
22B2
 92
        7
 72
     1
 73
     1
 93
        7
 10
429.3671635952336
 20
496.3092411575001
 42
0.0
 10
428.056058840449
 20
495.8320380527535
 42
0.0
 10
431.9588880538121
 20
485.1091029170507
 42
0.0
 10
433.251964713433
 20
484.4784272906401
 42
0.0
 10
445.6238153803528
 20
488.4982852511749
 42
0.0
 10
440.0712567588683
 20
503.7538146839017
 42
0.0
 10
438.3482948866111
 20
502.0308528116443
 42
-0.1095178116832393
 97
        7
330
229A
330
22A3
330
229E
330
22AD
330
22AB
330
22AC
330
22B2
 75
     0
 76
     1
 52
75.0
 41
15.0
 77
     0
 78
     2
 53
75.0
 43
-478.0699246600311
 44
23.66474543041227
 45
-1.811110924292003
 46
0.4852857095672264
 79
     0
 53
165.0
 43
-478.0699246600311
 44
23.66474543041227
 45
-0.4852857095672265
 46
-1.811110924292003
 79
     0
 47
1.479046555310496
 98
        2
 10
398.9882254755216
 20
599.7757396158972
 10
434.5104465296704
 20
496.2424814190821
  0
HATCH
  5
250F
330
1E
100
AcDbEntity
  8
SCHRAFF
100
AcDbHatch
 10
0.0
 20
0.0
 30
0.0
210
0.0
220
0.0
230
1.0
  2
_USER
 70
     0
 71
     1
 91
        2
 92
        7
 72
     1
 73
     1
 93
       26
 10
274.9363513622191
 20
312.6198372670785
 42
0.0
 10
273.8665437330044
 20
305.8652466800693
 42
0.0
 10
275.4864873999078
 20
305.8652466800693
 42
0.0
 10
276.536351362219
 20
312.4939162126219
 42
0.0
 10
276.536351362219
 20
385.3884770236327
 42
-0.3152987888789825
 10
335.0965586062343
 20
469.0211202735783
 42
0.0
 10
377.5862927920879
 20
484.4861187791122
 42
-0.1420008527982304
 10
382.0305253682681
 20
484.7841067131279
 42
0.142000852798228
 10
388.6968742325383
 20
485.2310886141514
 42
0.0
 10
406.8058227727354
 20
491.8222068566414
 42
-0.1108768121410463
 10
412.0201221383888
 20
492.4944422654323
 42
0.1089723179973028
 10
422.6996840068128
 20
493.8824770497375
 42
0.0
 10
429.3671635952335
 20
496.3092411575001
 42
0.1095178116832407
 10
438.3482948866111
 20
502.0308528116443
 42
0.0
 10
440.0712567588684
 20
503.7538146839017
 42
0.0
 10
439.4674528004908
 20
505.412752425321
 42
0.0
 10
437.2169240367128
 20
503.1622236615428
 42
-0.1095178116832445
 10
428.8199313659123
 20
497.8127493507574
 42
0.0
 10
422.2786891577396
 20
495.4319318918568
 42
-0.1112043308285081
 10
412.0843473271049
 20
494.0951042337321
 42
0.1093117521961407
 10
406.2585905434142
 20
493.3257150498991
 42
0.0
 10
388.1496420032173
 20
486.7345968074089
 42
-0.1420008527982189
 10
382.3721396541835
 20
486.3472124931884
 42
0.1420008527982367
 10
377.039060562767
 20
485.9896269723698
 42
0.0
 10
334.5493263769132
 20
470.5246284668358
 42
0.3152987888789833
 10
274.9363513622189
 20
385.3884770236324
 42
0.0
 97
       26
330
2173
330
22BA
330
22A5
330
22A4
330
22A9
330
22A0
330
229C
330
229E
330
22A3
330
229A
330
22B2
330
229B
330
22A2
330
229F
330
229D
330
22A1
330
22AA
330
22A6
330
22A8
330
22BB
330
2285
330
2210
330
222B
330
2228
330
222A
330
2211
 92
        7
 72
     1
 73
     1
 93
       26
 10
187.5363513622191
 20
312.4939162126205
 42
0.0
 10
188.5862153245301
 20
305.8652466800693
 42
0.0
 10
190.2061589914337
 20
305.8652466800694
 42
0.0
 10
189.1363513622191
 20
312.6198372670775
 42
0.0
 10
189.1363513622191
 20
385.3884770236327
 42
-0.3152987888789828
 10
305.203998079571
 20
551.1502553302666
 42
0.0
 10
347.6937322654245
 20
566.6152538358005
 42
0.1420008527982369
 10
352.0089594103038
 20
569.7693645960782
 42
-0.1420008527982219
 10
356.6837888172557
 20
573.1863179197124
 42
0.0
 10
374.7927373574529
 20
579.7774361622025
 42
0.1093117521959652
 10
379.75007980295
 20
582.9327741309281
 42
-0.111204330827602
 10
388.4186949684109
 20
588.4615013496301
 42
0.0
 10
394.9599371766711
 20
590.8423188085625
 42
-0.1095178116832424
 10
404.8309825563577
 20
592.1418665865965
 42
0.0
 10
408.0015996145295
 20
591.8644735376248
 42
0.0
 10
407.3977956561521
 20
593.523411279044
 42
0.0
 10
404.9704317447539
 20
593.7357781035434
 42
0.1095178116832373
 10
394.4127049473505
 20
592.3458270018199
 42
0.0
 10
387.7452253590466
 20
589.9190628940999
 42
0.1089723179984408
 10
378.6719947735214
 20
584.1176691815348
 42
-0.1108768121413055
 10
374.2455051281317
 20
581.2809443554599
 42
0.0
 10
356.1365565879345
 20
574.6898261129697
 42
0.1420008527982211
 10
350.7425226568362
 20
570.7471876626227
 42
-0.1420008527982329
 10
347.1465000361035
 20
568.1187620290581
 42
0.0
 10
304.6567658502498
 20
552.6537635235242
 42
0.3152987888789833
 10
187.5363513622191
 20
385.3884770236326
 42
0.0
 97
       26
330
2286
330
22BD
330
2295
330
2296
330
2299
330
2291
330
228D
330
228F
330
2293
330
228B
330
22B2
330
228A
330
2292
330
228E
330
228C
330
2290
330
2298
330
2297
330
2294
330
22BC
330
2174
330
2221
330
222C
330
2228
330
222D
330
2222
 75
     0
 76
     0
 52
135.0
 41
2.0
 77
     0
 78
     1
 53
135.0
 43
-478.0699246600311
 44
23.66474543041227
 45
-1.414213562373095
 46
-1.414213562373094
 79
     0
 47
0.7599038437358724
 98
        2
 10
275.6379431420287
 20
372.4669552422674
 10
188.1871910712425
 20
376.2664741303743
  0
HATCH
  5
2518
330
1E
100
AcDbEntity
  8
SCHRAFF
100
AcDbHatch
 10
0.0
 20
0.0
 30
0.0
210
0.0
220
0.0
230
1.0
  2
_USER
 70
     0
 71
     1
 91
        2
 92
        7
 72
     0
 73
     1
 93
        4
 10
296.0363513622189
 20
407.3017428507218
 10
298.5363513622191
 20
406.5134958785246
 10
322.769977427494
 20
441.1227006397806
 10
321.174217206049
 20
443.2023358493385
 97
        4
330
2340
330
233B
330
2341
330
233C
 92
        7
 72
     0
 73
     1
 93
        4
 10
239.4712938680671
 20
549.6796585786966
 10
237.875533646622
 20
551.759293788254
 10
165.5363513622189
 20
448.4482347994291
 10
168.0363513622189
 20
447.6599878272318
 97
        4
330
2343
330
233F
330
2342
330
233E
 75
     0
 76
     0
 52
135.0
 41
2.0
 77
     0
 78
     1
 53
135.0
 43
-478.0699246600311
 44
23.66474543041227
 45
-1.414213562373095
 46
-1.414213562373094
 79
     0
 47
0.6317766356573858
 98
        2
 10
311.8920119220738
 20
428.4212910750063
 10
200.6206821710443
 20
495.3896149849824
  0
HATCH
  5
2521
330
1E
100
AcDbEntity
  8
SCHRAFF
100
AcDbHatch
 10
0.0
 20
0.0
 30
0.0
210
0.0
220
0.0
230
1.0
  2
_USER
 70
     0
 71
     1
 91
        2
 92
        7
 72
     0
 73
     1
 93
        4
 10
298.5363513622191
 20
406.5134958785244
 10
296.036351362219
 20
407.301742850722
 10
296.036351362219
 20
355.8652466800693
 10
298.536351362219
 20
355.8652466800694
 97
        4
330
2341
330
2219
330
2215
330
2218
 92
        7
 72
     0
 73
     1
 93
        4
 10
168.0363513622189
 20
447.6599878272317
 10
165.536351362219
 20
448.4482347994291
 10
165.5363513622189
 20
355.8652466800693
 10
168.0363513622189
 20
355.8652466800692
 97
        4
330
2342
330
221D
330
2224
330
221E
 75
     0
 76
     0
 52
45.0
 41
2.0
 77
     0
 78
     1
 53
45.0
 43
-478.0699246600311
 44
23.66474543041227
 45
-1.414213562373094
 46
1.414213562373095
 79
     0
 47
0.6317766356573858
 98
        2
 10
297.9830965450574
 20
387.9875856766933
 10
167.1128388972347
 20
410.731545400564
  0
HATCH
  5
252A
330
1E
100
AcDbEntity
  8
SCHRAFF
100
AcDbHatch
 10
0.0
 20
0.0
 30
0.0
210
0.0
220
0.0
230
1.0
  2
_USER
 70
     0
 71
     1
 91
        2
 92
        7
 72
     0
 73
     1
 93
        4
 10
237.8755336466221
 20
551.7592937882541
 10
239.4712938680672
 20
549.6796585786965
 10
401.8452370346674
 20
608.7789407117712
 10
400.9901866763534
 20
611.1281722637358
 97
        4
330
22B2
330
22B6
330
2343
330
22B7
 92
        7
 72
     0
 73
     1
 93
        4
 10
321.174217206049
 20
443.2023358493386
 10
322.769977427494
 20
441.1227006397807
 10
446.4788657386669
 20
486.14905369921
 10
445.6238153803528
 20
488.4982852511748
 97
        4
330
22B2
330
22B9
330
2340
330
22B8
 75
     0
 76
     0
 52
45.0
 41
2.0
 77
     0
 78
     1
 53
45.0
 43
-478.0699246600311
 44
23.66474543041227
 45
-1.414213562373094
 46
1.414213562373095
 79
     0
 47
0.6317766356573858
 98
        2
 10
328.9620461139548
 20
583.8383451064723
 10
351.7220928256124
 20
453.0605793181337
  0
HATCH
  5
2565
330
1E
100
AcDbEntity
  8
SCHRAFF
100
AcDbHatch
 10
0.0
 20
0.0
 30
0.0
210
0.0
220
0.0
230
1.0
  2
HONEY
 70
     0
 71
     0
 91
        4
 92
        7
 72
     1
 73
     1
 93
       14
 10
356.1365565879345
 20
574.6898261129697
 42
0.0
 10
374.2455051281317
 20
581.2809443554599
 42
0.109236972364234
 10
378.6171202409708
 20
584.0625603453246
 42
-0.1111415761493365
 10
387.8735498737344
 20
589.965769197773
 42
0.0
 10
393.1016001925659
 20
591.8686238970735
 42
0.0
 10
389.1987709792029
 20
602.5915590327758
 42
0.0
 10
389.7839346904441
 20
603.9058582469778
 42
0.0
 10
401.8452370346746
 20
608.7789407117736
 42
0.0
 10
239.4712938680673
 20
549.6796585786965
 42
0.0
 10
217.6204805069335
 20
518.4734630312994
 42
0.0
 10
225.887136237317
 20
495.7610130776657
 42
-0.1391115885205287
 10
304.65676585025
 20
552.6537635235242
 42
0.0
 10
347.1465000361035
 20
568.1187620290581
 42
0.1420008527982367
 10
350.7425226568362
 20
570.7471876626228
 42
-0.1420008527982206
 97
        0
 92
        7
 72
     1
 73
     1
 93
        4
 10
225.8871362373171
 20
495.7610130776656
 42
0.0
 10
217.6204805069335
 20
518.4734630312996
 42
0.0
 10
189.8871647233528
 20
478.8661833746291
 42
0.0
 10
214.0572491224814
 20
478.866183374629
 42
-0.0289917336161935
 97
        0
 92
        7
 72
     1
 73
     1
 93
        8
 10
214.0572491224812
 20
478.866183374629
 42
0.0
 10
189.8871647233529
 20
478.8661833746291
 42
0.0
 10
168.0363513622187
 20
447.6599878272316
 42
0.0
 10
168.0363513622189
 20
355.8652466800609
 42
0.0
 10
168.5252846806821
 20
369.8664650260313
 42
0.0
 10
170.5950836740868
 20
371.8652466800693
 42
0.0
 10
187.5363513622191
 20
371.8652466800693
 42
0.0
 10
187.5363513622191
 20
385.3884770236327
 42
-0.1391115885205287
 97
        0
 92
        7
 72
     1
 73
     1
 93
       18
 10
296.036351362219
 20
407.301742850722
 42
0.0
 10
321.1742172060491
 20
443.2023358493386
 42
0.0
 10
445.6238153803536
 20
488.498285251175
 42
0.0
 10
433.2519647134329
 20
484.4784272906401
 42
0.0
 10
431.9588880538121
 20
485.1091029170508
 42
0.0
 10
428.056058840449
 20
495.8320380527537
 42
0.0
 10
422.8280085217266
 20
493.9291833534928
 42
-0.1111415761505789
 10
411.942662530565
 20
492.5013854135666
 42
0.1092369723640861
 10
406.8058227727354
 20
491.8222068566414
 42
0.0
 10
388.6968742325383
 20
485.2310886141514
 42
-0.1420008527982182
 10
382.0305253682686
 20
484.7841067131278
 42
0.142000852798245
 10
377.586292792088
 20
484.4861187791123
 42
0.0
 10
335.0965586062342
 20
469.0211202735782
 42
0.3152987888789828
 10
276.536351362219
 20
385.3884770236325
 42
0.0
 10
276.536351362219
 20
371.8652466800692
 42
0.0
 10
293.4776190503508
 20
371.8652466800693
 42
0.0
 10
295.5474180437559
 20
369.8664650260311
 42
0.0
 10
296.036351362219
 20
355.8652466800682
 42
0.0
 97
        0
 75
     0
 76
     1
 52
0.0
 41
30.0
 77
     0
 78
     3
 53
0.0
 43
-478.0699246600311
 44
23.66474543041227
 45
5.625
 46
3.247595249999999
 79
     2
 49
3.75
 49
-7.5
 53
120.0
 43
-478.0699246600311
 44
23.66474543041227
 45
-5.624999987709673
 46
3.247595271287468
 79
     2
 49
3.749999999999999
 49
-7.499999999999999
 53
60.0
 43
-478.0699246600311
 44
23.66474543041227
 45
0.0000000122903263
 46
6.495190521287468
 79
     2
 49
-7.5
 49
3.75
 47
0.6317766356573858
 98
        4
 10
320.7431398892659
 20
573.7299187568942
 10
212.6329289531013
 20
492.2307312040896
 10
192.4017759463554
 20
466.3278894486049
 10
280.2808406106728
 20
388.6193624328719
  0
TEXT
  5
2617
330
1E
100
AcDbEntity
  8
TEXT
100
AcDbText
 10
185.77763727763
 20
91.42531838939582
 30
0.0
 40
5.0
  1
2007
 41
0.8
  7
GREEKS
100
AcDbText
  0
TEXT
  5
2618
330
1E
100
AcDbEntity
  8
TEXT
100
AcDbText
 10
212.9987463852951
 20
78.88456301032164
 30
0.0
 40
5.0
  1
28.09.
 41
0.8
  7
GREEKS
 72
     1
 11
221.7606511471998
 21
78.88456301032164
 31
0.0
100
AcDbText
  0
HATCH
  5
2628
330
1E
100
AcDbEntity
  8
SCHRAFF
100
AcDbHatch
 10
0.0
 20
0.0
 30
0.0
210
0.0
220
0.0
230
1.0
  2
NET
 70
     0
 71
     0
 91
        2
 92
        7
 72
     0
 73
     1
 93
       11
 10
295.5474180437562
 20
369.8664650260313
 10
293.4776190503511
 20
371.8652466800693
 10
276.536351362219
 20
371.8652466800693
 10
276.536351362219
 20
361.8652466800693
 10
281.036351362219
 20
361.8652466800692
 10
284.5004529773567
 20
355.8652466800693
 10
291.5363513622192
 20
355.8652466800692
 10
291.5363513622192
 20
353.8652466800694
 10
298.536351362219
 20
353.8652466800693
 10
298.536351362219
 20
355.8652466800693
 10
296.0363513622189
 20
355.8652466800692
 97
        0
 92
        7
 72
     0
 73
     1
 93
       11
 10
187.536351362219
 20
371.8652466800692
 10
170.5950836740869
 20
371.8652466800692
 10
168.525284680682
 20
369.8664650260312
 10
168.0363513622192
 20
355.8652466800694
 10
165.5363513622189
 20
355.8652466800693
 10
165.5363513622189
 20
353.8652466800694
 10
172.5363513622192
 20
353.8652466800694
 10
172.5363513622192
 20
355.8652466800692
 10
179.5722497470814
 20
355.8652466800692
 10
183.0363513622192
 20
361.8652466800693
 10
187.536351362219
 20
361.8652466800693
 97
        0
 75
     0
 76
     1
 52
45.0
 41
20.0
 77
     0
 78
     2
 53
45.0
 43
7.07171626111517
 44
88.90069050994567
 45
-1.767766952966368
 46
1.767766952966368
 79
     0
 53
135.0
 43
7.07171626111517
 44
88.90069050994567
 45
-1.767766952966368
 46
-1.767766952966368
 79
     0
 47
0.2159429178754844
 98
        2
 10
287.6428055119288
 20
362.951248331309
 10
173.5561623843562
 20
363.1671911912554
  0
LINE
  5
2629
330
1E
100
AcDbEntity
  8
STEMPEL
100
AcDbLine
 10
291.5363513622192
 20
355.8652466800692
 30
0.0
 11
291.5363513622192
 21
353.8652466800693
 31
0.0
  0
POINT
  5
262A
330
1E
100
AcDbEntity
  8
STEMPEL
100
AcDbPoint
 10
291.5363513622192
 20
353.8652466800693
 30
0.0
  0
LINE
  5
262B
330
1E
100
AcDbEntity
  8
STEMPEL
100
AcDbLine
 10
298.536351362219
 20
353.8652466800694
 30
0.0
 11
276.536351362219
 21
353.8652466800694
 31
0.0
  0
LINE
  5
262C
330
1E
100
AcDbEntity
  8
STEMPEL
100
AcDbLine
 10
291.5363513622192
 20
355.8652466800692
 30
0.0
 11
276.536351362219
 21
355.8652466800693
 31
0.0
  0
LINE
  5
262D
330
1E
100
AcDbEntity
  8
STEMPEL
100
AcDbLine
 10
281.036351362219
 20
361.8652466800693
 30
0.0
 11
284.5004529773567
 21
355.8652466800693
 31
0.0
  0
LINE
  5
262E
330
1E
100
AcDbEntity
  8
STEMPEL
100
AcDbLine
 10
187.536351362219
 20
353.8652466800693
 30
0.0
 11
165.5363513622189
 21
353.8652466800694
 31
0.0
  0
LINE
  5
262F
330
1E
100
AcDbEntity
  8
STEMPEL
100
AcDbLine
 10
187.536351362219
 20
355.8652466800692
 30
0.0
 11
172.5363513622192
 21
355.8652466800692
 31
0.0
  0
LINE
  5
2630
330
1E
100
AcDbEntity
  8
STEMPEL
100
AcDbLine
 10
172.5363513622192
 20
355.8652466800692
 30
0.0
 11
172.5363513622192
 21
353.8652466800693
 31
0.0
  0
LINE
  5
2631
330
1E
100
AcDbEntity
  8
STEMPEL
100
AcDbLine
 10
183.0363513622192
 20
361.8652466800693
 30
0.0
 11
179.5722497470815
 21
355.8652466800693
 31
0.0
  0
DIMENSION
  5
264F
330
1E
100
AcDbEntity
  8
BEM
100
AcDbDimension
  2
*D4
 10
127.4738997208446
 20
478.866183374629
 30
0.0
 11
119.3488997208446
 21
392.3657150273492
 31
0.0
 70
    32
 71
     5
 42
173.0009366945597
  3
Standard
100
AcDbAlignedDimension
 13
188.5862153245301
 23
305.8652466800693
 33
0.0
 14
232.036351362219
 24
478.866183374629
 34
0.0
 50
90.0
100
AcDbRotatedDimension
1001
ACAD
1000
DSTYLE
1002
{
1070
    40
1040
2.5
1070
    41
1040
3.5
1070
    42
1040
1.0
1070
    43
1040
7.0
1070
    44
1040
1.0
1070
    73
1070
     0
1070
    74
1070
     0
1070
    77
1070
     1
1070
    78
1070
     8
1070
    79
1070
     2
1070
   140
1040
3.5
1070
   141
1040
1.5
1070
   146
1040
0.5142857142857144
1070
   147
1040
1.5
1070
   172
1070
     1
1070
   178
1070
     1
1070
   179
1070
     2
1070
   271
1070
     2
1070
   272
1070
     2
1070
   284
1070
     8
1070
   285
1070
     8
1070
   286
1070
     8
1002
}
  0
DIMENSION
  5
265C
330
1E
100
AcDbEntity
  8
BEM
100
AcDbDimension
  2
*D5
 10
382.6211911352248
 20
661.5965727310496
 30
0.0
 11
283.9931900480579
 21
634.3453604715129
 31
0.0
 70
    32
 71
     5
 42
204.0009366945601
 51
340.0
  3
Standard
100
AcDbAlignedDimension
 13
232.036351362219
 23
478.866183374629
 33
0.0
 14
400.9901866763533
 24
611.1281722637358
 34
0.0
 50
20.0
100
AcDbRotatedDimension
1001
ACAD
1000
DSTYLE
1002
{
1070
    40
1040
2.5
1070
    41
1040
3.5
1070
    42
1040
1.0
1070
    43
1040
7.0
1070
    44
1040
1.0
1070
    73
1070
     0
1070
    74
1070
     0
1070
    77
1070
     1
1070
    78
1070
     8
1070
    79
1070
     2
1070
   140
1040
3.5
1070
   141
1040
1.5
1070
   146
1040
0.5142857142857144
1070
   147
1040
1.5
1070
   172
1070
     1
1070
   178
1070
     1
1070
   179
1070
     2
1070
   271
1070
     2
1070
   272
1070
     2
1070
   284
1070
     8
1070
   285
1070
     8
1070
   286
1070
     8
1002
}
  0
DIMENSION
  5
2669
330
1E
100
AcDbEntity
  8
BEM
100
AcDbDimension
  2
*D6
 10
232.036351362219
 20
300.8652466800693
 30
0.0
 11
271.5687759269418
 21
578.1612009331322
 31
0.0
 70
   162
 71
     5
 42
1.22173047639603
  3
Standard
100
AcDb2LineAngularDimension
 13
428.4329893114398
 23
550.3487136981013
 33
0.0
 14
232.036351362219
 24
478.866183374629
 34
0.0
 15
232.036351362219
 25
478.866183374629
 35
0.0
 16
309.7745708719867
 26
552.2084108521207
 36
0.0
1001
ACAD
1000
DSTYLE
1002
{
1070
    40
1040
2.5
1070
    41
1040
3.5
1070
    42
1040
1.0
1070
    43
1040
7.0
1070
    44
1040
1.0
1070
    73
1070
     0
1070
    74
1070
     0
1070
    77
1070
     1
1070
    78
1070
     8
1070
    79
1070
     2
1070
   140
1040
3.5
1070
   141
1040
1.5
1070
   146
1040
0.5142857142857144
1070
   147
1040
1.5
1070
   172
1070
     1
1070
   178
1070
     1
1070
   179
1070
     2
1070
   271
1070
     2
1070
   272
1070
     2
1070
   284
1070
     8
1070
   285
1070
     8
1070
   286
1070
     8
1002
}
  0
ENDSEC
  0
SECTION
  2
OBJECTS
  0
DICTIONARY
  5
C
330
0
100
AcDbDictionary
281
     1
  3
ACAD_COLOR
350
DF
  3
ACAD_GROUP
350
D
  3
ACAD_LAYOUT
350
19
  3
ACAD_MATERIAL
350
DE
  3
ACAD_MLINESTYLE
350
16
  3
ACAD_PLOTSETTINGS
350
18
  3
ACAD_PLOTSTYLENAME
350
E
  3
AcDbVariableDictionary
350
25E
  0
DICTIONARY
  5
A0
330
1E
100
AcDbDictionary
280
     1
281
     1
  3
ACAD_LAYOUTSELFREF
360
D4
  0
DICTIONARY
  5
A2
330
1A
100
AcDbDictionary
280
     1
281
     1
  3
ACAD_LAYOUTSELFREF
360
D3
  0
DICTIONARY
  5
DF
102
{ACAD_REACTORS
330
C
102
}
330
C
100
AcDbDictionary
281
     1
  0
DICTIONARY
  5
D
102
{ACAD_REACTORS
330
C
102
}
330
C
100
AcDbDictionary
281
     1
  0
DICTIONARY
  5
19
102
{ACAD_REACTORS
330
C
102
}
330
C
100
AcDbDictionary
281
     1
  3
Layout1
350
1D
  3
Model
350
21
  0
DICTIONARY
  5
DE
102
{ACAD_REACTORS
330
C
102
}
330
C
100
AcDbDictionary
281
     1
  0
DICTIONARY
  5
16
102
{ACAD_REACTORS
330
C
102
}
330
C
100
AcDbDictionary
281
     1
  3
Standard
350
17
  0
DICTIONARY
  5
18
102
{ACAD_REACTORS
330
C
102
}
330
C
100
AcDbDictionary
281
     1
  0
ACDBDICTIONARYWDFLT
  5
E
102
{ACAD_REACTORS
330
C
102
}
330
C
100
AcDbDictionary
281
     1
  3
Normal
350
F
100
AcDbDictionaryWithDefault
340
F
  0
DICTIONARY
  5
25E
102
{ACAD_REACTORS
330
C
102
}
330
C
100
AcDbDictionary
281
     1
  3
DIMASSOC
350
25F
  3
PROJECTNAME
350
260
  0
XRECORD
  5
D4
102
{ACAD_REACTORS
330
A0
102
}
330
A0
100
AcDbXrecord
280
     1
340
1E
  0
XRECORD
  5
D3
102
{ACAD_REACTORS
330
A2
102
}
330
A2
100
AcDbXrecord
280
     1
340
1A
  0
LAYOUT
  5
1D
102
{ACAD_REACTORS
330
19
102
}
330
19
100
AcDbPlotSettings
  1

  2
\\NT_WORK01\HP LaserJet 5000 PCL 6
  4

  6

 40
0.0
 41
0.0
 42
0.0
 43
0.0
 44
0.0
 45
0.0
 46
0.0
 47
0.0
 48
0.0
 49
0.0
140
0.0
141
0.0
142
1.0
143
1.0
 70
   688
 72
     0
 73
     0
 74
     5
  7

 75
    16
147
1.0
 76
     0
 77
     2
 78
   300
148
0.0
149
0.0
100
AcDbLayout
  1
Layout1
 70
     0
 71
     1
 10
0.0
 20
0.0
 11
12.0
 21
9.0
 12
0.0
 22
0.0
 32
0.0
 14
1.000000000000000E+20
 24
1.000000000000000E+20
 34
1.000000000000000E+20
 15
-1.000000000000000E+20
 25
-1.000000000000000E+20
 35
-1.000000000000000E+20
146
0.0
 13
0.0
 23
0.0
 33
0.0
 16
1.0
 26
0.0
 36
0.0
 17
0.0
 27
1.0
 37
0.0
 76
     0
330
1A
  0
LAYOUT
  5
21
102
{ACAD_REACTORS
330
19
102
}
330
19
100
AcDbPlotSettings
  1

  2
RICOH Aficio 2027 PCL 6
  4
A4
  6

 40
5.027083
 41
5.027084999999999
 42
5.027084
 43
5.027069
 44
209.973328
 45
296.925995
 46
0.0
 47
2.06
 48
0.0
 49
0.0
140
0.0
141
0.0
142
1.0
143
2.100849152723284
 70
 11956
 72
     1
 73
     0
 74
     2
  7
monochrome1.ctb
 75
     0
147
0.4759980023809526
 76
     1
 77
     2
 78
   300
148
0.0
149
0.0
100
AcDbLayout
  1
Model
 70
     1
 71
     0
 10
0.0
 20
0.0
 11
12.0
 21
9.0
 12
0.0
 22
0.0
 32
0.0
 14
0.0
 24
0.0
 34
0.0
 15
0.0
 25
0.0
 35
0.0
146
0.0
 13
0.0
 23
0.0
 33
0.0
 16
1.0
 26
0.0
 36
0.0
 17
0.0
 27
1.0
 37
0.0
 76
     0
330
1E
  0
MLINESTYLE
  5
17
102
{ACAD_REACTORS
330
16
102
}
330
16
100
AcDbMlineStyle
  2
STANDARD
 70
     0
  3

 62
   256
 51
90.0
 52
90.0
 71
     2
 49
0.5
 62
   256
  6
BYLAYER
 49
-0.5
 62
   256
  6
BYLAYER
  0
ACDBPLACEHOLDER
  5
F
102
{ACAD_REACTORS
330
E
102
}
330
E
  0
DICTIONARYVAR
  5
25F
102
{ACAD_REACTORS
330
25E
102
}
330
25E
100
DictionaryVariables
280
     0
  1
1
  0
DICTIONARYVAR
  5
260
102
{ACAD_REACTORS
330
25E
102
}
330
25E
100
DictionaryVariables
280
     0
  1

  0
ENDSEC
  0
EOF
