  0
SECTION
  2
HEADER
  9
$ACADVER
  1
AC1018
  9
$ACADMAINTVER
 70
     2
  9
$DWGCODEPAGE
  3
ANSI_1252
  9
$INSBASE
 10
0.0
 20
0.0
 30
0.0
  9
$EXTMIN
 10
-0.034885239168716
 20
-0.0407603596033823
 30
-0.0000000000000129
  9
$EXTMAX
 10
525.0033876072782
 20
742.5102088923656
 30
0.0000000000000023
  9
$LIMMIN
 10
0.0
 20
0.0
  9
$LIMMAX
 10
524.9999999999999
 20
742.4999999999999
  9
$ORTHOMODE
 70
     0
  9
$REGENMODE
 70
     1
  9
$FILLMODE
 70
     1
  9
$QTEXTMODE
 70
     0
  9
$MIRRTEXT
 70
     1
  9
$LTSCALE
 40
25.0
  9
$ATTMODE
 70
     1
  9
$TEXTSIZE
 40
3.5
  9
$TRACEWID
 40
0.5
  9
$TEXTSTYLE
  7
STANDARD
  9
$CLAYER
  8
BEM
  9
$CELTYPE
  6
ByLayer
  9
$CECOLOR
 62
   256
  9
$CELTSCALE
 40
1.0
  9
$DISPSILH
 70
     0
  9
$DIMSCALE
 40
2.5
  9
$DIMASZ
 40
3.5
  9
$DIMEXO
 40
1.0
  9
$DIMDLI
 40
7.0
  9
$DIMRND
 40
0.0
  9
$DIMDLE
 40
0.0
  9
$DIMEXE
 40
1.0
  9
$DIMTP
 40
0.0
  9
$DIMTM
 40
0.0
  9
$DIMTXT
 40
3.5
  9
$DIMCEN
 40
1.5
  9
$DIMTSZ
 40
0.0
  9
$DIMTOL
 70
     0
  9
$DIMLIM
 70
     0
  9
$DIMTIH
 70
     0
  9
$DIMTOH
 70
     0
  9
$DIMSE1
 70
     0
  9
$DIMSE2
 70
     0
  9
$DIMTAD
 70
     1
  9
$DIMZIN
 70
     8
  9
$DIMBLK
  1

  9
$DIMASO
 70
     1
  9
$DIMSHO
 70
     0
  9
$DIMPOST
  1

  9
$DIMAPOST
  1

  9
$DIMALT
 70
     0
  9
$DIMALTD
 70
     2
  9
$DIMALTF
 40
25.4
  9
$DIMLFAC
 40
1.0
  9
$DIMTOFL
 70
     1
  9
$DIMTVP
 40
0.0
  9
$DIMTIX
 70
     0
  9
$DIMSOXD
 70
     0
  9
$DIMSAH
 70
     0
  9
$DIMBLK1
  1

  9
$DIMBLK2
  1

  9
$DIMSTYLE
  2
Standard
  9
$DIMCLRD
 70
     0
  9
$DIMCLRE
 70
     0
  9
$DIMCLRT
 70
     1
  9
$DIMTFAC
 40
0.5142857142857144
  9
$DIMGAP
 40
1.5
  9
$DIMJUST
 70
     0
  9
$DIMSD1
 70
     0
  9
$DIMSD2
 70
     0
  9
$DIMTOLJ
 70
     1
  9
$DIMTZIN
 70
     8
  9
$DIMALTZ
 70
     8
  9
$DIMALTTZ
 70
     8
  9
$DIMUPT
 70
     0
  9
$DIMDEC
 70
     2
  9
$DIMTDEC
 70
     2
  9
$DIMALTU
 70
     2
  9
$DIMALTTD
 70
     2
  9
$DIMTXSTY
  7
STANDARD
  9
$DIMAUNIT
 70
     0
  9
$DIMADEC
 70
     2
  9
$DIMALTRND
 40
0.0
  9
$DIMAZIN
 70
     2
  9
$DIMDSEP
 70
    46
  9
$DIMATFIT
 70
     3
  9
$DIMFRAC
 70
     0
  9
$DIMLDRBLK
  1

  9
$DIMLUNIT
 70
     2
  9
$DIMLWD
 70
    -2
  9
$DIMLWE
 70
    -2
  9
$DIMTMOVE
 70
     0
  9
$LUNITS
 70
     2
  9
$LUPREC
 70
     2
  9
$SKETCHINC
 40
1.0
  9
$FILLETRAD
 40
67.5
  9
$AUNITS
 70
     0
  9
$AUPREC
 70
     0
  9
$MENU
  1
ACAD
  9
$ELEVATION
 40
0.0
  9
$PELEVATION
 40
0.0
  9
$THICKNESS
 40
0.0
  9
$LIMCHECK
 70
     0
  9
$CHAMFERA
 40
0.0
  9
$CHAMFERB
 40
0.0
  9
$CHAMFERC
 40
0.0
  9
$CHAMFERD
 40
0.0
  9
$SKPOLY
 70
     0
  9
$TDCREATE
 40
2455397.823042361
  9
$TDUCREATE
 40
2455397.781375695
  9
$TDUPDATE
 40
2455532.529203715
  9
$TDUUPDATE
 40
2455532.487537049
  9
$TDINDWG
 40
0.3542868056
  9
$TDUSRTIMER
 40
0.3542868056
  9
$USRTIMER
 70
     1
  9
$ANGBASE
 50
0.0
  9
$ANGDIR
 70
     0
  9
$PDMODE
 70
     0
  9
$PDSIZE
 40
0.0
  9
$PLINEWID
 40
0.0
  9
$SPLFRAME
 70
     0
  9
$SPLINETYPE
 70
     6
  9
$SPLINESEGS
 70
     8
  9
$HANDSEED
  5
21CC
  9
$SURFTAB1
 70
     6
  9
$SURFTAB2
 70
     6
  9
$SURFTYPE
 70
     6
  9
$SURFU
 70
     6
  9
$SURFV
 70
     6
  9
$UCSBASE
  2

  9
$UCSNAME
  2

  9
$UCSORG
 10
0.0
 20
0.0
 30
0.0
  9
$UCSXDIR
 10
1.0
 20
0.0
 30
0.0
  9
$UCSYDIR
 10
0.0
 20
1.0
 30
0.0
  9
$UCSORTHOREF
  2

  9
$UCSORTHOVIEW
 70
     0
  9
$UCSORGTOP
 10
0.0
 20
0.0
 30
0.0
  9
$UCSORGBOTTOM
 10
0.0
 20
0.0
 30
0.0
  9
$UCSORGLEFT
 10
0.0
 20
0.0
 30
0.0
  9
$UCSORGRIGHT
 10
0.0
 20
0.0
 30
0.0
  9
$UCSORGFRONT
 10
0.0
 20
0.0
 30
0.0
  9
$UCSORGBACK
 10
0.0
 20
0.0
 30
0.0
  9
$PUCSBASE
  2

  9
$PUCSNAME
  2

  9
$PUCSORG
 10
0.0
 20
0.0
 30
0.0
  9
$PUCSXDIR
 10
1.0
 20
0.0
 30
0.0
  9
$PUCSYDIR
 10
0.0
 20
1.0
 30
0.0
  9
$PUCSORTHOREF
  2

  9
$PUCSORTHOVIEW
 70
     0
  9
$PUCSORGTOP
 10
0.0
 20
0.0
 30
0.0
  9
$PUCSORGBOTTOM
 10
0.0
 20
0.0
 30
0.0
  9
$PUCSORGLEFT
 10
0.0
 20
0.0
 30
0.0
  9
$PUCSORGRIGHT
 10
0.0
 20
0.0
 30
0.0
  9
$PUCSORGFRONT
 10
0.0
 20
0.0
 30
0.0
  9
$PUCSORGBACK
 10
0.0
 20
0.0
 30
0.0
  9
$USERI1
 70
     0
  9
$USERI2
 70
     0
  9
$USERI3
 70
     0
  9
$USERI4
 70
     0
  9
$USERI5
 70
     0
  9
$USERR1
 40
0.0
  9
$USERR2
 40
0.0
  9
$USERR3
 40
0.0
  9
$USERR4
 40
0.0
  9
$USERR5
 40
0.0
  9
$WORLDVIEW
 70
     1
  9
$SHADEDGE
 70
     3
  9
$SHADEDIF
 70
    70
  9
$TILEMODE
 70
     1
  9
$MAXACTVP
 70
    16
  9
$PINSBASE
 10
0.0
 20
0.0
 30
0.0
  9
$PLIMCHECK
 70
     0
  9
$PEXTMIN
 10
1.000000000000000E+20
 20
1.000000000000000E+20
 30
1.000000000000000E+20
  9
$PEXTMAX
 10
-1.000000000000000E+20
 20
-1.000000000000000E+20
 30
-1.000000000000000E+20
  9
$PLIMMIN
 10
0.0
 20
0.0
  9
$PLIMMAX
 10
12.0
 20
9.0
  9
$UNITMODE
 70
     0
  9
$VISRETAIN
 70
     0
  9
$PLINEGEN
 70
     0
  9
$PSLTSCALE
 70
     0
  9
$TREEDEPTH
 70
  3020
  9
$CMLSTYLE
  2
Standard
  9
$CMLJUST
 70
     0
  9
$CMLSCALE
 40
1.0
  9
$PROXYGRAPHICS
 70
     1
  9
$MEASUREMENT
 70
     0
  9
$CELWEIGHT
370
    -1
  9
$ENDCAPS
280
     0
  9
$JOINSTYLE
280
     0
  9
$LWDISPLAY
290
     0
  9
$INSUNITS
 70
     0
  9
$HYPERLINKBASE
  1

  9
$STYLESHEET
  1
monochrome 1.ctb
  9
$XEDIT
290
     1
  9
$CEPSNTYPE
380
     0
  9
$PSTYLEMODE
290
     1
  9
$FINGERPRINTGUID
  2
{D68B0D02-A558-11D7-B632-000102183313}
  9
$VERSIONGUID
  2
{A7E448B0-362B-446B-9F9F-F2FB18E1E4EF}
  9
$EXTNAMES
290
     1
  9
$PSVPSCALE
 40
0.0
  9
$OLESTARTUP
290
     0
  9
$SORTENTS
280
   127
  9
$INDEXCTL
280
     0
  9
$HIDETEXT
280
     0
  9
$XCLIPFRAME
290
     0
  9
$HALOGAP
280
     0
  9
$OBSCOLOR
 70
   257
  9
$OBSLTYPE
280
     0
  9
$INTERSECTIONDISPLAY
280
     0
  9
$INTERSECTIONCOLOR
 70
   257
  9
$DIMASSOC
280
     1
  9
$PROJECTNAME
  1

  0
ENDSEC
  0
SECTION
  2
CLASSES
  0
CLASS
  1
ACDBDICTIONARYWDFLT
  2
AcDbDictionaryWithDefault
  3
ObjectDBX Classes
 90
        0
 91
        1
280
     0
281
     0
  0
CLASS
  1
DICTIONARYVAR
  2
AcDbDictionaryVar
  3
ObjectDBX Classes
 90
        0
 91
        2
280
     0
281
     0
  0
ENDSEC
  0
SECTION
  2
TABLES
  0
TABLE
  2
VPORT
  5
8
330
0
100
AcDbSymbolTable
 70
     2
  0
VPORT
  5
21CB
330
8
100
AcDbSymbolTableRecord
100
AcDbViewportTableRecord
  2
*Active
 70
     0
 10
0.0
 20
0.0
 11
1.0
 21
1.0
 12
262.4842511840548
 22
371.2347242663812
 13
0.0
 23
0.0
 14
1.0
 24
1.0
 15
10.0
 25
10.0
 16
0.0
 26
0.0
 36
1.0
 17
0.0
 27
0.0
 37
0.0
 40
748.5473431624829
 41
1.336927223719676
 42
50.0
 43
0.0
 44
0.0
 50
0.0
 51
0.0
 71
     0
 72
  1500
 73
     1
 74
     0
 75
     0
 76
     0
 77
     0
 78
     0
281
     0
 65
     1
110
0.0
120
0.0
130
0.0
111
1.0
121
0.0
131
0.0
112
0.0
122
1.0
132
0.0
 79
     0
146
0.0
  0
ENDTAB
  0
TABLE
  2
LTYPE
  5
5
330
0
100
AcDbSymbolTable
 70
     2
  0
LTYPE
  5
13
330
5
100
AcDbSymbolTableRecord
100
AcDbLinetypeTableRecord
  2
ByBlock
 70
     0
  3

 72
    65
 73
     0
 40
0.0
  0
LTYPE
  5
14
330
5
100
AcDbSymbolTableRecord
100
AcDbLinetypeTableRecord
  2
ByLayer
 70
     0
  3

 72
    65
 73
     0
 40
0.0
  0
LTYPE
  5
15
330
5
100
AcDbSymbolTableRecord
100
AcDbLinetypeTableRecord
  2
Continuous
 70
     0
  3
Solid line
 72
    65
 73
     0
 40
0.0
  0
LTYPE
  5
25
330
5
100
AcDbSymbolTableRecord
100
AcDbLinetypeTableRecord
  2
STRICHPUNKT
 70
     0
  3
__ . __ . __ . __ . __ . __ . __ . __ . __ . __
 72
    65
 73
     4
 40
1.0
 49
0.5
 74
     0
 49
-0.25
 74
     0
 49
0.0
 74
     0
 49
-0.25
 74
     0
  0
ENDTAB
  0
TABLE
  2
LAYER
  5
2
330
0
100
AcDbSymbolTable
 70
     9
  0
LAYER
  5
10
330
2
100
AcDbSymbolTableRecord
100
AcDbLayerTableRecord
  2
0
 70
     0
 62
     7
  6
Continuous
370
    -3
390
F
  0
LAYER
  5
2A
330
2
100
AcDbSymbolTableRecord
100
AcDbLayerTableRecord
  2
VOLL
 70
     0
 62
     1
  6
Continuous
370
    -3
390
F
  0
LAYER
  5
2B
330
2
100
AcDbSymbolTableRecord
100
AcDbLayerTableRecord
  2
HILF
 70
     0
 62
     2
  6
Continuous
370
    -3
390
F
  0
LAYER
  5
2C
330
2
100
AcDbSymbolTableRecord
100
AcDbLayerTableRecord
  2
MITTEL
 70
     0
 62
     2
  6
STRICHPUNKT
370
    -3
390
F
  0
LAYER
  5
2F
330
2
100
AcDbSymbolTableRecord
100
AcDbLayerTableRecord
  2
BEM
 70
     0
 62
     7
  6
Continuous
370
    -3
390
F
  0
LAYER
  5
30
330
2
100
AcDbSymbolTableRecord
100
AcDbLayerTableRecord
  2
STEMPEL
 70
     0
 62
     3
  6
Continuous
370
    -3
390
F
  0
LAYER
  5
31
330
2
100
AcDbSymbolTableRecord
100
AcDbLayerTableRecord
  2
TEXT
 70
     0
 62
     7
  6
Continuous
370
    -3
390
F
  0
LAYER
  5
171
330
2
100
AcDbSymbolTableRecord
100
AcDbLayerTableRecord
  2
Defpoints
 70
     0
 62
     7
  6
Continuous
290
     0
370
    -3
390
F
  0
LAYER
  5
19C
330
2
100
AcDbSymbolTableRecord
100
AcDbLayerTableRecord
  2
SCHRAFF
 70
     0
 62
     7
  6
Continuous
370
    -3
390
F
  0
ENDTAB
  0
TABLE
  2
STYLE
  5
3
330
0
100
AcDbSymbolTable
 70
     2
  0
STYLE
  5
11
330
3
100
AcDbSymbolTableRecord
100
AcDbTextStyleTableRecord
  2
STANDARD
 70
     0
 40
0.0
 41
0.8
 50
0.0
 71
     0
 42
3.5
  3
simplex.shx
  4

  0
STYLE
  5
24
330
3
100
AcDbSymbolTableRecord
100
AcDbTextStyleTableRecord
  2
GREEKS
 70
     0
 40
0.0
 41
0.8
 50
0.0
 71
     0
 42
2.5
  3
SIMPLEX.shx
  4

  0
ENDTAB
  0
TABLE
  2
VIEW
  5
6
330
0
100
AcDbSymbolTable
 70
     0
  0
ENDTAB
  0
TABLE
  2
UCS
  5
7
330
0
100
AcDbSymbolTable
 70
     0
  0
ENDTAB
  0
TABLE
  2
APPID
  5
9
330
0
100
AcDbSymbolTable
 70
     1
  0
APPID
  5
12
330
9
100
AcDbSymbolTableRecord
100
AcDbRegAppTableRecord
  2
ACAD
 70
     0
  0
ENDTAB
  0
TABLE
  2
DIMSTYLE
  5
A
330
0
100
AcDbSymbolTable
 70
     1
100
AcDbDimStyleTable
 71
     1
340
9D
  0
DIMSTYLE
105
9D
102
{ACAD_REACTORS
330
19FA
330
1B4B
330
195C
330
2190
330
219D
330
21AA
102
}
330
A
100
AcDbSymbolTableRecord
100
AcDbDimStyleTableRecord
  2
Standard
 70
     0
340
11
  0
ENDTAB
  0
TABLE
  2
BLOCK_RECORD
  5
1
330
0
100
AcDbSymbolTable
 70
     7
  0
BLOCK_RECORD
  5
1E
102
{ACAD_XDICTIONARY
360
A0
102
}
330
1
100
AcDbSymbolTableRecord
100
AcDbBlockTableRecord
  2
*Model_Space
340
21
  0
BLOCK_RECORD
  5
1A
102
{ACAD_XDICTIONARY
360
A2
102
}
330
1
100
AcDbSymbolTableRecord
100
AcDbBlockTableRecord
  2
*Paper_Space
340
1D
  0
BLOCK_RECORD
  5
22
330
1
100
AcDbSymbolTableRecord
100
AcDbBlockTableRecord
  2
LOGO
340
0
102
{BLKREFS
331
9B
102
}
  0
BLOCK_RECORD
  5
1974
330
1
100
AcDbSymbolTableRecord
100
AcDbBlockTableRecord
  2
*D1
340
0
  0
BLOCK_RECORD
  5
1A3D
330
1
100
AcDbSymbolTableRecord
100
AcDbBlockTableRecord
  2
*D2
340
0
  0
BLOCK_RECORD
  5
1B4C
330
1
100
AcDbSymbolTableRecord
100
AcDbBlockTableRecord
  2
*D3
340
0
  0
BLOCK_RECORD
  5
2191
330
1
100
AcDbSymbolTableRecord
100
AcDbBlockTableRecord
  2
*D4
340
0
  0
BLOCK_RECORD
  5
219E
330
1
100
AcDbSymbolTableRecord
100
AcDbBlockTableRecord
  2
*D5
340
0
  0
BLOCK_RECORD
  5
21AB
330
1
100
AcDbSymbolTableRecord
100
AcDbBlockTableRecord
  2
*D6
340
0
  0
ENDTAB
  0
ENDSEC
  0
SECTION
  2
BLOCKS
  0
BLOCK
  5
35
330
1E
100
AcDbEntity
  8
0
100
AcDbBlockBegin
  2
*Model_Space
 70
     0
 10
0.0
 20
0.0
 30
0.0
  3
*Model_Space
  1

  0
ENDBLK
  5
36
330
1E
100
AcDbEntity
  8
0
100
AcDbBlockEnd
  0
BLOCK
  5
33
330
1A
100
AcDbEntity
 67
     1
  8
0
100
AcDbBlockBegin
  2
*Paper_Space
 70
     0
 10
0.0
 20
0.0
 30
0.0
  3
*Paper_Space
  1

  0
ENDBLK
  5
34
330
1A
100
AcDbEntity
 67
     1
  8
0
100
AcDbBlockEnd
  0
BLOCK
  5
37
330
22
100
AcDbEntity
  8
0
100
AcDbBlockBegin
  2
LOGO
 70
     0
 10
0.0
 20
0.0
 30
0.0
  3
LOGO
  1

  0
ARC
  5
38
330
22
100
AcDbEntity
  8
0
100
AcDbCircle
 10
11.59973089678112
 20
-9.271599258481501
 30
0.0
 40
4.5
100
AcDbArc
 50
270.0
 51
231.0575587310159
  0
LINE
  5
39
330
22
100
AcDbEntity
  8
0
100
AcDbLine
 10
3.599730896781125
 20
-4.771599258481529
 30
0.0
 11
3.599730896781153
 21
-11.77159925848133
 31
0.0
  0
LINE
  5
3A
330
22
100
AcDbEntity
  8
0
100
AcDbLine
 10
2.599730896781125
 20
-4.771599258481529
 30
0.0
 11
2.599730896781153
 21
-11.77159925848133
 31
0.0
  0
CIRCLE
  5
3B
330
22
100
AcDbEntity
  8
0
100
AcDbCircle
 10
11.59973089678112
 20
-9.271599258481501
 30
0.0
 40
3.5
  0
ARC
  5
3C
330
22
100
AcDbEntity
  8
0
100
AcDbCircle
 10
31.59973089678115
 20
-9.271599258481472
 30
0.0
 40
4.5
100
AcDbArc
 50
270.0
 51
231.0575587310182
  0
LINE
  5
3D
330
22
100
AcDbEntity
  8
0
100
AcDbLine
 10
17.59973089678112
 20
-4.771599258481472
 30
0.0
 11
17.59973089678115
 21
-13.77159925848147
 31
0.0
  0
ARC
  5
3E
330
22
100
AcDbEntity
  8
0
100
AcDbCircle
 10
22.59973089678116
 20
-7.271599258481472
 30
0.0
 40
2.5
100
AcDbArc
 50
293.1161887722295
 51
90.0
  0
CIRCLE
  5
3F
330
22
100
AcDbEntity
  8
0
100
AcDbCircle
 10
31.59973089678115
 20
-9.271599258481472
 30
0.0
 40
3.5
  0
ARC
  5
40
330
22
100
AcDbEntity
  8
0
100
AcDbCircle
 10
4.599730896781153
 20
-11.77159925848133
 30
0.0
 40
1.0
100
AcDbArc
 50
180.0
 51
270.0
  0
ARC
  5
41
330
22
100
AcDbEntity
  8
0
100
AcDbCircle
 10
4.599730896781153
 20
-11.77159925848133
 30
0.0
 40
2.0
100
AcDbArc
 50
179.9999999999992
 51
270.0
  0
LINE
  5
42
330
22
100
AcDbEntity
  8
0
100
AcDbLine
 10
11.59973089678115
 20
-13.77159925848144
 30
0.0
 11
4.599730896781153
 21
-13.77159925848147
 31
0.0
  0
LINE
  5
43
330
22
100
AcDbEntity
  8
0
100
AcDbLine
 10
8.771303772034769
 20
-12.77159925848136
 30
0.0
 11
4.599730896781153
 21
-12.77159925848133
 31
0.0
  0
LINE
  5
44
330
22
100
AcDbEntity
  8
0
100
AcDbLine
 10
31.59973089678115
 20
-13.77159925848147
 30
0.0
 11
23.6715276665056
 21
-13.77159925848144
 31
0.0
  0
LINE
  5
45
330
22
100
AcDbEntity
  8
0
100
AcDbLine
 10
23.56565672307022
 20
-9.51278021337896
 30
0.0
 11
24.4388546544846
 21
-12.77159925848144
 31
0.0
  0
LINE
  5
46
330
22
100
AcDbEntity
  8
0
100
AcDbLine
 10
22.59973089678116
 20
-9.771599258481472
 30
0.0
 11
18.59973089678112
 21
-9.771599258481472
 31
0.0
  0
LINE
  5
47
330
22
100
AcDbEntity
  8
0
100
AcDbLine
 10
18.59973089678115
 20
-13.77159925848144
 30
0.0
 11
17.59973089678115
 21
-13.77159925848144
 31
0.0
  0
LINE
  5
48
330
22
100
AcDbEntity
  8
0
100
AcDbLine
 10
18.59973089678115
 20
-9.771599258481472
 30
0.0
 11
18.59973089678115
 21
-13.77159925848144
 31
0.0
  0
LINE
  5
49
330
22
100
AcDbEntity
  8
0
100
AcDbLine
 10
22.59973089678116
 20
-9.771599258481472
 30
0.0
 11
23.67152766650562
 21
-13.77159925848147
 31
0.0
  0
ARC
  5
4A
330
22
100
AcDbEntity
  8
0
100
AcDbCircle
 10
22.59973089678116
 20
-7.271599258481472
 30
0.0
 40
2.5
100
AcDbArc
 50
270.0
 51
270.0000000000007
  0
LINE
  5
4B
330
22
100
AcDbEntity
  8
0
100
AcDbLine
 10
28.77130377203494
 20
-12.77159925848147
 30
0.0
 11
24.43885465448463
 21
-12.77159925848144
 31
0.0
  0
LINE
  5
4C
330
22
100
AcDbEntity
  8
0
100
AcDbLine
 10
3.599730896781125
 20
-4.771599258481472
 30
0.0
 11
2.599730896781125
 21
-4.771599258481472
 31
0.0
  0
LINE
  5
4D
330
22
100
AcDbEntity
  8
0
100
AcDbLine
 10
22.59973089678116
 20
-8.771599258481472
 30
0.0
 11
18.59973089678115
 21
-8.771599258481472
 31
0.0
  0
LINE
  5
4E
330
22
100
AcDbEntity
  8
0
100
AcDbLine
 10
22.59973089678116
 20
-5.771599258481472
 30
0.0
 11
18.59973089678115
 21
-5.771599258481472
 31
0.0
  0
LINE
  5
4F
330
22
100
AcDbEntity
  8
0
100
AcDbLine
 10
22.59973089678116
 20
-4.771599258481472
 30
0.0
 11
17.59973089678115
 21
-4.771599258481472
 31
0.0
  0
LINE
  5
50
330
22
100
AcDbEntity
  8
0
100
AcDbLine
 10
18.59973089678115
 20
-5.771599258481472
 30
0.0
 11
18.59973089678115
 21
-8.771599258481472
 31
0.0
  0
ARC
  5
51
330
22
100
AcDbEntity
  8
0
100
AcDbCircle
 10
22.59973089678116
 20
-7.271599258481472
 30
0.0
 40
1.5
100
AcDbArc
 50
270.0
 51
90.0
  0
ENDBLK
  5
52
330
22
100
AcDbEntity
  8
0
100
AcDbBlockEnd
  0
BLOCK
  5
197E
330
1974
100
AcDbEntity
  8
0
100
AcDbBlockBegin
  2
*D1
 70
     1
 10
0.0
 20
0.0
 30
0.0
  3
*D1
  1

  0
LINE
  5
2150
330
1974
100
AcDbEntity
  8
BEM
 62
     0
370
    -2
100
AcDbLine
 10
170.8702784589644
 20
322.5427805423032
 30
0.0
 11
170.8702784589644
 21
293.5696687000415
 31
0.0
  0
LINE
  5
2151
330
1974
100
AcDbEntity
  8
BEM
 62
     0
370
    -2
100
AcDbLine
 10
259.8702784589643
 20
322.542780542304
 30
0.0
 11
259.8702784589643
 21
293.5696687000415
 31
0.0
  0
LINE
  5
2152
330
1974
100
AcDbEntity
  8
BEM
 62
     0
370
    -2
100
AcDbLine
 10
179.6202784589644
 20
296.0696687000415
 30
0.0
 11
251.1202784589643
 21
296.0696687000415
 31
0.0
  0
SOLID
  5
2153
330
1974
100
AcDbEntity
  8
BEM
 62
     0
100
AcDbTrace
 10
179.6202784589644
 20
297.5280020333748
 30
0.0
 11
179.6202784589644
 21
294.6113353667081
 31
0.0
 12
170.8702784589644
 22
296.0696687000415
 32
0.0
 13
170.8702784589644
 23
296.0696687000415
 33
0.0
  0
SOLID
  5
2154
330
1974
100
AcDbEntity
  8
BEM
 62
     0
100
AcDbTrace
 10
251.1202784589643
 20
297.5280020333748
 30
0.0
 11
251.1202784589643
 21
294.6113353667081
 31
0.0
 12
259.8702784589643
 22
296.0696687000415
 32
0.0
 13
259.8702784589643
 23
296.0696687000415
 33
0.0
  0
MTEXT
  5
2155
330
1974
100
AcDbEntity
  8
BEM
 62
     1
100
AcDbMText
 10
215.3702784589644
 20
304.1946687000415
 30
0.0
 40
8.75
 41
0.0
 71
     5
 72
     1
  1
\A1;%%C89
 73
     1
 44
1.0
  0
POINT
  5
2156
330
1974
100
AcDbEntity
  8
Defpoints
 62
     0
100
AcDbPoint
 10
170.8702784589644
 20
325.0427805423033
 30
0.0
  0
POINT
  5
2157
330
1974
100
AcDbEntity
  8
Defpoints
 62
     0
100
AcDbPoint
 10
259.8702784589643
 20
325.0427805423039
 30
0.0
  0
POINT
  5
2158
330
1974
100
AcDbEntity
  8
Defpoints
 62
     0
100
AcDbPoint
 10
259.8702784589643
 20
296.0696687000415
 30
0.0
  0
ENDBLK
  5
197F
330
1974
100
AcDbEntity
  8
0
100
AcDbBlockEnd
  0
BLOCK
  5
1A47
330
1A3D
100
AcDbEntity
  8
0
100
AcDbBlockBegin
  2
*D2
 70
     1
 10
0.0
 20
0.0
 30
0.0
  3
*D2
  1

  0
LINE
  5
2147
330
1A3D
100
AcDbEntity
  8
BEM
 62
     0
370
    -2
100
AcDbLine
 10
451.0617109425294
 20
604.3574365911162
 30
0.0
 11
465.7834628509885
 21
605.1289709157941
 31
0.0
  0
LINE
  5
2148
330
1A3D
100
AcDbEntity
  8
BEM
 62
     0
370
    -2
100
AcDbLine
 10
458.0223931228407
 20
471.5397084687576
 30
0.0
 11
472.7441450312979
 21
472.3112427934355
 31
0.0
  0
LINE
  5
2149
330
1A3D
100
AcDbEntity
  8
BEM
 62
     0
370
    -2
100
AcDbLine
 10
463.7448286312276
 20
596.2601225960843
 30
0.0
 11
469.7896315772858
 21
480.9184113319306
 31
0.0
  0
SOLID
  5
214A
330
1A3D
100
AcDbEntity
  8
BEM
 62
     0
100
AcDbTrace
 10
465.2011633694113
 20
596.3364458656052
 30
0.0
 11
462.2884938930439
 21
596.1837993265633
 31
0.0
 12
463.286889014102
 22
604.9981310251869
 32
0.0
 13
463.286889014102
 23
604.9981310251869
 33
0.0
  0
SOLID
  5
214B
330
1A3D
100
AcDbEntity
  8
BEM
 62
     0
100
AcDbTrace
 10
471.2459663154695
 20
480.9947346014516
 30
0.0
 11
468.333296839102
 21
480.8420880624098
 31
0.0
 12
470.2475711944114
 22
472.1804029028281
 32
0.0
 13
470.2475711944114
 23
472.1804029028281
 33
0.0
  0
MTEXT
  5
214C
330
1A3D
100
AcDbEntity
  8
BEM
 62
     1
100
AcDbMText
 10
474.8810950741375
 20
539.0144966084813
 30
0.0
 40
8.75
 41
0.0
 71
     5
 72
     1
  1
\A1;%%c133
 11
0.0523359562429282
 21
-0.9986295347545746
 31
0.0
 73
     1
 44
1.0
  0
POINT
  5
214D
330
1A3D
100
AcDbEntity
  8
Defpoints
 62
     0
100
AcDbPoint
 10
448.5651371056429
 20
604.2265967005089
 30
0.0
  0
POINT
  5
214E
330
1A3D
100
AcDbEntity
  8
Defpoints
 62
     0
100
AcDbPoint
 10
455.5258192859542
 20
471.4088685781502
 30
0.0
  0
POINT
  5
214F
330
1A3D
100
AcDbEntity
  8
Defpoints
 62
     0
100
AcDbPoint
 10
470.2475711944114
 20
472.1804029028281
 30
0.0
  0
ENDBLK
  5
1A48
330
1A3D
100
AcDbEntity
  8
0
100
AcDbBlockEnd
  0
BLOCK
  5
1B56
330
1B4C
100
AcDbEntity
  8
0
100
AcDbBlockBegin
  2
*D3
 70
     1
 10
0.0
 20
0.0
 30
0.0
  3
*D3
  1

  0
LINE
  5
2187
330
1B4C
100
AcDbEntity
  8
BEM
 62
     0
370
    -2
100
AcDbLine
 10
146.3702784589643
 20
368.4141110097519
 30
0.0
 11
130.6436228132116
 21
368.4141110097519
 31
0.0
  0
LINE
  5
2188
330
1B4C
100
AcDbEntity
  8
BEM
 62
     0
370
    -2
100
AcDbLine
 10
169.4201424212755
 20
318.4141110097519
 30
0.0
 11
130.6436228132115
 21
318.4141110097519
 31
0.0
  0
LINE
  5
2189
330
1B4C
100
AcDbEntity
  8
BEM
 62
     0
370
    -2
100
AcDbLine
 10
133.1436228132115
 20
359.6641110097519
 30
0.0
 11
133.1436228132115
 21
327.1641110097519
 31
0.0
  0
SOLID
  5
218A
330
1B4C
100
AcDbEntity
  8
BEM
 62
     0
100
AcDbTrace
 10
131.6852894798782
 20
359.6641110097519
 30
0.0
 11
134.6019561465449
 21
359.6641110097519
 31
0.0
 12
133.1436228132115
 22
368.4141110097519
 32
0.0
 13
133.1436228132115
 23
368.4141110097519
 33
0.0
  0
SOLID
  5
218B
330
1B4C
100
AcDbEntity
  8
BEM
 62
     0
100
AcDbTrace
 10
131.6852894798782
 20
327.1641110097519
 30
0.0
 11
134.6019561465449
 21
327.1641110097519
 31
0.0
 12
133.1436228132115
 22
318.4141110097519
 32
0.0
 13
133.1436228132115
 23
318.4141110097519
 33
0.0
  0
MTEXT
  5
218C
330
1B4C
100
AcDbEntity
  8
BEM
 62
     1
100
AcDbMText
 10
125.0186228132115
 20
343.4141110097519
 30
0.0
 40
8.75
 41
0.0
 71
     5
 72
     1
  1
\A1;50
 11
0.0000000000000001
 21
1.0
 31
0.0
 73
     1
 44
1.0
  0
POINT
  5
218D
330
1B4C
100
AcDbEntity
  8
Defpoints
 62
     0
100
AcDbPoint
 10
148.8702784589643
 20
368.4141110097519
 30
0.0
  0
POINT
  5
218E
330
1B4C
100
AcDbEntity
  8
Defpoints
 62
     0
100
AcDbPoint
 10
171.9201424212755
 20
318.4141110097519
 30
0.0
  0
POINT
  5
218F
330
1B4C
100
AcDbEntity
  8
Defpoints
 62
     0
100
AcDbPoint
 10
133.1436228132115
 20
318.4141110097519
 30
0.0
  0
ENDBLK
  5
1B57
330
1B4C
100
AcDbEntity
  8
0
100
AcDbBlockEnd
  0
BLOCK
  5
219B
330
2191
100
AcDbEntity
  8
0
100
AcDbBlockBegin
  2
*D4
 70
     1
 10
0.0
 20
0.0
 30
0.0
  3
*D4
  1

  0
LINE
  5
2192
330
2191
100
AcDbEntity
  8
BEM
 62
     0
370
    -2
100
AcDbLine
 10
169.4201424212755
 20
318.4141110097519
 30
0.0
 11
110.4562339648377
 21
318.4141110097519
 31
0.0
  0
LINE
  5
2193
330
2191
100
AcDbEntity
  8
BEM
 62
     0
370
    -2
100
AcDbLine
 10
212.8702784589643
 20
525.4141110097517
 30
0.0
 11
110.4562339648378
 21
525.4141110097517
 31
0.0
  0
LINE
  5
2194
330
2191
100
AcDbEntity
  8
BEM
 62
     0
370
    -2
100
AcDbLine
 10
112.9562339648377
 20
327.1641110097519
 30
0.0
 11
112.9562339648378
 21
516.6641110097518
 31
0.0
  0
SOLID
  5
2195
330
2191
100
AcDbEntity
  8
BEM
 62
     0
100
AcDbTrace
 10
111.4979006315044
 20
327.1641110097519
 30
0.0
 11
114.414567298171
 21
327.1641110097519
 31
0.0
 12
112.9562339648377
 22
318.4141110097519
 32
0.0
 13
112.9562339648377
 23
318.4141110097519
 33
0.0
  0
SOLID
  5
2196
330
2191
100
AcDbEntity
  8
BEM
 62
     0
100
AcDbTrace
 10
111.4979006315044
 20
516.6641110097518
 30
0.0
 11
114.4145672981711
 21
516.6641110097518
 31
0.0
 12
112.9562339648378
 22
525.4141110097517
 32
0.0
 13
112.9562339648378
 23
525.4141110097517
 33
0.0
  0
MTEXT
  5
2197
330
2191
100
AcDbEntity
  8
BEM
 62
     1
100
AcDbMText
 10
104.8312339648377
 20
421.9141110097519
 30
0.0
 40
8.75
 41
0.0
 71
     5
 72
     1
  1
\A1;207
 11
0.0000000000000001
 21
1.0
 31
0.0
 73
     1
 44
1.0
  0
POINT
  5
2198
330
2191
100
AcDbEntity
  8
Defpoints
 62
     0
100
AcDbPoint
 10
171.9201424212755
 20
318.4141110097519
 30
0.0
  0
POINT
  5
2199
330
2191
100
AcDbEntity
  8
Defpoints
 62
     0
100
AcDbPoint
 10
215.3702784589643
 20
525.4141110097517
 30
0.0
  0
POINT
  5
219A
330
2191
100
AcDbEntity
  8
Defpoints
 62
     0
100
AcDbPoint
 10
112.9562339648378
 20
525.4141110097517
 30
0.0
  0
ENDBLK
  5
219C
330
2191
100
AcDbEntity
  8
0
100
AcDbBlockEnd
  0
BLOCK
  5
21A8
330
219E
100
AcDbEntity
  8
0
100
AcDbBlockBegin
  2
*D5
 70
     1
 10
0.0
 20
0.0
 30
0.0
  3
*D5
  1

  0
LINE
  5
21B8
330
219E
100
AcDbEntity
  8
BEM
 62
     0
370
    -2
100
AcDbLine
 10
215.239438568357
 20
527.9106848466382
 30
0.0
 11
208.1697878999938
 21
662.8076555841641
 31
0.0
  0
LINE
  5
21B9
330
219E
100
AcDbEntity
  8
BEM
 62
     0
370
    -2
100
AcDbLine
 10
448.4342972150354
 20
606.7231705373951
 30
0.0
 11
444.844987636828
 21
675.2112772137419
 31
0.0
  0
LINE
  5
21BA
330
219E
100
AcDbEntity
  8
BEM
 62
     0
370
    -2
100
AcDbLine
 10
217.0386362197036
 20
660.7690213644034
 30
0.0
 11
436.2378190983328
 21
672.2567637597296
 31
0.0
  0
SOLID
  5
21BB
330
219E
100
AcDbEntity
  8
BEM
 62
     0
100
AcDbTrace
 10
216.9623129501827
 20
662.225356102587
 30
0.0
 11
217.1149594892246
 21
659.3126866262196
 31
0.0
 12
208.3006277906011
 22
660.3110817472776
 32
0.0
 13
208.3006277906011
 23
660.3110817472776
 33
0.0
  0
SOLID
  5
21BC
330
219E
100
AcDbEntity
  8
BEM
 62
     0
100
AcDbTrace
 10
436.1614958288119
 20
673.7130984979134
 30
0.0
 11
436.3141423678538
 21
670.8004290215458
 31
0.0
 12
444.9758275274354
 22
672.7147033768554
 32
0.0
 13
444.9758275274354
 23
672.7147033768554
 33
0.0
  0
MTEXT
  5
21BD
330
219E
100
AcDbEntity
  8
BEM
 62
     1
100
AcDbMText
 10
326.2129980145443
 20
674.6267575319474
 30
0.0
 40
8.75
 41
0.0
 71
     5
 72
     1
  1
\A1;237
 11
0.9986295347545739
 21
0.0523359562429444
 31
0.0
 73
     1
 44
1.0
  0
POINT
  5
21BE
330
219E
100
AcDbEntity
  8
Defpoints
 62
     0
100
AcDbPoint
 10
215.3702784589643
 20
525.4141110097517
 30
0.0
  0
POINT
  5
21BF
330
219E
100
AcDbEntity
  8
Defpoints
 62
     0
100
AcDbPoint
 10
448.5651371056428
 20
604.2265967005088
 30
0.0
  0
POINT
  5
21C0
330
219E
100
AcDbEntity
  8
Defpoints
 62
     0
100
AcDbPoint
 10
444.9758275274354
 20
672.7147033768554
 30
0.0
  0
ENDBLK
  5
21A9
330
219E
100
AcDbEntity
  8
0
100
AcDbBlockEnd
  0
BLOCK
  5
21B6
330
21AB
100
AcDbEntity
  8
0
100
AcDbBlockBegin
  2
*D6
 70
     1
 10
0.0
 20
0.0
 30
0.0
  3
*D6
  1

  0
LINE
  5
21AC
330
21AB
100
AcDbEntity
  8
BEM
 62
     0
370
    -2
100
AcDbLine
 10
215.3702784589643
 20
527.9141110097518
 30
0.0
 11
215.3702784589643
 21
641.8459014300326
 31
0.0
  0
ARC
  5
21AD
330
21AB
100
AcDbEntity
  8
BEM
 62
     0
370
    -2
100
AcDbCircle
 10
215.3702784589643
 20
525.4141110097519
 30
0.0
 40
113.9317904202809
100
AcDbArc
 50
7.401417380054983
 51
85.59858261994502
  0
SOLID
  5
21AE
330
21AB
100
AcDbEntity
  8
BEM
 62
     0
100
AcDbTrace
 10
329.8051162400538
 20
540.2230093626889
 30
0.0
 11
326.9004566806563
 21
539.9586284094322
 31
0.0
 12
329.1459293201251
 22
531.376840207868
 32
0.0
 13
329.1459293201251
 23
531.376840207868
 33
0.0
  0
SOLID
  5
21AF
330
21AB
100
AcDbEntity
  8
BEM
 62
     0
100
AcDbTrace
 10
224.0578245758588
 20
637.5526422245791
 30
0.0
 11
224.1698250686062
 21
640.4671576790018
 31
0.0
 12
215.3702784589643
 22
639.3459014300328
 32
0.0
 13
215.3702784589643
 23
639.3459014300328
 33
0.0
  0
MTEXT
  5
21B0
330
21AB
100
AcDbEntity
  8
BEM
 62
     1
100
AcDbMText
 10
299.3886286392582
 20
613.9509785886416
 30
0.0
 40
8.75
 41
0.0
 71
     5
 72
     1
  1
\A1;87°
 11
0.7253743710122878
 21
-0.6883545756937539
 31
0.0
 73
     1
 44
1.0
  0
POINT
  5
21B1
330
21AB
100
AcDbEntity
  8
Defpoints
 62
     0
100
AcDbPoint
 10
311.9899164165764
 20
585.7887615620387
 30
0.0
  0
POINT
  5
21B2
330
21AB
100
AcDbEntity
  8
Defpoints
 62
     0
100
AcDbPoint
 10
215.3702784589643
 20
525.4141110097519
 30
0.0
  0
POINT
  5
21B3
330
21AB
100
AcDbEntity
  8
Defpoints
 62
     0
100
AcDbPoint
 10
457.0386258695712
 20
538.0794124205441
 30
0.0
  0
POINT
  5
21B4
330
21AB
100
AcDbEntity
  8
Defpoints
 62
     0
100
AcDbPoint
 10
215.3702784589643
 20
525.4141110097519
 30
0.0
  0
POINT
  5
21B5
330
21AB
100
AcDbEntity
  8
Defpoints
 62
     0
100
AcDbPoint
 10
215.3702784589643
 20
313.4141110097519
 30
0.0
  0
ENDBLK
  5
21B7
330
21AB
100
AcDbEntity
  8
0
100
AcDbBlockEnd
  0
ENDSEC
  0
SECTION
  2
ENTITIES
  0
LINE
  5
57
330
1E
100
AcDbEntity
  8
STEMPEL
100
AcDbLine
 10
512.5
 20
137.5
 30
0.0
 11
49.99999999999996
 21
137.5
 31
0.0
  0
LINE
  5
58
330
1E
100
AcDbEntity
  8
STEMPEL
100
AcDbLine
 10
182.5000000000001
 20
137.4999999999999
 30
0.0
 11
182.5
 21
12.49999999999996
 31
0.0
  0
LINE
  5
59
330
1E
100
AcDbEntity
  8
STEMPEL
100
AcDbLine
 10
287.5
 20
137.5
 30
0.0
 11
287.5
 21
12.49999999999996
 31
0.0
  0
LINE
  5
5A
330
1E
100
AcDbEntity
  8
STEMPEL
100
AcDbLine
 10
415.0
 20
137.4999999999997
 30
0.0
 11
415.0
 21
50.0
 31
0.0
  0
LINE
  5
5B
330
1E
100
AcDbEntity
  8
STEMPEL
100
AcDbLine
 10
182.4999999999998
 20
37.49999999999996
 30
0.0
 11
49.99999999999996
 21
37.49999999999996
 31
0.0
  0
LINE
  5
5C
330
1E
100
AcDbEntity
  8
STEMPEL
100
AcDbLine
 10
512.5
 20
50.0
 30
0.0
 11
182.5000000000001
 21
49.99999999999996
 31
0.0
  0
LINE
  5
5D
330
1E
100
AcDbEntity
  8
STEMPEL
100
AcDbLine
 10
512.5
 20
100.0
 30
0.0
 11
182.5000000000001
 21
99.99999999999992
 31
0.0
  0
LINE
  5
5E
330
1E
100
AcDbEntity
  8
VOLL
100
AcDbLine
 10
67.50000000000011
 20
137.5
 30
0.0
 11
67.49999999999997
 21
12.49999999999996
 31
0.0
  0
LINE
  5
5F
330
1E
100
AcDbEntity
  8
VOLL
100
AcDbLine
 10
130.0000000000001
 20
137.4999999999999
 30
0.0
 11
130.0
 21
12.49999999999996
 31
0.0
  0
LINE
  5
60
330
1E
100
AcDbEntity
  8
VOLL
100
AcDbLine
 10
155.0000000000001
 20
137.4999999999999
 30
0.0
 11
155.0
 21
12.49999999999996
 31
0.0
  0
LINE
  5
61
330
1E
100
AcDbEntity
  8
VOLL
100
AcDbLine
 10
205.0000000000002
 20
99.99999999999992
 30
0.0
 11
205.0000000000002
 21
49.99999999999996
 31
0.0
  0
LINE
  5
62
330
1E
100
AcDbEntity
  8
VOLL
100
AcDbLine
 10
237.5000000000001
 20
137.4999999999998
 30
0.0
 11
237.5
 21
49.99999999999996
 31
0.0
  0
LINE
  5
63
330
1E
100
AcDbEntity
  8
HILF
100
AcDbLine
 10
50.0000000000001
 20
125.0
 30
0.0
 11
182.5000000000001
 21
125.0
 31
0.0
  0
LINE
  5
64
330
1E
100
AcDbEntity
  8
HILF
100
AcDbLine
 10
50.0000000000001
 20
112.5
 30
0.0
 11
182.5000000000001
 21
112.5
 31
0.0
  0
LINE
  5
65
330
1E
100
AcDbEntity
  8
HILF
100
AcDbLine
 10
50.0000000000001
 20
99.99999999999992
 30
0.0
 11
182.5000000000001
 21
99.99999999999992
 31
0.0
  0
LINE
  5
66
330
1E
100
AcDbEntity
  8
HILF
100
AcDbLine
 10
50.0000000000001
 20
87.49999999999992
 30
0.0
 11
182.5000000000001
 21
87.49999999999992
 31
0.0
  0
LINE
  5
67
330
1E
100
AcDbEntity
  8
HILF
100
AcDbLine
 10
50.0000000000001
 20
74.99999999999997
 30
0.0
 11
182.5000000000001
 21
74.99999999999997
 31
0.0
  0
LINE
  5
68
330
1E
100
AcDbEntity
  8
HILF
100
AcDbLine
 10
50.0000000000001
 20
62.49999999999996
 30
0.0
 11
182.5000000000001
 21
62.49999999999996
 31
0.0
  0
LINE
  5
69
330
1E
100
AcDbEntity
  8
HILF
100
AcDbLine
 10
50.0000000000001
 20
49.99999999999996
 30
0.0
 11
182.5000000000001
 21
49.99999999999996
 31
0.0
  0
LINE
  5
6A
330
1E
100
AcDbEntity
  8
HILF
100
AcDbLine
 10
182.5000000000001
 20
87.49999999999992
 30
0.0
 11
287.5
 21
87.49999999999992
 31
0.0
  0
LINE
  5
6B
330
1E
100
AcDbEntity
  8
HILF
100
AcDbLine
 10
182.5000000000001
 20
74.99999999999997
 30
0.0
 11
287.5
 21
74.99999999999997
 31
0.0
  0
LINE
  5
6C
330
1E
100
AcDbEntity
  8
HILF
100
AcDbLine
 10
182.5000000000001
 20
62.49999999999996
 30
0.0
 11
287.5
 21
62.49999999999996
 31
0.0
  0
LINE
  5
6D
330
1E
100
AcDbEntity
  8
HILF
100
AcDbLine
 10
293.4671001371185
 20
105.0469780945517
 30
0.0
 11
406.0442395695388
 21
105.0469780945517
 31
0.0
  0
LINE
  5
6E
330
1E
100
AcDbEntity
  8
HILF
100
AcDbLine
 10
293.4671001371185
 20
87.49999999999992
 30
0.0
 11
406.0442395695387
 21
87.49999999999992
 31
0.0
  0
LINE
  5
6F
330
1E
100
AcDbEntity
  8
HILF
100
AcDbLine
 10
293.4671001371185
 20
74.99999999999997
 30
0.0
 11
406.0442395695387
 21
74.99999999999997
 31
0.0
  0
LINE
  5
70
330
1E
100
AcDbEntity
  8
HILF
100
AcDbLine
 10
293.4671001371185
 20
62.49999999999996
 30
0.0
 11
406.0442395695387
 21
62.49999999999996
 31
0.0
  0
LINE
  5
71
330
1E
100
AcDbEntity
  8
VOLL
100
AcDbLine
 10
415.0
 20
75.0
 30
0.0
 11
512.5
 21
75.0
 31
0.0
  0
LINE
  5
72
330
1E
100
AcDbEntity
  8
HILF
100
AcDbLine
 10
420.9048270371241
 20
104.7247954619478
 30
0.0
 11
506.073604915841
 21
104.7247954619478
 31
0.0
  0
LINE
  5
73
330
1E
100
AcDbEntity
  8
HILF
100
AcDbLine
 10
291.8637124112356
 20
18.61747822535392
 30
0.0
 11
506.073604915841
 21
18.61747822535392
 31
0.0
  0
TEXT
  5
74
330
1E
100
AcDbEntity
  8
TEXT
100
AcDbText
 10
84.74387371862629
 20
23.34227368730165
 30
0.0
 40
5.0
  1
Änderung
 41
0.8
  7
GREEKS
 72
     1
 11
98.17244514719773
 21
23.34227368730165
 31
0.0
100
AcDbText
  0
TEXT
  5
75
330
1E
100
AcDbEntity
  8
TEXT
100
AcDbText
 10
191.8954465187971
 20
128.0776118858861
 30
0.0
 40
6.25
  1
Maßstab
 41
0.8
  7
GREEKS
100
AcDbText
  0
TEXT
  5
76
330
1E
100
AcDbEntity
  8
TEXT
100
AcDbText
 10
242.8573693417564
 20
128.0230210543524
 30
0.0
 40
6.25
  1
Zul. Abw.
 41
0.8
  7
GREEKS
100
AcDbText
  0
TEXT
  5
77
330
1E
100
AcDbEntity
  8
TEXT
100
AcDbText
 10
293.5974254761262
 20
128.1861660014724
 30
0.0
 40
6.25
  1
Benennung
 41
0.8
  7
GREEKS
100
AcDbText
  0
TEXT
  5
78
330
1E
100
AcDbEntity
  8
TEXT
100
AcDbText
 10
420.2234436970425
 20
127.891504317142
 30
0.0
 40
6.25
  1
Zeichnungs Nr.
 41
0.8
  7
GREEKS
100
AcDbText
  0
TEXT
  5
79
330
1E
100
AcDbEntity
  8
TEXT
100
AcDbText
 10
293.42779798892
 20
38.55700712741321
 30
0.0
 40
6.25
  1
Bauvorhaben
 41
0.8
  7
GREEKS
100
AcDbText
  0
TEXT
  5
7A
330
1E
100
AcDbEntity
  8
TEXT
100
AcDbText
 10
420.9048270371241
 20
91.47647796374961
 30
0.0
 40
6.25
  1
Ersatz für:
 41
0.8
  7
GREEKS
100
AcDbText
  0
TEXT
  5
7B
330
1E
100
AcDbEntity
  8
TEXT
100
AcDbText
 10
60.33301383807195
 20
17.06832307533989
 30
0.0
 40
5.0
  1
Index
 50
90.0
 41
0.8
  7
GREEKS
100
AcDbText
  0
TEXT
  5
7C
330
1E
100
AcDbEntity
  8
TEXT
100
AcDbText
 10
138.3732649044237
 20
23.33945336674763
 30
0.0
 40
5.0
  1
Tag
 41
0.8
  7
GREEKS
 72
     1
 11
143.0399315710903
 21
23.33945336674763
 31
0.0
100
AcDbText
  0
TEXT
  5
7D
330
1E
100
AcDbEntity
  8
TEXT
100
AcDbText
 10
161.2653430483241
 20
23.2415527120801
 30
0.0
 40
5.0
  1
Name
 41
0.8
  7
GREEKS
 72
     1
 11
169.170104953086
 21
23.2415527120801
 31
0.0
100
AcDbText
  0
TEXT
  5
7E
330
1E
100
AcDbEntity
  8
TEXT
100
AcDbText
 10
215.4139591442064
 20
91.64850626537408
 30
0.0
 40
5.0
  1
Tag
 41
0.8
  7
GREEKS
100
AcDbText
  0
TEXT
  5
7F
330
1E
100
AcDbEntity
  8
TEXT
100
AcDbText
 10
253.0783230282869
 20
91.63701364894031
 30
0.0
 40
5.0
  1
Name
 41
0.8
  7
GREEKS
100
AcDbText
  0
TEXT
  5
80
330
1E
100
AcDbEntity
  8
TEXT
100
AcDbText
 10
184.4795158959519
 20
79.53737962022455
 30
0.0
 40
5.0
  1
Gez.
 41
0.8
  7
GREEKS
100
AcDbText
  0
TEXT
  5
81
330
1E
100
AcDbEntity
  8
TEXT
100
AcDbText
 10
184.439385821459
 20
67.11157864285471
 30
0.0
 40
5.0
  1
Gepr.
 41
0.8
  7
GREEKS
100
AcDbText
  0
TEXT
  5
82
330
1E
100
AcDbEntity
  8
TEXT
100
AcDbText
 10
184.5008471734129
 20
54.41182987062259
 30
0.0
 40
5.0
  1
Norm.
 41
0.8
  7
GREEKS
100
AcDbText
  0
LINE
  5
83
330
1E
100
AcDbEntity
  8
STEMPEL
100
AcDbLine
 10
62.49999999999985
 20
12.5
 30
0.0
 11
512.5
 21
12.5
 31
0.0
  0
TEXT
  5
84
330
1E
100
AcDbEntity
  8
TEXT
100
AcDbText
 10
421.5501076871257
 20
65.09270222348252
 30
0.0
 40
6.25
  1
ersetzt durch:
 41
0.8
  7
GREEKS
100
AcDbText
  0
LINE
  5
85
330
1E
100
AcDbEntity
  8
STEMPEL
100
AcDbLine
 10
512.5
 20
12.5
 30
0.0
 11
49.99999999999985
 21
12.5
 31
0.0
  0
LINE
  5
86
330
1E
100
AcDbEntity
  8
STEMPEL
100
AcDbLine
 10
512.5
 20
12.5
 30
0.0
 11
512.5
 21
730.0
 31
0.0
  0
LINE
  5
87
330
1E
100
AcDbEntity
  8
STEMPEL
100
AcDbLine
 10
50.0
 20
12.5
 30
0.0
 11
49.99999999999985
 21
730.0
 31
0.0
  0
LINE
  5
88
330
1E
100
AcDbEntity
  8
STEMPEL
100
AcDbLine
 10
512.5
 20
730.0
 30
0.0
 11
49.99999999999985
 21
730.0
 31
0.0
  0
LINE
  5
89
330
1E
100
AcDbEntity
  8
HILF
100
AcDbLine
 10
0.0
 20
0.0
 30
0.0
 11
-0.0000000000001421
 21
742.4999999999999
 31
0.0
  0
LINE
  5
8A
330
1E
100
AcDbEntity
  8
HILF
100
AcDbLine
 10
524.9999999999999
 20
742.5000000000002
 30
0.0
 11
0.0
 21
742.4999999999999
 31
0.0
  0
LINE
  5
8B
330
1E
100
AcDbEntity
  8
HILF
100
AcDbLine
 10
525.0
 20
0.0
 30
0.0
 11
0.0
 21
0.0
 31
0.0
  0
LINE
  5
8C
330
1E
100
AcDbEntity
  8
HILF
100
AcDbLine
 10
38.8595891964232
 20
371.2500000000001
 30
0.0
 11
0.0000000000001421
 21
371.2500000000001
 31
0.0
  0
LINE
  5
8E
330
1E
100
AcDbEntity
  8
HILF
100
AcDbLine
 10
525.0
 20
-0.0000000000001421
 30
0.0
 11
524.9999999999999
 21
742.4999999999999
 31
0.0
  0
TEXT
  5
8F
330
1E
100
AcDbEntity
  8
VOLL
100
AcDbText
 10
78.07675471698113
 20
31.02594776470585
 30
0.0
 40
1.8
  1

  7
GREEKS
100
AcDbText
  0
TEXT
  5
90
330
1E
100
AcDbEntity
  8
TEXT
100
AcDbText
 10
52.31887438722093
 20
139.5899999999999
 30
0.0
 40
6.25
  1
Erstellt mit AUTOCAD 2004
 41
0.8
  7
GREEKS
100
AcDbText
  0
TEXT
  5
91
330
1E
100
AcDbEntity
  8
TEXT
100
AcDbText
 10
255.5270060726571
 20
78.86204899654387
 30
0.0
 40
5.0
  1
Koeh
 41
0.8
  7
GREEKS
 72
     1
 11
262.0984346440857
 21
78.86204899654387
 31
0.0
100
AcDbText
  0
TEXT
  5
92
330
1E
100
AcDbEntity
  8
TEXT
 62
     1
100
AcDbText
 10
433.4705259188434
 20
110.1862678614245
 30
0.0
 40
8.75
  1
58030080W
 41
0.8
  7
GREEKS
 72
     1
 11
463.4705259188434
 21
110.1862678614245
 31
0.0
100
AcDbText
  0
TEXT
  5
93
330
1E
100
AcDbEntity
  8
TEXT
 62
     1
100
AcDbText
 10
200.6257883102358
 20
110.1862678614245
 30
0.0
 40
8.75
  1
1:2.5
 41
0.8
  7
GREEKS
100
AcDbText
  0
TEXT
  5
95
330
1E
100
AcDbEntity
  8
TEXT
 62
     1
100
AcDbText
 10
296.1169663821753
 20
109.2718598656722
 30
0.0
 40
8.75
  1
Verbundrohr DN80
 41
0.8
  7
GREEKS
100
AcDbText
  0
TEXT
  5
98
330
1E
100
AcDbEntity
  8
TEXT
100
AcDbText
 10
293.9120488906644
 20
64.55014928802699
 30
0.0
 40
6.25
  1
EDV-Art.Nr. 58030.080X
 41
0.8
  7
GREEKS
100
AcDbText
  0
TEXT
  5
99
330
1E
100
AcDbEntity
  8
TEXT
100
AcDbText
 10
293.7296876972284
 20
53.28717691278291
 30
0.0
 40
5.0
  1
58030080W.DWG
 41
0.8
  7
GREEKS
100
AcDbText
  0
TEXT
  5
9A
330
1E
100
AcDbEntity
  8
TEXT
100
AcDbText
 10
240.782665260105
 20
113.4545480127878
 30
0.0
 40
5.0
  1
DIN EN1123-2
 41
0.8
  7
GREEKS
 72
     1
 11
262.0207604982003
 21
113.4545480127878
 31
0.0
100
AcDbText
  0
INSERT
  5
9B
330
1E
100
AcDbEntity
  8
STEMPEL
100
AcDbBlockReference
  2
LOGO
 10
188.7444356822243
 20
56.27631595560402
 30
0.0
 41
2.5
 42
2.5
 43
2.5
  0
TEXT
  5
2C0
330
1E
100
AcDbEntity
  8
BEM
100
AcDbText
 10
521.6278654821457
 20
12.70987634998576
 30
0.0
 40
5.0
  1
Diese Zeichnung ist urheberrechtlich geschützt und bleibt unser Eigentum. Sie darf weder ganz noch teilweise verfielfältigt und nicht an Dritte weitergegeben werden.
 50
90.0
 41
0.8
  7
GREEKS
100
AcDbText
  0
TEXT
  5
77A
330
1E
100
AcDbEntity
  8
TEXT
100
AcDbText
 10
293.9120488906644
 20
89.55014928802695
 30
0.0
 40
6.25
  1
Bogen 87°
 41
0.8
  7
GREEKS
100
AcDbText
  0
TEXT
  5
78C
330
1E
100
AcDbEntity
  8
TEXT
 62
     1
100
AcDbText
 10
318.7876613940725
 20
162.1777724661328
 30
0.0
 40
8.75
  1
und innenbeschichtet
 41
0.8
  7
GREEKS
100
AcDbText
  0
TEXT
  5
78D
330
1E
100
AcDbEntity
  8
TEXT
 62
     1
100
AcDbText
 10
253.7590621666965
 20
146.8247093859629
 30
0.0
 40
8.75
  1
Dämmung: 2 K-PU-Schaum
 41
0.8
  7
GREEKS
100
AcDbText
  0
TEXT
  5
78E
330
1E
100
AcDbEntity
  8
TEXT
 62
     1
100
AcDbText
 10
259.2195002990553
 20
176.264089765165
 30
0.0
 40
8.75
  1
Innenrohr: E195 EN10305 feuerverzinkt
 41
0.8
  7
GREEKS
100
AcDbText
  0
TEXT
  5
78F
330
1E
100
AcDbEntity
  8
TEXT
 62
     1
100
AcDbText
 10
254.5042285854753
 20
190.4554248106087
 30
0.0
 40
8.75
  1
Außenrohr: E195 EN10305 feuerverzinkt
 41
0.8
  7
GREEKS
100
AcDbText
  0
ARC
  5
186D
102
{ACAD_REACTORS
330
2186
102
}
330
1E
100
AcDbEntity
  8
STEMPEL
100
AcDbCircle
 10
348.8702784589643
 20
398.7273413533153
 30
0.0
 40
89.0
100
AcDbArc
 50
92.9999999999991
 51
180.0
  0
ARC
  5
186E
102
{ACAD_REACTORS
330
2186
102
}
330
1E
100
AcDbEntity
  8
STEMPEL
100
AcDbCircle
 10
348.8702784589643
 20
398.7273413533153
 30
0.0
 40
178.0
100
AcDbArc
 50
92.9999999999991
 51
180.0
  0
ARC
  5
1870
330
1E
100
AcDbEntity
  8
MITTEL
100
AcDbCircle
 10
348.8702784589643
 20
398.7273413533153
 30
0.0
 40
133.5
100
AcDbArc
 50
92.9999999999991
 51
180.0
  0
LINE
  5
1874
102
{ACAD_REACTORS
330
2186
102
}
330
1E
100
AcDbEntity
  8
MITTEL
100
AcDbLine
 10
215.3702784589643
 20
525.4141110097517
 30
0.0
 11
215.3702784589643
 21
313.4141110097519
 31
0.0
  0
LINE
  5
188C
102
{ACAD_REACTORS
330
2186
102
}
330
1E
100
AcDbEntity
  8
MITTEL
100
AcDbLine
 10
457.0386258695712
 20
538.0794124205441
 30
0.0
 11
215.3702784589643
 21
525.4141110097517
 31
0.0
  0
TEXT
  5
188F
330
1E
100
AcDbEntity
  8
TEXT
 62
     1
100
AcDbText
 10
315.7618413247102
 20
328.1969603556624
 30
0.0
 40
8.75
  1
Rohrende leicht eingezogen
 41
0.8
  7
GREEKS
100
AcDbText
  0
LINE
  5
194B
102
{ACAD_REACTORS
330
2186
102
}
330
1E
100
AcDbEntity
  8
STEMPEL
100
AcDbLine
 10
279.3702784589643
 20
426.4550297984889
 30
0.0
 11
279.3702784589643
 21
368.4141110097519
 31
0.0
  0
LINE
  5
194C
330
1E
100
AcDbEntity
  8
STEMPEL
100
AcDbLine
 10
281.8702784589643
 20
425.4576309335545
 30
0.0
 11
281.8702784589643
 21
366.4141110097519
 31
0.0
  0
LINE
  5
1950
102
{ACAD_REACTORS
330
2186
102
}
330
1E
100
AcDbEntity
  8
STEMPEL
100
AcDbLine
 10
276.8115461470963
 20
384.4141110097519
 30
0.0
 11
259.8702784589643
 21
384.4141110097519
 31
0.0
  0
LINE
  5
1951
330
1E
100
AcDbEntity
  8
STEMPEL
100
AcDbLine
 10
281.8702784589643
 20
368.4141110097519
 30
0.0
 11
279.3702784589643
 21
368.4141110097519
 31
0.0
  0
LINE
  5
1952
102
{ACAD_REACTORS
330
2186
102
}
330
1E
100
AcDbEntity
  8
STEMPEL
100
AcDbLine
 10
278.8813451405015
 20
382.4153293557138
 30
0.0
 11
276.8115461470963
 21
384.4141110097519
 31
0.0
  0
LINE
  5
1953
102
{ACAD_REACTORS
330
2186
102
}
330
1E
100
AcDbEntity
  8
STEMPEL
100
AcDbLine
 10
279.3702784589643
 20
368.4141110097519
 30
0.0
 11
278.8813451405015
 21
382.4153293557138
 31
0.0
  0
LINE
  5
1954
330
1E
100
AcDbEntity
  8
STEMPEL
100
AcDbLine
 10
264.3702784589643
 20
374.4141110097519
 30
0.0
 11
259.8702784589641
 21
374.4141110097519
 31
0.0
  0
LINE
  5
1956
330
1E
100
AcDbEntity
  8
STEMPEL
100
AcDbLine
 10
151.3702784589643
 20
368.4141110097519
 30
0.0
 11
148.8702784589643
 21
368.4141110097519
 31
0.0
  0
LINE
  5
1957
102
{ACAD_REACTORS
330
2186
102
}
330
1E
100
AcDbEntity
  8
STEMPEL
100
AcDbLine
 10
153.9290107708323
 20
384.4141110097519
 30
0.0
 11
170.8702784589645
 21
384.4141110097519
 31
0.0
  0
LINE
  5
1958
330
1E
100
AcDbEntity
  8
STEMPEL
100
AcDbLine
 10
172.4702784589644
 20
325.1687015967604
 30
0.0
 11
173.5400860881791
 21
318.4141110097519
 31
0.0
  0
LINE
  5
1959
330
1E
100
AcDbEntity
  8
STEMPEL
100
AcDbLine
 10
170.8702784589644
 20
325.0427805423033
 30
0.0
 11
171.9201424212755
 21
318.4141110097519
 31
0.0
  0
LINE
  5
195A
330
1E
100
AcDbEntity
  8
STEMPEL
100
AcDbLine
 10
258.2702784589644
 20
325.168701596761
 30
0.0
 11
257.2004708297498
 21
318.4141110097519
 31
0.0
  0
LINE
  5
195B
330
1E
100
AcDbEntity
  8
STEMPEL
100
AcDbLine
 10
259.8702784589643
 20
325.0427805423039
 30
0.0
 11
258.8204144966531
 21
318.4141110097519
 31
0.0
  0
DIMENSION
  5
195C
330
1E
100
AcDbEntity
  8
BEM
100
AcDbDimension
  2
*D1
 10
259.8702784589643
 20
296.0696687000415
 30
0.0
 11
215.3702784589644
 21
304.1946687000415
 31
0.0
 70
    32
  1
%%C<>
 71
     5
 42
88.99999999999989
  3
Standard
100
AcDbAlignedDimension
 13
170.8702784589644
 23
325.0427805423033
 33
0.0
 14
259.8702784589643
 24
325.0427805423039
 34
0.0
 50
180.0
100
AcDbRotatedDimension
1001
ACAD
1000
DSTYLE
1002
{
1070
    40
1040
2.5
1070
    41
1040
3.5
1070
    42
1040
1.0
1070
    43
1040
7.0
1070
    44
1040
1.0
1070
    73
1070
     0
1070
    74
1070
     0
1070
    77
1070
     1
1070
    78
1070
     8
1070
    79
1070
     2
1070
   140
1040
3.5
1070
   141
1040
1.5
1070
   146
1040
0.5142857142857144
1070
   147
1040
1.5
1070
   172
1070
     1
1070
   178
1070
     1
1070
   179
1070
     2
1070
   271
1070
     2
1070
   272
1070
     2
1070
   284
1070
     8
1070
   285
1070
     8
1070
   286
1070
     8
1002
}
  0
LINE
  5
195D
330
1E
100
AcDbEntity
  8
STEMPEL
100
AcDbLine
 10
258.8204144966531
 20
318.4141110097519
 30
0.0
 11
171.9201424212755
 21
318.4141110097519
 31
0.0
  0
POINT
  5
195E
330
1E
100
AcDbEntity
  8
STEMPEL
100
AcDbPoint
 10
258.8204144966533
 20
318.4141110097519
 30
0.0
  0
LINE
  5
195F
330
1E
100
AcDbEntity
  8
HILF
100
AcDbLine
 10
256.6303911251573
 20
325.0427805423032
 30
0.0
 11
174.1101657927714
 21
325.0427805423032
 31
0.0
  0
LINE
  5
1960
330
1E
100
AcDbEntity
  8
STEMPEL
100
AcDbLine
 10
172.4702784589644
 20
398.7273413533153
 30
0.0
 11
172.4702784589644
 21
325.1687015967604
 31
0.0
  0
LINE
  5
1961
102
{ACAD_REACTORS
330
2186
102
}
330
1E
100
AcDbEntity
  8
STEMPEL
100
AcDbLine
 10
170.8702784589644
 20
398.7273413533153
 30
0.0
 11
170.8702784589644
 21
325.0427805423033
 31
0.0
  0
LINE
  5
1962
330
1E
100
AcDbEntity
  8
STEMPEL
100
AcDbLine
 10
166.3702784589645
 20
374.4141110097519
 30
0.0
 11
170.8702784589645
 21
374.4141110097519
 31
0.0
  0
LINE
  5
1964
102
{ACAD_REACTORS
330
2186
102
}
330
1E
100
AcDbEntity
  8
STEMPEL
100
AcDbLine
 10
151.3702784589643
 20
477.5218516831249
 30
0.0
 11
151.3702784589643
 21
368.4141110097519
 31
0.0
  0
LINE
  5
1965
330
1E
100
AcDbEntity
  8
STEMPEL
100
AcDbLine
 10
148.8702784589642
 20
478.5192505480592
 30
0.0
 11
148.8702784589643
 21
366.4141110097519
 31
0.0
  0
LINE
  5
1966
102
{ACAD_REACTORS
330
2186
102
}
330
1E
100
AcDbEntity
  8
STEMPEL
100
AcDbLine
 10
151.8592117774274
 20
382.4153293557138
 30
0.0
 11
153.9290107708323
 21
384.4141110097519
 31
0.0
  0
LINE
  5
1967
102
{ACAD_REACTORS
330
2186
102
}
330
1E
100
AcDbEntity
  8
STEMPEL
100
AcDbLine
 10
151.3702784589645
 20
368.4141110097519
 30
0.0
 11
151.8592117774274
 21
382.4153293557138
 31
0.0
  0
LINE
  5
1992
102
{ACAD_REACTORS
330
2186
102
}
330
1E
100
AcDbEntity
  8
STEMPEL
100
AcDbLine
 10
259.8702784589643
 20
398.7273413533154
 30
0.0
 11
259.8702784589643
 21
325.0427805423039
 31
0.0
  0
ARC
  5
1993
330
1E
100
AcDbEntity
  8
STEMPEL
100
AcDbCircle
 10
348.8702784589643
 20
398.7273413533153
 30
0.0
 40
90.6
100
AcDbArc
 50
92.9999999999991
 51
180.0
  0
ARC
  5
1994
330
1E
100
AcDbEntity
  8
STEMPEL
100
AcDbCircle
 10
348.8702784589643
 20
398.7273413533153
 30
0.0
 40
176.4
100
AcDbArc
 50
92.9999999999991
 51
180.0
  0
LINE
  5
1995
330
1E
100
AcDbEntity
  8
STEMPEL
100
AcDbLine
 10
258.2702784589643
 20
398.7273413533153
 30
0.0
 11
258.2702784589644
 21
325.168701596761
 31
0.0
  0
LINE
  5
19F9
102
{ACAD_REACTORS
330
1C6F
330
2186
102
}
330
1E
100
AcDbEntity
  8
STEMPEL
100
AcDbLine
 10
435.39029734522
 20
588.1149984778869
 30
0.0
 11
434.7930860320263
 21
599.5104691763949
 31
0.0
  0
DIMENSION
  5
19FA
330
1E
100
AcDbEntity
  8
BEM
100
AcDbDimension
  2
*D2
 10
470.2475711944114
 20
472.1804029028281
 30
0.0
 11
474.8810950741375
 21
539.0144966084813
 31
0.0
 70
    32
  1
%%c<>
 71
     5
 42
133.0000000000001
  3
Standard
100
AcDbAlignedDimension
 13
448.5651371056428
 23
604.2265967005087
 33
0.0
 14
455.5258192859541
 24
471.4088685781502
 34
0.0
 50
92.99999999999908
100
AcDbRotatedDimension
1001
ACAD
1000
DSTYLE
1002
{
1070
    40
1040
2.5
1070
    41
1040
3.5
1070
    42
1040
1.0
1070
    43
1040
7.0
1070
    44
1040
1.0
1070
    73
1070
     0
1070
    74
1070
     0
1070
    77
1070
     1
1070
    78
1070
     8
1070
    79
1070
     2
1070
   140
1040
3.5
1070
   141
1040
1.5
1070
   146
1040
0.5142857142857144
1070
   147
1040
1.5
1070
   172
1070
     1
1070
   178
1070
     1
1070
   179
1070
     2
1070
   271
1070
     2
1070
   272
1070
     2
1070
   284
1070
     8
1070
   285
1070
     8
1070
   286
1070
     8
1002
}
  0
LINE
  5
19FB
102
{ACAD_REACTORS
330
1C6F
102
}
330
1E
100
AcDbEntity
  8
STEMPEL
100
AcDbLine
 10
455.5258192859541
 20
471.4088685781502
 30
0.0
 11
448.5651371056428
 21
604.2265967005087
 31
0.0
  0
LINE
  5
19FD
330
1E
100
AcDbEntity
  8
HILF
100
AcDbLine
 10
391.2256130781586
 20
493.0496519283217
 30
0.0
 11
386.8792519827966
 21
575.9831620831483
 31
0.0
  0
LINE
  5
19FE
330
1E
100
AcDbEntity
  8
HILF
100
AcDbLine
 10
396.4622074062049
 20
491.1034557436756
 30
0.0
 11
391.8837268028017
 21
578.4660699593266
 31
0.0
  0
LINE
  5
19FF
330
1E
100
AcDbEntity
  8
HILF
100
AcDbLine
 10
421.6954835042529
 20
491.5401991568992
 30
0.0
 11
417.0244244920099
 21
580.6693146459558
 31
0.0
  0
LINE
  5
1A00
102
{ACAD_REACTORS
330
1C6F
330
2186
102
}
330
1E
100
AcDbEntity
  8
STEMPEL
100
AcDbLine
 10
441.3362433864427
 20
474.659589327461
 30
0.0
 11
440.7390320732488
 21
486.0550600259696
 31
0.0
  0
LINE
  5
1A01
102
{ACAD_REACTORS
330
1C6F
330
2186
102
}
330
1E
100
AcDbEntity
  8
STEMPEL
100
AcDbLine
 10
455.394979395347
 20
473.9054424150366
 30
0.0
 11
442.3884270378421
 21
473.678412199144
 31
0.0
  0
LINE
  5
1A02
102
{ACAD_REACTORS
330
1C6F
330
2186
102
}
330
1E
100
AcDbEntity
  8
STEMPEL
100
AcDbLine
 10
442.3884270378421
 20
473.678412199144
 30
0.0
 11
441.3362433864427
 21
474.659589327461
 31
0.0
  0
LINE
  5
1A03
330
1E
100
AcDbEntity
  8
STEMPEL
100
AcDbLine
 10
419.1612315439106
 20
490.0312143830039
 30
0.0
 11
399.9165014528444
 21
489.0226408160296
 31
0.0
  0
LINE
  5
1A04
102
{ACAD_REACTORS
330
2186
102
}
330
1E
100
AcDbEntity
  8
STEMPEL
100
AcDbLine
 10
419.2449690738994
 20
488.4334071273965
 30
0.0
 11
400.0002389828329
 21
487.4248335604222
 31
0.0
  0
ARC
  5
1A05
330
1E
100
AcDbEntity
  8
STEMPEL
100
AcDbCircle
 10
389.576016659122
 20
481.9717987222938
 30
0.0
 40
9.599999999999999
100
AcDbArc
 50
60.67193587783917
 51
93.0
  0
POINT
  5
1A06
330
1E
100
AcDbEntity
  8
STEMPEL
100
AcDbPoint
 10
394.5520131141907
 20
488.4190419547747
 30
0.0
  0
ARC
  5
1A07
330
1E
100
AcDbEntity
  8
STEMPEL
100
AcDbCircle
 10
399.3722075079179
 20
499.4083879774771
 30
0.0
 40
10.4
100
AcDbArc
 50
240.6719358778392
 51
273.0
  0
ARC
  5
1A08
102
{ACAD_REACTORS
330
2186
102
}
330
1E
100
AcDbEntity
  8
STEMPEL
100
AcDbCircle
 10
389.576016659122
 20
481.9717987222938
 30
0.0
 40
8.0
100
AcDbArc
 50
60.67193587783917
 51
93.0
  0
ARC
  5
1A09
102
{ACAD_REACTORS
330
2186
102
}
330
1E
100
AcDbEntity
  8
STEMPEL
100
AcDbCircle
 10
399.3722075079179
 20
499.4083879774771
 30
0.0
 40
12.0
100
AcDbArc
 50
240.6719358778392
 51
273.0
  0
ARC
  5
1A0A
102
{ACAD_REACTORS
330
1C6F
102
}
330
1E
100
AcDbEntity
  8
STEMPEL
100
AcDbCircle
 10
440.8449039474723
 20
510.6943682473347
 30
0.0
 40
24.6
100
AcDbArc
 50
273.0
 51
297.9999999999935
  0
ARC
  5
1A0B
330
1E
100
AcDbEntity
  8
STEMPEL
100
AcDbCircle
 10
440.8449039474723
 20
510.6943682473347
 30
0.0
 40
23.0
100
AcDbArc
 50
273.0
 51
297.9999999999935
  0
ARC
  5
1A0C
330
1E
100
AcDbEntity
  8
STEMPEL
100
AcDbCircle
 10
419.8730005488146
 20
476.4498527103415
 30
0.0
 40
13.6
100
AcDbArc
 50
67.87793981336463
 51
93.0
  0
ARC
  5
1A0D
102
{ACAD_REACTORS
330
2186
102
}
330
1E
100
AcDbEntity
  8
STEMPEL
100
AcDbCircle
 10
419.8730005488146
 20
476.4498527103415
 30
0.0
 40
12.0
100
AcDbArc
 50
67.87793981336463
 51
93.0
  0
LINE
  5
1A0E
330
1E
100
AcDbEntity
  8
STEMPEL
100
AcDbLine
 10
442.0486309410598
 20
487.7258889479796
 30
0.0
 11
434.9629713412446
 21
487.3545452635978
 31
0.0
  0
LINE
  5
1A0F
102
{ACAD_REACTORS
330
1C6F
330
2186
102
}
330
1E
100
AcDbEntity
  8
STEMPEL
100
AcDbLine
 10
442.1323684710487
 20
486.1280816923724
 30
0.0
 11
435.0467088712334
 21
485.7567380079906
 31
0.0
  0
ARC
  5
1A10
330
1E
100
AcDbEntity
  8
STEMPEL
100
AcDbCircle
 10
433.8064964379173
 20
510.7260498784691
 30
0.0
 40
23.40009324312573
100
AcDbArc
 50
247.788822068315
 51
273.1564859543311
  0
ARC
  5
1A11
102
{ACAD_REACTORS
330
2186
102
}
330
1E
100
AcDbEntity
  8
STEMPEL
100
AcDbCircle
 10
433.8064964379173
 20
510.7260498784691
 30
0.0
 40
25.00009324312574
100
AcDbArc
 50
247.788822068315
 51
273.1564859543311
  0
LINE
  5
1A12
330
1E
100
AcDbEntity
  8
STEMPEL
100
AcDbLine
 10
454.4529321829741
 20
491.8807740406191
 30
0.0
 11
451.6427498915477
 21
490.3865736115797
 31
0.0
  0
LINE
  5
1A13
102
{ACAD_REACTORS
330
1C6F
102
}
330
1E
100
AcDbEntity
  8
STEMPEL
100
AcDbLine
 10
454.5453263245519
 20
490.1177887960239
 30
0.0
 11
452.3939043920051
 21
488.9738574630053
 31
0.0
  0
LINE
  5
1A14
330
1E
100
AcDbEntity
  8
STEMPEL
100
AcDbLine
 10
414.3463235695598
 20
581.9051315804247
 30
0.0
 11
395.1015934784934
 21
580.8965580134504
 31
0.0
  0
LINE
  5
1A15
102
{ACAD_REACTORS
330
2186
102
}
330
1E
100
AcDbEntity
  8
STEMPEL
100
AcDbLine
 10
414.262586039571
 20
583.5029388360319
 30
0.0
 11
395.0178559485048
 21
582.4943652690576
 31
0.0
  0
ARC
  5
1A16
102
{ACAD_REACTORS
330
2186
102
}
330
1E
100
AcDbEntity
  8
STEMPEL
100
AcDbCircle
 10
395.6458874234204
 20
570.5108108520025
 30
0.0
 40
12.0
100
AcDbArc
 50
93.0
 51
125.3280641221608
  0
ARC
  5
1A17
330
1E
100
AcDbEntity
  8
STEMPEL
100
AcDbCircle
 10
395.6458874234204
 20
570.5108108520025
 30
0.0
 40
10.4
100
AcDbArc
 50
93.0
 51
125.3280641221608
  0
ARC
  5
1A18
330
1E
100
AcDbEntity
  8
STEMPEL
100
AcDbCircle
 10
384.0807412536128
 20
586.8278998715241
 30
0.0
 40
9.599999999999999
100
AcDbArc
 50
273.0
 51
305.3280641221609
  0
ARC
  5
1A19
102
{ACAD_REACTORS
330
2186
102
}
330
1E
100
AcDbEntity
  8
STEMPEL
100
AcDbCircle
 10
384.0807412536128
 20
586.8278998715241
 30
0.0
 40
8.0
100
AcDbArc
 50
273.0
 51
305.3280641221609
  0
ARC
  5
1A1A
330
1E
100
AcDbEntity
  8
STEMPEL
100
AcDbCircle
 10
438.0710982665964
 20
563.6217335893272
 30
0.0
 40
23.0
100
AcDbArc
 50
68.00000000000655
 51
93.0
  0
ARC
  5
1A1B
102
{ACAD_REACTORS
330
1C6F
102
}
330
1E
100
AcDbEntity
  8
STEMPEL
100
AcDbCircle
 10
438.0710982665964
 20
563.6217335893272
 30
0.0
 40
24.6
100
AcDbArc
 50
68.00000000000359
 51
93.0
  0
ARC
  5
1A1C
330
1E
100
AcDbEntity
  8
STEMPEL
100
AcDbCircle
 10
413.6345545646556
 20
595.4864932530865
 30
0.0
 40
13.6
100
AcDbArc
 50
273.0
 51
298.1220601866354
  0
ARC
  5
1A1D
102
{ACAD_REACTORS
330
2186
102
}
330
1E
100
AcDbEntity
  8
STEMPEL
100
AcDbCircle
 10
413.6345545646556
 20
595.4864932530865
 30
0.0
 40
12.0
100
AcDbArc
 50
273.0
 51
298.1220601866324
  0
LINE
  5
1A1E
330
1E
100
AcDbEntity
  8
STEMPEL
100
AcDbLine
 10
436.8673712730084
 20
586.5902128886825
 30
0.0
 11
429.7817116731932
 21
586.2188692043007
 31
0.0
  0
LINE
  5
1A1F
102
{ACAD_REACTORS
330
1C6F
330
2186
102
}
330
1E
100
AcDbEntity
  8
STEMPEL
100
AcDbLine
 10
436.7836337430198
 20
588.1880201442897
 30
0.0
 11
429.6979741432046
 21
587.8166764599079
 31
0.0
  0
ARC
  5
1A20
330
1E
100
AcDbEntity
  8
STEMPEL
100
AcDbCircle
 10
431.0745595220358
 20
562.8545115926577
 30
0.0
 40
23.40009324312573
100
AcDbArc
 50
92.84351404566891
 51
118.2111779316851
  0
ARC
  5
1A21
102
{ACAD_REACTORS
330
2186
102
}
330
1E
100
AcDbEntity
  8
STEMPEL
100
AcDbCircle
 10
431.0745595220358
 20
562.8545115926577
 30
0.0
 40
25.00009324312574
100
AcDbArc
 50
92.84351404566891
 51
118.2111779316821
  0
LINE
  5
1A22
330
1E
100
AcDbEntity
  8
STEMPEL
100
AcDbLine
 10
449.6380242086231
 20
583.7546912380398
 30
0.0
 11
446.6870499151623
 21
584.9469622443632
 31
0.0
  0
LINE
  5
1A23
102
{ACAD_REACTORS
330
1C6F
102
}
330
1E
100
AcDbEntity
  8
STEMPEL
100
AcDbLine
 10
449.5456300670452
 20
585.5176764826349
 30
0.0
 11
447.2864204646275
 21
586.4304564116703
 31
0.0
  0
LINE
  5
1A24
102
{ACAD_REACTORS
330
1C6F
330
2186
102
}
330
1E
100
AcDbEntity
  8
STEMPEL
100
AcDbLine
 10
448.69597699625
 20
601.730022863622
 30
0.0
 11
435.7369447738752
 21
600.5962544538972
 31
0.0
  0
LINE
  5
1A25
102
{ACAD_REACTORS
330
1C6F
330
2186
102
}
330
1E
100
AcDbEntity
  8
STEMPEL
100
AcDbLine
 10
435.7369447738752
 20
600.5962544538972
 30
0.0
 11
434.7930860320263
 21
599.5104691763949
 31
0.0
  0
LINE
  5
1A26
102
{ACAD_REACTORS
330
2186
102
}
330
1E
100
AcDbEntity
  8
STEMPEL
100
AcDbLine
 10
455.394979395347
 20
473.9054424150366
 30
0.0
 11
317.5432408882561
 21
466.6809389295734
 31
0.0
  0
LINE
  5
1A27
330
1E
100
AcDbEntity
  8
STEMPEL
100
AcDbLine
 10
455.5258192859541
 20
471.4088685781502
 30
0.0
 11
318.6701127433175
 21
464.2365649160389
 31
0.0
  0
LINE
  5
1A28
330
1E
100
AcDbEntity
  8
STEMPEL
100
AcDbLine
 10
389.0735914791894
 20
491.5586422559378
 30
0.0
 11
344.1286408233537
 21
489.2031772020795
 31
0.0
  0
LINE
  5
1A29
102
{ACAD_REACTORS
330
2186
102
}
330
1E
100
AcDbEntity
  8
STEMPEL
100
AcDbLine
 10
389.1573290091783
 20
489.9608350003306
 30
0.0
 11
344.2123783533423
 21
487.6053699464724
 31
0.0
  0
LINE
  5
1A2A
330
1E
100
AcDbEntity
  8
STEMPEL
100
AcDbLine
 10
384.5831664335451
 20
577.2410563378802
 30
0.0
 11
339.6382157777089
 21
574.885591284022
 31
0.0
  0
LINE
  5
1A2B
102
{ACAD_REACTORS
330
2186
102
}
330
1E
100
AcDbEntity
  8
STEMPEL
100
AcDbLine
 10
384.4994289035562
 20
578.8388635934877
 30
0.0
 11
339.5544782477204
 21
576.4833985396294
 31
0.0
  0
LINE
  5
1A2C
102
{ACAD_REACTORS
330
2186
102
}
330
1E
100
AcDbEntity
  8
STEMPEL
100
AcDbLine
 10
448.69597699625
 20
601.7300228636222
 30
0.0
 11
259.8474019091104
 21
591.8328884225383
 31
0.0
  0
LINE
  5
1A2D
330
1E
100
AcDbEntity
  8
STEMPEL
100
AcDbLine
 10
448.5651371056428
 20
604.2265967005087
 30
0.0
 11
258.7205300540491
 21
594.2772624360729
 31
0.0
  0
TEXT
  5
1A2E
330
1E
100
AcDbEntity
  8
TEXT
 62
     1
100
AcDbText
 10
357.8049847254959
 20
547.8815283484698
 30
0.0
 40
7.0
  1
DN80
 50
3.000000000000004
 41
0.8
  7
GREEKS
100
AcDbText
  0
LINE
  5
1AB5
330
1E
100
AcDbEntity
  8
STEMPEL
100
AcDbLine
 10
318.6701127433175
 20
464.2365649160389
 30
0.0
 11
281.8702784589644
 21
425.4576309335546
 31
0.0
  0
LINE
  5
1AB6
102
{ACAD_REACTORS
330
2186
102
}
330
1E
100
AcDbEntity
  8
STEMPEL
100
AcDbLine
 10
317.543240888256
 20
466.6809389295734
 30
0.0
 11
279.3702784589644
 21
426.4550297984889
 31
0.0
  0
LINE
  5
1AB7
330
1E
100
AcDbEntity
  8
STEMPEL
100
AcDbLine
 10
258.7205300540491
 20
594.2772624360729
 30
0.0
 11
148.8702784589642
 21
478.5192505480592
 31
0.0
  0
LINE
  5
1AB8
102
{ACAD_REACTORS
330
2186
102
}
330
1E
100
AcDbEntity
  8
STEMPEL
100
AcDbLine
 10
259.8474019091104
 20
591.8328884225384
 30
0.0
 11
151.3702784589643
 21
477.5218516831249
 31
0.0
  0
LINE
  5
1AB9
330
1E
100
AcDbEntity
  8
MITTEL
100
AcDbLine
 10
288.6953213986835
 20
529.2569136760561
 30
0.0
 11
215.3702784589644
 21
451.988440740807
 31
0.0
  0
ARC
  5
1AC5
330
1E
100
AcDbEntity
  8
SCHRAFF
100
AcDbCircle
 10
259.6734340893164
 20
592.2102537955271
 30
0.0
 40
3.799104750254211
100
AcDbArc
 50
36.81128396756426
 51
192.6887160324371
  0
LINE
  5
1AC6
330
1E
100
AcDbEntity
  8
STEMPEL
100
AcDbLine
 10
258.7205300540491
 20
594.2772624360729
 30
0.0
 11
259.8474019091104
 21
591.8328884225384
 31
0.0
  0
LINE
  5
1AC8
330
1E
100
AcDbEntity
  8
STEMPEL
100
AcDbLine
 10
148.8702784589642
 20
478.5192505480592
 30
0.0
 11
151.3702784589643
 21
477.5218516831249
 31
0.0
  0
LINE
  5
1AC9
330
1E
100
AcDbEntity
  8
STEMPEL
100
AcDbLine
 10
317.5432408882561
 20
466.6809389295734
 30
0.0
 11
318.6701127433175
 21
464.2365649160389
 31
0.0
  0
LINE
  5
1ACA
330
1E
100
AcDbEntity
  8
STEMPEL
100
AcDbLine
 10
279.3702784589644
 20
426.4550297984889
 30
0.0
 11
281.8702784589644
 21
425.4576309335546
 31
0.0
  0
ARC
  5
1ACC
330
1E
100
AcDbEntity
  8
SCHRAFF
100
AcDbCircle
 10
317.5809180800683
 20
466.5992107826195
 30
0.0
 40
5.520946072761041
100
AcDbArc
 50
252.4559991895563
 51
337.0440008104426
  0
ARC
  5
1ACD
330
1E
100
AcDbEntity
  8
SCHRAFF
100
AcDbCircle
 10
150.9843254798996
 20
477.6758313084196
 30
0.0
 40
3.799104750254211
100
AcDbArc
 50
80.31128396756299
 51
236.1887160324359
  0
ARC
  5
1ACE
330
1E
100
AcDbEntity
  8
SCHRAFF
100
AcDbCircle
 10
279.4538664721954
 20
426.4216815626815
 30
0.0
 40
5.520946072761041
100
AcDbArc
 50
295.9559991895575
 51
20.54400081044385
  0
DIMENSION
  5
1B4B
330
1E
100
AcDbEntity
  8
BEM
100
AcDbDimension
  2
*D3
 10
133.1436228132115
 20
318.4141110097519
 30
0.0
 11
125.0186228132115
 21
343.4141110097519
 31
0.0
 70
    32
 71
     5
 42
50.0
  3
Standard
100
AcDbAlignedDimension
 13
148.8702784589643
 23
368.4141110097519
 33
0.0
 14
171.9201424212755
 24
318.4141110097519
 34
0.0
 50
90.0
100
AcDbRotatedDimension
1001
ACAD
1000
DSTYLE
1002
{
1070
    40
1040
2.5
1070
    41
1040
3.5
1070
    42
1040
1.0
1070
    43
1040
7.0
1070
    44
1040
1.0
1070
    73
1070
     0
1070
    74
1070
     0
1070
    77
1070
     1
1070
    78
1070
     8
1070
    79
1070
     2
1070
   140
1040
3.5
1070
   141
1040
1.5
1070
   146
1040
0.5142857142857144
1070
   147
1040
1.5
1070
   172
1070
     1
1070
   178
1070
     1
1070
   179
1070
     2
1070
   271
1070
     2
1070
   272
1070
     2
1070
   284
1070
     8
1070
   285
1070
     8
1070
   286
1070
     8
1002
}
  0
HATCH
  5
1BFF
330
1E
100
AcDbEntity
  8
SCHRAFF
100
AcDbHatch
 10
0.0
 20
0.0
 30
0.0
210
0.0
220
0.0
230
1.0
  2
_USER
 70
     0
 71
     0
 91
        2
 92
        7
 72
     1
 73
     1
 93
        3
 10
258.7205300540492
 20
594.2772624360729
 42
0.0
 10
262.7150481930673
 20
594.4866062610448
 42
0.8088989154312347
 10
255.9671117512739
 20
591.3757649520237
 42
0.0
 97
        0
 92
        7
 72
     1
 73
     1
 93
        3
 10
322.6646308823359
 20
464.4459087410108
 42
0.0
 10
318.6701127433177
 20
464.2365649160391
 42
0.0
 10
315.9166944405427
 20
461.3350674319899
 42
0.3868106358655143
 97
        0
 75
     0
 76
     0
 52
0.0
 41
0.1
 77
     0
 78
     1
 53
2.999999999999993
 43
215.3702784589643
 44
525.4141110097517
 45
-0.0052335956242944
 46
0.0998629534754574
 79
     0
 47
0.3979125065113565
 98
        2
 10
259.3068670627437
 20
594.9632339505866
 10
319.4341517127644
 20
462.856280708847
  0
HATCH
  5
1C10
330
1E
100
AcDbEntity
  8
SCHRAFF
100
AcDbHatch
 10
0.0
 20
0.0
 30
0.0
210
0.0
220
0.0
230
1.0
  2
_USER
 70
     0
 71
     0
 91
        2
 92
        7
 72
     1
 73
     1
 93
        3
 10
284.6236967617396
 20
428.3591284176039
 42
0.0
 10
281.8702784589643
 20
425.4576309335545
 42
0.0
 10
281.8702784589643
 20
421.4576309335547
 42
0.3868106358655177
 97
        0
 92
        7
 72
     1
 73
     1
 93
        3
 10
151.6236967617392
 20
481.4207480321084
 42
0.8088989154311896
 10
148.8702784589642
 20
474.5192505480592
 42
0.0
 10
148.8702784589642
 20
478.5192505480593
 42
0.0
 97
        0
 75
     0
 76
     0
 52
0.0
 41
0.1
 77
     0
 78
     1
 53
2.999999999999993
 43
215.3702784589643
 44
525.4141110097517
 45
-0.0052335956242944
 46
0.0998629534754574
 79
     0
 47
0.3979125065113565
 98
        2
 10
283.1985037757387
 20
425.0545929346461
 10
149.0071463931162
 20
479.9665178909954
  0
HATCH
  5
1C45
330
1E
100
AcDbEntity
  8
SCHRAFF
100
AcDbHatch
 10
0.0
 20
0.0
 30
0.0
210
0.0
220
0.0
230
1.0
  2
_USER
 70
     0
 71
     0
 91
        2
 92
        7
 72
     1
 73
     1
 93
       26
 10
259.8702784589643
 20
398.7273413533154
 42
-0.3989595459737191
 10
344.2123783533423
 20
487.6053699464724
 42
0.0
 10
389.1573290091783
 20
489.9608350003306
 42
-0.1420008527982285
 10
393.4944929986401
 20
488.9464344243672
 42
0.1420008527982283
 10
400.0002389828329
 20
487.4248335604222
 42
0.0
 10
419.2449690738994
 20
488.4334071273965
 42
-0.1108768121407758
 10
424.4279709687202
 20
487.5517554514839
 42
0.1089723179974175
 10
435.0467088712076
 20
485.7567380079892
 42
0.0
 10
442.1323684710487
 20
486.1280816923724
 42
0.1095178116832415
 10
452.3939043920051
 20
488.9738574630053
 42
0.0
 10
454.5453263245519
 20
490.1177887960237
 42
0.0
 10
454.4529321829738
 20
491.8807740406188
 42
0.0
 10
451.6427498915477
 20
490.3865736115797
 42
-0.1095178116832464
 10
442.0486309410595
 20
487.7258889479796
 42
0.0
 10
435.097126248416
 20
487.3615760243626
 42
-0.111204330828919
 10
424.9573780905032
 20
489.0636984765451
 42
0.1093117521959946
 10
419.1612315439108
 20
490.0312143830039
 42
0.0
 10
399.9165014528444
 20
489.0226408160296
 42
-0.1420008527982193
 10
394.2781882665443
 20
490.3413615647816
 42
0.1420008527982306
 10
389.0735914791899
 20
491.5586422559378
 42
0.0
 10
344.1286408233537
 20
489.2031772020795
 42
0.39895954597372
 10
258.2702784589643
 20
398.7273413533151
 42
0.0
 10
258.2702784589645
 20
325.1687015967606
 42
0.0
 10
257.2004708297496
 20
318.4141110097518
 42
0.0
 10
258.8204144966531
 20
318.4141110097518
 42
0.0
 10
259.8702784589643
 20
325.0427805423039
 42
0.0
 97
        0
 92
        7
 72
     1
 73
     1
 93
       26
 10
172.4702784589644
 20
398.7273413533153
 42
-0.3989595459737187
 10
339.6382157777089
 20
574.885591284022
 42
0.0
 10
384.5831664335451
 20
577.2410563378802
 42
0.1420008527982326
 10
389.6320114151205
 20
578.9956971421537
 42
-0.1420008527982238
 10
395.1015934784934
 20
580.8965580134504
 42
0.0
 10
414.3463235695598
 20
581.9051315804247
 42
0.1093117521964454
 10
420.0095852680417
 20
583.4732096249154
 42
-0.1112043308276361
 10
429.9158665802703
 20
586.2258999650605
 42
0.0
 10
436.8673712730084
 20
586.5902128886825
 42
-0.1095178116832439
 10
446.6870499151623
 20
584.9469622443632
 42
0.0
 10
449.638024208623
 20
583.7546912380396
 42
0.0
 10
449.5456300670451
 20
585.5176764826349
 42
0.0
 10
447.2864204646275
 20
586.4304564116703
 42
0.1095178116832383
 10
436.7836337430199
 20
588.1880201442897
 42
0.0
 10
429.697974143266
 20
587.8166764599111
 42
0.1089723179980994
 10
419.3250372129027
 20
584.9215319550031
 42
-0.110876812141196
 10
414.2625860395712
 20
583.5029388360319
 42
0.0
 10
395.0178559485048
 20
582.4943652690576
 42
0.1420008527982224
 10
388.7067997215361
 20
580.3010642637154
 42
-0.1420008527982266
 10
384.4994289035567
 20
578.8388635934877
 42
0.0
 10
339.5544782477204
 20
576.4833985396294
 42
0.3989595459737192
 10
170.8702784589644
 20
398.7273413533153
 42
0.0
 10
170.8702784589644
 20
325.0427805423033
 42
0.0
 10
171.9201424212755
 20
318.4141110097518
 42
0.0
 10
173.5400860881791
 20
318.4141110097518
 42
0.0
 10
172.4702784589644
 20
325.16870159676
 42
0.0
 97
        0
 75
     0
 76
     0
 52
135.0
 41
2.0
 77
     0
 78
     1
 53
135.0
 43
-360.5842510502125
 44
116.6217378914116
 45
-1.414213562373095
 46
-1.414213562373094
 79
     0
 47
0.6707707235428987
 98
        2
 10
259.1652865383121
 20
366.8565164495717
 10
171.9034167881327
 20
370.2103698909648
  0
HATCH
  5
1C4E
330
1E
100
AcDbEntity
  8
SCHRAFF
100
AcDbHatch
 10
0.0
 20
0.0
 30
0.0
210
0.0
220
0.0
230
1.0
  2
_USER
 70
     0
 71
     0
 91
        2
 92
        7
 72
     0
 73
     1
 93
        4
 10
318.6701127433175
 20
464.236564916039
 10
317.5432408882561
 20
466.6809389295734
 10
279.3702784589644
 20
426.455029798489
 10
281.8702784589645
 20
425.4576309335546
 97
        0
 92
        7
 72
     0
 73
     1
 93
        4
 10
259.8474019091104
 20
591.8328884225384
 10
258.720530054049
 20
594.2772624360729
 10
148.8702784589643
 20
478.5192505480592
 10
151.3702784589642
 20
477.521851683125
 97
        0
 75
     0
 76
     0
 52
135.0
 41
2.0
 77
     0
 78
     1
 53
135.0
 43
-360.5842510502125
 44
116.6217378914116
 45
-1.414213562373095
 46
-1.414213562373094
 79
     0
 47
0.6707707235428987
 98
        2
 10
306.8236915995849
 20
452.7151698675295
 10
208.1506551993002
 20
537.9030517574777
  0
HATCH
  5
1C57
330
1E
100
AcDbEntity
  8
SCHRAFF
100
AcDbHatch
 10
0.0
 20
0.0
 30
0.0
210
0.0
220
0.0
230
1.0
  2
_USER
 70
     0
 71
     0
 91
        2
 92
        7
 72
     0
 73
     1
 93
        4
 10
281.8702784589643
 20
425.4576309335546
 10
279.3702784589643
 20
426.4550297984889
 10
279.3702784589644
 20
368.4141110097518
 10
281.8702784589643
 20
368.4141110097518
 97
        0
 92
        7
 72
     0
 73
     1
 93
        4
 10
151.3702784589643
 20
477.5218516831249
 10
148.8702784589641
 20
478.5192505480592
 10
148.8702784589643
 20
368.4141110097519
 10
151.3702784589643
 20
368.4141110097519
 97
        0
 75
     0
 76
     0
 52
45.0
 41
2.0
 77
     0
 78
     1
 53
45.0
 43
-360.5842510502125
 44
116.6217378914116
 45
-1.414213562373094
 46
1.414213562373095
 79
     0
 47
0.6707707235428987
 98
        2
 10
281.3163745829761
 20
389.662720410865
 10
150.4235739990163
 20
408.4443008023072
  0
HATCH
  5
1C60
330
1E
100
AcDbEntity
  8
SCHRAFF
100
AcDbHatch
 10
0.0
 20
0.0
 30
0.0
210
0.0
220
0.0
230
1.0
  2
_USER
 70
     0
 71
     0
 91
        2
 92
        7
 72
     0
 73
     1
 93
        4
 10
258.7205300540491
 20
594.2772624360729
 10
259.8474019091105
 20
591.8328884225381
 10
448.6959769962502
 20
601.7300228636222
 10
448.5651371056428
 20
604.2265967005087
 97
        0
 92
        7
 72
     0
 73
     1
 93
        4
 10
317.5432408882561
 20
466.6809389295734
 10
318.6701127433175
 20
464.2365649160389
 10
455.5258192859541
 20
471.4088685781502
 10
455.3949793953468
 20
473.9054424150366
 97
        0
 75
     0
 76
     0
 52
45.0
 41
2.0
 77
     0
 78
     1
 53
45.0
 43
-360.5842510502125
 44
116.6217378914116
 45
-1.414213562373094
 46
1.414213562373095
 79
     0
 47
0.6707707235428987
 98
        2
 10
280.6451293274281
 20
594.2477929318044
 10
343.0709273165462
 20
466.8013551611111
  0
HATCH
  5
1C6F
330
1E
100
AcDbEntity
  8
SCHRAFF
100
AcDbHatch
 10
0.0
 20
0.0
 30
0.0
210
0.0
220
0.0
230
1.0
  2
NET
 70
     0
 71
     1
 91
        2
 92
        7
 72
     1
 73
     1
 93
        7
 10
447.2864204646275
 20
586.4304564116703
 42
0.0
 10
449.5456300670452
 20
585.5176764826349
 42
0.0
 10
448.6959769962503
 20
601.730022863622
 42
0.0
 10
435.7369447738752
 20
600.5962544538974
 42
0.0
 10
434.7930860320263
 20
599.5104691763949
 42
0.0
 10
435.39029734522
 20
588.1149984778868
 42
0.0
 10
436.7836337430198
 20
588.1880201442897
 42
-0.1095178116832393
 97
        7
330
1A24
330
1A25
330
19F9
330
1A1F
330
1A1B
330
1A23
330
19FB
 92
        7
 72
     1
 73
     1
 93
        7
 10
455.3949793953468
 20
473.9054424150367
 42
0.0
 10
454.5453263245518
 20
490.1177887960239
 42
0.0
 10
452.3939043920051
 20
488.9738574630053
 42
-0.1095178116832467
 10
442.1323684710482
 20
486.1280816923724
 42
0.0
 10
440.7390320732488
 20
486.0550600259695
 42
0.0
 10
441.3362433864427
 20
474.659589327461
 42
0.0
 10
442.3884270378422
 20
473.6784121991441
 42
0.0
 97
        7
330
1A13
330
1A0A
330
1A0F
330
1A00
330
1A02
330
1A01
330
19FB
 75
     0
 76
     1
 52
45.0
 41
15.0
 77
     0
 78
     2
 53
45.0
 43
-360.5842510502125
 44
116.6217378914116
 45
-1.325825214724776
 46
1.325825214724776
 79
     0
 53
135.0
 43
-360.5842510502125
 44
116.6217378914116
 45
-1.325825214724776
 46
-1.325825214724776
 79
     0
 47
0.6707707235428987
 98
        2
 10
441.0727184612833
 20
593.5770214037948
 10
449.1276615278565
 20
479.5459987982253
  0
TEXT
  5
2106
330
1E
100
AcDbEntity
  8
TEXT
100
AcDbText
 10
185.77763727763
 20
91.42531838939582
 30
0.0
 40
5.0
  1
2007
 41
0.8
  7
GREEKS
100
AcDbText
  0
TEXT
  5
2107
330
1E
100
AcDbEntity
  8
TEXT
100
AcDbText
 10
212.9987463852951
 20
78.88456301032164
 30
0.0
 40
5.0
  1
27.09.
 41
0.8
  7
GREEKS
 72
     1
 11
221.7606511471998
 21
78.88456301032164
 31
0.0
100
AcDbText
  0
HATCH
  5
2117
330
1E
100
AcDbEntity
  8
SCHRAFF
100
AcDbHatch
 10
0.0
 20
0.0
 30
0.0
210
0.0
220
0.0
230
1.0
  2
NET
 70
     0
 71
     0
 91
        2
 92
        7
 72
     0
 73
     1
 93
       11
 10
278.8813451405015
 20
382.4153293557139
 10
276.8115461470965
 20
384.4141110097519
 10
259.8702784589644
 20
384.414111009752
 10
259.8702784589644
 20
374.4141110097519
 10
264.3702784589643
 20
374.4141110097518
 10
267.834380074102
 20
368.4141110097519
 10
274.8702784589645
 20
368.4141110097518
 10
274.8702784589645
 20
366.4141110097519
 10
281.8702784589644
 20
366.4141110097519
 10
281.8702784589644
 20
368.4141110097519
 10
279.3702784589643
 20
368.4141110097518
 97
        0
 92
        7
 72
     0
 73
     1
 93
       11
 10
170.8702784589643
 20
384.4141110097518
 10
153.9290107708323
 20
384.4141110097518
 10
151.8592117774274
 20
382.4153293557138
 10
151.3702784589646
 20
368.4141110097519
 10
148.8702784589643
 20
368.4141110097519
 10
148.8702784589643
 20
366.4141110097519
 10
155.8702784589645
 20
366.4141110097519
 10
155.8702784589645
 20
368.4141110097518
 10
162.9061768438268
 20
368.4141110097518
 10
166.3702784589645
 20
374.4141110097519
 10
170.8702784589643
 20
374.4141110097519
 97
        0
 75
     0
 76
     1
 52
45.0
 41
20.0
 77
     0
 78
     2
 53
45.0
 43
-9.594356642139473
 44
101.4495548396282
 45
-1.767766952966368
 46
1.767766952966368
 79
     0
 53
135.0
 43
-9.594356642139473
 44
101.4495548396282
 45
-1.767766952966368
 46
-1.767766952966368
 79
     0
 47
0.2159429178754844
 98
        2
 10
270.9767326086742
 20
375.5001126609916
 10
156.8900894811015
 20
375.716055520938
  0
LINE
  5
2118
330
1E
100
AcDbEntity
  8
STEMPEL
100
AcDbLine
 10
274.8702784589645
 20
368.4141110097518
 30
0.0
 11
274.8702784589645
 21
366.4141110097519
 31
0.0
  0
POINT
  5
2119
330
1E
100
AcDbEntity
  8
STEMPEL
100
AcDbPoint
 10
274.8702784589645
 20
366.4141110097519
 30
0.0
  0
LINE
  5
211A
330
1E
100
AcDbEntity
  8
STEMPEL
100
AcDbLine
 10
281.8702784589644
 20
366.4141110097519
 30
0.0
 11
259.8702784589643
 21
366.4141110097519
 31
0.0
  0
LINE
  5
211B
330
1E
100
AcDbEntity
  8
STEMPEL
100
AcDbLine
 10
274.8702784589645
 20
368.4141110097518
 30
0.0
 11
259.8702784589644
 21
368.4141110097519
 31
0.0
  0
LINE
  5
211C
330
1E
100
AcDbEntity
  8
STEMPEL
100
AcDbLine
 10
264.3702784589643
 20
374.4141110097519
 30
0.0
 11
267.834380074102
 21
368.4141110097519
 31
0.0
  0
LINE
  5
211D
330
1E
100
AcDbEntity
  8
STEMPEL
100
AcDbLine
 10
170.8702784589644
 20
366.4141110097519
 30
0.0
 11
148.8702784589643
 21
366.4141110097519
 31
0.0
  0
LINE
  5
211E
330
1E
100
AcDbEntity
  8
STEMPEL
100
AcDbLine
 10
170.8702784589644
 20
368.4141110097518
 30
0.0
 11
155.8702784589645
 21
368.4141110097518
 31
0.0
  0
LINE
  5
211F
330
1E
100
AcDbEntity
  8
STEMPEL
100
AcDbLine
 10
155.8702784589645
 20
368.4141110097518
 30
0.0
 11
155.8702784589645
 21
366.4141110097519
 31
0.0
  0
LINE
  5
2120
330
1E
100
AcDbEntity
  8
STEMPEL
100
AcDbLine
 10
166.3702784589645
 20
374.4141110097519
 30
0.0
 11
162.9061768438268
 21
368.4141110097519
 31
0.0
  0
HATCH
  5
2186
330
1E
100
AcDbEntity
  8
SCHRAFF
100
AcDbHatch
 10
0.0
 20
0.0
 30
0.0
210
0.0
220
0.0
230
1.0
  2
HONEY
 70
     0
 71
     1
 91
        3
 92
        7
 72
     1
 73
     1
 93
       21
 10
429.8343470886218
 20
587.8238234631315
 42
0.0
 10
435.3902973452201
 20
588.1149984778869
 42
0.0
 10
434.7930860320263
 20
599.5104691763949
 42
0.0
 10
435.7369447738752
 20
600.5962544538972
 42
0.0
 10
448.695976996257
 20
601.7300228636226
 42
0.0
 10
259.8474019091103
 20
591.8328884225383
 42
0.0
 10
151.3702784589643
 20
477.5218516831248
 42
0.0
 10
151.3702784589643
 20
368.4141110097457
 42
0.0
 10
151.8592117774274
 20
382.4153293557138
 42
0.0
 10
153.9290107708323
 20
384.4141110097519
 42
0.0
 10
170.8702784589644
 20
384.4141110097519
 42
0.0
 10
170.8702784589644
 20
398.7273413533153
 42
-0.1826758136815993
 10
215.3702784589643
 20
516.4632746956895
 42
0.0
 10
215.3702784589643
 20
525.4141110097517
 42
0.0
 10
224.3088479629406
 20
525.8825615874222
 42
-0.1826758136815995
 10
339.5544782477204
 20
576.4833985396294
 42
0.0
 10
384.4994289035562
 20
578.8388635934877
 42
0.1420008527982427
 10
388.7067997215361
 20
580.3010642637156
 42
-0.1420008527982201
 10
395.0178559485048
 20
582.4943652690576
 42
0.0
 10
414.262586039571
 20
583.5029388360319
 42
0.1092369723637374
 10
419.256448172039
 20
584.8848748734588
 42
-0.1111415761494569
 97
       20
330
1A1F
330
19F9
330
1A25
330
1A24
330
1A2C
330
1AB8
330
1964
330
1967
330
1966
330
1957
330
1961
330
186E
330
1874
330
188C
330
1A2B
330
1A19
330
1A16
330
1A15
330
1A1D
330
1A21
 92
       23
 72
     1
 73
     1
 93
        3
 10
224.3088479629406
 20
525.8825615874222
 42
0.0
 10
215.3702784589643
 20
525.4141110097519
 42
0.0
 10
215.3702784589643
 20
516.4632746956896
 42
-0.0182440121344511
 97
        3
330
188C
330
1874
330
186E
 92
        7
 72
     1
 73
     1
 93
       18
 10
440.7390320732487
 20
486.0550600259696
 42
0.0
 10
435.1830818168124
 20
485.7638850112227
 42
-0.111141576150727
 10
424.3559259574494
 20
487.5810422146405
 42
0.1092369723645086
 10
419.2449690738991
 20
488.4334071273965
 42
0.0
 10
400.0002389828329
 20
487.4248335604222
 42
-0.1420008527982191
 10
393.4944929986406
 20
488.9464344243671
 42
0.1420008527982312
 10
389.1573290091788
 20
489.9608350003306
 42
0.0
 10
344.2123783533423
 20
487.6053699464724
 42
0.3989595459737191
 10
259.8702784589643
 20
398.7273413533153
 42
0.0
 10
259.8702784589643
 20
384.4141110097518
 42
0.0
 10
276.8115461470963
 20
384.4141110097518
 42
0.0
 10
278.8813451405015
 20
382.4153293557138
 42
0.0
 10
279.3702784589643
 20
368.4141110097527
 42
0.0
 10
279.3702784589643
 20
426.4550297984888
 42
0.0
 10
317.5432408882561
 20
466.6809389295734
 42
0.0
 10
455.394979395346
 20
473.9054424150366
 42
0.0
 10
442.3884270378422
 20
473.678412199144
 42
0.0
 10
441.3362433864427
 20
474.659589327461
 42
0.0
 97
       18
330
1A0F
330
1A11
330
1A0D
330
1A04
330
1A09
330
1A08
330
1A29
330
186D
330
1992
330
1950
330
1952
330
1953
330
194B
330
1AB6
330
1A26
330
1A01
330
1A02
330
1A00
 75
     0
 76
     1
 52
0.0
 41
30.0
 77
     0
 78
     3
 53
0.0
 43
0.0
 44
0.0
 45
5.625
 46
3.247595249999999
 79
     2
 49
3.75
 49
-7.5
 53
120.0
 43
0.0
 44
0.0
 45
-5.624999987709673
 46
3.247595271287468
 79
     2
 49
3.75
 49
-7.5
 53
60.0
 43
0.0
 44
0.0
 45
0.0000000122903263
 46
6.495190521287468
 79
     2
 49
-7.5
 49
3.75
 47
0.8157029031894079
 98
        3
 10
337.4093207635765
 20
587.44550606204
 10
217.4289450663037
 20
523.0049760980734
 10
321.0854614361729
 20
474.8785040205023
  0
DIMENSION
  5
2190
330
1E
100
AcDbEntity
  8
BEM
100
AcDbDimension
  2
*D4
 10
112.9562339648378
 20
525.4141110097517
 30
0.0
 11
104.8312339648377
 21
421.9141110097519
 31
0.0
 70
    32
 71
     5
 42
206.9999999999998
  3
Standard
100
AcDbAlignedDimension
 13
171.9201424212755
 23
318.4141110097519
 33
0.0
 14
215.3702784589643
 24
525.4141110097517
 34
0.0
 50
90.0
100
AcDbRotatedDimension
1001
ACAD
1000
DSTYLE
1002
{
1070
    40
1040
2.5
1070
    41
1040
3.5
1070
    42
1040
1.0
1070
    43
1040
7.0
1070
    44
1040
1.0
1070
    73
1070
     0
1070
    74
1070
     0
1070
    77
1070
     1
1070
    78
1070
     8
1070
    79
1070
     2
1070
   140
1040
3.5
1070
   141
1040
1.5
1070
   146
1040
0.5142857142857144
1070
   147
1040
1.5
1070
   172
1070
     1
1070
   178
1070
     1
1070
   179
1070
     2
1070
   271
1070
     2
1070
   272
1070
     2
1070
   284
1070
     8
1070
   285
1070
     8
1070
   286
1070
     8
1002
}
  0
DIMENSION
  5
219D
330
1E
100
AcDbEntity
  8
BEM
100
AcDbDimension
  2
*D5
 10
444.9758275274354
 20
672.7147033768554
 30
0.0
 11
326.2129980145443
 21
674.6267575319474
 31
0.0
 70
    32
 71
     5
 42
237.0000000000003
 51
357.0
  3
Standard
100
AcDbAlignedDimension
 13
215.3702784589643
 23
525.4141110097517
 33
0.0
 14
448.5651371056428
 24
604.2265967005087
 34
0.0
 50
2.999999999999992
100
AcDbRotatedDimension
1001
ACAD
1000
DSTYLE
1002
{
1070
    40
1040
2.5
1070
    41
1040
3.5
1070
    42
1040
1.0
1070
    43
1040
7.0
1070
    44
1040
1.0
1070
    73
1070
     0
1070
    74
1070
     0
1070
    77
1070
     1
1070
    78
1070
     8
1070
    79
1070
     2
1070
   140
1040
3.5
1070
   141
1040
1.5
1070
   146
1040
0.5142857142857144
1070
   147
1040
1.5
1070
   172
1070
     1
1070
   178
1070
     1
1070
   179
1070
     2
1070
   271
1070
     2
1070
   272
1070
     2
1070
   284
1070
     8
1070
   285
1070
     8
1070
   286
1070
     8
1002
}
  0
DIMENSION
  5
21AA
330
1E
100
AcDbEntity
  8
BEM
100
AcDbDimension
  2
*D6
 10
215.3702784589643
 20
313.4141110097519
 30
0.0
 11
299.3886286392583
 21
613.9509785886416
 31
0.0
 70
    34
 71
     5
 42
1.518436449235066
  3
Standard
100
AcDb2LineAngularDimension
 13
457.0386258695712
 23
538.0794124205441
 33
0.0
 14
215.3702784589643
 24
525.4141110097517
 34
0.0
 15
215.3702784589643
 25
525.4141110097517
 35
0.0
 16
311.9899164165764
 26
585.7887615620387
 36
0.0
1001
ACAD
1000
DSTYLE
1002
{
1070
    40
1040
2.5
1070
    41
1040
3.5
1070
    42
1040
1.0
1070
    43
1040
7.0
1070
    44
1040
1.0
1070
    73
1070
     0
1070
    74
1070
     0
1070
    77
1070
     1
1070
    78
1070
     8
1070
    79
1070
     2
1070
   140
1040
3.5
1070
   141
1040
1.5
1070
   146
1040
0.5142857142857144
1070
   147
1040
1.5
1070
   172
1070
     1
1070
   178
1070
     1
1070
   179
1070
     2
1070
   271
1070
     2
1070
   272
1070
     2
1070
   284
1070
     8
1070
   285
1070
     8
1070
   286
1070
     8
1002
}
  0
ENDSEC
  0
SECTION
  2
OBJECTS
  0
DICTIONARY
  5
C
330
0
100
AcDbDictionary
281
     1
  3
ACAD_COLOR
350
DF
  3
ACAD_GROUP
350
D
  3
ACAD_LAYOUT
350
19
  3
ACAD_MATERIAL
350
DE
  3
ACAD_MLINESTYLE
350
16
  3
ACAD_PLOTSETTINGS
350
18
  3
ACAD_PLOTSTYLENAME
350
E
  3
AcDbVariableDictionary
350
25E
  0
DICTIONARY
  5
A0
330
1E
100
AcDbDictionary
280
     1
281
     1
  3
ACAD_LAYOUTSELFREF
360
D4
  0
DICTIONARY
  5
A2
330
1A
100
AcDbDictionary
280
     1
281
     1
  3
ACAD_LAYOUTSELFREF
360
D3
  0
DICTIONARY
  5
DF
102
{ACAD_REACTORS
330
C
102
}
330
C
100
AcDbDictionary
281
     1
  0
DICTIONARY
  5
D
102
{ACAD_REACTORS
330
C
102
}
330
C
100
AcDbDictionary
281
     1
  0
DICTIONARY
  5
19
102
{ACAD_REACTORS
330
C
102
}
330
C
100
AcDbDictionary
281
     1
  3
Layout1
350
1D
  3
Model
350
21
  0
DICTIONARY
  5
DE
102
{ACAD_REACTORS
330
C
102
}
330
C
100
AcDbDictionary
281
     1
  0
DICTIONARY
  5
16
102
{ACAD_REACTORS
330
C
102
}
330
C
100
AcDbDictionary
281
     1
  3
Standard
350
17
  0
DICTIONARY
  5
18
102
{ACAD_REACTORS
330
C
102
}
330
C
100
AcDbDictionary
281
     1
  0
ACDBDICTIONARYWDFLT
  5
E
102
{ACAD_REACTORS
330
C
102
}
330
C
100
AcDbDictionary
281
     1
  3
Normal
350
F
100
AcDbDictionaryWithDefault
340
F
  0
DICTIONARY
  5
25E
102
{ACAD_REACTORS
330
C
102
}
330
C
100
AcDbDictionary
281
     1
  3
DIMASSOC
350
25F
  3
PROJECTNAME
350
260
  0
XRECORD
  5
D4
102
{ACAD_REACTORS
330
A0
102
}
330
A0
100
AcDbXrecord
280
     1
340
1E
  0
XRECORD
  5
D3
102
{ACAD_REACTORS
330
A2
102
}
330
A2
100
AcDbXrecord
280
     1
340
1A
  0
LAYOUT
  5
1D
102
{ACAD_REACTORS
330
19
102
}
330
19
100
AcDbPlotSettings
  1

  2
\\NT_WORK01\HP LaserJet 5000 PCL 6
  4

  6

 40
0.0
 41
0.0
 42
0.0
 43
0.0
 44
0.0
 45
0.0
 46
0.0
 47
0.0
 48
0.0
 49
0.0
140
0.0
141
0.0
142
1.0
143
1.0
 70
   688
 72
     0
 73
     0
 74
     5
  7

 75
    16
147
1.0
 76
     0
 77
     2
 78
   300
148
0.0
149
0.0
100
AcDbLayout
  1
Layout1
 70
     0
 71
     1
 10
0.0
 20
0.0
 11
12.0
 21
9.0
 12
0.0
 22
0.0
 32
0.0
 14
1.000000000000000E+20
 24
1.000000000000000E+20
 34
1.000000000000000E+20
 15
-1.000000000000000E+20
 25
-1.000000000000000E+20
 35
-1.000000000000000E+20
146
0.0
 13
0.0
 23
0.0
 33
0.0
 16
1.0
 26
0.0
 36
0.0
 17
0.0
 27
1.0
 37
0.0
 76
     0
330
1A
  0
LAYOUT
  5
21
102
{ACAD_REACTORS
330
19
102
}
330
19
100
AcDbPlotSettings
  1

  2
RICOH Aficio 2027 PCL 6
  4
A4
  6

 40
5.027083
 41
5.027084999999999
 42
5.027084
 43
5.027069
 44
209.973328
 45
296.925995
 46
0.0
 47
2.06
 48
0.0
 49
0.0
140
0.0
141
0.0
142
1.0
143
2.100849152723284
 70
 11956
 72
     1
 73
     0
 74
     2
  7
monochrome1.ctb
 75
     0
147
0.4759980023809526
 76
     1
 77
     2
 78
   300
148
0.0
149
0.0
100
AcDbLayout
  1
Model
 70
     1
 71
     0
 10
0.0
 20
0.0
 11
12.0
 21
9.0
 12
0.0
 22
0.0
 32
0.0
 14
0.0
 24
0.0
 34
0.0
 15
0.0
 25
0.0
 35
0.0
146
0.0
 13
0.0
 23
0.0
 33
0.0
 16
1.0
 26
0.0
 36
0.0
 17
0.0
 27
1.0
 37
0.0
 76
     0
330
1E
  0
MLINESTYLE
  5
17
102
{ACAD_REACTORS
330
16
102
}
330
16
100
AcDbMlineStyle
  2
STANDARD
 70
     0
  3

 62
   256
 51
90.0
 52
90.0
 71
     2
 49
0.5
 62
   256
  6
BYLAYER
 49
-0.5
 62
   256
  6
BYLAYER
  0
ACDBPLACEHOLDER
  5
F
102
{ACAD_REACTORS
330
E
102
}
330
E
  0
DICTIONARYVAR
  5
25F
102
{ACAD_REACTORS
330
25E
102
}
330
25E
100
DictionaryVariables
280
     0
  1
1
  0
DICTIONARYVAR
  5
260
102
{ACAD_REACTORS
330
25E
102
}
330
25E
100
DictionaryVariables
280
     0
  1

  0
ENDSEC
  0
EOF
