  0
SECTION
  2
HEADER
  9
$ACADVER
  1
AC1018
  9
$ACADMAINTVER
 70
     2
  9
$DWGCODEPAGE
  3
ANSI_1252
  9
$INSBASE
 10
0.0
 20
0.0
 30
0.0
  9
$EXTMIN
 10
-0.026146369079811
 20
-0.0090474692858606
 30
-0.000000000000013
  9
$EXTMAX
 10
420.0100667474936
 20
594.0000027664084
 30
0.0000000000000023
  9
$LIMMIN
 10
0.0
 20
0.0
  9
$LIMMAX
 10
419.9999999999999
 20
594.0000000000002
  9
$ORTHOMODE
 70
     1
  9
$REGENMODE
 70
     1
  9
$FILLMODE
 70
     1
  9
$QTEXTMODE
 70
     0
  9
$MIRRTEXT
 70
     1
  9
$LTSCALE
 40
20.0
  9
$ATTMODE
 70
     1
  9
$TEXTSIZE
 40
3.5
  9
$TRACEWID
 40
0.5
  9
$TEXTSTYLE
  7
STANDARD
  9
$CLAYER
  8
VOLL
  9
$CELTYPE
  6
ByLayer
  9
$CECOLOR
 62
   256
  9
$CELTSCALE
 40
1.0
  9
$DISPSILH
 70
     0
  9
$DIMSCALE
 40
2.0
  9
$DIMASZ
 40
3.5
  9
$DIMEXO
 40
1.0
  9
$DIMDLI
 40
7.0
  9
$DIMRND
 40
0.0
  9
$DIMDLE
 40
0.0
  9
$DIMEXE
 40
1.0
  9
$DIMTP
 40
0.15
  9
$DIMTM
 40
0.15
  9
$DIMTXT
 40
3.5
  9
$DIMCEN
 40
1.5
  9
$DIMTSZ
 40
0.0
  9
$DIMTOL
 70
     0
  9
$DIMLIM
 70
     0
  9
$DIMTIH
 70
     0
  9
$DIMTOH
 70
     0
  9
$DIMSE1
 70
     0
  9
$DIMSE2
 70
     0
  9
$DIMTAD
 70
     1
  9
$DIMZIN
 70
     8
  9
$DIMBLK
  1

  9
$DIMASO
 70
     1
  9
$DIMSHO
 70
     0
  9
$DIMPOST
  1

  9
$DIMAPOST
  1

  9
$DIMALT
 70
     0
  9
$DIMALTD
 70
     2
  9
$DIMALTF
 40
25.4
  9
$DIMLFAC
 40
1.0
  9
$DIMTOFL
 70
     1
  9
$DIMTVP
 40
0.0
  9
$DIMTIX
 70
     0
  9
$DIMSOXD
 70
     0
  9
$DIMSAH
 70
     0
  9
$DIMBLK1
  1

  9
$DIMBLK2
  1

  9
$DIMSTYLE
  2
Standard
  9
$DIMCLRD
 70
     0
  9
$DIMCLRE
 70
     0
  9
$DIMCLRT
 70
     1
  9
$DIMTFAC
 40
0.5142857142857144
  9
$DIMGAP
 40
1.5
  9
$DIMJUST
 70
     0
  9
$DIMSD1
 70
     0
  9
$DIMSD2
 70
     0
  9
$DIMTOLJ
 70
     1
  9
$DIMTZIN
 70
     8
  9
$DIMALTZ
 70
     8
  9
$DIMALTTZ
 70
     8
  9
$DIMUPT
 70
     0
  9
$DIMDEC
 70
     2
  9
$DIMTDEC
 70
     2
  9
$DIMALTU
 70
     2
  9
$DIMALTTD
 70
     2
  9
$DIMTXSTY
  7
STANDARD
  9
$DIMAUNIT
 70
     0
  9
$DIMADEC
 70
     2
  9
$DIMALTRND
 40
0.0
  9
$DIMAZIN
 70
     2
  9
$DIMDSEP
 70
    46
  9
$DIMATFIT
 70
     3
  9
$DIMFRAC
 70
     0
  9
$DIMLDRBLK
  1

  9
$DIMLUNIT
 70
     2
  9
$DIMLWD
 70
    -2
  9
$DIMLWE
 70
    -2
  9
$DIMTMOVE
 70
     0
  9
$LUNITS
 70
     2
  9
$LUPREC
 70
     2
  9
$SKETCHINC
 40
1.0
  9
$FILLETRAD
 40
0.0
  9
$AUNITS
 70
     0
  9
$AUPREC
 70
     0
  9
$MENU
  1
ACAD
  9
$ELEVATION
 40
0.0
  9
$PELEVATION
 40
0.0
  9
$THICKNESS
 40
0.0
  9
$LIMCHECK
 70
     0
  9
$CHAMFERA
 40
0.0
  9
$CHAMFERB
 40
0.0
  9
$CHAMFERC
 40
0.0
  9
$CHAMFERD
 40
0.0
  9
$SKPOLY
 70
     0
  9
$TDCREATE
 40
2455573.107286459
  9
$TDUCREATE
 40
2455573.023953125
  9
$TDUPDATE
 40
2456217.532613345
  9
$TDUUPDATE
 40
2456217.449280011
  9
$TDINDWG
 40
0.1614077894
  9
$TDUSRTIMER
 40
0.1614077894
  9
$USRTIMER
 70
     1
  9
$ANGBASE
 50
0.0
  9
$ANGDIR
 70
     0
  9
$PDMODE
 70
     0
  9
$PDSIZE
 40
0.0
  9
$PLINEWID
 40
0.0
  9
$SPLFRAME
 70
     0
  9
$SPLINETYPE
 70
     6
  9
$SPLINESEGS
 70
     8
  9
$HANDSEED
  5
1561
  9
$SURFTAB1
 70
     6
  9
$SURFTAB2
 70
     6
  9
$SURFTYPE
 70
     6
  9
$SURFU
 70
     6
  9
$SURFV
 70
     6
  9
$UCSBASE
  2

  9
$UCSNAME
  2

  9
$UCSORG
 10
0.0
 20
0.0
 30
0.0
  9
$UCSXDIR
 10
1.0
 20
0.0
 30
0.0
  9
$UCSYDIR
 10
0.0
 20
1.0
 30
0.0
  9
$UCSORTHOREF
  2

  9
$UCSORTHOVIEW
 70
     0
  9
$UCSORGTOP
 10
0.0
 20
0.0
 30
0.0
  9
$UCSORGBOTTOM
 10
0.0
 20
0.0
 30
0.0
  9
$UCSORGLEFT
 10
0.0
 20
0.0
 30
0.0
  9
$UCSORGRIGHT
 10
0.0
 20
0.0
 30
0.0
  9
$UCSORGFRONT
 10
0.0
 20
0.0
 30
0.0
  9
$UCSORGBACK
 10
0.0
 20
0.0
 30
0.0
  9
$PUCSBASE
  2

  9
$PUCSNAME
  2

  9
$PUCSORG
 10
0.0
 20
0.0
 30
0.0
  9
$PUCSXDIR
 10
1.0
 20
0.0
 30
0.0
  9
$PUCSYDIR
 10
0.0
 20
1.0
 30
0.0
  9
$PUCSORTHOREF
  2

  9
$PUCSORTHOVIEW
 70
     0
  9
$PUCSORGTOP
 10
0.0
 20
0.0
 30
0.0
  9
$PUCSORGBOTTOM
 10
0.0
 20
0.0
 30
0.0
  9
$PUCSORGLEFT
 10
0.0
 20
0.0
 30
0.0
  9
$PUCSORGRIGHT
 10
0.0
 20
0.0
 30
0.0
  9
$PUCSORGFRONT
 10
0.0
 20
0.0
 30
0.0
  9
$PUCSORGBACK
 10
0.0
 20
0.0
 30
0.0
  9
$USERI1
 70
     0
  9
$USERI2
 70
     0
  9
$USERI3
 70
     0
  9
$USERI4
 70
     0
  9
$USERI5
 70
     0
  9
$USERR1
 40
0.0
  9
$USERR2
 40
0.0
  9
$USERR3
 40
0.0
  9
$USERR4
 40
0.0
  9
$USERR5
 40
0.0
  9
$WORLDVIEW
 70
     1
  9
$SHADEDGE
 70
     3
  9
$SHADEDIF
 70
    70
  9
$TILEMODE
 70
     1
  9
$MAXACTVP
 70
    16
  9
$PINSBASE
 10
0.0
 20
0.0
 30
0.0
  9
$PLIMCHECK
 70
     0
  9
$PEXTMIN
 10
1.000000000000000E+20
 20
1.000000000000000E+20
 30
1.000000000000000E+20
  9
$PEXTMAX
 10
-1.000000000000000E+20
 20
-1.000000000000000E+20
 30
-1.000000000000000E+20
  9
$PLIMMIN
 10
0.0
 20
0.0
  9
$PLIMMAX
 10
12.0
 20
9.0
  9
$UNITMODE
 70
     0
  9
$VISRETAIN
 70
     0
  9
$PLINEGEN
 70
     0
  9
$PSLTSCALE
 70
     0
  9
$TREEDEPTH
 70
  3020
  9
$CMLSTYLE
  2
Standard
  9
$CMLJUST
 70
     0
  9
$CMLSCALE
 40
1.0
  9
$PROXYGRAPHICS
 70
     1
  9
$MEASUREMENT
 70
     0
  9
$CELWEIGHT
370
    -1
  9
$ENDCAPS
280
     0
  9
$JOINSTYLE
280
     0
  9
$LWDISPLAY
290
     0
  9
$INSUNITS
 70
     0
  9
$HYPERLINKBASE
  1

  9
$STYLESHEET
  1
monochrome1.ctb
  9
$XEDIT
290
     1
  9
$CEPSNTYPE
380
     0
  9
$PSTYLEMODE
290
     1
  9
$FINGERPRINTGUID
  2
{CF47490D-A8B5-11D8-B772-000102183313}
  9
$VERSIONGUID
  2
{A63203DF-870E-4600-BF72-23DC0CFB8ED4}
  9
$EXTNAMES
290
     1
  9
$PSVPSCALE
 40
0.0
  9
$OLESTARTUP
290
     0
  9
$SORTENTS
280
    96
  9
$INDEXCTL
280
     0
  9
$HIDETEXT
280
     0
  9
$XCLIPFRAME
290
     0
  9
$HALOGAP
280
     0
  9
$OBSCOLOR
 70
   257
  9
$OBSLTYPE
280
     0
  9
$INTERSECTIONDISPLAY
280
     0
  9
$INTERSECTIONCOLOR
 70
   257
  9
$DIMASSOC
280
     1
  9
$PROJECTNAME
  1

  0
ENDSEC
  0
SECTION
  2
CLASSES
  0
CLASS
  1
ACDBDICTIONARYWDFLT
  2
AcDbDictionaryWithDefault
  3
ObjectDBX Classes
 90
        0
 91
        1
280
     0
281
     0
  0
CLASS
  1
DICTIONARYVAR
  2
AcDbDictionaryVar
  3
ObjectDBX Classes
 90
        0
 91
        3
280
     0
281
     0
  0
ENDSEC
  0
SECTION
  2
TABLES
  0
TABLE
  2
VPORT
  5
8
330
0
100
AcDbSymbolTable
 70
     3
  0
VPORT
  5
1560
330
8
100
AcDbSymbolTableRecord
100
AcDbViewportTableRecord
  2
*Active
 70
     0
 10
0.0
 20
0.0
 11
1.0
 21
1.0
 12
210.0
 22
297.0000000000001
 13
0.0
 23
0.0
 14
1.0
 24
1.0
 15
10.0
 25
10.0
 16
0.0
 26
0.0
 36
1.0
 17
0.0
 27
0.0
 37
0.0
 40
594.0000000000002
 41
1.404858299595141
 42
50.0
 43
0.0
 44
0.0
 50
0.0
 51
0.0
 71
     0
 72
  1500
 73
     1
 74
     0
 75
     0
 76
     0
 77
     0
 78
     0
281
     0
 65
     1
110
0.0
120
0.0
130
0.0
111
1.0
121
0.0
131
0.0
112
0.0
122
1.0
132
0.0
 79
     0
146
0.0
  0
ENDTAB
  0
TABLE
  2
LTYPE
  5
5
330
0
100
AcDbSymbolTable
 70
     2
  0
LTYPE
  5
13
330
5
100
AcDbSymbolTableRecord
100
AcDbLinetypeTableRecord
  2
ByBlock
 70
     0
  3

 72
    65
 73
     0
 40
0.0
  0
LTYPE
  5
14
330
5
100
AcDbSymbolTableRecord
100
AcDbLinetypeTableRecord
  2
ByLayer
 70
     0
  3

 72
    65
 73
     0
 40
0.0
  0
LTYPE
  5
15
330
5
100
AcDbSymbolTableRecord
100
AcDbLinetypeTableRecord
  2
Continuous
 70
     0
  3
Solid line
 72
    65
 73
     0
 40
0.0
  0
LTYPE
  5
32
330
5
100
AcDbSymbolTableRecord
100
AcDbLinetypeTableRecord
  2
STRICHPUNKT
 70
     0
  3
__ . __ . __ . __ . __ . __ . __ . __ . __ . __
 72
    65
 73
     4
 40
1.0
 49
0.5
 74
     0
 49
-0.25
 74
     0
 49
0.0
 74
     0
 49
-0.25
 74
     0
  0
ENDTAB
  0
TABLE
  2
LAYER
  5
2
330
0
100
AcDbSymbolTable
 70
     9
  0
LAYER
  5
10
330
2
100
AcDbSymbolTableRecord
100
AcDbLayerTableRecord
  2
0
 70
     0
 62
     7
  6
Continuous
370
    -3
390
F
  0
LAYER
  5
35
330
2
100
AcDbSymbolTableRecord
100
AcDbLayerTableRecord
  2
VOLL
 70
     0
 62
     1
  6
Continuous
370
    -3
390
F
  0
LAYER
  5
36
330
2
100
AcDbSymbolTableRecord
100
AcDbLayerTableRecord
  2
HILF
 70
     0
 62
     2
  6
Continuous
370
    -3
390
F
  0
LAYER
  5
37
330
2
100
AcDbSymbolTableRecord
100
AcDbLayerTableRecord
  2
MITTEL
 70
     0
 62
     2
  6
STRICHPUNKT
370
    -3
390
F
  0
LAYER
  5
38
330
2
100
AcDbSymbolTableRecord
100
AcDbLayerTableRecord
  2
BEM
 70
     0
 62
     7
  6
Continuous
370
    -3
390
F
  0
LAYER
  5
39
330
2
100
AcDbSymbolTableRecord
100
AcDbLayerTableRecord
  2
DEFPOINTS
 70
     0
 62
     7
  6
Continuous
290
     0
370
    -3
390
F
  0
LAYER
  5
3A
330
2
100
AcDbSymbolTableRecord
100
AcDbLayerTableRecord
  2
STEMPEL
 70
     0
 62
     3
  6
Continuous
370
    -3
390
F
  0
LAYER
  5
3B
330
2
100
AcDbSymbolTableRecord
100
AcDbLayerTableRecord
  2
TEXT
 70
     0
 62
     7
  6
Continuous
370
    -3
390
F
  0
LAYER
  5
3C
330
2
100
AcDbSymbolTableRecord
100
AcDbLayerTableRecord
  2
SCHRAFF
 70
     0
 62
     7
  6
Continuous
370
    -3
390
F
  0
ENDTAB
  0
TABLE
  2
STYLE
  5
3
330
0
100
AcDbSymbolTable
 70
     2
  0
STYLE
  5
11
330
3
100
AcDbSymbolTableRecord
100
AcDbTextStyleTableRecord
  2
STANDARD
 70
     0
 40
0.0
 41
0.8
 50
0.0
 71
     0
 42
3.5
  3
simplex.shx
  4

  0
STYLE
  5
31
330
3
100
AcDbSymbolTableRecord
100
AcDbTextStyleTableRecord
  2
GREEKS
 70
     0
 40
0.0
 41
0.8
 50
0.0
 71
     0
 42
2.5
  3
SIMPLEX.shx
  4

  0
ENDTAB
  0
TABLE
  2
VIEW
  5
6
330
0
100
AcDbSymbolTable
 70
     0
  0
ENDTAB
  0
TABLE
  2
UCS
  5
7
330
0
100
AcDbSymbolTable
 70
     0
  0
ENDTAB
  0
TABLE
  2
APPID
  5
9
330
0
100
AcDbSymbolTable
 70
     1
  0
APPID
  5
12
330
9
100
AcDbSymbolTableRecord
100
AcDbRegAppTableRecord
  2
ACAD
 70
     0
  0
ENDTAB
  0
TABLE
  2
DIMSTYLE
  5
A
330
0
100
AcDbSymbolTable
 70
     1
100
AcDbDimStyleTable
 71
     1
340
26B
  0
DIMSTYLE
105
26B
102
{ACAD_REACTORS
330
1395
330
1399
330
139B
330
139C
330
13AA
330
13AB
330
1549
102
}
330
A
100
AcDbSymbolTableRecord
100
AcDbDimStyleTableRecord
  2
Standard
 70
     0
340
11
  0
ENDTAB
  0
TABLE
  2
BLOCK_RECORD
  5
1
330
0
100
AcDbSymbolTable
 70
    13
  0
BLOCK_RECORD
  5
1E
330
1
100
AcDbSymbolTableRecord
100
AcDbBlockTableRecord
  2
*Model_Space
340
21
  0
BLOCK_RECORD
  5
1A
330
1
100
AcDbSymbolTableRecord
100
AcDbBlockTableRecord
  2
*Paper_Space
340
1D
  0
BLOCK_RECORD
  5
22
330
1
100
AcDbSymbolTableRecord
100
AcDbBlockTableRecord
  2
LOGO
340
0
102
{BLKREFS
331
1E2
102
}
  0
BLOCK_RECORD
  5
144D
330
1
100
AcDbSymbolTableRecord
100
AcDbBlockTableRecord
  2
*D1
340
0
  0
BLOCK_RECORD
  5
147D
330
1
100
AcDbSymbolTableRecord
100
AcDbBlockTableRecord
  2
*D5
340
0
  0
BLOCK_RECORD
  5
1497
330
1
100
AcDbSymbolTableRecord
100
AcDbBlockTableRecord
  2
*D7
340
0
  0
BLOCK_RECORD
  5
14A3
330
1
100
AcDbSymbolTableRecord
100
AcDbBlockTableRecord
  2
*D8
340
0
  0
BLOCK_RECORD
  5
14BD
330
1
100
AcDbSymbolTableRecord
100
AcDbBlockTableRecord
  2
*D10
340
0
  0
BLOCK_RECORD
  5
14C9
330
1
100
AcDbSymbolTableRecord
100
AcDbBlockTableRecord
  2
*D11
340
0
  0
BLOCK_RECORD
  5
154A
330
1
100
AcDbSymbolTableRecord
100
AcDbBlockTableRecord
  2
*D12
340
0
  0
ENDTAB
  0
ENDSEC
  0
SECTION
  2
BLOCKS
  0
BLOCK
  5
40
330
1E
100
AcDbEntity
  8
0
100
AcDbBlockBegin
  2
*Model_Space
 70
     0
 10
0.0
 20
0.0
 30
0.0
  3
*Model_Space
  1

  0
ENDBLK
  5
41
330
1E
100
AcDbEntity
  8
0
100
AcDbBlockEnd
  0
BLOCK
  5
3E
330
1A
100
AcDbEntity
 67
     1
  8
0
100
AcDbBlockBegin
  2
*Paper_Space
 70
     0
 10
0.0
 20
0.0
 30
0.0
  3
*Paper_Space
  1

  0
ENDBLK
  5
3F
330
1A
100
AcDbEntity
 67
     1
  8
0
100
AcDbBlockEnd
  0
BLOCK
  5
42
330
22
100
AcDbEntity
  8
0
100
AcDbBlockBegin
  2
LOGO
 70
     0
 10
0.0
 20
0.0
 30
0.0
  3
LOGO
  1

  0
ARC
  5
43
330
22
100
AcDbEntity
  8
0
100
AcDbCircle
 10
11.59973089678112
 20
-9.271599258481501
 30
0.0
 40
4.5
100
AcDbArc
 50
270.0
 51
231.0575587310159
  0
LINE
  5
44
330
22
100
AcDbEntity
  8
0
100
AcDbLine
 10
3.599730896781125
 20
-4.771599258481529
 30
0.0
 11
3.599730896781153
 21
-11.77159925848133
 31
0.0
  0
LINE
  5
45
330
22
100
AcDbEntity
  8
0
100
AcDbLine
 10
2.599730896781125
 20
-4.771599258481529
 30
0.0
 11
2.599730896781153
 21
-11.77159925848133
 31
0.0
  0
CIRCLE
  5
46
330
22
100
AcDbEntity
  8
0
100
AcDbCircle
 10
11.59973089678112
 20
-9.271599258481501
 30
0.0
 40
3.5
  0
ARC
  5
47
330
22
100
AcDbEntity
  8
0
100
AcDbCircle
 10
31.59973089678115
 20
-9.271599258481472
 30
0.0
 40
4.5
100
AcDbArc
 50
270.0
 51
231.0575587310182
  0
LINE
  5
48
330
22
100
AcDbEntity
  8
0
100
AcDbLine
 10
17.59973089678112
 20
-4.771599258481472
 30
0.0
 11
17.59973089678115
 21
-13.77159925848147
 31
0.0
  0
ARC
  5
49
330
22
100
AcDbEntity
  8
0
100
AcDbCircle
 10
22.59973089678116
 20
-7.271599258481472
 30
0.0
 40
2.5
100
AcDbArc
 50
293.1161887722295
 51
90.0
  0
CIRCLE
  5
4A
330
22
100
AcDbEntity
  8
0
100
AcDbCircle
 10
31.59973089678115
 20
-9.271599258481472
 30
0.0
 40
3.5
  0
ARC
  5
4B
330
22
100
AcDbEntity
  8
0
100
AcDbCircle
 10
4.599730896781153
 20
-11.77159925848133
 30
0.0
 40
1.0
100
AcDbArc
 50
180.0
 51
270.0
  0
ARC
  5
4C
330
22
100
AcDbEntity
  8
0
100
AcDbCircle
 10
4.599730896781153
 20
-11.77159925848133
 30
0.0
 40
2.0
100
AcDbArc
 50
179.9999999999992
 51
270.0
  0
LINE
  5
4D
330
22
100
AcDbEntity
  8
0
100
AcDbLine
 10
11.59973089678115
 20
-13.77159925848144
 30
0.0
 11
4.599730896781153
 21
-13.77159925848147
 31
0.0
  0
LINE
  5
4E
330
22
100
AcDbEntity
  8
0
100
AcDbLine
 10
8.771303772034769
 20
-12.77159925848136
 30
0.0
 11
4.599730896781153
 21
-12.77159925848133
 31
0.0
  0
LINE
  5
4F
330
22
100
AcDbEntity
  8
0
100
AcDbLine
 10
31.59973089678115
 20
-13.77159925848147
 30
0.0
 11
23.6715276665056
 21
-13.77159925848144
 31
0.0
  0
LINE
  5
50
330
22
100
AcDbEntity
  8
0
100
AcDbLine
 10
23.56565672307022
 20
-9.51278021337896
 30
0.0
 11
24.4388546544846
 21
-12.77159925848144
 31
0.0
  0
LINE
  5
51
330
22
100
AcDbEntity
  8
0
100
AcDbLine
 10
22.59973089678116
 20
-9.771599258481472
 30
0.0
 11
18.59973089678112
 21
-9.771599258481472
 31
0.0
  0
LINE
  5
52
330
22
100
AcDbEntity
  8
0
100
AcDbLine
 10
18.59973089678115
 20
-13.77159925848144
 30
0.0
 11
17.59973089678115
 21
-13.77159925848144
 31
0.0
  0
LINE
  5
53
330
22
100
AcDbEntity
  8
0
100
AcDbLine
 10
18.59973089678115
 20
-9.771599258481472
 30
0.0
 11
18.59973089678115
 21
-13.77159925848144
 31
0.0
  0
LINE
  5
54
330
22
100
AcDbEntity
  8
0
100
AcDbLine
 10
22.59973089678116
 20
-9.771599258481472
 30
0.0
 11
23.67152766650562
 21
-13.77159925848147
 31
0.0
  0
ARC
  5
55
330
22
100
AcDbEntity
  8
0
100
AcDbCircle
 10
22.59973089678116
 20
-7.271599258481472
 30
0.0
 40
2.5
100
AcDbArc
 50
270.0
 51
270.0000000000007
  0
LINE
  5
56
330
22
100
AcDbEntity
  8
0
100
AcDbLine
 10
28.77130377203494
 20
-12.77159925848147
 30
0.0
 11
24.43885465448463
 21
-12.77159925848144
 31
0.0
  0
LINE
  5
57
330
22
100
AcDbEntity
  8
0
100
AcDbLine
 10
3.599730896781125
 20
-4.771599258481472
 30
0.0
 11
2.599730896781125
 21
-4.771599258481472
 31
0.0
  0
LINE
  5
58
330
22
100
AcDbEntity
  8
0
100
AcDbLine
 10
22.59973089678116
 20
-8.771599258481472
 30
0.0
 11
18.59973089678115
 21
-8.771599258481472
 31
0.0
  0
LINE
  5
59
330
22
100
AcDbEntity
  8
0
100
AcDbLine
 10
22.59973089678116
 20
-5.771599258481472
 30
0.0
 11
18.59973089678115
 21
-5.771599258481472
 31
0.0
  0
LINE
  5
5A
330
22
100
AcDbEntity
  8
0
100
AcDbLine
 10
22.59973089678116
 20
-4.771599258481472
 30
0.0
 11
17.59973089678115
 21
-4.771599258481472
 31
0.0
  0
LINE
  5
5B
330
22
100
AcDbEntity
  8
0
100
AcDbLine
 10
18.59973089678115
 20
-5.771599258481472
 30
0.0
 11
18.59973089678115
 21
-8.771599258481472
 31
0.0
  0
ARC
  5
5C
330
22
100
AcDbEntity
  8
0
100
AcDbCircle
 10
22.59973089678116
 20
-7.271599258481472
 30
0.0
 40
1.5
100
AcDbArc
 50
270.0
 51
90.0
  0
ENDBLK
  5
5D
330
22
100
AcDbEntity
  8
0
100
AcDbBlockEnd
  0
BLOCK
  5
1457
330
144D
100
AcDbEntity
  8
0
100
AcDbBlockBegin
  2
*D1
 70
     1
 10
0.0
 20
0.0
 30
0.0
  3
*D1
  1

  0
LINE
  5
14D5
330
144D
100
AcDbEntity
  8
BEM
 62
     0
370
    -2
100
AcDbLine
 10
353.1468837549014
 20
407.1906501189539
 30
0.0
 11
387.953413504543
 21
372.3841203693123
 31
0.0
  0
LINE
  5
14D6
330
144D
100
AcDbEntity
  8
BEM
 62
     0
370
    -2
100
AcDbLine
 10
190.8658774725893
 20
307.8421473622439
 30
0.0
 11
257.138658985032
 21
241.5693658498013
 31
0.0
  0
LINE
  5
14D7
330
144D
100
AcDbEntity
  8
BEM
 62
     0
370
    -2
100
AcDbLine
 10
381.589452473864
 20
368.8485864633796
 30
0.0
 11
260.6741928909646
 21
247.9333268804801
 31
0.0
  0
SOLID
  5
14D8
330
144D
100
AcDbEntity
  8
BEM
 62
     0
100
AcDbTrace
 10
380.7644945624797
 20
369.6735443747638
 30
0.0
 11
382.4144103852484
 21
368.0236285519952
 31
0.0
 12
386.5391999421699
 22
373.7983339316854
 32
0.0
 13
386.5391999421699
 23
373.7983339316854
 33
0.0
  0
SOLID
  5
14D9
330
144D
100
AcDbEntity
  8
BEM
 62
     0
100
AcDbTrace
 10
259.8492349795804
 20
248.7582847918644
 30
0.0
 11
261.499150802349
 21
247.1083689690958
 31
0.0
 12
255.7244454226589
 22
242.9835794121743
 32
0.0
 13
255.7244454226589
 23
242.9835794121743
 33
0.0
  0
MTEXT
  5
14DA
330
144D
100
AcDbEntity
  8
BEM
 62
     1
100
AcDbMText
 10
316.5356286047019
 20
312.9871507496424
 30
0.0
 40
7.0
 41
0.0
 71
     5
 72
     1
  1
\A1;185
 11
0.7071067811865476
 21
0.7071067811865475
 31
0.0
 73
     1
 44
1.0
  0
POINT
  5
14DB
330
144D
100
AcDbEntity
  8
DEFPOINTS
 62
     0
100
AcDbPoint
 10
351.7326701925283
 20
408.604863681327
 30
0.0
  0
POINT
  5
14DC
330
144D
100
AcDbEntity
  8
DEFPOINTS
 62
     0
100
AcDbPoint
 10
189.4516639102161
 20
309.256360924617
 30
0.0
  0
POINT
  5
14DD
330
144D
100
AcDbEntity
  8
DEFPOINTS
 62
     0
100
AcDbPoint
 10
255.7244454226589
 20
242.9835794121743
 30
0.0
  0
ENDBLK
  5
1458
330
144D
100
AcDbEntity
  8
0
100
AcDbBlockEnd
  0
BLOCK
  5
1487
330
147D
100
AcDbEntity
  8
0
100
AcDbBlockBegin
  2
*D5
 70
     1
 10
0.0
 20
0.0
 30
0.0
  3
*D5
  1

  0
LINE
  5
14F9
330
147D
100
AcDbEntity
  8
BEM
 62
     0
370
    -2
100
AcDbLine
 10
353.1468837549014
 20
410.0190772437001
 30
0.0
 11
372.3889322323362
 21
429.2611257211349
 31
0.0
  0
LINE
  5
14FA
330
147D
100
AcDbEntity
  8
BEM
 62
     0
370
    -2
100
AcDbLine
 10
290.2143802292989
 20
472.951580769303
 30
0.0
 11
309.4564287067335
 21
492.1936292467376
 31
0.0
  0
LINE
  5
14FB
330
147D
100
AcDbEntity
  8
BEM
 62
     0
370
    -2
100
AcDbLine
 10
366.0249712016573
 20
432.7966596270677
 30
0.0
 11
312.9919626126663
 21
485.8296682160587
 31
0.0
  0
SOLID
  5
14FC
330
147D
100
AcDbEntity
  8
BEM
 62
     0
100
AcDbTrace
 10
366.8499291130415
 20
433.6216175384519
 30
0.0
 11
365.200013290273
 21
431.9717017156833
 31
0.0
 12
370.974718669963
 22
427.8469121587618
 32
0.0
 13
370.974718669963
 23
427.8469121587618
 33
0.0
  0
SOLID
  5
14FD
330
147D
100
AcDbEntity
  8
BEM
 62
     0
100
AcDbTrace
 10
313.8169205240505
 20
486.6546261274429
 30
0.0
 11
312.167004701282
 21
485.0047103046744
 31
0.0
 12
308.0422151443604
 22
490.7794156843645
 32
0.0
 13
308.0422151443604
 23
490.7794156843645
 33
0.0
  0
MTEXT
  5
14FE
330
147D
100
AcDbEntity
  8
BEM
 62
     1
100
AcDbMText
 10
344.1046609848742
 20
463.9093579992758
 30
0.0
 40
7.0
 41
0.0
 71
     5
 72
     1
  1
\A1;%%c89
 11
0.7071067811865476
 21
-0.7071067811865475
 31
0.0
 73
     1
 44
1.0
  0
POINT
  5
14FF
330
147D
100
AcDbEntity
  8
DEFPOINTS
 62
     0
100
AcDbPoint
 10
351.7326701925283
 20
408.6048636813271
 30
0.0
  0
POINT
  5
1500
330
147D
100
AcDbEntity
  8
DEFPOINTS
 62
     0
100
AcDbPoint
 10
288.8001666669259
 20
471.5373672069299
 30
0.0
  0
POINT
  5
1501
330
147D
100
AcDbEntity
  8
DEFPOINTS
 62
     0
100
AcDbPoint
 10
308.0422151443604
 20
490.7794156843645
 30
0.0
  0
ENDBLK
  5
1488
330
147D
100
AcDbEntity
  8
0
100
AcDbBlockEnd
  0
BLOCK
  5
14A1
330
1497
100
AcDbEntity
  8
0
100
AcDbBlockBegin
  2
*D7
 70
     1
 10
0.0
 20
0.0
 30
0.0
  3
*D7
  1

  0
LINE
  5
150D
330
1497
100
AcDbEntity
  8
BEM
 62
     0
370
    -2
100
AcDbLine
 10
144.9516639102161
 20
240.1865034159629
 30
0.0
 11
144.9516639102161
 21
214.5490534297483
 31
0.0
  0
LINE
  5
150E
330
1497
100
AcDbEntity
  8
BEM
 62
     0
370
    -2
100
AcDbLine
 10
233.9516639102162
 20
240.1865034159631
 30
0.0
 11
233.9516639102162
 21
214.5490534297483
 31
0.0
  0
LINE
  5
150F
330
1497
100
AcDbEntity
  8
BEM
 62
     0
370
    -2
100
AcDbLine
 10
151.9516639102161
 20
216.5490534297482
 30
0.0
 11
226.9516639102162
 21
216.5490534297482
 31
0.0
  0
SOLID
  5
1510
330
1497
100
AcDbEntity
  8
BEM
 62
     0
100
AcDbTrace
 10
151.9516639102161
 20
217.7157200964149
 30
0.0
 11
151.9516639102161
 21
215.3823867630816
 31
0.0
 12
144.9516639102161
 22
216.5490534297482
 32
0.0
 13
144.9516639102161
 23
216.5490534297482
 33
0.0
  0
SOLID
  5
1511
330
1497
100
AcDbEntity
  8
BEM
 62
     0
100
AcDbTrace
 10
226.9516639102162
 20
217.7157200964149
 30
0.0
 11
226.9516639102162
 21
215.3823867630816
 31
0.0
 12
233.9516639102162
 22
216.5490534297482
 32
0.0
 13
233.9516639102162
 23
216.5490534297482
 33
0.0
  0
MTEXT
  5
1512
330
1497
100
AcDbEntity
  8
BEM
 62
     1
100
AcDbMText
 10
189.4516639102161
 20
223.0490534297483
 30
0.0
 40
7.0
 41
0.0
 71
     5
 72
     1
  1
\A1;%%c89
 73
     1
 44
1.0
  0
POINT
  5
1513
330
1497
100
AcDbEntity
  8
DEFPOINTS
 62
     0
100
AcDbPoint
 10
144.9516639102161
 20
242.1865034159629
 30
0.0
  0
POINT
  5
1514
330
1497
100
AcDbEntity
  8
DEFPOINTS
 62
     0
100
AcDbPoint
 10
233.9516639102162
 20
242.1865034159631
 30
0.0
  0
POINT
  5
1515
330
1497
100
AcDbEntity
  8
DEFPOINTS
 62
     0
100
AcDbPoint
 10
233.9516639102162
 20
216.5490534297482
 30
0.0
  0
ENDBLK
  5
14A2
330
1497
100
AcDbEntity
  8
0
100
AcDbBlockEnd
  0
BLOCK
  5
14AD
330
14A3
100
AcDbEntity
  8
0
100
AcDbBlockBegin
  2
*D8
 70
     1
 10
0.0
 20
0.0
 30
0.0
  3
*D8
  1

  0
LINE
  5
1516
330
14A3
100
AcDbEntity
  8
BEM
 62
     0
370
    -2
100
AcDbLine
 10
255.951663910216
 20
484.2563609246169
 30
0.0
 11
255.951663910216
 21
510.13171743726
 31
0.0
  0
LINE
  5
1517
330
14A3
100
AcDbEntity
  8
BEM
 62
     0
370
    -2
100
AcDbLine
 10
122.951663910216
 20
484.256360924617
 30
0.0
 11
122.951663910216
 21
510.13171743726
 31
0.0
  0
LINE
  5
1518
330
14A3
100
AcDbEntity
  8
BEM
 62
     0
370
    -2
100
AcDbLine
 10
248.9516639102161
 20
508.13171743726
 30
0.0
 11
129.951663910216
 21
508.13171743726
 31
0.0
  0
SOLID
  5
1519
330
14A3
100
AcDbEntity
  8
BEM
 62
     0
100
AcDbTrace
 10
248.9516639102161
 20
509.2983841039266
 30
0.0
 11
248.9516639102161
 21
506.9650507705933
 31
0.0
 12
255.951663910216
 22
508.13171743726
 32
0.0
 13
255.951663910216
 23
508.13171743726
 33
0.0
  0
SOLID
  5
151A
330
14A3
100
AcDbEntity
  8
BEM
 62
     0
100
AcDbTrace
 10
129.951663910216
 20
509.2983841039266
 30
0.0
 11
129.951663910216
 21
506.9650507705933
 31
0.0
 12
122.951663910216
 22
508.13171743726
 32
0.0
 13
122.951663910216
 23
508.13171743726
 33
0.0
  0
MTEXT
  5
151B
330
14A3
100
AcDbEntity
  8
BEM
 62
     1
100
AcDbMText
 10
189.451663910216
 20
514.63171743726
 30
0.0
 40
7.0
 41
0.0
 71
     5
 72
     1
  1
\A1;%%c133
 73
     1
 44
1.0
  0
POINT
  5
151C
330
14A3
100
AcDbEntity
  8
DEFPOINTS
 62
     0
100
AcDbPoint
 10
255.951663910216
 20
482.2563609246168
 30
0.0
  0
POINT
  5
151D
330
14A3
100
AcDbEntity
  8
DEFPOINTS
 62
     0
100
AcDbPoint
 10
122.951663910216
 20
482.256360924617
 30
0.0
  0
POINT
  5
151E
330
14A3
100
AcDbEntity
  8
DEFPOINTS
 62
     0
100
AcDbPoint
 10
122.951663910216
 20
508.13171743726
 30
0.0
  0
ENDBLK
  5
14AE
330
14A3
100
AcDbEntity
  8
0
100
AcDbBlockEnd
  0
BLOCK
  5
14C7
330
14BD
100
AcDbEntity
  8
0
100
AcDbBlockBegin
  2
*D10
 70
     1
 10
0.0
 20
0.0
 30
0.0
  3
*D10
  1

  0
LINE
  5
152A
330
14BD
100
AcDbEntity
  8
BEM
 62
     0
370
    -2
100
AcDbLine
 10
143.3829954877763
 20
237.2563609246169
 30
0.0
 11
78.4233757006217
 21
237.2563609246169
 31
0.0
  0
LINE
  5
152B
330
14BD
100
AcDbEntity
  8
BEM
 62
     0
370
    -2
100
AcDbLine
 10
120.951663910216
 20
482.256360924617
 30
0.0
 11
78.42337570062176
 21
482.256360924617
 31
0.0
  0
LINE
  5
152C
330
14BD
100
AcDbEntity
  8
BEM
 62
     0
370
    -2
100
AcDbLine
 10
80.42337570062171
 20
244.256360924617
 30
0.0
 11
80.42337570062175
 21
475.256360924617
 31
0.0
  0
SOLID
  5
152D
330
14BD
100
AcDbEntity
  8
BEM
 62
     0
100
AcDbTrace
 10
79.25670903395503
 20
244.256360924617
 30
0.0
 11
81.59004236728838
 21
244.256360924617
 31
0.0
 12
80.42337570062171
 22
237.2563609246169
 32
0.0
 13
80.42337570062171
 23
237.2563609246169
 33
0.0
  0
SOLID
  5
152E
330
14BD
100
AcDbEntity
  8
BEM
 62
     0
100
AcDbTrace
 10
79.25670903395507
 20
475.256360924617
 30
0.0
 11
81.59004236728842
 21
475.256360924617
 31
0.0
 12
80.42337570062176
 22
482.256360924617
 32
0.0
 13
80.42337570062176
 23
482.256360924617
 33
0.0
  0
MTEXT
  5
152F
330
14BD
100
AcDbEntity
  8
BEM
 62
     1
100
AcDbMText
 10
73.92337570062167
 20
359.756360924617
 30
0.0
 40
7.0
 41
0.0
 71
     5
 72
     1
  1
\A1;245
 11
0.0000000000000001
 21
1.0
 31
0.0
 73
     1
 44
1.0
  0
POINT
  5
1530
330
14BD
100
AcDbEntity
  8
DEFPOINTS
 62
     0
100
AcDbPoint
 10
145.3829954877764
 20
237.2563609246169
 30
0.0
  0
POINT
  5
1531
330
14BD
100
AcDbEntity
  8
DEFPOINTS
 62
     0
100
AcDbPoint
 10
122.951663910216
 20
482.256360924617
 30
0.0
  0
POINT
  5
1532
330
14BD
100
AcDbEntity
  8
DEFPOINTS
 62
     0
100
AcDbPoint
 10
80.42337570062176
 20
482.256360924617
 30
0.0
  0
ENDBLK
  5
14C8
330
14BD
100
AcDbEntity
  8
0
100
AcDbBlockEnd
  0
BLOCK
  5
14D3
330
14C9
100
AcDbEntity
  8
0
100
AcDbBlockBegin
  2
*D11
 70
     1
 10
0.0
 20
0.0
 30
0.0
  3
*D11
  1

  0
LINE
  5
1540
330
14C9
100
AcDbEntity
  8
BEM
 62
     0
370
    -2
100
AcDbLine
 10
143.3829954877763
 20
237.2563609246169
 30
0.0
 11
93.54360504714001
 21
237.2563609246169
 31
0.0
  0
LINE
  5
1541
330
14C9
100
AcDbEntity
  8
BEM
 62
     0
370
    -2
100
AcDbLine
 10
187.4516639102161
 20
309.256360924617
 30
0.0
 11
93.54360504714003
 21
309.256360924617
 31
0.0
  0
LINE
  5
1542
330
14C9
100
AcDbEntity
  8
BEM
 62
     0
370
    -2
100
AcDbLine
 10
95.54360504714002
 20
244.256360924617
 30
0.0
 11
95.54360504714002
 21
302.256360924617
 31
0.0
  0
SOLID
  5
1543
330
14C9
100
AcDbEntity
  8
BEM
 62
     0
100
AcDbTrace
 10
94.37693838047335
 20
244.256360924617
 30
0.0
 11
96.7102717138067
 21
244.256360924617
 31
0.0
 12
95.54360504714002
 22
237.2563609246169
 32
0.0
 13
95.54360504714002
 23
237.2563609246169
 33
0.0
  0
SOLID
  5
1544
330
14C9
100
AcDbEntity
  8
BEM
 62
     0
100
AcDbTrace
 10
94.37693838047335
 20
302.256360924617
 30
0.0
 11
96.71027171380671
 21
302.256360924617
 31
0.0
 12
95.54360504714002
 22
309.256360924617
 32
0.0
 13
95.54360504714002
 23
309.256360924617
 33
0.0
  0
MTEXT
  5
1545
330
14C9
100
AcDbEntity
  8
BEM
 62
     1
100
AcDbMText
 10
89.04360504713997
 20
273.256360924617
 30
0.0
 40
7.0
 41
0.0
 71
     5
 72
     1
  1
\A1;72
 11
0.0000000000000001
 21
1.0
 31
0.0
 73
     1
 44
1.0
  0
POINT
  5
1546
330
14C9
100
AcDbEntity
  8
DEFPOINTS
 62
     0
100
AcDbPoint
 10
145.3829954877764
 20
237.2563609246169
 30
0.0
  0
POINT
  5
1547
330
14C9
100
AcDbEntity
  8
DEFPOINTS
 62
     0
100
AcDbPoint
 10
189.4516639102161
 20
309.256360924617
 30
0.0
  0
POINT
  5
1548
330
14C9
100
AcDbEntity
  8
DEFPOINTS
 62
     0
100
AcDbPoint
 10
95.54360504714002
 20
309.256360924617
 30
0.0
  0
ENDBLK
  5
14D4
330
14C9
100
AcDbEntity
  8
0
100
AcDbBlockEnd
  0
BLOCK
  5
1554
330
154A
100
AcDbEntity
  8
0
100
AcDbBlockBegin
  2
*D12
 70
     1
 10
0.0
 20
0.0
 30
0.0
  3
*D12
  1

  0
LINE
  5
1556
330
154A
100
AcDbEntity
  8
BEM
 62
     0
370
    -2
100
AcDbLine
 10
143.3829954877763
 20
237.2563609246169
 30
0.0
 11
107.3719949749143
 21
237.2563609246169
 31
0.0
  0
LINE
  5
1557
330
154A
100
AcDbEntity
  8
BEM
 62
     0
370
    -2
100
AcDbLine
 10
120.9516639102161
 20
287.2563609246169
 30
0.0
 11
107.3719949749143
 21
287.2563609246169
 31
0.0
  0
LINE
  5
1558
330
154A
100
AcDbEntity
  8
BEM
 62
     0
370
    -2
100
AcDbLine
 10
109.3719949749143
 20
244.256360924617
 30
0.0
 11
109.3719949749143
 21
280.2563609246169
 31
0.0
  0
SOLID
  5
1559
330
154A
100
AcDbEntity
  8
BEM
 62
     0
100
AcDbTrace
 10
108.2053283082476
 20
244.256360924617
 30
0.0
 11
110.5386616415809
 21
244.256360924617
 31
0.0
 12
109.3719949749143
 22
237.2563609246169
 32
0.0
 13
109.3719949749143
 23
237.2563609246169
 33
0.0
  0
SOLID
  5
155A
330
154A
100
AcDbEntity
  8
BEM
 62
     0
100
AcDbTrace
 10
108.2053283082476
 20
280.2563609246169
 30
0.0
 11
110.5386616415809
 21
280.2563609246169
 31
0.0
 12
109.3719949749143
 22
287.2563609246169
 32
0.0
 13
109.3719949749143
 23
287.2563609246169
 33
0.0
  0
MTEXT
  5
155B
330
154A
100
AcDbEntity
  8
BEM
 62
     1
100
AcDbMText
 10
102.8719949749142
 20
262.2563609246169
 30
0.0
 40
7.0
 41
0.0
 71
     5
 72
     1
  1
\A1;50
 11
0.0000000000000001
 21
1.0
 31
0.0
 73
     1
 44
1.0
  0
POINT
  5
155C
330
154A
100
AcDbEntity
  8
DEFPOINTS
 62
     0
100
AcDbPoint
 10
145.3829954877764
 20
237.2563609246169
 30
0.0
  0
POINT
  5
155D
330
154A
100
AcDbEntity
  8
DEFPOINTS
 62
     0
100
AcDbPoint
 10
122.9516639102161
 20
287.2563609246169
 30
0.0
  0
POINT
  5
155E
330
154A
100
AcDbEntity
  8
DEFPOINTS
 62
     0
100
AcDbPoint
 10
109.3719949749143
 20
287.2563609246169
 30
0.0
  0
ENDBLK
  5
1555
330
154A
100
AcDbEntity
  8
0
100
AcDbBlockEnd
  0
ENDSEC
  0
SECTION
  2
ENTITIES
  0
LINE
  5
19F
330
1E
100
AcDbEntity
  8
STEMPEL
100
AcDbLine
 10
409.9999999999999
 20
110.0
 30
0.0
 11
39.99999999999995
 21
110.0
 31
0.0
  0
LINE
  5
1A0
330
1E
100
AcDbEntity
  8
STEMPEL
100
AcDbLine
 10
136.0000000000001
 20
109.9999999999999
 30
0.0
 11
136.0
 21
9.999999999999971
 31
0.0
  0
LINE
  5
1A1
330
1E
100
AcDbEntity
  8
STEMPEL
100
AcDbLine
 10
220.0
 20
110.0
 30
0.0
 11
220.0
 21
9.999999999999971
 31
0.0
  0
LINE
  5
1A2
330
1E
100
AcDbEntity
  8
STEMPEL
100
AcDbLine
 10
331.9999999999999
 20
109.9999999999997
 30
0.0
 11
331.9999999999999
 21
40.0
 31
0.0
  0
LINE
  5
1A3
330
1E
100
AcDbEntity
  8
STEMPEL
100
AcDbLine
 10
135.9999999999999
 20
29.99999999999997
 30
0.0
 11
39.99999999999995
 21
29.99999999999997
 31
0.0
  0
LINE
  5
1A4
330
1E
100
AcDbEntity
  8
STEMPEL
100
AcDbLine
 10
409.9999999999999
 20
40.0
 30
0.0
 11
136.0000000000001
 21
39.99999999999997
 31
0.0
  0
LINE
  5
1A5
330
1E
100
AcDbEntity
  8
STEMPEL
100
AcDbLine
 10
409.9999999999999
 20
80.0
 30
0.0
 11
136.0000000000001
 21
79.99999999999994
 31
0.0
  0
LINE
  5
1A6
330
1E
100
AcDbEntity
  8
VOLL
100
AcDbLine
 10
54.00000000000005
 20
110.0
 30
0.0
 11
53.99999999999995
 21
9.999999999999971
 31
0.0
  0
LINE
  5
1A7
330
1E
100
AcDbEntity
  8
VOLL
100
AcDbLine
 10
94.00000000000011
 20
109.9999999999999
 30
0.0
 11
94.0
 21
9.999999999999971
 31
0.0
  0
LINE
  5
1A8
330
1E
100
AcDbEntity
  8
VOLL
100
AcDbLine
 10
114.0000000000001
 20
109.9999999999999
 30
0.0
 11
114.0
 21
9.999999999999971
 31
0.0
  0
LINE
  5
1A9
330
1E
100
AcDbEntity
  8
VOLL
100
AcDbLine
 10
154.0000000000001
 20
79.99999999999994
 30
0.0
 11
154.0000000000001
 21
39.99999999999997
 31
0.0
  0
LINE
  5
1AA
330
1E
100
AcDbEntity
  8
VOLL
100
AcDbLine
 10
180.0000000000001
 20
109.9999999999998
 30
0.0
 11
180.0
 21
39.99999999999997
 31
0.0
  0
LINE
  5
1AB
330
1E
100
AcDbEntity
  8
HILF
100
AcDbLine
 10
40.00000000000006
 20
100.0
 30
0.0
 11
136.0000000000001
 21
100.0
 31
0.0
  0
LINE
  5
1AC
330
1E
100
AcDbEntity
  8
HILF
100
AcDbLine
 10
40.00000000000006
 20
90.00000000000005
 30
0.0
 11
136.0000000000001
 21
90.00000000000005
 31
0.0
  0
LINE
  5
1AD
330
1E
100
AcDbEntity
  8
HILF
100
AcDbLine
 10
40.00000000000006
 20
79.99999999999994
 30
0.0
 11
136.0000000000001
 21
79.99999999999994
 31
0.0
  0
LINE
  5
1AE
330
1E
100
AcDbEntity
  8
HILF
100
AcDbLine
 10
40.00000000000006
 20
69.99999999999994
 30
0.0
 11
136.0000000000001
 21
69.99999999999994
 31
0.0
  0
LINE
  5
1AF
330
1E
100
AcDbEntity
  8
HILF
100
AcDbLine
 10
40.00000000000006
 20
59.99999999999997
 30
0.0
 11
136.0000000000001
 21
59.99999999999997
 31
0.0
  0
LINE
  5
1B0
330
1E
100
AcDbEntity
  8
HILF
100
AcDbLine
 10
40.00000000000006
 20
49.99999999999997
 30
0.0
 11
136.0000000000001
 21
49.99999999999997
 31
0.0
  0
LINE
  5
1B1
330
1E
100
AcDbEntity
  8
HILF
100
AcDbLine
 10
40.00000000000006
 20
39.99999999999997
 30
0.0
 11
136.0000000000001
 21
39.99999999999997
 31
0.0
  0
LINE
  5
1B2
330
1E
100
AcDbEntity
  8
HILF
100
AcDbLine
 10
136.0000000000001
 20
69.99999999999994
 30
0.0
 11
220.0
 21
69.99999999999994
 31
0.0
  0
LINE
  5
1B3
330
1E
100
AcDbEntity
  8
HILF
100
AcDbLine
 10
136.0000000000001
 20
59.99999999999997
 30
0.0
 11
220.0
 21
59.99999999999997
 31
0.0
  0
LINE
  5
1B4
330
1E
100
AcDbEntity
  8
HILF
100
AcDbLine
 10
136.0000000000001
 20
49.99999999999997
 30
0.0
 11
220.0
 21
49.99999999999997
 31
0.0
  0
LINE
  5
1B5
330
1E
100
AcDbEntity
  8
HILF
100
AcDbLine
 10
224.7736801096948
 20
84.03758247564139
 30
0.0
 11
324.8353916556311
 21
84.03758247564139
 31
0.0
  0
LINE
  5
1B6
330
1E
100
AcDbEntity
  8
HILF
100
AcDbLine
 10
224.7736801096948
 20
69.99999999999994
 30
0.0
 11
324.835391655631
 21
69.99999999999994
 31
0.0
  0
LINE
  5
1B7
330
1E
100
AcDbEntity
  8
HILF
100
AcDbLine
 10
224.7736801096948
 20
59.99999999999997
 30
0.0
 11
324.835391655631
 21
59.99999999999997
 31
0.0
  0
LINE
  5
1B8
330
1E
100
AcDbEntity
  8
HILF
100
AcDbLine
 10
224.7736801096948
 20
49.99999999999997
 30
0.0
 11
324.835391655631
 21
49.99999999999997
 31
0.0
  0
LINE
  5
1B9
330
1E
100
AcDbEntity
  8
VOLL
100
AcDbLine
 10
331.9999999999999
 20
60.0
 30
0.0
 11
409.9999999999999
 21
60.0
 31
0.0
  0
LINE
  5
1BA
330
1E
100
AcDbEntity
  8
HILF
100
AcDbLine
 10
336.7238616296992
 20
83.77983636955827
 30
0.0
 11
404.8588839326727
 21
83.77983636955827
 31
0.0
  0
LINE
  5
1BB
330
1E
100
AcDbEntity
  8
HILF
100
AcDbLine
 10
223.4909699289885
 20
14.89398258028314
 30
0.0
 11
404.8588839326727
 21
14.89398258028314
 31
0.0
  0
TEXT
  5
1BC
330
1E
100
AcDbEntity
  8
TEXT
100
AcDbText
 10
63.30818695982741
 20
18.59145467910836
 30
0.0
 40
4.0
  1
Änderung
 41
0.8
  7
GREEKS
 72
     4
 11
74.05104410268456
 21
20.30574039339407
 31
0.0
100
AcDbText
  0
TEXT
  5
1BD
330
1E
100
AcDbEntity
  8
TEXT
100
AcDbText
 10
143.5163572150377
 20
102.4620895087088
 30
0.0
 40
5.0
  1
Maßstab
 41
0.8
  7
GREEKS
100
AcDbText
  0
TEXT
  5
1BE
330
1E
100
AcDbEntity
  8
TEXT
100
AcDbText
 10
184.2858954734051
 20
102.4184168434819
 30
0.0
 40
5.0
  1
Zul. Abw.
 41
0.8
  7
GREEKS
100
AcDbText
  0
TEXT
  5
1BF
330
1E
100
AcDbEntity
  8
TEXT
100
AcDbText
 10
224.877940380901
 20
102.5489328011779
 30
0.0
 40
5.0
  1
Benennung
 41
0.8
  7
GREEKS
100
AcDbText
  0
TEXT
  5
1C0
330
1E
100
AcDbEntity
  8
TEXT
100
AcDbText
 10
336.178754957634
 20
102.3132034537136
 30
0.0
 40
5.0
  1
Zeichnungs Nr.
 41
0.8
  7
GREEKS
100
AcDbText
  0
TEXT
  5
1C1
330
1E
100
AcDbEntity
  8
TEXT
100
AcDbText
 10
224.742238391136
 20
30.84560570193057
 30
0.0
 40
5.0
  1
Bauvorhaben
 41
0.8
  7
GREEKS
100
AcDbText
  0
TEXT
  5
1C2
330
1E
100
AcDbEntity
  8
TEXT
100
AcDbText
 10
336.7238616296992
 20
73.1811823709997
 30
0.0
 40
5.0
  1
Ersatz für:
 41
0.8
  7
GREEKS
100
AcDbText
  0
TEXT
  5
1C3
330
1E
100
AcDbEntity
  8
TEXT
100
AcDbText
 10
48.26641107045753
 20
13.65465846027192
 30
0.0
 40
3.6
  1
Index
 50
90.0
 41
0.8
  7
GREEKS
100
AcDbText
  0
TEXT
  5
1C6
330
1E
100
AcDbEntity
  8
TEXT
100
AcDbText
 10
162.3311673153651
 20
73.31880501229926
 30
0.0
 40
3.6
  1
Tag
 41
0.8
  7
GREEKS
100
AcDbText
  0
TEXT
  5
1C7
330
1E
100
AcDbEntity
  8
TEXT
100
AcDbText
 10
192.4626584226295
 20
73.30961091915225
 30
0.0
 40
3.6
  1
Name
 41
0.8
  7
GREEKS
100
AcDbText
  0
TEXT
  5
1C8
330
1E
100
AcDbEntity
  8
TEXT
100
AcDbText
 10
137.5836127167615
 20
63.62990369617964
 30
0.0
 40
3.6
  1
Gez.
 41
0.8
  7
GREEKS
100
AcDbText
  0
TEXT
  5
1C9
330
1E
100
AcDbEntity
  8
TEXT
100
AcDbText
 10
137.5515086571672
 20
53.68926291428377
 30
0.0
 40
3.6
  1
Gepr.
 41
0.8
  7
GREEKS
100
AcDbText
  0
TEXT
  5
1CA
330
1E
100
AcDbEntity
  8
TEXT
100
AcDbText
 10
137.6006777387304
 20
43.52946389649807
 30
0.0
 40
3.6
  1
Norm.
 41
0.8
  7
GREEKS
100
AcDbText
  0
LINE
  5
1CB
330
1E
100
AcDbEntity
  8
STEMPEL
100
AcDbLine
 10
49.99999999999989
 20
10.0
 30
0.0
 11
409.9999999999999
 21
10.0
 31
0.0
  0
LINE
  5
1CC
330
1E
100
AcDbEntity
  8
STEMPEL
100
AcDbLine
 10
409.9999999999999
 20
110.0
 30
0.0
 11
409.9999999999999
 21
10.0
 31
0.0
  0
TEXT
  5
1CD
330
1E
100
AcDbEntity
  8
TEXT
100
AcDbText
 10
337.2400861497005
 20
52.07416177878602
 30
0.0
 40
5.0
  1
ersetzt durch:
 41
0.8
  7
GREEKS
100
AcDbText
  0
LINE
  5
1CE
330
1E
100
AcDbEntity
  8
STEMPEL
100
AcDbLine
 10
409.9999999999999
 20
10.0
 30
0.0
 11
39.99999999999989
 21
10.0
 31
0.0
  0
LINE
  5
1CF
330
1E
100
AcDbEntity
  8
STEMPEL
100
AcDbLine
 10
409.9999999999999
 20
110.0
 30
0.0
 11
409.9999999999999
 21
584.0
 31
0.0
  0
LINE
  5
1D0
330
1E
100
AcDbEntity
  8
STEMPEL
100
AcDbLine
 10
40.0
 20
10.0
 30
0.0
 11
39.99999999999989
 21
584.0
 31
0.0
  0
LINE
  5
1D1
330
1E
100
AcDbEntity
  8
STEMPEL
100
AcDbLine
 10
409.9999999999999
 20
584.0
 30
0.0
 11
39.99999999999989
 21
584.0
 31
0.0
  0
LINE
  5
1D2
330
1E
100
AcDbEntity
  8
HILF
100
AcDbLine
 10
0.0
 20
0.0
 30
0.0
 11
-0.0000000000001137
 21
594.0
 31
0.0
  0
LINE
  5
1D3
330
1E
100
AcDbEntity
  8
HILF
100
AcDbLine
 10
419.9999999999999
 20
594.0000000000002
 30
0.0
 11
0.0
 21
594.0
 31
0.0
  0
LINE
  5
1D4
330
1E
100
AcDbEntity
  8
HILF
100
AcDbLine
 10
419.9999999999999
 20
0.0
 30
0.0
 11
0.0
 21
0.0
 31
0.0
  0
LINE
  5
1D5
330
1E
100
AcDbEntity
  8
HILF
100
AcDbLine
 10
31.08767135713856
 20
297.0
 30
0.0
 11
0.0000000000001137
 21
297.0
 31
0.0
  0
TEXT
  5
1D6
330
1E
100
AcDbEntity
  8
TEXT
100
AcDbText
 10
139.8886662448949
 20
73.33699103545173
 30
0.0
 40
3.6
  1
2012
 41
0.8
  7
GREEKS
100
AcDbText
  0
LINE
  5
1D7
330
1E
100
AcDbEntity
  8
HILF
100
AcDbLine
 10
419.9999999999999
 20
-0.0000000000001137
 30
0.0
 11
419.9999999999999
 21
594.0
 31
0.0
  0
TEXT
  5
1D8
330
1E
100
AcDbEntity
  8
VOLL
100
AcDbText
 10
78.07675471698113
 20
31.02594776470585
 30
0.0
 40
1.8
  1

  7
GREEKS
100
AcDbText
  0
TEXT
  5
1D9
330
1E
100
AcDbEntity
  8
TEXT
100
AcDbText
 10
42.25669815425914
 20
111.6719999999999
 30
0.0
 40
5.0
  1
Erstellt mit AUTOCAD 2004
 41
0.8
  7
GREEKS
100
AcDbText
  0
TEXT
  5
1DA
330
1E
100
AcDbEntity
  8
TEXT
100
AcDbText
 10
194.4216048581257
 20
63.0896391972351
 30
0.0
 40
4.0
  1
Koeh
 41
0.8
  7
GREEKS
 72
     1
 11
199.6787477152685
 21
63.0896391972351
 31
0.0
100
AcDbText
  0
TEXT
  5
1DB
330
1E
100
AcDbEntity
  8
TEXT
 62
     1
100
AcDbText
 10
346.572909698401
 20
88.14901428913959
 30
0.0
 40
7.0
  1
58025MB0W
 41
0.8
  7
GREEKS
 72
     1
 11
371.2395763650676
 21
88.14901428913959
 31
0.0
100
AcDbText
  0
TEXT
  5
1DC
330
1E
100
AcDbEntity
  8
TEXT
 62
     1
100
AcDbText
 10
150.5006306481887
 20
88.14901428913959
 30
0.0
 40
7.0
  1
1:2
  7
GREEKS
100
AcDbText
  0
TEXT
  5
1DD
330
1E
100
AcDbEntity
  8
TEXT
100
AcDbText
 10
161.0085209177598
 20
63.10765040825732
 30
0.0
 40
4.0
  1
16.10.
 41
0.8
  7
GREEKS
 72
     1
 11
167.4085209177598
 21
63.10765040825732
 31
0.0
100
AcDbText
  0
TEXT
  5
1DE
330
1E
100
AcDbEntity
  8
TEXT
 62
     1
100
AcDbText
 10
225.3291095064849
 20
87.41748789253779
 30
0.0
 40
7.0
  1
Verbundrohr
 41
0.8
  7
GREEKS
100
AcDbText
  0
TEXT
  5
1DF
330
1E
100
AcDbEntity
  8
TEXT
100
AcDbText
 10
225.1296391125315
 20
72.50168891988375
 30
0.0
 40
5.0
  1
Red.-Abzweig DN80/50
 41
0.8
  7
GREEKS
100
AcDbText
  0
TEXT
  5
1E0
330
1E
100
AcDbEntity
  8
TEXT
100
AcDbText
 10
225.1296391125315
 20
51.64011943042158
 30
0.0
 40
5.0
  1
EDV-Art.Nr. 58025.MB0X
 41
0.8
  7
GREEKS
100
AcDbText
  0
TEXT
  5
1E1
330
1E
100
AcDbEntity
  8
TEXT
100
AcDbText
 10
224.9837501577827
 20
42.62974153022634
 30
0.0
 40
4.0
  1
58025MB0W.DWG
 41
0.8
  7
GREEKS
100
AcDbText
  0
INSERT
  5
1E2
330
1E
100
AcDbEntity
  8
STEMPEL
100
AcDbBlockReference
  2
LOGO
 10
140.9955485457794
 20
45.02105276448321
 30
0.0
 41
2.0
 42
2.0
 43
2.0
  0
TEXT
  5
1E4
330
1E
100
AcDbEntity
  8
VOLL
100
AcDbText
 10
339.7958237333797
 20
71.91957633833147
 30
0.0
 40
1.8
  1

  7
GREEKS
100
AcDbText
  0
TEXT
  5
1E5
330
1E
100
AcDbEntity
  8
TEXT
100
AcDbText
 10
671.6280919369726
 20
77.47781187155701
 30
0.0
 40
2.5
  1
  
  7
GREEKS
 72
     1
 11
673.8899966988774
 21
77.47781187155701
 31
0.0
100
AcDbText
  0
TEXT
  5
1E6
330
1E
100
AcDbEntity
  8
BEM
100
AcDbText
 10
915.7478092494546
 20
213.0366939019592
 30
0.0
 40
2.5
  1
 
 72
     4
 11
916.878761630407
 21
213.0366939019592
 31
0.0
100
AcDbText
  0
TEXT
  5
1E8
330
1E
100
AcDbEntity
  8
BEM
100
AcDbText
 10
454.2848421115471
 20
134.8585024391051
 30
0.0
 40
2.5
  1

  7
GREEKS
100
AcDbText
  0
TEXT
  5
1E9
330
1E
100
AcDbEntity
  8
VOLL
100
AcDbText
 10
440.2186490918256
 20
114.67524178207
 30
0.0
 40
1.8
  1

  7
GREEKS
100
AcDbText
  0
TEXT
  5
1EA
330
1E
100
AcDbEntity
  8
BEM
100
AcDbText
 10
474.7067139311102
 20
119.4009661052905
 30
0.0
 40
2.5
  1

 41
0.8
  7
GREEKS
100
AcDbText
  0
TEXT
  5
1EB
330
1E
100
AcDbEntity
  8
BEM
100
AcDbText
 10
474.7067139311102
 20
114.7071975512384
 30
0.0
 40
2.5
  1

 41
0.8
  7
GREEKS
100
AcDbText
  0
TEXT
  5
1EC
330
1E
100
AcDbEntity
  8
BEM
100
AcDbText
 10
474.7067139311102
 20
109.4693537325749
 30
0.0
 40
2.5
  1

 41
0.8
  7
GREEKS
100
AcDbText
  0
TEXT
  5
1ED
330
1E
100
AcDbEntity
  8
BEM
100
AcDbText
 10
474.6337694537358
 20
104.9641647824773
 30
0.0
 40
1.8
  1

 41
0.8
  7
GREEKS
100
AcDbText
  0
TEXT
  5
1EE
330
1E
100
AcDbEntity
  8
BEM
100
AcDbText
 10
461.9501985741246
 20
130.5557538787025
 30
0.0
 40
2.0
  1

 41
0.8
  7
GREEKS
 72
     1
 11
461.9501985741246
 21
130.5557538787025
 31
0.0
100
AcDbText
  0
TEXT
  5
1EF
330
1E
100
AcDbEntity
  8
TEXT
100
AcDbText
 10
772.0509172954185
 20
120.2334773152955
 30
0.0
 40
2.5
  1
  
  7
GREEKS
 72
     1
 11
774.3128220573233
 21
120.2334773152955
 31
0.0
100
AcDbText
  0
TEXT
  5
1F0
330
1E
100
AcDbEntity
  8
BEM
100
AcDbText
 10
1016.1706346079
 20
255.7923593456977
 30
0.0
 40
2.5
  1
 
 72
     4
 11
1017.301586988853
 21
255.7923593456977
 31
0.0
100
AcDbText
  0
TEXT
  5
1F1
330
1E
100
AcDbEntity
  8
VOLL
100
AcDbText
 10
228.6383494536079
 20
31.18631511162239
 30
0.0
 40
1.8
  1

  7
GREEKS
100
AcDbText
  0
TEXT
  5
1F2
330
1E
100
AcDbEntity
  8
TEXT
100
AcDbText
 10
560.4706176572007
 20
36.74455064484793
 30
0.0
 40
2.5
  1
  
  7
GREEKS
 72
     1
 11
562.7325224191056
 21
36.74455064484793
 31
0.0
100
AcDbText
  0
TEXT
  5
1F3
330
1E
100
AcDbEntity
  8
BEM
100
AcDbText
 10
804.5903349696828
 20
172.3034326752502
 30
0.0
 40
2.5
  1
 
 72
     4
 11
805.7212873506353
 21
172.3034326752502
 31
0.0
100
AcDbText
  0
TEXT
  5
1F4
330
1E
100
AcDbEntity
  8
BEM
100
AcDbText
 10
393.9839625332579
 20
71.33954581020805
 30
0.0
 40
2.5
  1

  7
GREEKS
100
AcDbText
  0
TEXT
  5
1F5
330
1E
100
AcDbEntity
  8
VOLL
100
AcDbText
 10
379.9177695135364
 20
51.15628515317294
 30
0.0
 40
1.8
  1

  7
GREEKS
100
AcDbText
  0
TEXT
  5
1F6
330
1E
100
AcDbEntity
  8
BEM
100
AcDbText
 10
414.4058343528211
 20
55.88200947639354
 30
0.0
 40
2.5
  1

 41
0.8
  7
GREEKS
100
AcDbText
  0
TEXT
  5
1F7
330
1E
100
AcDbEntity
  8
BEM
100
AcDbText
 10
414.4058343528211
 20
51.18824092234138
 30
0.0
 40
2.5
  1

 41
0.8
  7
GREEKS
100
AcDbText
  0
TEXT
  5
1F8
330
1E
100
AcDbEntity
  8
BEM
100
AcDbText
 10
414.4058343528211
 20
45.95039710367788
 30
0.0
 40
2.5
  1

 41
0.8
  7
GREEKS
100
AcDbText
  0
TEXT
  5
1F9
330
1E
100
AcDbEntity
  8
BEM
100
AcDbText
 10
414.3328898754466
 20
41.44520815358026
 30
0.0
 40
1.8
  1

 41
0.8
  7
GREEKS
100
AcDbText
  0
TEXT
  5
1FA
330
1E
100
AcDbEntity
  8
BEM
100
AcDbText
 10
401.6493189958354
 20
67.03679724980554
 30
0.0
 40
2.0
  1

 41
0.8
  7
GREEKS
 72
     1
 11
401.6493189958354
 21
67.03679724980554
 31
0.0
100
AcDbText
  0
TEXT
  5
1FB
330
1E
100
AcDbEntity
  8
TEXT
100
AcDbText
 10
711.7500377171293
 20
56.71452068639848
 30
0.0
 40
2.5
  1
  
  7
GREEKS
 72
     1
 11
714.0119424790341
 21
56.71452068639848
 31
0.0
100
AcDbText
  0
TEXT
  5
1FC
330
1E
100
AcDbEntity
  8
BEM
100
AcDbText
 10
955.8697550296114
 20
192.2734027168007
 30
0.0
 40
2.5
  1
 
 72
     4
 11
957.0007074105637
 21
192.2734027168007
 31
0.0
100
AcDbText
  0
TEXT
  5
26A
330
1E
100
AcDbEntity
  8
TEXT
100
AcDbText
 10
184.2858954734051
 20
90.23051188311759
 30
0.0
 40
4.0
  1
DIN EN1123-2
 41
0.8
  7
GREEKS
100
AcDbText
  0
TEXT
  5
2ED
330
1E
100
AcDbEntity
  8
TEXT
100
AcDbText
 10
99.98381106419387
 20
18.97240706006074
 30
0.0
 40
4.0
  1
Tag
 41
0.8
  7
GREEKS
 72
     4
 11
103.7171443975272
 21
20.30574039339407
 31
0.0
100
AcDbText
  0
TEXT
  5
2EE
330
1E
100
AcDbEntity
  8
TEXT
100
AcDbText
 10
118.0779538781902
 20
18.30574039339407
 30
0.0
 40
4.0
  1
Name
 41
0.8
  7
GREEKS
 72
     4
 11
124.4017634019997
 21
20.30574039339407
 31
0.0
100
AcDbText
  0
TEXT
  5
54A
330
1E
100
AcDbEntity
  8
VOLL
100
AcDbText
 10
305.2666505177693
 20
60.9917365573275
 30
0.0
 40
1.8
  1

  7
GREEKS
100
AcDbText
  0
TEXT
  5
558
330
1E
100
AcDbEntity
  8
BEM
100
AcDbText
 10
779.8708637178527
 20
75.83979991258411
 30
0.0
 40
2.5
  1

 41
0.8
  7
GREEKS
 72
     4
 11
779.8708637178527
 21
75.83979991258411
 31
0.0
100
AcDbText
  0
TEXT
  5
6F0
330
1E
100
AcDbEntity
  8
TEXT
100
AcDbText
 10
416.5811541437436
 20
12.14804815338303
 30
0.0
 40
4.0
  1
Diese Zeichnung ist urheberrechtlich geschützt und bleibt unser Eigentum. Sie darf weder ganz noch teilweise vervielfältigt und nicht an Dritte weitergegeben werden.
 50
90.0
 41
0.8
  7
GREEKS
100
AcDbText
  0
TEXT
  5
6FA
330
1E
100
AcDbEntity
  8
TEXT
 62
     1
100
AcDbText
 10
245.030129115258
 20
129.7422179729062
 30
0.0
 40
7.0
  1
und innenbeschichtet
 41
0.8
  7
GREEKS
100
AcDbText
  0
TEXT
  5
6FB
330
1E
100
AcDbEntity
  8
TEXT
 62
     1
100
AcDbText
 10
189.8811895945471
 20
117.1473825875242
 30
0.0
 40
7.0
  1
Dämmung: 2 K-PU-Schaum
 41
0.8
  7
GREEKS
100
AcDbText
  0
TEXT
  5
6FC
330
1E
100
AcDbEntity
  8
TEXT
 62
     1
100
AcDbText
 10
197.3756002392442
 20
141.011271812132
 30
0.0
 40
7.0
  1
Innenrohr: E195 EN10305 feuerverzinkt
 41
0.8
  7
GREEKS
100
AcDbText
  0
TEXT
  5
6FD
330
1E
100
AcDbEntity
  8
TEXT
 62
     1
100
AcDbText
 10
193.6033828683802
 20
152.364339848487
 30
0.0
 40
7.0
  1
Außenrohr: E195 EN10305 feuerverzinkt
 41
0.8
  7
GREEKS
100
AcDbText
  0
LINE
  5
138D
330
1E
100
AcDbEntity
  8
BEM
100
AcDbLine
 10
189.451663910216
 20
521.5668354026234
 30
0.0
 11
189.451663910216
 21
545.1779888789633
 31
0.0
  0
LINE
  5
138E
330
1E
100
AcDbEntity
  8
BEM
100
AcDbLine
 10
349.4821139712652
 20
469.2868109856665
 30
0.0
 11
356.2734468653038
 21
476.0781438797052
 31
0.0
  0
MTEXT
  5
138F
330
1E
100
AcDbEntity
  8
BEM
 62
     1
100
AcDbMText
 10
281.4570377105877
 20
531.3769821646811
 30
0.0
 40
7.0
 41
0.0
 71
     5
 72
     1
  1
\A1;45°
 11
0.9238795325112871
 21
-0.3826834323650891
 31
0.0
 73
     1
 44
1.0
  0
SOLID
  5
1390
330
1E
100
AcDbEntity
  8
BEM
100
AcDbTrace
 10
196.4334243335122
 20
541.9067168770671
 30
0.0
 11
196.4683363112463
 21
544.2397890144548
 31
0.0
 12
189.451663910216
 22
543.1779888789633
 32
0.0
 13
189.451663910216
 23
543.1779888789633
 33
0.0
  0
SOLID
  5
1391
330
1E
100
AcDbEntity
  8
BEM
100
AcDbTrace
 10
350.6485027428685
 20
480.376273029536
 30
0.0
 11
349.0234581097247
 21
478.7018554039913
 31
0.0
 12
354.8592333029308
 22
474.6639303173321
 32
0.0
 13
354.8592333029308
 23
474.6639303173321
 33
0.0
  0
ARC
  5
1392
330
1E
100
AcDbEntity
  8
BEM
100
AcDbCircle
 10
189.4516639102161
 20
309.256360924617
 30
0.0
 40
233.9216279543463
100
AcDbArc
 50
46.71461453220307
 51
88.28538546779803
  0
LINE
  5
1393
330
1E
100
AcDbEntity
  8
BEM
100
AcDbLine
 10
189.451663910216
 20
489.2563609246168
 30
0.0
 11
189.451663910216
 21
504.0056898227533
 31
0.0
  0
LINE
  5
1394
330
1E
100
AcDbEntity
  8
BEM
100
AcDbLine
 10
325.2161658980329
 20
445.0208629124343
 30
0.0
 11
336.9053311536408
 21
456.7100281680422
 31
0.0
  0
DIMENSION
  5
1395
330
1E
100
AcDbEntity
  8
BEM
100
AcDbDimension
  2
*D1
 10
255.7244454226589
 20
242.9835794121743
 30
0.0
 11
316.5356286047019
 21
312.9871507496424
 31
0.0
 70
    32
 71
     5
 42
184.9999999999996
  3
Standard
100
AcDbAlignedDimension
 13
351.7326701925282
 23
408.6048636813269
 33
0.0
 14
189.4516639102161
 24
309.256360924617
 34
0.0
 50
45.0
100
AcDbRotatedDimension
1001
ACAD
1000
DSTYLE
1002
{
1070
    40
1040
2.0
1070
    41
1040
3.5
1070
    42
1040
1.0
1070
    43
1040
7.0
1070
    44
1040
1.0
1070
    73
1070
     0
1070
    74
1070
     0
1070
    77
1070
     1
1070
    78
1070
     8
1070
    79
1070
     2
1070
   140
1040
3.5
1070
   141
1040
1.5
1070
   146
1040
0.5142857142857144
1070
   147
1040
1.5
1070
   172
1070
     1
1070
   178
1070
     1
1070
   179
1070
     2
1070
   271
1070
     2
1070
   272
1070
     2
1070
   284
1070
     8
1070
   285
1070
     8
1070
   286
1070
     8
1002
}
  0
DIMENSION
  5
1399
330
1E
100
AcDbEntity
  8
BEM
100
AcDbDimension
  2
*D5
 10
308.0422151443604
 20
490.7794156843645
 30
0.0
 11
344.1046609848742
 21
463.9093579992758
 31
0.0
 70
    32
  1
%%c<>
 71
     5
 42
88.99999999999991
  3
Standard
100
AcDbAlignedDimension
 13
351.7326701925284
 23
408.6048636813271
 33
0.0
 14
288.8001666669258
 24
471.5373672069299
 34
0.0
 50
315.0
100
AcDbRotatedDimension
1001
ACAD
1000
DSTYLE
1002
{
1070
    40
1040
2.0
1070
    41
1040
3.5
1070
    42
1040
1.0
1070
    43
1040
7.0
1070
    44
1040
1.0
1070
    73
1070
     0
1070
    74
1070
     0
1070
    77
1070
     1
1070
    78
1070
     8
1070
    79
1070
     2
1070
   140
1040
3.5
1070
   141
1040
1.5
1070
   146
1040
0.5142857142857144
1070
   147
1040
1.5
1070
   172
1070
     1
1070
   178
1070
     1
1070
   179
1070
     2
1070
   271
1070
     2
1070
   272
1070
     2
1070
   284
1070
     8
1070
   285
1070
     8
1070
   286
1070
     8
1002
}
  0
DIMENSION
  5
139B
330
1E
100
AcDbEntity
  8
BEM
100
AcDbDimension
  2
*D7
 10
233.9516639102162
 20
216.5490534297482
 30
0.0
 11
189.4516639102161
 21
223.0490534297483
 31
0.0
 70
    32
  1
%%c<>
 71
     5
 42
89.00000000000005
  3
Standard
100
AcDbAlignedDimension
 13
144.9516639102161
 23
242.1865034159629
 33
0.0
 14
233.9516639102162
 24
242.1865034159631
 34
0.0
100
AcDbRotatedDimension
1001
ACAD
1000
DSTYLE
1002
{
1070
    40
1040
2.0
1070
    41
1040
3.5
1070
    42
1040
1.0
1070
    43
1040
7.0
1070
    44
1040
1.0
1070
    73
1070
     0
1070
    74
1070
     0
1070
    77
1070
     1
1070
    78
1070
     8
1070
    79
1070
     2
1070
   140
1040
3.5
1070
   141
1040
1.5
1070
   146
1040
0.5142857142857144
1070
   147
1040
1.5
1070
   172
1070
     1
1070
   178
1070
     1
1070
   179
1070
     2
1070
   271
1070
     2
1070
   272
1070
     2
1070
   284
1070
     8
1070
   285
1070
     8
1070
   286
1070
     8
1002
}
  0
DIMENSION
  5
139C
330
1E
100
AcDbEntity
  8
BEM
100
AcDbDimension
  2
*D8
 10
122.951663910216
 20
508.13171743726
 30
0.0
 11
189.451663910216
 21
514.63171743726
 31
0.0
 70
    32
  1
%%c<>
 71
     5
 42
133.0
  3
Standard
100
AcDbAlignedDimension
 13
255.951663910216
 23
482.2563609246168
 33
0.0
 14
122.951663910216
 24
482.256360924617
 34
0.0
100
AcDbRotatedDimension
1001
ACAD
1000
DSTYLE
1002
{
1070
    40
1040
2.0
1070
    41
1040
3.5
1070
    42
1040
1.0
1070
    43
1040
7.0
1070
    44
1040
1.0
1070
    73
1070
     0
1070
    74
1070
     0
1070
    77
1070
     1
1070
    78
1070
     8
1070
    79
1070
     2
1070
   140
1040
3.5
1070
   141
1040
1.5
1070
   146
1040
0.5142857142857144
1070
   147
1040
1.5
1070
   172
1070
     1
1070
   178
1070
     1
1070
   179
1070
     2
1070
   271
1070
     2
1070
   272
1070
     2
1070
   284
1070
     8
1070
   285
1070
     8
1070
   286
1070
     8
1002
}
  0
DIMENSION
  5
13AA
330
1E
100
AcDbEntity
  8
BEM
100
AcDbDimension
  2
*D10
 10
80.42337570062176
 20
482.256360924617
 30
0.0
 11
73.92337570062167
 21
359.756360924617
 31
0.0
 70
    32
 71
     5
 42
245.0
  3
Standard
100
AcDbAlignedDimension
 13
145.3829954877764
 23
237.2563609246169
 33
0.0
 14
122.951663910216
 24
482.256360924617
 34
0.0
 50
90.0
100
AcDbRotatedDimension
1001
ACAD
1000
DSTYLE
1002
{
1070
    40
1040
2.0
1070
    41
1040
3.5
1070
    42
1040
1.0
1070
    43
1040
7.0
1070
    44
1040
1.0
1070
    73
1070
     0
1070
    74
1070
     0
1070
    77
1070
     1
1070
    78
1070
     8
1070
    79
1070
     2
1070
   140
1040
3.5
1070
   141
1040
1.5
1070
   146
1040
0.5142857142857144
1070
   147
1040
1.5
1070
   172
1070
     1
1070
   178
1070
     1
1070
   179
1070
     2
1070
   271
1070
     2
1070
   272
1070
     2
1070
   284
1070
     8
1070
   285
1070
     8
1070
   286
1070
     8
1002
}
  0
DIMENSION
  5
13AB
330
1E
100
AcDbEntity
  8
BEM
100
AcDbDimension
  2
*D11
 10
95.54360504714002
 20
309.256360924617
 30
0.0
 11
89.04360504713997
 21
273.256360924617
 31
0.0
 70
    32
 71
     5
 42
72.00000000000002
  3
Standard
100
AcDbAlignedDimension
 13
145.3829954877764
 23
237.2563609246169
 33
0.0
 14
189.4516639102161
 24
309.256360924617
 34
0.0
 50
90.0
100
AcDbRotatedDimension
1001
ACAD
1000
DSTYLE
1002
{
1070
    40
1040
2.0
1070
    41
1040
3.5
1070
    42
1040
1.0
1070
    43
1040
7.0
1070
    44
1040
1.0
1070
    73
1070
     0
1070
    74
1070
     0
1070
    77
1070
     1
1070
    78
1070
     8
1070
    79
1070
     2
1070
   140
1040
3.5
1070
   141
1040
1.5
1070
   146
1040
0.5142857142857144
1070
   147
1040
1.5
1070
   172
1070
     1
1070
   178
1070
     1
1070
   179
1070
     2
1070
   271
1070
     2
1070
   272
1070
     2
1070
   284
1070
     8
1070
   285
1070
     8
1070
   286
1070
     8
1002
}
  0
HATCH
  5
13AC
330
1E
100
AcDbEntity
  8
SCHRAFF
100
AcDbHatch
 10
0.0
 20
0.0
 30
0.0
210
0.0
220
0.0
230
1.0
  2
HONEY
 70
     0
 71
     1
 91
        3
 92
        7
 72
     1
 73
     1
 93
       19
 10
255.9516639102159
 20
436.426122750423
 42
0.0
 10
253.451663910216
 20
436.426122750423
 42
0.0
 10
253.451663910216
 20
468.2563609246168
 42
0.0
 10
240.551663910216
 20
468.2563609246168
 42
0.0
 10
240.551663910216
 20
462.6927859820159
 42
-0.1111415761504579
 10
238.1703475022832
 20
451.9755710233798
 42
0.109236972363684
 10
237.0516639102161
 20
446.9162278614218
 42
0.0
 10
237.0516639102161
 20
427.645087342034
 42
-0.1420008527982231
 10
235.1916639102162
 20
421.2278916928429
 42
0.1420008527982402
 10
233.9516639102161
 20
416.9497612600484
 42
0.0
 10
233.9516639102161
 20
396.2330203274999
 42
-0.1989123673796412
 10
237.4871978161486
 20
394.7685542334328
 42
0.0
 10
271.0324634655139
 20
428.313819882802
 42
0.1395991324168617
 10
273.1638682132403
 20
432.1422809053762
 42
-0.1395991324168589
 10
276.36097533483
 20
437.8849724392373
 42
0.0
 10
282.0826522456538
 20
443.6066493500611
 42
0.0851285408962431
 10
284.0346627583469
 20
446.3667941112472
 42
-0.0734311771838555
 10
288.1121428516738
 20
452.4264011489584
 42
0.0
 10
280.0320425802127
 20
460.5065014204196
 42
0.0
 97
       19
330
140D
330
1415
330
1409
330
13B4
330
13BB
330
13B9
330
13DF
330
13DC
330
1449
330
142A
330
142D
330
1433
330
1430
330
142E
330
1444
330
13E5
330
1410
330
1412
330
1414
 92
        7
 72
     1
 73
     1
 93
       11
 10
144.951663910216
 20
416.9497612600483
 42
0.1420008527982314
 10
143.711663910216
 20
421.2278916928426
 42
-0.1420008527982301
 10
141.851663910216
 20
427.645087342034
 42
0.0
 10
141.851663910216
 20
446.9162278614218
 42
0.1092369723639186
 10
140.7329803181441
 20
451.9755710233899
 42
-0.1111415761503458
 10
138.351663910216
 20
462.6927859820159
 42
0.0
 10
138.351663910216
 20
468.2563609246169
 42
0.0
 10
125.451663910216
 20
468.2563609246169
 42
0.0
 10
125.4516639102161
 20
300.7854218533099
 42
0.0
 10
128.0103962220842
 20
303.256360924617
 42
0.0
 10
144.9516639102161
 20
303.2563609246171
 42
0.0
 97
       11
330
1438
330
1439
330
143C
330
1436
330
1434
330
1447
330
13DB
330
13DE
330
13D0
330
13C1
330
1441
 92
        7
 72
     1
 73
     1
 93
       14
 10
236.0729842537756
 20
318.4010218652896
 42
-0.2981484187361216
 10
233.9516639102161
 20
313.2797015217302
 42
0.0
 10
233.9516639102161
 20
303.256360924617
 42
0.0
 10
250.8929315983482
 20
303.2563609246169
 42
0.0
 10
253.4516639102162
 20
300.7854218533097
 42
0.0
 10
253.4516639102162
 20
315.0865990988117
 42
0.0
 10
255.9516639102163
 20
315.0865990988116
 42
0.0
 10
340.7018044060182
 20
399.836739594614
 42
0.0
 10
332.6217041345572
 20
407.9168398660748
 42
-0.0734311771838451
 10
326.5620970968468
 20
403.8393597727484
 42
0.0851285408962573
 10
323.8019523356602
 20
401.8873492600551
 42
0.0
 10
318.0802754248361
 20
396.1656723492311
 42
-0.1395991324168614
 10
312.3375838909749
 20
392.9685652276414
 42
0.1395991324168545
 10
308.509122868401
 20
390.8371604799151
 42
0.0
 97
       14
330
13B5
330
13F4
330
1402
330
13F8
330
13FE
330
13FC
330
13FB
330
13E3
330
13EB
330
13D9
330
13D8
330
13B7
330
13B8
330
13BA
 75
     0
 76
     1
 52
0.0
 41
30.0
 77
     0
 78
     3
 53
0.0
 43
-335.2536440488207
 44
0.0
 45
5.625
 46
3.247595249999999
 79
     2
 49
3.75
 49
-7.5
 53
120.0
 43
-335.2536440488207
 44
0.0
 45
-5.624999987709673
 46
3.247595271287468
 79
     2
 49
3.749999999999998
 49
-7.499999999999997
 53
60.0
 43
-335.2536440488207
 44
0.0
 45
0.0000000122903263
 46
6.495190521287468
 79
     2
 49
-7.5
 49
3.75
 47
0.4812880758102981
 98
        3
 10
261.2226351803392
 20
436.3142819932254
 10
139.8479010397486
 20
407.9182853544718
 10
268.9289667594143
 20
341.9818180612899
  0
HATCH
  5
13AD
330
1E
100
AcDbEntity
  8
SCHRAFF
100
AcDbHatch
 10
0.0
 20
0.0
 30
0.0
210
0.0
220
0.0
230
1.0
  2
_USER
 70
     0
 71
     1
 91
        2
 92
        7
 72
     0
 73
     1
 93
        4
 10
289.9315375168242
 20
470.4059963570313
 10
288.8001666669258
 20
471.5373672069298
 10
255.951663910216
 20
438.6888644502199
 10
255.951663910216
 20
436.4261227504229
 97
        4
330
1417
330
13BD
330
13E0
330
13BB
 92
        7
 72
     0
 73
     1
 93
        4
 10
351.7326701925284
 20
408.6048636813271
 10
350.6012993426299
 20
409.7362345312255
 10
255.9516639102163
 20
315.0865990988117
 10
255.9516639102163
 20
312.8238573990147
 97
        4
330
1417
330
13BA
330
13B6
330
13BC
 75
     0
 76
     0
 52
90.0
 41
2.0
 77
     0
 78
     1
 53
90.0
 43
-335.2536440488207
 44
0.0
 45
-2.0
 46
0.0000000000000001
 79
     0
 47
0.4812880758102981
 98
        2
 10
270.3739051915795
 20
451.7155006514792
 10
312.7587322393946
 20
370.3778147000435
  0
HATCH
  5
13AE
330
1E
100
AcDbEntity
  8
SCHRAFF
100
AcDbHatch
 10
0.0
 20
0.0
 30
0.0
210
0.0
220
0.0
230
1.0
  2
_USER
 70
     0
 71
     1
 91
        3
 92
        7
 72
     0
 73
     1
 93
        4
 10
122.9516639102161
 20
287.2563609246169
 10
125.4516639102161
 20
287.2563609246169
 10
125.451663910216
 20
482.256360924617
 10
122.951663910216
 20
482.2563609246171
 97
        4
330
1429
330
13E1
330
13BF
330
13DE
 92
        7
 72
     0
 73
     1
 93
        4
 10
255.951663910216
 20
482.2563609246168
 10
253.451663910216
 20
482.2563609246168
 10
253.4516639102161
 20
436.426122750423
 10
255.951663910216
 20
436.4261227504232
 97
        4
330
1429
330
13DF
330
13B9
330
13E0
 92
        7
 72
     0
 73
     1
 93
        4
 10
255.9516639102163
 20
315.0865990988117
 10
253.4516639102163
 20
315.0865990988117
 10
253.4516639102162
 20
287.2563609246169
 10
255.9516639102163
 20
287.2563609246169
 97
        4
330
13B8
330
13B7
330
13DD
330
13B6
 75
     0
 76
     0
 52
135.0
 41
2.0
 77
     0
 78
     1
 53
135.0
 43
-335.2536440488207
 44
0.0
 45
-1.414213562373095
 46
-1.414213562373094
 79
     0
 47
0.4812880758102981
 98
        3
 10
123.9535917375432
 20
421.3943520303132
 10
254.9612397914943
 20
454.1219413292333
 10
254.9612397914943
 20
308.7729414665055
  0
ARC
  5
13AF
330
1E
100
AcDbEntity
  8
SCHRAFF
100
AcDbCircle
 10
253.0997815476426
 20
314.0051457518849
 30
0.0
 40
5.061265187658833
100
AcDbArc
 50
304.2962670926784
 51
10.70373290732492
  0
HATCH
  5
13B0
330
1E
100
AcDbEntity
  8
SCHRAFF
100
AcDbHatch
 10
0.0
 20
0.0
 30
0.0
210
0.0
220
0.0
230
1.0
  2
_USER
 70
     0
 71
     0
 91
        1
 92
        7
 72
     1
 73
     1
 93
        3
 10
258.0729842537756
 20
314.945177742574
 42
0.0
 10
255.9516639102162
 20
312.8238573990145
 42
0.0
 10
255.9516639102162
 20
309.8238573990146
 42
0.298148418736118
 97
        0
 75
     0
 76
     0
 52
0.0
 41
0.1
 77
     0
 78
     1
 53
0.0
 43
-313.2536440488207
 44
-3.455844122715689
 45
0.0
 46
0.1
 79
     0
 47
0.0238972226556716
 98
        1
 10
257.3207913222663
 20
312.6815815760631
  0
ARC
  5
13B1
330
1E
100
AcDbEntity
  8
SCHRAFF
100
AcDbCircle
 10
255.951663910216
 20
438.68886445022
 30
0.0
 40
5.0
100
AcDbArc
 50
45.0000000000023
 51
90.0
  0
HATCH
  5
13B2
330
1E
100
AcDbEntity
  8
SCHRAFF
100
AcDbHatch
 10
0.0
 20
0.0
 30
0.0
210
0.0
220
0.0
230
1.0
  2
_USER
 70
     0
 71
     0
 91
        1
 92
        7
 72
     1
 73
     1
 93
        3
 10
259.4871978161486
 20
442.2243983561529
 42
0.1989123673796455
 10
255.951663910216
 20
443.68886445022
 42
0.0
 10
255.951663910216
 20
438.68886445022
 42
0.0
 97
        0
 75
     0
 76
     0
 52
0.0
 41
0.1
 77
     0
 78
     1
 53
0.0
 43
-313.2536440488207
 44
47.45584412272023
 45
0.0
 46
0.1
 79
     0
 47
0.105776666134737
 98
        1
 10
256.431823669191
 20
441.4332375588476
  0
HATCH
  5
13B3
330
1E
100
AcDbEntity
  8
SCHRAFF
100
AcDbHatch
 10
0.0
 20
0.0
 30
0.0
210
0.0
220
0.0
230
1.0
  2
NET
 70
     0
 71
     1
 91
        2
 92
        7
 72
     1
 73
     1
 93
        7
 10
289.9315375168244
 20
470.4059963570315
 42
0.0
 10
280.0320425802127
 20
460.5065014204196
 42
0.0
 10
288.1121428516738
 20
452.4264011489584
 42
-0.0120251093634697
 10
288.9430274818577
 20
453.2954517110113
 42
0.0
 10
292.0652312796502
 20
456.4176555088039
 42
-0.1095178116832604
 10
299.1844207179388
 20
460.9530793809918
 42
0.0
 10
299.3310762459699
 20
461.0064576278857
 42
0.0
 97
        7
330
13BB
330
13B4
330
1409
330
1407
330
140B
330
1403
330
1417
 92
        7
 72
     1
 73
     1
 93
        7
 10
350.6012993426298
 20
409.7362345312255
 42
0.0
 10
341.2017606134845
 20
419.1357732603709
 42
0.0
 10
341.1483823665958
 20
418.9891177323537
 42
-0.1095178116834541
 10
336.6129584944026
 20
411.8699282940512
 42
0.0
 10
333.4907546966103
 20
408.7477244962589
 42
-0.0120251093634721
 10
332.6217041345572
 20
407.9168398660748
 42
0.0
 10
340.7018044060184
 20
399.8367395946141
 42
0.0
 97
        7
330
1417
330
13EE
330
13F6
330
13F1
330
13F4
330
13B5
330
13BA
 75
     0
 76
     1
 52
0.0
 41
15.0
 77
     0
 78
     2
 53
0.0
 43
-335.2536440488207
 44
0.0
 45
0.0
 46
1.875
 79
     0
 53
90.0
 43
-335.2536440488207
 44
0.0
 45
-1.875
 46
0.0000000000000001
 79
     0
 47
0.208689426107143
 98
        2
 10
289.9528708304742
 20
463.042857217546
 10
343.4170680139304
 20
407.7401584638919
  0
LINE
  5
13B4
102
{ACAD_REACTORS
330
13B3
330
13AC
102
}
330
1E
100
AcDbEntity
  8
STEMPEL
  6
Continuous
100
AcDbLine
 10
288.1121428516738
 20
452.4264011489584
 30
0.0
 11
280.0320425802127
 21
460.5065014204197
 31
0.0
  0
LINE
  5
13B5
102
{ACAD_REACTORS
330
13B3
330
13AC
102
}
330
1E
100
AcDbEntity
  8
STEMPEL
  6
Continuous
100
AcDbLine
 10
340.7018044060183
 20
399.836739594614
 30
0.0
 11
332.6217041345572
 21
407.9168398660748
 31
0.0
  0
LINE
  5
13B6
102
{ACAD_REACTORS
330
13AE
330
13AD
102
}
330
1E
100
AcDbEntity
  8
STEMPEL
100
AcDbLine
 10
255.9516639102163
 20
315.0865990988117
 30
0.0
 11
255.9516639102163
 21
287.2563609246169
 31
0.0
  0
LINE
  5
13B7
102
{ACAD_REACTORS
330
13AE
330
13AC
102
}
330
1E
100
AcDbEntity
  8
STEMPEL
100
AcDbLine
 10
253.4516639102163
 20
315.0865990988117
 30
0.0
 11
253.4516639102163
 21
287.2563609246169
 31
0.0
  0
LINE
  5
13B8
102
{ACAD_REACTORS
330
13AE
330
13AC
102
}
330
1E
100
AcDbEntity
  8
STEMPEL
100
AcDbLine
 10
255.9516639102163
 20
315.0865990988117
 30
0.0
 11
253.4516639102163
 21
315.0865990988117
 31
0.0
  0
LINE
  5
13B9
102
{ACAD_REACTORS
330
13AE
330
13AC
102
}
330
1E
100
AcDbEntity
  8
STEMPEL
100
AcDbLine
 10
255.9516639102162
 20
436.4261227504231
 30
0.0
 11
253.451663910216
 21
436.426122750423
 31
0.0
  0
LINE
  5
13BA
102
{ACAD_REACTORS
330
13B3
330
13AD
330
13AC
102
}
330
1E
100
AcDbEntity
  8
STEMPEL
100
AcDbLine
 10
350.6012993426297
 20
409.7362345312253
 30
0.0
 11
255.9516639102162
 21
315.0865990988116
 31
0.0
  0
LINE
  5
13BB
102
{ACAD_REACTORS
330
13B3
330
13AD
330
13AC
102
}
330
1E
100
AcDbEntity
  8
STEMPEL
100
AcDbLine
 10
289.9315375168242
 20
470.4059963570313
 30
0.0
 11
255.9516639102162
 21
436.4261227504232
 31
0.0
  0
LINE
  5
13BC
102
{ACAD_REACTORS
330
13AD
102
}
330
1E
100
AcDbEntity
  8
STEMPEL
100
AcDbLine
 10
351.7326701925282
 20
408.6048636813269
 30
0.0
 11
255.9516639102162
 21
312.8238573990145
 31
0.0
  0
LINE
  5
13BD
102
{ACAD_REACTORS
330
13AD
102
}
330
1E
100
AcDbEntity
  8
STEMPEL
100
AcDbLine
 10
288.8001666669257
 20
471.5373672069297
 30
0.0
 11
255.951663910216
 21
438.68886445022
 31
0.0
  0
HATCH
  5
13BE
330
1E
100
AcDbEntity
  8
SCHRAFF
100
AcDbHatch
 10
0.0
 20
0.0
 30
0.0
210
0.0
220
0.0
230
1.0
  2
NET
 70
     0
 71
     0
 91
        2
 92
        7
 72
     0
 73
     1
 93
       11
 10
253.4516639102164
 20
300.7854218533098
 10
250.8929315983481
 20
303.2563609246168
 10
249.5952574496652
 20
303.2563609246168
 10
247.451663910216
 20
295.2563609246169
 10
240.4516639102161
 20
295.2563609246169
 10
238.3080703707671
 20
303.256360924617
 10
233.9516639102162
 20
303.256360924617
 10
233.9516639102162
 20
293.2563609246169
 10
238.4516639102163
 20
293.2563609246169
 10
241.9157655253537
 20
287.2563609246169
 10
253.4516639102163
 20
287.2563609246169
 97
        0
 92
        7
 72
     0
 73
     1
 93
       11
 10
144.9516639102161
 20
303.256360924617
 10
140.5952574496653
 20
303.256360924617
 10
138.4516639102162
 20
295.2563609246169
 10
131.4516639102161
 20
295.2563609246169
 10
129.3080703707671
 20
303.256360924617
 10
128.0103962220842
 20
303.256360924617
 10
125.4516639102161
 20
300.7854218533099
 10
125.4516639102162
 20
287.2563609246169
 10
136.9875622950785
 20
287.2563609246169
 10
140.4516639102161
 20
293.2563609246169
 10
144.9516639102161
 20
293.2563609246169
 97
        0
 75
     0
 76
     1
 52
45.0
 41
15.0
 77
     0
 78
     2
 53
45.0
 43
-335.2536440488207
 44
0.0
 45
-1.325825214724776
 46
1.325825214724776
 79
     0
 53
135.0
 43
-335.2536440488207
 44
0.0
 45
-1.325825214724776
 46
-1.325825214724776
 79
     0
 47
0.1994599248083165
 98
        2
 10
242.4198611292399
 20
293.0033397559462
 10
142.6157807594099
 20
298.3887571366627
  0
LINE
  5
13BF
102
{ACAD_REACTORS
330
13AE
102
}
330
1E
100
AcDbEntity
  8
STEMPEL
100
AcDbLine
 10
144.9516639102161
 20
287.2563609246169
 30
0.0
 11
122.9516639102161
 21
287.2563609246169
 31
0.0
  0
LINE
  5
13C0
330
1E
100
AcDbEntity
  8
STEMPEL
100
AcDbLine
 10
144.9516639102161
 20
293.2563609246169
 30
0.0
 11
140.4516639102161
 21
293.2563609246169
 31
0.0
  0
LINE
  5
13C1
102
{ACAD_REACTORS
330
13AC
102
}
330
1E
100
AcDbEntity
  8
STEMPEL
100
AcDbLine
 10
144.9516639102161
 20
303.2563609246171
 30
0.0
 11
128.0103962220841
 21
303.256360924617
 31
0.0
  0
POINT
  5
13C2
330
1E
100
AcDbEntity
  8
STEMPEL
100
AcDbPoint
 10
252.9627305917532
 20
301.2575792705787
 30
0.0
  0
POINT
  5
13C3
330
1E
100
AcDbEntity
  8
STEMPEL
100
AcDbPoint
 10
129.3080703707671
 20
303.2563609246169
 30
0.0
  0
POINT
  5
13C4
330
1E
100
AcDbEntity
  8
STEMPEL
100
AcDbPoint
 10
131.4516639102161
 20
295.2563609246169
 30
0.0
  0
POINT
  5
13C5
330
1E
100
AcDbEntity
  8
STEMPEL
100
AcDbPoint
 10
131.4516639102161
 20
295.2563609246169
 30
0.0
  0
POINT
  5
13C6
330
1E
100
AcDbEntity
  8
STEMPEL
100
AcDbPoint
 10
138.4516639102161
 20
295.2563609246169
 30
0.0
  0
POINT
  5
13C7
330
1E
100
AcDbEntity
  8
STEMPEL
100
AcDbPoint
 10
240.4516639102161
 20
295.2563609246169
 30
0.0
  0
POINT
  5
13C8
330
1E
100
AcDbEntity
  8
STEMPEL
100
AcDbPoint
 10
131.4516639102161
 20
295.2563609246169
 30
0.0
  0
POINT
  5
13C9
330
1E
100
AcDbEntity
  8
STEMPEL
100
AcDbPoint
 10
247.4516639102162
 20
295.2563609246169
 30
0.0
  0
POINT
  5
13CA
330
1E
100
AcDbEntity
  8
STEMPEL
100
AcDbPoint
 10
250.8929315983482
 20
303.2563609246169
 30
0.0
  0
POINT
  5
13CB
330
1E
100
AcDbEntity
  8
STEMPEL
100
AcDbPoint
 10
250.8929315983482
 20
303.2563609246169
 30
0.0
  0
POINT
  5
13CC
330
1E
100
AcDbEntity
  8
STEMPEL
100
AcDbPoint
 10
140.4516639102161
 20
293.2563609246169
 30
0.0
  0
POINT
  5
13CD
330
1E
100
AcDbEntity
  8
STEMPEL
100
AcDbPoint
 10
241.9157655253538
 20
287.2563609246169
 30
0.0
  0
LINE
  5
13CE
330
1E
100
AcDbEntity
  8
STEMPEL
100
AcDbLine
 10
140.4516639102161
 20
293.2563609246169
 30
0.0
 11
136.9875622950784
 21
287.2563609246169
 31
0.0
  0
LINE
  5
13CF
330
1E
100
AcDbEntity
  8
STEMPEL
100
AcDbLine
 10
138.4516639102161
 20
295.2563609246169
 30
0.0
 11
140.5952574496652
 21
303.256360924617
 31
0.0
  0
LINE
  5
13D0
102
{ACAD_REACTORS
330
13AC
102
}
330
1E
100
AcDbEntity
  8
STEMPEL
100
AcDbLine
 10
125.4516639102162
 20
300.78542185331
 30
0.0
 11
128.0103962220841
 21
303.2563609246169
 31
0.0
  0
LINE
  5
13D1
330
1E
100
AcDbEntity
  8
STEMPEL
100
AcDbLine
 10
131.4516639102161
 20
295.2563609246169
 30
0.0
 11
129.3080703707671
 21
303.2563609246169
 31
0.0
  0
LINE
  5
13D2
330
1E
100
AcDbEntity
  8
STEMPEL
100
AcDbLine
 10
131.4516639102161
 20
295.2563609246169
 30
0.0
 11
138.4516639102161
 21
295.2563609246169
 31
0.0
  0
LINE
  5
13D3
330
1E
100
AcDbEntity
  8
STEMPEL
100
AcDbLine
 10
247.4516639102162
 20
295.2563609246169
 30
0.0
 11
249.5952574496652
 21
303.2563609246169
 31
0.0
  0
LINE
  5
13D4
330
1E
100
AcDbEntity
  8
STEMPEL
100
AcDbLine
 10
240.4516639102161
 20
295.2563609246169
 30
0.0
 11
238.3080703707671
 21
303.256360924617
 31
0.0
  0
LINE
  5
13D5
330
1E
100
AcDbEntity
  8
STEMPEL
100
AcDbLine
 10
247.4516639102162
 20
295.2563609246169
 30
0.0
 11
240.4516639102161
 21
295.2563609246169
 31
0.0
  0
LINE
  5
13D6
330
1E
100
AcDbEntity
  8
STEMPEL
100
AcDbLine
 10
238.4516639102161
 20
293.2563609246169
 30
0.0
 11
241.9157655253538
 21
287.2563609246169
 31
0.0
  0
LINE
  5
13D7
330
1E
100
AcDbEntity
  8
STEMPEL
100
AcDbLine
 10
238.4516639102161
 20
293.2563609246169
 30
0.0
 11
233.9516639102161
 21
293.2563609246169
 31
0.0
  0
LINE
  5
13D8
102
{ACAD_REACTORS
330
13AC
102
}
330
1E
100
AcDbEntity
  8
STEMPEL
100
AcDbLine
 10
253.4516639102163
 20
300.7854218533098
 30
0.0
 11
250.8929315983482
 21
303.2563609246169
 31
0.0
  0
LINE
  5
13D9
102
{ACAD_REACTORS
330
13AC
102
}
330
1E
100
AcDbEntity
  8
STEMPEL
100
AcDbLine
 10
250.8929315983482
 20
303.2563609246169
 30
0.0
 11
233.9516639102162
 21
303.256360924617
 31
0.0
  0
HATCH
  5
13DA
330
1E
100
AcDbEntity
  8
SCHRAFF
100
AcDbHatch
 10
0.0
 20
0.0
 30
0.0
210
0.0
220
0.0
230
1.0
  2
NET
 70
     0
 71
     1
 91
        2
 92
        7
 72
     1
 73
     1
 93
        6
 10
240.551663910216
 20
469.651609462046
 42
0.0
 10
240.551663910216
 20
468.2563609246168
 42
0.0
 10
253.451663910216
 20
468.2563609246168
 42
0.0
 10
253.451663910216
 20
482.2563609246168
 42
0.0
 10
237.217068580556
 20
482.2563609246168
 42
0.0
 10
238.2468354713175
 20
480.0480187008672
 42
-0.1095178116832415
 97
        6
330
1429
330
1422
330
1423
330
1449
330
13DC
330
13DF
 92
        7
 72
     1
 73
     1
 93
        6
 10
140.6564923491145
 20
480.0480187008672
 42
0.0
 10
141.6862592398761
 20
482.256360924617
 42
0.0
 10
125.451663910216
 20
482.2563609246169
 42
0.0
 10
125.451663910216
 20
468.256360924617
 42
0.0
 10
138.351663910216
 20
468.2563609246169
 42
0.0
 10
138.351663910216
 20
469.6516094620459
 42
-0.1095178116832427
 97
        6
330
1426
330
1429
330
13DE
330
13DB
330
1447
330
1427
 75
     0
 76
     1
 52
45.0
 41
15.0
 77
     0
 78
     2
 53
45.0
 43
-335.2536440488207
 44
0.0
 45
-1.325825214724776
 46
1.325825214724776
 79
     0
 53
135.0
 43
-335.2536440488207
 44
0.0
 45
-1.325825214724776
 46
-1.325825214724776
 79
     0
 47
0.2023931576544643
 98
        2
 10
244.2768493117164
 20
474.912256594446
 10
133.8905994965684
 20
476.1266153744267
  0
LINE
  5
13DB
102
{ACAD_REACTORS
330
13DA
330
13AC
102
}
330
1E
100
AcDbEntity
  8
STEMPEL
100
AcDbLine
 10
138.351663910216
 20
468.2563609246169
 30
0.0
 11
125.4516639102161
 21
468.2563609246169
 31
0.0
  0
LINE
  5
13DC
102
{ACAD_REACTORS
330
13DA
330
13AC
102
}
330
1E
100
AcDbEntity
  8
STEMPEL
100
AcDbLine
 10
253.4516639102161
 20
468.2563609246168
 30
0.0
 11
240.551663910216
 21
468.2563609246168
 31
0.0
  0
LINE
  5
13DD
102
{ACAD_REACTORS
330
13AE
102
}
330
1E
100
AcDbEntity
  8
STEMPEL
100
AcDbLine
 10
255.9516639102162
 20
287.2563609246169
 30
0.0
 11
233.9516639102161
 21
287.2563609246169
 31
0.0
  0
LINE
  5
13DE
102
{ACAD_REACTORS
330
13DA
330
13AE
330
13AC
102
}
330
1E
100
AcDbEntity
  8
STEMPEL
100
AcDbLine
 10
125.451663910216
 20
482.256360924617
 30
0.0
 11
125.4516639102161
 21
287.2563609246169
 31
0.0
  0
LINE
  5
13DF
102
{ACAD_REACTORS
330
13DA
330
13AE
330
13AC
102
}
330
1E
100
AcDbEntity
  8
STEMPEL
100
AcDbLine
 10
253.451663910216
 20
482.2563609246168
 30
0.0
 11
253.451663910216
 21
436.426122750423
 31
0.0
  0
LINE
  5
13E0
102
{ACAD_REACTORS
330
13AE
330
13AD
102
}
330
1E
100
AcDbEntity
  8
STEMPEL
100
AcDbLine
 10
255.951663910216
 20
482.2563609246168
 30
0.0
 11
255.951663910216
 21
436.426122750423
 31
0.0
  0
LINE
  5
13E1
102
{ACAD_REACTORS
330
13AE
102
}
330
1E
100
AcDbEntity
  8
STEMPEL
100
AcDbLine
 10
122.951663910216
 20
482.256360924617
 30
0.0
 11
122.9516639102161
 21
287.2563609246169
 31
0.0
  0
HATCH
  5
13E2
330
1E
100
AcDbEntity
  8
SCHRAFF
100
AcDbHatch
 10
0.0
 20
0.0
 30
0.0
210
0.0
220
0.0
230
1.0
  2
_USER
 70
     0
 71
     1
 91
        1
 92
        7
 72
     1
 73
     1
 93
        3
 10
236.0729842537756
 20
318.4010218652896
 42
0.0
 10
233.9516639102161
 20
316.2797015217301
 42
0.0
 10
233.9516639102161
 20
313.2797015217302
 42
0.2981484187361216
 97
        3
330
13FB
330
13EB
330
13E3
 75
     0
 76
     0
 52
0.0
 41
0.1
 77
     0
 78
     1
 53
0.0
 43
-335.2536440488207
 44
0.0
 45
0.0
 46
0.1
 79
     0
 47
0.0238972226556716
 98
        1
 10
235.3207913222663
 20
316.1374256987788
  0
ARC
  5
13E3
102
{ACAD_REACTORS
330
13E2
330
13AC
102
}
330
1E
100
AcDbEntity
  8
SCHRAFF
100
AcDbCircle
 10
231.0997815476426
 20
317.4609898746006
 30
0.0
 40
5.061265187658833
100
AcDbArc
 50
304.2962670926784
 51
10.70373290732492
  0
HATCH
  5
13E4
330
1E
100
AcDbEntity
  8
SCHRAFF
100
AcDbHatch
 10
0.0
 20
0.0
 30
0.0
210
0.0
220
0.0
230
1.0
  2
_USER
 70
     0
 71
     0
 91
        1
 92
        7
 72
     1
 73
     1
 93
        3
 10
237.4871978161486
 20
394.7685542334327
 42
0.1989123673796455
 10
233.9516639102161
 20
396.2330203274999
 42
0.0
 10
233.9516639102161
 20
391.2330203274999
 42
0.0
 97
        0
 75
     0
 76
     0
 52
0.0
 41
0.1
 77
     0
 78
     1
 53
0.0
 43
-335.2536440488207
 44
0.0
 45
0.0
 46
0.1
 79
     0
 47
0.105776666134737
 98
        1
 10
234.431823669191
 20
393.9773934361274
  0
ARC
  5
13E5
102
{ACAD_REACTORS
330
13AC
102
}
330
1E
100
AcDbEntity
  8
SCHRAFF
100
AcDbCircle
 10
233.9516639102161
 20
391.2330203274999
 30
0.0
 40
5.0
100
AcDbArc
 50
45.0000000000023
 51
90.0
  0
HATCH
  5
13E6
330
1E
100
AcDbEntity
  8
SCHRAFF
100
AcDbHatch
 10
0.0
 20
0.0
 30
0.0
210
0.0
220
0.0
230
1.0
  2
_USER
 70
     0
 71
     1
 91
        2
 92
        7
 72
     1
 73
     1
 93
       20
 10
272.0931236372937
 20
427.2531597110221
 42
0.1433758286905728
 10
274.6553076520612
 20
431.9366640693494
 42
0.0
 10
274.658031043195
 20
431.9393874604831
 42
-0.136106111309951
 10
277.4216355066097
 20
436.8243122674575
 42
0.0
 10
283.1433124174335
 20
442.5459891782813
 42
0.0851285408962528
 10
285.3881245070309
 20
445.7201556536456
 42
-0.0855444844068144
 10
290.0028252323062
 20
452.2339291179001
 42
0.0
 10
293.12589145143
 20
455.356995337024
 42
-0.1095178116832489
 10
299.6974509329264
 20
459.5435404498126
 42
0.0
 10
300.5013852590348
 20
459.8361486148209
 42
0.0
 10
299.3315653512033
 20
461.0059685226524
 42
0.111546939082128
 10
292.06523127965
 20
456.4176555088037
 42
0.0
 10
288.8864084491224
 20
453.238832678276
 42
0.0847252966083043
 10
284.0346627583471
 20
446.3667941112475
 42
-0.0851285408962486
 10
282.0826522456539
 20
443.6066493500612
 42
0.0
 10
276.36097533483
 20
437.8849724392373
 42
0.1395991324168622
 10
273.1638682132403
 20
432.142280905376
 42
-0.139599132416844
 10
271.0324634655142
 20
428.3138198828023
 42
0.0
 10
233.9516639102161
 20
391.2330203274998
 42
0.0
 10
233.9516639102161
 20
389.1116999839447
 42
0.0
 97
       20
330
1411
330
140E
330
1413
330
140C
330
1416
330
1408
330
1406
330
140A
330
1404
330
1417
330
140B
330
1407
330
1409
330
1415
330
140D
330
1414
330
1412
330
1410
330
1444
330
140F
 92
        7
 72
     1
 73
     1
 93
       20
 10
308.509122868401
 20
390.8371604799151
 42
-0.1395991324168629
 10
312.3375838909752
 20
392.9685652276415
 42
0.1395991324168558
 10
318.0802754248361
 20
396.1656723492311
 42
0.0
 10
323.80195233566
 20
401.8873492600548
 42
-0.0851285408962485
 10
326.5620970968463
 20
403.8393597727481
 42
0.0847252966072943
 10
333.4341356638038
 20
408.6911054634525
 42
0.0
 10
336.6129584944028
 20
411.8699282940514
 42
0.1115469390821224
 10
341.2012715082513
 20
419.1362623656043
 42
0.0
 10
340.0314516004197
 20
420.3060822734358
 42
0.0
 10
339.7388434354115
 20
419.5021479473275
 42
-0.10951781168325
 10
335.5522983226228
 20
412.9305884658311
 42
0.0
 10
332.429232103499
 20
409.8075222467073
 42
-0.0855444844068097
 10
325.9154586392449
 20
405.1928215214323
 42
0.0851285408962558
 10
322.7412921638805
 20
402.9480094318348
 42
0.0
 10
317.0196152530564
 20
397.2263325210108
 42
-0.1361061113099481
 10
312.1346904460821
 20
394.4627280575962
 42
0.0
 10
312.1319670549483
 20
394.4600046664623
 42
0.1433758286905702
 10
307.4484626966212
 20
391.8978206516948
 42
0.0
 10
233.9516639102161
 20
318.4010218652897
 42
0.0
 10
233.9516639102161
 20
316.2797015217301
 42
0.0
 97
       20
330
13FC
330
13FE
330
13F8
330
1402
330
13F4
330
13F1
330
13F6
330
1417
330
13EF
330
13F5
330
13F2
330
13F3
330
1401
330
13F7
330
13FF
330
13F9
330
13FD
330
13FA
330
13EB
330
13FB
 75
     0
 76
     0
 52
180.0
 41
2.0
 77
     0
 78
     1
 53
180.0
 43
-335.2536440488207
 44
0.0
 45
-0.0000000000000002
 46
-2.0
 79
     0
 47
0.5963276647569566
 98
        2
 10
248.4214834889617
 20
404.4142736902472
 10
251.4053377921008
 20
335.24026363808
  0
HATCH
  5
13E7
330
1E
100
AcDbEntity
  8
SCHRAFF
100
AcDbHatch
 10
0.0
 20
0.0
 30
0.0
210
0.0
220
0.0
230
1.0
  2
_USER
 70
     0
 71
     1
 91
        3
 92
        7
 72
     1
 73
     1
 93
       20
 10
233.9516639102161
 20
416.9497612600483
 42
-0.1420008527982231
 10
235.1916639102159
 20
421.2278916928424
 42
0.1420008527982357
 10
237.0516639102161
 20
427.645087342034
 42
0.0
 10
237.0516639102161
 20
446.9162278614218
 42
-0.1108768121412761
 10
238.2033646735326
 20
452.045984548768
 42
0.1089723179975063
 10
240.551663910216
 20
462.5562258856428
 42
0.0
 10
240.551663910216
 20
469.6516094620459
 42
0.1095178116832426
 10
238.2468354713175
 20
480.0480187008672
 42
0.0
 10
237.217068580556
 20
482.2563609246168
 42
0.0
 10
235.451663910216
 20
482.2563609246168
 42
0.0
 10
236.7967430120589
 20
479.371829482082
 42
-0.1095178116832384
 10
238.9516639102159
 20
469.6516094620462
 42
0.0
 10
238.951663910216
 20
462.6905648997301
 42
-0.1112043308283891
 10
236.7212007417998
 20
452.6537951204897
 42
0.1093117521963987
 10
235.451663910216
 20
446.9162278614218
 42
0.0
 10
235.451663910216
 20
427.645087342034
 42
-0.1420008527982306
 10
233.839663910216
 20
422.0835177794014
 42
0.1420008527982304
 10
232.351663910216
 20
416.9497612600483
 42
0.0
 10
232.351663910216
 20
389.1116999839446
 42
0.0
 10
233.9516639102161
 20
389.1116999839447
 42
0.0
 97
       20
330
142E
330
1430
330
1433
330
142D
330
142A
330
1449
330
1423
330
1422
330
1429
330
1421
330
1424
330
1448
330
142B
330
142C
330
1432
330
142F
330
1431
330
1443
330
13ED
330
1444
 92
        7
 72
     1
 73
     1
 93
       22
 10
146.551663910216
 20
416.9497612600483
 42
0.1420008527982317
 10
145.063663910216
 20
422.0835177794015
 42
-0.1420008527982295
 10
143.4516639102159
 20
427.645087342034
 42
0.0
 10
143.4516639102159
 20
446.9162278614218
 42
0.1093117521960079
 10
142.1821270786412
 20
452.6537951204707
 42
-0.1112043308286163
 10
139.951663910216
 20
462.6905648997301
 42
0.0
 10
139.951663910216
 20
469.6516094620459
 42
-0.1095178116832409
 10
142.1065848083731
 20
479.371829482082
 42
0.0
 10
143.451663910216
 20
482.2563609246169
 42
0.0
 10
141.686259239876
 20
482.2563609246169
 42
0.0
 10
140.6564923491145
 20
480.0480187008672
 42
0.1095178116832427
 10
138.351663910216
 20
469.6516094620459
 42
0.0
 10
138.351663910216
 20
462.5562258856453
 42
0.1089723179975764
 10
140.6999631469014
 20
452.045984548764
 42
-0.1108768121411826
 10
141.851663910216
 20
446.9162278614218
 42
0.0
 10
141.851663910216
 20
427.645087342034
 42
0.1420008527982301
 10
143.711663910216
 20
421.2278916928426
 42
-0.1420008527982296
 10
144.951663910216
 20
416.9497612600484
 42
0.0
 10
144.9516639102161
 20
242.1865034159629
 42
0.0
 10
145.3829954877764
 20
237.2563609246169
 42
0.0
 10
146.9891072278455
 20
237.2563609246169
 42
0.0
 10
146.551663910216
 20
242.2563609246168
 42
0.0
 97
       22
330
143B
330
143A
330
143D
330
1437
330
1435
330
1446
330
1428
330
1425
330
1429
330
1426
330
1427
330
1447
330
1434
330
1436
330
143C
330
1439
330
1438
330
1441
330
141D
330
1420
330
141E
330
1442
 92
        7
 72
     0
 73
     1
 93
        6
 10
233.951663910216
 20
318.4010218652898
 10
232.3516639102161
 20
318.4010218652898
 10
232.3516639102159
 20
242.256360924614
 10
231.9142205925869
 20
237.2563609246169
 10
233.5203323326558
 20
237.2563609246169
 10
233.9516639102161
 20
242.186503415963
 97
        6
330
13EC
330
13EA
330
141B
330
1420
330
141C
330
13EB
 75
     0
 76
     0
 52
45.0
 41
2.0
 77
     0
 78
     1
 53
45.0
 43
-335.2536440488207
 44
0.0
 45
-1.414213562373094
 46
1.414213562373095
 79
     0
 47
0.5963276647569566
 98
        3
 10
232.9054424577998
 20
406.2032565158062
 10
145.7768981513008
 20
382.9464769845824
 10
232.9054424577998
 20
300.6532600114738
  0
ELLIPSE
  5
13E8
330
1E
100
AcDbEntity
  8
STEMPEL
100
AcDbEllipse
 10
233.9516639102162
 20
344.3811385039841
 30
0.0
 11
0.0
 21
-25.98011663869419
 31
0.0
210
0.0
220
0.0
230
1.0
 40
0.3608614445814212
 41
4.712388980384689
 42
6.283185307179586
  0
ELLIPSE
  5
13E9
330
1E
100
AcDbEntity
  8
STEMPEL
100
AcDbEllipse
 10
233.9516639102162
 20
344.3811385039841
 30
0.0
 11
0.0
 21
-44.73056147996061
 31
0.0
210
0.0
220
0.0
230
1.0
 40
0.2095932201708027
 41
3.141592653589793
 42
4.712388980384689
  0
LINE
  5
13EA
102
{ACAD_REACTORS
330
13E7
102
}
330
1E
100
AcDbEntity
  8
STEMPEL
100
AcDbLine
 10
232.351663910216
 20
318.4010218652898
 30
0.0
 11
232.3516639102159
 21
242.2563609246136
 31
0.0
  0
LINE
  5
13EB
102
{ACAD_REACTORS
330
13E7
330
13E6
330
13E2
330
13AC
102
}
330
1E
100
AcDbEntity
  8
STEMPEL
100
AcDbLine
 10
233.9516639102161
 20
318.4010218652897
 30
0.0
 11
233.9516639102162
 21
242.1865034159631
 31
0.0
  0
LINE
  5
13EC
102
{ACAD_REACTORS
330
13E7
102
}
330
1E
100
AcDbEntity
  8
STEMPEL
100
AcDbLine
 10
233.9516639102162
 20
318.4010218652898
 30
0.0
 11
232.351663910216
 21
318.4010218652898
 31
0.0
  0
LINE
  5
13ED
102
{ACAD_REACTORS
330
13E7
102
}
330
1E
100
AcDbEntity
  8
STEMPEL
100
AcDbLine
 10
233.9516639102161
 20
389.1116999839447
 30
0.0
 11
232.351663910216
 21
389.1116999839447
 31
0.0
  0
LINE
  5
13EE
102
{ACAD_REACTORS
330
13B3
102
}
330
1E
100
AcDbEntity
  8
STEMPEL
  6
Continuous
100
AcDbLine
 10
341.2017606134846
 20
419.1357732603711
 30
0.0
 11
341.1483823665903
 21
418.9891177323385
 31
0.0
  0
LINE
  5
13EF
102
{ACAD_REACTORS
330
13E6
102
}
330
1E
100
AcDbEntity
  8
STEMPEL
  6
Continuous
100
AcDbLine
 10
340.0314516004197
 20
420.3060822734359
 30
0.0
 11
339.7388434354115
 21
419.5021479473275
 31
0.0
  0
LINE
  5
13F0
330
1E
100
AcDbEntity
  8
STEMPEL
  6
Continuous
100
AcDbLine
 10
332.4017850084508
 20
409.7800751516592
 30
0.0
 11
332.4018076762635
 21
409.7800524838464
 31
0.0
  0
LINE
  5
13F1
102
{ACAD_REACTORS
330
13E6
330
13B3
102
}
330
1E
100
AcDbEntity
  8
STEMPEL
  6
Continuous
100
AcDbLine
 10
336.6129584944028
 20
411.8699282940514
 30
0.0
 11
333.4907546966103
 21
408.7477244962589
 31
0.0
  0
LINE
  5
13F2
102
{ACAD_REACTORS
330
13E6
102
}
330
1E
100
AcDbEntity
  8
STEMPEL
  6
Continuous
100
AcDbLine
 10
335.5522983226229
 20
412.9305884658312
 30
0.0
 11
332.429232103499
 21
409.8075222467073
 31
0.0
  0
ARC
  5
13F3
102
{ACAD_REACTORS
330
13E6
102
}
330
1E
100
AcDbEntity
  8
STEMPEL
  6
Continuous
100
AcDbCircle
 10
315.784775650567
 20
426.3970845095431
 30
0.0
 40
23.5000320571282
100
AcDbArc
 50
295.5369005553105
 51
315.0946380447974
  0
ARC
  5
13F4
102
{ACAD_REACTORS
330
13E6
330
13B3
330
13AC
102
}
330
1E
100
AcDbEntity
  8
STEMPEL
  6
Continuous
100
AcDbCircle
 10
315.784775650567
 20
426.3970845095431
 30
0.0
 40
25.00003205712822
100
AcDbArc
 50
295.5369005553105
 51
315.0917549917608
  0
ARC
  5
13F5
102
{ACAD_REACTORS
330
13E6
102
}
330
1E
100
AcDbEntity
  8
STEMPEL
  6
Continuous
100
AcDbCircle
 10
322.8243762612651
 20
425.6585105271891
 30
0.0
 40
18.0
100
AcDbArc
 50
315.0
 51
339.9999999999963
  0
ARC
  5
13F6
102
{ACAD_REACTORS
330
13E6
330
13B3
102
}
330
1E
100
AcDbEntity
  8
STEMPEL
  6
Continuous
100
AcDbCircle
 10
322.8243762612651
 20
425.6585105271891
 30
0.0
 40
19.5
100
AcDbArc
 50
315.0
 51
340.4594285688016
  0
LINE
  5
13F7
102
{ACAD_REACTORS
330
13E6
102
}
330
1E
100
AcDbEntity
  8
STEMPEL
  6
Continuous
100
AcDbLine
 10
322.7412921638804
 20
402.9480094318346
 30
0.0
 11
317.0196152530564
 21
397.2263325210108
 31
0.0
  0
LINE
  5
13F8
102
{ACAD_REACTORS
330
13E6
330
13AC
102
}
330
1E
100
AcDbEntity
  8
STEMPEL
  6
Continuous
100
AcDbLine
 10
323.80195233566
 20
401.8873492600548
 30
0.0
 11
318.0802754248361
 21
396.1656723492311
 31
0.0
  0
LINE
  5
13F9
102
{ACAD_REACTORS
330
13E6
102
}
330
1E
100
AcDbEntity
  8
STEMPEL
100
AcDbLine
 10
312.1346904460821
 20
394.4627280575961
 30
0.0
 11
312.1319670549482
 21
394.4600046664623
 31
0.0
  0
LINE
  5
13FA
102
{ACAD_REACTORS
330
13E6
102
}
330
1E
100
AcDbEntity
  8
STEMPEL
100
AcDbLine
 10
307.4484626966211
 20
391.8978206516948
 30
0.0
 11
233.9516639102161
 21
318.4010218652897
 31
0.0
  0
LINE
  5
13FB
102
{ACAD_REACTORS
330
13E6
330
13E2
330
13AC
102
}
330
1E
100
AcDbEntity
  8
STEMPEL
100
AcDbLine
 10
308.509122868401
 20
390.8371604799151
 30
0.0
 11
233.9516639102162
 21
316.2797015217302
 31
0.0
  0
ARC
  5
13FC
102
{ACAD_REACTORS
330
13E6
330
13AC
102
}
330
1E
100
AcDbEntity
  8
STEMPEL
  6
Continuous
100
AcDbCircle
 10
314.1659771178934
 20
385.1803062304227
 30
0.0
 40
8.0
100
AcDbArc
 50
103.2116693829485
 51
135.0
  0
ARC
  5
13FD
102
{ACAD_REACTORS
330
13E6
102
}
330
1E
100
AcDbEntity
  8
STEMPEL
  6
Continuous
100
AcDbCircle
 10
314.1659771178933
 20
385.1803062304226
 30
0.0
 40
9.5
100
AcDbArc
 50
103.2116693829485
 51
135.0
  0
ARC
  5
13FE
102
{ACAD_REACTORS
330
13E6
330
13AC
102
}
330
1E
100
AcDbEntity
  8
STEMPEL
  6
Continuous
100
AcDbCircle
 10
309.5949940505976
 20
404.6509537234696
 30
0.0
 40
12.0
100
AcDbArc
 50
283.2116693829485
 51
315.0
  0
ARC
  5
13FF
102
{ACAD_REACTORS
330
13E6
102
}
330
1E
100
AcDbEntity
  8
STEMPEL
  6
Continuous
100
AcDbCircle
 10
309.5949940505976
 20
404.6509537234696
 30
0.0
 40
10.5
100
AcDbArc
 50
283.2116693829485
 51
315.0
  0
LINE
  5
1400
330
1E
100
AcDbEntity
  8
MITTEL
100
AcDbLine
 10
323.8019523356599
 20
443.6066493500612
 30
0.0
 11
189.4516639102161
 21
309.256360924617
 31
0.0
  0
ARC
  5
1401
102
{ACAD_REACTORS
330
13E6
102
}
330
1E
100
AcDbEntity
  8
STEMPEL
  6
Continuous
100
AcDbCircle
 10
330.8730201475257
 20
394.8162814481894
 30
0.0
 40
11.5
100
AcDbArc
 50
115.5369005553104
 51
135.0
  0
ARC
  5
1402
102
{ACAD_REACTORS
330
13E6
330
13AC
102
}
330
1E
100
AcDbEntity
  8
STEMPEL
  6
Continuous
100
AcDbCircle
 10
330.8730201475257
 20
394.8162814481894
 30
0.0
 40
10.0
100
AcDbArc
 50
115.5369005553104
 51
135.0
  0
LINE
  5
1403
102
{ACAD_REACTORS
330
13B3
102
}
330
1E
100
AcDbEntity
  8
STEMPEL
  6
Continuous
100
AcDbLine
 10
299.33107624597
 20
461.0064576278857
 30
0.0
 11
299.1844207179374
 21
460.9530793809913
 31
0.0
  0
LINE
  5
1404
102
{ACAD_REACTORS
330
13E6
102
}
330
1E
100
AcDbEntity
  8
STEMPEL
  6
Continuous
100
AcDbLine
 10
300.5013852590348
 20
459.8361486148209
 30
0.0
 11
299.6974509329264
 21
459.5435404498126
 31
0.0
  0
LINE
  5
1405
330
1E
100
AcDbEntity
  8
STEMPEL
  6
Continuous
100
AcDbLine
 10
289.975378137258
 20
452.206482022852
 30
0.0
 11
289.9753554694452
 21
452.2065046906647
 31
0.0
  0
LINE
  5
1406
102
{ACAD_REACTORS
330
13E6
102
}
330
1E
100
AcDbEntity
  8
STEMPEL
  6
Continuous
100
AcDbLine
 10
293.12589145143
 20
455.356995337024
 30
0.0
 11
290.0028252323062
 21
452.2339291179001
 31
0.0
  0
LINE
  5
1407
102
{ACAD_REACTORS
330
13E6
330
13B3
102
}
330
1E
100
AcDbEntity
  8
STEMPEL
  6
Continuous
100
AcDbLine
 10
292.0652312796502
 20
456.4176555088039
 30
0.0
 11
288.9430274818577
 21
453.2954517110113
 31
0.0
  0
ARC
  5
1408
102
{ACAD_REACTORS
330
13E6
102
}
330
1E
100
AcDbEntity
  8
STEMPEL
  6
Continuous
100
AcDbCircle
 10
306.5923874951419
 20
435.589472664968
 30
0.0
 40
23.5000320571282
100
AcDbArc
 50
134.9053619552049
 51
154.4630994446852
  0
ARC
  5
1409
102
{ACAD_REACTORS
330
13E6
330
13B3
330
13AC
102
}
330
1E
100
AcDbEntity
  8
STEMPEL
  6
Continuous
100
AcDbCircle
 10
306.5923874951419
 20
435.589472664968
 30
0.0
 40
25.00003205712822
100
AcDbArc
 50
134.9082450082391
 51
154.4630994446852
  0
ARC
  5
140A
102
{ACAD_REACTORS
330
13E6
102
}
330
1E
100
AcDbEntity
  8
STEMPEL
  6
Continuous
100
AcDbCircle
 10
305.853813512788
 20
442.6290732756662
 30
0.0
 40
18.0
100
AcDbArc
 50
110.0000000000037
 51
135.0
  0
ARC
  5
140B
102
{ACAD_REACTORS
330
13E6
330
13B3
102
}
330
1E
100
AcDbEntity
  8
STEMPEL
  6
Continuous
100
AcDbCircle
 10
305.853813512788
 20
442.6290732756662
 30
0.0
 40
19.5
100
AcDbArc
 50
109.5405714311923
 51
135.0
  0
LINE
  5
140C
102
{ACAD_REACTORS
330
13E6
102
}
330
1E
100
AcDbEntity
  8
STEMPEL
  6
Continuous
100
AcDbLine
 10
283.1433124174335
 20
442.5459891782813
 30
0.0
 11
277.4216355066097
 21
436.8243122674575
 31
0.0
  0
LINE
  5
140D
102
{ACAD_REACTORS
330
13E6
330
13AC
102
}
330
1E
100
AcDbEntity
  8
STEMPEL
  6
Continuous
100
AcDbLine
 10
282.0826522456538
 20
443.6066493500611
 30
0.0
 11
276.36097533483
 21
437.8849724392373
 31
0.0
  0
LINE
  5
140E
102
{ACAD_REACTORS
330
13E6
102
}
330
1E
100
AcDbEntity
  8
STEMPEL
100
AcDbLine
 10
274.658031043195
 20
431.9393874604831
 30
0.0
 11
274.6553076520612
 21
431.9366640693493
 31
0.0
  0
LINE
  5
140F
102
{ACAD_REACTORS
330
13E6
102
}
330
1E
100
AcDbEntity
  8
STEMPEL
100
AcDbLine
 10
272.0931236372937
 20
427.2531597110221
 30
0.0
 11
233.9516639102161
 21
389.1116999839447
 31
0.0
  0
LINE
  5
1410
102
{ACAD_REACTORS
330
13E6
330
13AC
102
}
330
1E
100
AcDbEntity
  8
STEMPEL
100
AcDbLine
 10
271.0324634655139
 20
428.313819882802
 30
0.0
 11
233.9516639102161
 21
391.2330203274999
 31
0.0
  0
ARC
  5
1411
102
{ACAD_REACTORS
330
13E6
102
}
330
1E
100
AcDbEntity
  8
STEMPEL
  6
Continuous
100
AcDbCircle
 10
265.3756092160215
 20
433.9706741322944
 30
0.0
 40
9.5
100
AcDbArc
 50
315.0
 51
346.7883306170483
  0
ARC
  5
1412
102
{ACAD_REACTORS
330
13E6
330
13AC
102
}
330
1E
100
AcDbEntity
  8
STEMPEL
  6
Continuous
100
AcDbCircle
 10
265.3756092160216
 20
433.9706741322944
 30
0.0
 40
8.0
100
AcDbArc
 50
315.0
 51
346.7883306170483
  0
ARC
  5
1413
102
{ACAD_REACTORS
330
13E6
102
}
330
1E
100
AcDbEntity
  8
STEMPEL
  6
Continuous
100
AcDbCircle
 10
284.8462567090684
 20
429.3996910649987
 30
0.0
 40
10.5
100
AcDbArc
 50
135.0
 51
166.7883306170483
  0
ARC
  5
1414
102
{ACAD_REACTORS
330
13E6
330
13AC
102
}
330
1E
100
AcDbEntity
  8
STEMPEL
  6
Continuous
100
AcDbCircle
 10
284.8462567090684
 20
429.3996910649987
 30
0.0
 40
12.0
100
AcDbArc
 50
135.0
 51
166.7883306170483
  0
ARC
  5
1415
102
{ACAD_REACTORS
330
13E6
330
13AC
102
}
330
1E
100
AcDbEntity
  8
STEMPEL
  6
Continuous
100
AcDbCircle
 10
275.0115844337883
 20
450.6777171619267
 30
0.0
 40
10.0
100
AcDbArc
 50
315.0
 51
334.4630994446851
  0
ARC
  5
1416
102
{ACAD_REACTORS
330
13E6
102
}
330
1E
100
AcDbEntity
  8
STEMPEL
  6
Continuous
100
AcDbCircle
 10
275.0115844337883
 20
450.6777171619267
 30
0.0
 40
11.5
100
AcDbArc
 50
315.0
 51
334.4630994446851
  0
LINE
  5
1417
102
{ACAD_REACTORS
330
13E6
330
13B3
330
13AD
102
}
330
1E
100
AcDbEntity
  8
STEMPEL
  6
Continuous
100
AcDbLine
 10
351.7326701925285
 20
408.604863681327
 30
0.0
 11
288.8001666669258
 21
471.5373672069299
 31
0.0
  0
LINE
  5
1418
330
1E
100
AcDbEntity
  8
HILF
  6
Continuous
100
AcDbLine
 10
274.7727643140613
 20
428.2528532131516
 30
0.0
 11
308.4481561987506
 21
394.5774613284623
 31
0.0
  0
LINE
  5
1419
330
1E
100
AcDbEntity
  8
HILF
  6
Continuous
100
AcDbLine
 10
276.7825486739921
 20
433.3967665865574
 30
0.0
 11
313.5920695721563
 21
396.5872456883932
 31
0.0
  0
LINE
  5
141A
330
1E
100
AcDbEntity
  8
HILF
  6
Continuous
100
AcDbLine
 10
285.4751497898245
 20
442.9631983797889
 30
0.0
 11
323.1585013653877
 21
405.2798468042257
 31
0.0
  0
LINE
  5
141B
102
{ACAD_REACTORS
330
13E7
102
}
330
1E
100
AcDbEntity
  8
STEMPEL
100
AcDbLine
 10
232.3516639102159
 20
242.2563609246136
 30
0.0
 11
231.9142205925868
 21
237.2563609246169
 31
0.0
  0
LINE
  5
141C
102
{ACAD_REACTORS
330
13E7
102
}
330
1E
100
AcDbEntity
  8
STEMPEL
100
AcDbLine
 10
233.9516639102162
 20
242.1865034159631
 30
0.0
 11
233.5203323326559
 21
237.2563609246169
 31
0.0
  0
LINE
  5
141D
102
{ACAD_REACTORS
330
13E7
102
}
330
1E
100
AcDbEntity
  8
STEMPEL
100
AcDbLine
 10
144.9516639102161
 20
242.1865034159629
 30
0.0
 11
145.3829954877764
 21
237.2563609246169
 31
0.0
  0
LINE
  5
141E
102
{ACAD_REACTORS
330
13E7
102
}
330
1E
100
AcDbEntity
  8
STEMPEL
100
AcDbLine
 10
146.551663910216
 20
242.256360924617
 30
0.0
 11
146.9891072278455
 21
237.2563609246169
 31
0.0
  0
LINE
  5
141F
330
1E
100
AcDbEntity
  8
HILF
100
AcDbLine
 10
230.745552170147
 20
242.256360924617
 30
0.0
 11
148.1577756502854
 21
242.256360924617
 31
0.0
  0
LINE
  5
1420
102
{ACAD_REACTORS
330
13E7
102
}
330
1E
100
AcDbEntity
  8
STEMPEL
100
AcDbLine
 10
233.5203323326559
 20
237.2563609246169
 30
0.0
 11
145.3829954877764
 21
237.2563609246169
 31
0.0
  0
LINE
  5
1421
102
{ACAD_REACTORS
330
13E7
102
}
330
1E
100
AcDbEntity
  8
STEMPEL
  6
Continuous
100
AcDbLine
 10
235.451663910216
 20
482.2563609246169
 30
0.0
 11
236.7967430120589
 21
479.371829482082
 31
0.0
  0
LINE
  5
1422
102
{ACAD_REACTORS
330
13E7
330
13DA
102
}
330
1E
100
AcDbEntity
  8
STEMPEL
  6
Continuous
100
AcDbLine
 10
237.217068580556
 20
482.2563609246169
 30
0.0
 11
238.2468354713175
 21
480.0480187008672
 31
0.0
  0
ARC
  5
1423
102
{ACAD_REACTORS
330
13E7
330
13DA
102
}
330
1E
100
AcDbEntity
  8
STEMPEL
  6
Continuous
100
AcDbCircle
 10
215.951663910216
 20
469.6516094620459
 30
0.0
 40
24.6
100
AcDbArc
 50
0.0
 51
24.99999999999207
  0
ARC
  5
1424
102
{ACAD_REACTORS
330
13E7
102
}
330
1E
100
AcDbEntity
  8
STEMPEL
  6
Continuous
100
AcDbCircle
 10
215.951663910216
 20
469.6516094620459
 30
0.0
 40
23.0
100
AcDbArc
 50
0.0
 51
24.99999999999207
  0
LINE
  5
1425
102
{ACAD_REACTORS
330
13E7
102
}
330
1E
100
AcDbEntity
  8
STEMPEL
  6
Continuous
100
AcDbLine
 10
143.451663910216
 20
482.2563609246169
 30
0.0
 11
142.1065848083731
 21
479.371829482082
 31
0.0
  0
LINE
  5
1426
102
{ACAD_REACTORS
330
13E7
330
13DA
102
}
330
1E
100
AcDbEntity
  8
STEMPEL
  6
Continuous
100
AcDbLine
 10
141.686259239876
 20
482.2563609246169
 30
0.0
 11
140.6564923491145
 21
480.0480187008672
 31
0.0
  0
ARC
  5
1427
102
{ACAD_REACTORS
330
13E7
330
13DA
102
}
330
1E
100
AcDbEntity
  8
STEMPEL
  6
Continuous
100
AcDbCircle
 10
162.951663910216
 20
469.6516094620459
 30
0.0
 40
24.6
100
AcDbArc
 50
155.0000000000079
 51
180.0
  0
ARC
  5
1428
102
{ACAD_REACTORS
330
13E7
102
}
330
1E
100
AcDbEntity
  8
STEMPEL
  6
Continuous
100
AcDbCircle
 10
162.951663910216
 20
469.6516094620459
 30
0.0
 40
23.0
100
AcDbArc
 50
155.0000000000006
 51
180.0
  0
LINE
  5
1429
102
{ACAD_REACTORS
330
13E7
330
13DA
330
13AE
102
}
330
1E
100
AcDbEntity
  8
STEMPEL
100
AcDbLine
 10
255.951663910216
 20
482.2563609246168
 30
0.0
 11
122.951663910216
 21
482.256360924617
 31
0.0
  0
ARC
  5
142A
102
{ACAD_REACTORS
330
13E7
330
13AC
102
}
330
1E
100
AcDbEntity
  8
STEMPEL
100
AcDbCircle
 10
215.551663910216
 20
462.6245059338267
 30
0.0
 40
25.00009324312574
100
AcDbArc
 50
334.9670575584338
 51
0.1564859543473726
  0
ARC
  5
142B
102
{ACAD_REACTORS
330
13E7
102
}
330
1E
100
AcDbEntity
  8
STEMPEL
100
AcDbCircle
 10
215.551663910216
 20
462.6245059338267
 30
0.0
 40
23.40009324312573
100
AcDbArc
 50
334.9760028074116
 51
0.1617474312311722
  0
ARC
  5
142C
102
{ACAD_REACTORS
330
13E7
102
}
330
1E
100
AcDbEntity
  8
STEMPEL
100
AcDbCircle
 10
249.051663910216
 20
446.9162278614218
 30
0.0
 40
13.6
100
AcDbArc
 50
154.7092129457087
 51
180.0
  0
ARC
  5
142D
102
{ACAD_REACTORS
330
13E7
330
13AC
102
}
330
1E
100
AcDbEntity
  8
STEMPEL
100
AcDbCircle
 10
249.051663910216
 20
446.9162278614218
 30
0.0
 40
12.0
100
AcDbArc
 50
154.6922769019795
 51
180.0
  0
ARC
  5
142E
102
{ACAD_REACTORS
330
13E7
330
13AC
102
}
330
1E
100
AcDbEntity
  8
STEMPEL
100
AcDbCircle
 10
241.951663910216
 20
416.9497612600483
 30
0.0
 40
8.0
100
AcDbArc
 50
147.6719358778419
 51
180.0
  0
ARC
  5
142F
102
{ACAD_REACTORS
330
13E7
102
}
330
1E
100
AcDbEntity
  8
STEMPEL
100
AcDbCircle
 10
225.0516639102161
 20
427.645087342034
 30
0.0
 40
10.4
100
AcDbArc
 50
327.6719358778347
 51
0.0
  0
ARC
  5
1430
102
{ACAD_REACTORS
330
13E7
330
13AC
102
}
330
1E
100
AcDbEntity
  8
STEMPEL
100
AcDbCircle
 10
225.0516639102161
 20
427.645087342034
 30
0.0
 40
12.0
100
AcDbArc
 50
327.6719358778419
 51
0.0
  0
ARC
  5
1431
102
{ACAD_REACTORS
330
13E7
102
}
330
1E
100
AcDbEntity
  8
STEMPEL
100
AcDbCircle
 10
241.951663910216
 20
416.9497612600483
 30
0.0
 40
9.599999999999999
100
AcDbArc
 50
147.6719358778419
 51
180.0
  0
LINE
  5
1432
102
{ACAD_REACTORS
330
13E7
102
}
330
1E
100
AcDbEntity
  8
STEMPEL
100
AcDbLine
 10
235.451663910216
 20
446.9162278614218
 30
0.0
 11
235.451663910216
 21
427.645087342034
 31
0.0
  0
LINE
  5
1433
102
{ACAD_REACTORS
330
13E7
330
13AC
102
}
330
1E
100
AcDbEntity
  8
STEMPEL
100
AcDbLine
 10
237.0516639102161
 20
446.9162278614218
 30
0.0
 11
237.0516639102161
 21
427.645087342034
 31
0.0
  0
ARC
  5
1434
102
{ACAD_REACTORS
330
13E7
330
13AC
102
}
330
1E
100
AcDbEntity
  8
STEMPEL
100
AcDbCircle
 10
163.351663910216
 20
462.6245059338267
 30
0.0
 40
25.00009324312574
100
AcDbArc
 50
179.8435140456526
 51
205.0329424415662
  0
ARC
  5
1435
102
{ACAD_REACTORS
330
13E7
102
}
330
1E
100
AcDbEntity
  8
STEMPEL
100
AcDbCircle
 10
163.351663910216
 20
462.6245059338267
 30
0.0
 40
23.40009324312573
100
AcDbArc
 50
179.8382525687688
 51
205.0239971925957
  0
ARC
  5
1436
102
{ACAD_REACTORS
330
13E7
330
13AC
102
}
330
1E
100
AcDbEntity
  8
STEMPEL
100
AcDbCircle
 10
129.851663910216
 20
446.9162278614218
 30
0.0
 40
12.0
100
AcDbArc
 50
0.0
 51
25.30772309802054
  0
ARC
  5
1437
102
{ACAD_REACTORS
330
13E7
102
}
330
1E
100
AcDbEntity
  8
STEMPEL
100
AcDbCircle
 10
129.851663910216
 20
446.9162278614218
 30
0.0
 40
13.6
100
AcDbArc
 50
0.0
 51
25.29078705429859
  0
ARC
  5
1438
102
{ACAD_REACTORS
330
13E7
330
13AC
102
}
330
1E
100
AcDbEntity
  8
STEMPEL
100
AcDbCircle
 10
136.951663910216
 20
416.9497612600483
 30
0.0
 40
8.0
100
AcDbArc
 50
0.0
 51
32.32806412215808
  0
ARC
  5
1439
102
{ACAD_REACTORS
330
13E7
330
13AC
102
}
330
1E
100
AcDbEntity
  8
STEMPEL
100
AcDbCircle
 10
153.851663910216
 20
427.645087342034
 30
0.0
 40
12.0
100
AcDbArc
 50
180.0
 51
212.3280641221581
  0
ARC
  5
143A
102
{ACAD_REACTORS
330
13E7
102
}
330
1E
100
AcDbEntity
  8
STEMPEL
100
AcDbCircle
 10
153.851663910216
 20
427.645087342034
 30
0.0
 40
10.4
100
AcDbArc
 50
180.0
 51
212.3280641221653
  0
ARC
  5
143B
102
{ACAD_REACTORS
330
13E7
102
}
330
1E
100
AcDbEntity
  8
STEMPEL
100
AcDbCircle
 10
136.951663910216
 20
416.9497612600483
 30
0.0
 40
9.599999999999999
100
AcDbArc
 50
0.0
 51
32.32806412215808
  0
LINE
  5
143C
102
{ACAD_REACTORS
330
13E7
330
13AC
102
}
330
1E
100
AcDbEntity
  8
STEMPEL
100
AcDbLine
 10
141.851663910216
 20
446.9162278614218
 30
0.0
 11
141.851663910216
 21
427.645087342034
 31
0.0
  0
LINE
  5
143D
102
{ACAD_REACTORS
330
13E7
102
}
330
1E
100
AcDbEntity
  8
STEMPEL
100
AcDbLine
 10
143.4516639102159
 20
446.9162278614218
 30
0.0
 11
143.4516639102159
 21
427.645087342034
 31
0.0
  0
LINE
  5
143E
330
1E
100
AcDbEntity
  8
HILF
  6
Continuous
100
AcDbLine
 10
144.7572302567005
 20
449.8934903440641
 30
0.0
 11
234.1460975637315
 21
449.8934903440641
 31
0.0
  0
LINE
  5
143F
330
1E
100
AcDbEntity
  8
HILF
  6
Continuous
100
AcDbLine
 10
145.5415736579985
 20
424.7498498733623
 30
0.0
 11
233.3617541624334
 21
424.7498498733623
 31
0.0
  0
LINE
  5
1440
330
1E
100
AcDbEntity
  8
HILF
  6
Continuous
100
AcDbLine
 10
147.8281339258047
 20
419.6222881542068
 30
0.0
 11
231.0751938946274
 21
419.6222881542068
 31
0.0
  0
LINE
  5
1441
102
{ACAD_REACTORS
330
13E7
330
13AC
102
}
330
1E
100
AcDbEntity
  8
STEMPEL
100
AcDbLine
 10
144.951663910216
 20
416.9497612600483
 30
0.0
 11
144.9516639102161
 21
242.1865034159629
 31
0.0
  0
LINE
  5
1442
102
{ACAD_REACTORS
330
13E7
102
}
330
1E
100
AcDbEntity
  8
STEMPEL
100
AcDbLine
 10
146.551663910216
 20
416.9497612600483
 30
0.0
 11
146.551663910216
 21
242.256360924617
 31
0.0
  0
LINE
  5
1443
102
{ACAD_REACTORS
330
13E7
102
}
330
1E
100
AcDbEntity
  8
STEMPEL
100
AcDbLine
 10
232.351663910216
 20
416.9497612600483
 30
0.0
 11
232.351663910216
 21
389.1116999839447
 31
0.0
  0
LINE
  5
1444
102
{ACAD_REACTORS
330
13E7
330
13E6
330
13AC
102
}
330
1E
100
AcDbEntity
  8
STEMPEL
100
AcDbLine
 10
233.9516639102161
 20
416.9497612600483
 30
0.0
 11
233.9516639102161
 21
389.1116999839447
 31
0.0
  0
LINE
  5
1445
330
1E
100
AcDbEntity
  8
MITTEL
100
AcDbLine
 10
189.451663910216
 20
487.2563609246169
 30
0.0
 11
189.4516639102161
 21
232.256360924617
 31
0.0
  0
LINE
  5
1446
102
{ACAD_REACTORS
330
13E7
102
}
330
1E
100
AcDbEntity
  8
STEMPEL
100
AcDbLine
 10
139.951663910216
 20
469.6516094620459
 30
0.0
 11
139.951663910216
 21
462.6905648997301
 31
0.0
  0
LINE
  5
1447
102
{ACAD_REACTORS
330
13E7
330
13DA
330
13AC
102
}
330
1E
100
AcDbEntity
  8
STEMPEL
100
AcDbLine
 10
138.351663910216
 20
469.6516094620459
 30
0.0
 11
138.351663910216
 21
462.6927859820159
 31
0.0
  0
LINE
  5
1448
102
{ACAD_REACTORS
330
13E7
102
}
330
1E
100
AcDbEntity
  8
STEMPEL
100
AcDbLine
 10
238.9516639102159
 20
469.6516094620459
 30
0.0
 11
238.951663910216
 21
462.6905648997301
 31
0.0
  0
LINE
  5
1449
102
{ACAD_REACTORS
330
13E7
330
13DA
330
13AC
102
}
330
1E
100
AcDbEntity
  8
STEMPEL
100
AcDbLine
 10
240.551663910216
 20
469.6516094620459
 30
0.0
 11
240.551663910216
 21
462.6927859820159
 31
0.0
  0
TEXT
  5
144A
330
1E
100
AcDbEntity
  8
TEXT
 62
     1
100
AcDbText
 10
267.4106616443983
 20
395.5227005985873
 30
0.0
 40
7.0
  1
DN50
 50
45.0
 41
0.8
  7
GREEKS
100
AcDbText
  0
TEXT
  5
144B
330
1E
100
AcDbEntity
  8
TEXT
 62
     1
100
AcDbText
 10
173.4786718860052
 20
382.9268523274534
 30
0.0
 40
7.0
  1
DN80
 50
90.0
 41
0.8
  7
GREEKS
100
AcDbText
  0
TEXT
  5
144C
330
1E
100
AcDbEntity
  8
TEXT
 62
     1
100
AcDbText
 10
252.277190095472
 20
233.0136105558001
 30
0.0
 40
7.0
  1
Rohrende leicht eingezogen
 41
0.8
  7
GREEKS
100
AcDbText
  0
DIMENSION
  5
1549
330
1E
100
AcDbEntity
  8
BEM
100
AcDbDimension
  2
*D12
 10
109.3719949749143
 20
287.2563609246169
 30
0.0
 11
102.8719949749142
 21
262.2563609246169
 31
0.0
 70
    32
 71
     5
 42
49.99999999999992
  3
Standard
100
AcDbAlignedDimension
 13
145.3829954877764
 23
237.2563609246169
 33
0.0
 14
122.9516639102161
 24
287.2563609246169
 34
0.0
 50
90.0
100
AcDbRotatedDimension
1001
ACAD
1000
DSTYLE
1002
{
1070
    40
1040
2.0
1070
    41
1040
3.5
1070
    42
1040
1.0
1070
    43
1040
7.0
1070
    44
1040
1.0
1070
    47
1040
0.15
1070
    48
1040
0.15
1070
    73
1070
     0
1070
    74
1070
     0
1070
    77
1070
     1
1070
    78
1070
     8
1070
    79
1070
     2
1070
   140
1040
3.5
1070
   141
1040
1.5
1070
   146
1040
0.5142857142857144
1070
   147
1040
1.5
1070
   172
1070
     1
1070
   178
1070
     1
1070
   179
1070
     2
1070
   271
1070
     2
1070
   272
1070
     2
1070
   284
1070
     8
1070
   285
1070
     8
1070
   286
1070
     8
1002
}
  0
ENDSEC
  0
SECTION
  2
OBJECTS
  0
DICTIONARY
  5
C
330
0
100
AcDbDictionary
281
     1
  3
ACAD_COLOR
350
39F
  3
ACAD_GROUP
350
D
  3
ACAD_LAYOUT
350
19
  3
ACAD_MATERIAL
350
39E
  3
ACAD_MLINESTYLE
350
16
  3
ACAD_PLOTSETTINGS
350
18
  3
ACAD_PLOTSTYLENAME
350
E
  3
AcDbVariableDictionary
350
31A
  0
DICTIONARY
  5
39F
102
{ACAD_REACTORS
330
C
102
}
330
C
100
AcDbDictionary
281
     1
  0
DICTIONARY
  5
D
102
{ACAD_REACTORS
330
C
102
}
330
C
100
AcDbDictionary
281
     1
  0
DICTIONARY
  5
19
102
{ACAD_REACTORS
330
C
102
}
330
C
100
AcDbDictionary
281
     1
  3
Layout1
350
1D
  3
Model
350
21
  0
DICTIONARY
  5
39E
102
{ACAD_REACTORS
330
C
102
}
330
C
100
AcDbDictionary
281
     1
  0
DICTIONARY
  5
16
102
{ACAD_REACTORS
330
C
102
}
330
C
100
AcDbDictionary
281
     1
  3
Standard
350
17
  0
DICTIONARY
  5
18
102
{ACAD_REACTORS
330
C
102
}
330
C
100
AcDbDictionary
281
     1
  0
ACDBDICTIONARYWDFLT
  5
E
102
{ACAD_REACTORS
330
C
102
}
330
C
100
AcDbDictionary
281
     1
  3
Normal
350
F
100
AcDbDictionaryWithDefault
340
F
  0
DICTIONARY
  5
31A
102
{ACAD_REACTORS
330
C
102
}
330
C
100
AcDbDictionary
281
     1
  3
DIMASSOC
350
696
  3
PROJECTNAME
350
697
  3
SORTENTS
350
31B
  0
LAYOUT
  5
1D
102
{ACAD_REACTORS
330
19
102
}
330
19
100
AcDbPlotSettings
  1

  2
Tektronix Phaser 740
  4

  6

 40
0.0
 41
0.0
 42
0.0
 43
0.0
 44
0.0
 45
0.0
 46
0.0
 47
0.0
 48
0.0
 49
0.0
140
0.0
141
0.0
142
1.0
143
1.0
 70
   688
 72
     0
 73
     0
 74
     5
  7
monochrome.ctb
 75
    16
147
1.0
 76
     0
 77
     2
 78
   300
148
0.0
149
0.0
100
AcDbLayout
  1
Layout1
 70
     0
 71
     1
 10
0.0
 20
0.0
 11
12.0
 21
9.0
 12
0.0
 22
0.0
 32
0.0
 14
1.000000000000000E+20
 24
1.000000000000000E+20
 34
1.000000000000000E+20
 15
-1.000000000000000E+20
 25
-1.000000000000000E+20
 35
-1.000000000000000E+20
146
0.0
 13
0.0
 23
0.0
 33
0.0
 16
1.0
 26
0.0
 36
0.0
 17
0.0
 27
1.0
 37
0.0
 76
     0
330
1A
  0
LAYOUT
  5
21
102
{ACAD_REACTORS
330
19
102
}
330
19
100
AcDbPlotSettings
  1

  2
none_device
  4
Letter_(8.50_x_11.00_Inches)
  6

 40
6.349999904632568
 41
6.349999904632568
 42
6.350006103515625
 43
6.350006103515625
 44
215.8999938964844
 45
279.3999938964844
 46
0.0
 47
0.0
 48
0.0
 49
0.0
140
0.0
141
0.0
142
1.0
143
1.0
 70
 11952
 72
     0
 73
     1
 74
     0
  7
monochrome.ctb
 75
     0
147
1.0
 76
     0
 77
     2
 78
   300
148
-427.6236799849804
149
44.87778572714498
100
AcDbLayout
  1
Model
 70
     1
 71
     0
 10
0.0
 20
0.0
 11
12.0
 21
9.0
 12
0.0
 22
0.0
 32
0.0
 14
0.0
 24
0.0
 34
0.0
 15
0.0
 25
0.0
 35
0.0
146
0.0
 13
0.0
 23
0.0
 33
0.0
 16
1.0
 26
0.0
 36
0.0
 17
0.0
 27
1.0
 37
0.0
 76
     0
330
1E
  0
MLINESTYLE
  5
17
102
{ACAD_REACTORS
330
16
102
}
330
16
100
AcDbMlineStyle
  2
STANDARD
 70
     0
  3

 62
   256
 51
90.0
 52
90.0
 71
     2
 49
0.5
 62
   256
  6
BYLAYER
 49
-0.5
 62
   256
  6
BYLAYER
  0
ACDBPLACEHOLDER
  5
F
102
{ACAD_REACTORS
330
E
102
}
330
E
  0
DICTIONARYVAR
  5
696
102
{ACAD_REACTORS
330
31A
102
}
330
31A
100
DictionaryVariables
280
     0
  1
1
  0
DICTIONARYVAR
  5
697
102
{ACAD_REACTORS
330
31A
102
}
330
31A
100
DictionaryVariables
280
     0
  1

  0
DICTIONARYVAR
  5
31B
102
{ACAD_REACTORS
330
31A
102
}
330
31A
100
DictionaryVariables
280
     0
  1
96
  0
ENDSEC
  0
EOF
