  0
SECTION
  2
HEADER
  9
$ACADVER
  1
AC1018
  9
$ACADMAINTVER
 70
     2
  9
$DWGCODEPAGE
  3
ANSI_1252
  9
$INSBASE
 10
0.0
 20
0.0
 30
0.0
  9
$EXTMIN
 10
-0.0090573584943741
 20
-0.0128083857496222
 30
-0.0000000000112498
  9
$EXTMAX
 10
594.0090656570853
 20
840.0128201211312
 30
0.0000000000002956
  9
$LIMMIN
 10
0.0
 20
0.0
  9
$LIMMAX
 10
594.0
 20
840.0
  9
$ORTHOMODE
 70
     0
  9
$REGENMODE
 70
     1
  9
$FILLMODE
 70
     1
  9
$QTEXTMODE
 70
     0
  9
$MIRRTEXT
 70
     1
  9
$LTSCALE
 40
20.0
  9
$ATTMODE
 70
     1
  9
$TEXTSIZE
 40
3.5
  9
$TRACEWID
 40
1.0
  9
$TEXTSTYLE
  7
STANDARD
  9
$CLAYER
  8
BEM
  9
$CELTYPE
  6
ByLayer
  9
$CECOLOR
 62
   256
  9
$CELTSCALE
 40
1.0
  9
$DISPSILH
 70
     0
  9
$DIMSCALE
 40
2.0
  9
$DIMASZ
 40
3.5
  9
$DIMEXO
 40
1.0
  9
$DIMDLI
 40
7.0
  9
$DIMRND
 40
0.0
  9
$DIMDLE
 40
0.0
  9
$DIMEXE
 40
1.0
  9
$DIMTP
 40
0.0
  9
$DIMTM
 40
0.0
  9
$DIMTXT
 40
3.5
  9
$DIMCEN
 40
1.5
  9
$DIMTSZ
 40
0.0
  9
$DIMTOL
 70
     0
  9
$DIMLIM
 70
     0
  9
$DIMTIH
 70
     0
  9
$DIMTOH
 70
     0
  9
$DIMSE1
 70
     0
  9
$DIMSE2
 70
     0
  9
$DIMTAD
 70
     1
  9
$DIMZIN
 70
     8
  9
$DIMBLK
  1

  9
$DIMASO
 70
     1
  9
$DIMSHO
 70
     0
  9
$DIMPOST
  1

  9
$DIMAPOST
  1

  9
$DIMALT
 70
     0
  9
$DIMALTD
 70
     2
  9
$DIMALTF
 40
25.4
  9
$DIMLFAC
 40
1.0
  9
$DIMTOFL
 70
     1
  9
$DIMTVP
 40
0.0
  9
$DIMTIX
 70
     0
  9
$DIMSOXD
 70
     0
  9
$DIMSAH
 70
     0
  9
$DIMBLK1
  1

  9
$DIMBLK2
  1

  9
$DIMSTYLE
  2
Standard
  9
$DIMCLRD
 70
     0
  9
$DIMCLRE
 70
     0
  9
$DIMCLRT
 70
     1
  9
$DIMTFAC
 40
0.5142857142857144
  9
$DIMGAP
 40
1.5
  9
$DIMJUST
 70
     0
  9
$DIMSD1
 70
     0
  9
$DIMSD2
 70
     0
  9
$DIMTOLJ
 70
     1
  9
$DIMTZIN
 70
     8
  9
$DIMALTZ
 70
     8
  9
$DIMALTTZ
 70
     8
  9
$DIMUPT
 70
     0
  9
$DIMDEC
 70
     2
  9
$DIMTDEC
 70
     2
  9
$DIMALTU
 70
     2
  9
$DIMALTTD
 70
     2
  9
$DIMTXSTY
  7
STANDARD
  9
$DIMAUNIT
 70
     0
  9
$DIMADEC
 70
     2
  9
$DIMALTRND
 40
0.0
  9
$DIMAZIN
 70
     2
  9
$DIMDSEP
 70
    46
  9
$DIMATFIT
 70
     3
  9
$DIMFRAC
 70
     0
  9
$DIMLDRBLK
  1

  9
$DIMLUNIT
 70
     2
  9
$DIMLWD
 70
    -2
  9
$DIMLWE
 70
    -2
  9
$DIMTMOVE
 70
     0
  9
$LUNITS
 70
     2
  9
$LUPREC
 70
     2
  9
$SKETCHINC
 40
1.0
  9
$FILLETRAD
 40
0.0
  9
$AUNITS
 70
     0
  9
$AUPREC
 70
     0
  9
$MENU
  1
ACAD
  9
$ELEVATION
 40
0.0
  9
$PELEVATION
 40
0.0
  9
$THICKNESS
 40
0.0
  9
$LIMCHECK
 70
     0
  9
$CHAMFERA
 40
0.0
  9
$CHAMFERB
 40
0.0
  9
$CHAMFERC
 40
0.0
  9
$CHAMFERD
 40
0.0
  9
$SKPOLY
 70
     0
  9
$TDCREATE
 40
2455397.825393172
  9
$TDUCREATE
 40
2455397.783726505
  9
$TDUPDATE
 40
2455532.490618229
  9
$TDUUPDATE
 40
2455532.448951562
  9
$TDINDWG
 40
0.1821948032
  9
$TDUSRTIMER
 40
0.1821948032
  9
$USRTIMER
 70
     1
  9
$ANGBASE
 50
0.0
  9
$ANGDIR
 70
     0
  9
$PDMODE
 70
     0
  9
$PDSIZE
 40
0.0
  9
$PLINEWID
 40
0.0
  9
$SPLFRAME
 70
     0
  9
$SPLINETYPE
 70
     6
  9
$SPLINESEGS
 70
     8
  9
$HANDSEED
  5
14FF
  9
$SURFTAB1
 70
     6
  9
$SURFTAB2
 70
     6
  9
$SURFTYPE
 70
     6
  9
$SURFU
 70
     6
  9
$SURFV
 70
     6
  9
$UCSBASE
  2

  9
$UCSNAME
  2

  9
$UCSORG
 10
0.0
 20
0.0
 30
0.0
  9
$UCSXDIR
 10
1.0
 20
0.0
 30
0.0
  9
$UCSYDIR
 10
0.0
 20
1.0
 30
0.0
  9
$UCSORTHOREF
  2

  9
$UCSORTHOVIEW
 70
     0
  9
$UCSORGTOP
 10
0.0
 20
0.0
 30
0.0
  9
$UCSORGBOTTOM
 10
0.0
 20
0.0
 30
0.0
  9
$UCSORGLEFT
 10
0.0
 20
0.0
 30
0.0
  9
$UCSORGRIGHT
 10
0.0
 20
0.0
 30
0.0
  9
$UCSORGFRONT
 10
0.0
 20
0.0
 30
0.0
  9
$UCSORGBACK
 10
0.0
 20
0.0
 30
0.0
  9
$PUCSBASE
  2

  9
$PUCSNAME
  2

  9
$PUCSORG
 10
0.0
 20
0.0
 30
0.0
  9
$PUCSXDIR
 10
1.0
 20
0.0
 30
0.0
  9
$PUCSYDIR
 10
0.0
 20
1.0
 30
0.0
  9
$PUCSORTHOREF
  2

  9
$PUCSORTHOVIEW
 70
     0
  9
$PUCSORGTOP
 10
0.0
 20
0.0
 30
0.0
  9
$PUCSORGBOTTOM
 10
0.0
 20
0.0
 30
0.0
  9
$PUCSORGLEFT
 10
0.0
 20
0.0
 30
0.0
  9
$PUCSORGRIGHT
 10
0.0
 20
0.0
 30
0.0
  9
$PUCSORGFRONT
 10
0.0
 20
0.0
 30
0.0
  9
$PUCSORGBACK
 10
0.0
 20
0.0
 30
0.0
  9
$USERI1
 70
     0
  9
$USERI2
 70
     0
  9
$USERI3
 70
     0
  9
$USERI4
 70
     0
  9
$USERI5
 70
     0
  9
$USERR1
 40
0.0
  9
$USERR2
 40
0.0
  9
$USERR3
 40
0.0
  9
$USERR4
 40
0.0
  9
$USERR5
 40
0.0
  9
$WORLDVIEW
 70
     1
  9
$SHADEDGE
 70
     3
  9
$SHADEDIF
 70
    70
  9
$TILEMODE
 70
     1
  9
$MAXACTVP
 70
    16
  9
$PINSBASE
 10
0.0
 20
0.0
 30
0.0
  9
$PLIMCHECK
 70
     0
  9
$PEXTMIN
 10
1.000000000000000E+20
 20
1.000000000000000E+20
 30
1.000000000000000E+20
  9
$PEXTMAX
 10
-1.000000000000000E+20
 20
-1.000000000000000E+20
 30
-1.000000000000000E+20
  9
$PLIMMIN
 10
0.0
 20
0.0
  9
$PLIMMAX
 10
12.0
 20
9.0
  9
$UNITMODE
 70
     0
  9
$VISRETAIN
 70
     0
  9
$PLINEGEN
 70
     0
  9
$PSLTSCALE
 70
     0
  9
$TREEDEPTH
 70
  3020
  9
$CMLSTYLE
  2
Standard
  9
$CMLJUST
 70
     0
  9
$CMLSCALE
 40
1.0
  9
$PROXYGRAPHICS
 70
     1
  9
$MEASUREMENT
 70
     0
  9
$CELWEIGHT
370
    -1
  9
$ENDCAPS
280
     0
  9
$JOINSTYLE
280
     0
  9
$LWDISPLAY
290
     0
  9
$INSUNITS
 70
     0
  9
$HYPERLINKBASE
  1

  9
$STYLESHEET
  1
monochrome 1.ctb
  9
$XEDIT
290
     1
  9
$CEPSNTYPE
380
     0
  9
$PSTYLEMODE
290
     1
  9
$FINGERPRINTGUID
  2
{D68B0D0D-A558-11D7-B632-000102183313}
  9
$VERSIONGUID
  2
{065BB254-0430-444A-8C4E-06AD9DC12283}
  9
$EXTNAMES
290
     1
  9
$PSVPSCALE
 40
0.0
  9
$OLESTARTUP
290
     0
  9
$SORTENTS
280
   127
  9
$INDEXCTL
280
     0
  9
$HIDETEXT
280
     0
  9
$XCLIPFRAME
290
     0
  9
$HALOGAP
280
     0
  9
$OBSCOLOR
 70
   257
  9
$OBSLTYPE
280
     0
  9
$INTERSECTIONDISPLAY
280
     0
  9
$INTERSECTIONCOLOR
 70
   257
  9
$DIMASSOC
280
     1
  9
$PROJECTNAME
  1

  0
ENDSEC
  0
SECTION
  2
CLASSES
  0
CLASS
  1
ACDBDICTIONARYWDFLT
  2
AcDbDictionaryWithDefault
  3
ObjectDBX Classes
 90
        0
 91
        1
280
     0
281
     0
  0
CLASS
  1
DICTIONARYVAR
  2
AcDbDictionaryVar
  3
ObjectDBX Classes
 90
        0
 91
        2
280
     0
281
     0
  0
ENDSEC
  0
SECTION
  2
TABLES
  0
TABLE
  2
VPORT
  5
8
330
0
100
AcDbSymbolTable
 70
     3
  0
VPORT
  5
14FE
330
8
100
AcDbSymbolTableRecord
100
AcDbViewportTableRecord
  2
*Active
 70
     0
 10
0.0
 20
0.0
 11
1.0
 21
1.0
 12
297.0000041492954
 22
420.0000058676908
 13
0.0
 23
0.0
 14
1.0
 24
1.0
 15
10.0
 25
10.0
 16
0.0
 26
0.0
 36
1.0
 17
0.0
 27
0.0
 37
0.0
 40
846.8091463683093
 41
1.336927223719676
 42
50.0
 43
0.0
 44
0.0
 50
0.0
 51
0.0
 71
     0
 72
  1500
 73
     1
 74
     0
 75
     0
 76
     0
 77
     0
 78
     0
281
     0
 65
     1
110
0.0
120
0.0
130
0.0
111
1.0
121
0.0
131
0.0
112
0.0
122
1.0
132
0.0
 79
     0
146
0.0
  0
ENDTAB
  0
TABLE
  2
LTYPE
  5
5
330
0
100
AcDbSymbolTable
 70
     2
  0
LTYPE
  5
13
330
5
100
AcDbSymbolTableRecord
100
AcDbLinetypeTableRecord
  2
ByBlock
 70
     0
  3

 72
    65
 73
     0
 40
0.0
  0
LTYPE
  5
14
330
5
100
AcDbSymbolTableRecord
100
AcDbLinetypeTableRecord
  2
ByLayer
 70
     0
  3

 72
    65
 73
     0
 40
0.0
  0
LTYPE
  5
15
330
5
100
AcDbSymbolTableRecord
100
AcDbLinetypeTableRecord
  2
Continuous
 70
     0
  3
Solid line
 72
    65
 73
     0
 40
0.0
  0
LTYPE
  5
25
330
5
100
AcDbSymbolTableRecord
100
AcDbLinetypeTableRecord
  2
STRICHPUNKT
 70
     0
  3
__ . __ . __ . __ . __ . __ . __ . __ . __ . __
 72
    65
 73
     4
 40
1.0
 49
0.5
 74
     0
 49
-0.25
 74
     0
 49
0.0
 74
     0
 49
-0.25
 74
     0
  0
ENDTAB
  0
TABLE
  2
LAYER
  5
2
330
0
100
AcDbSymbolTable
 70
     9
  0
LAYER
  5
10
330
2
100
AcDbSymbolTableRecord
100
AcDbLayerTableRecord
  2
0
 70
     0
 62
     7
  6
Continuous
370
    -3
390
F
  0
LAYER
  5
2B
330
2
100
AcDbSymbolTableRecord
100
AcDbLayerTableRecord
  2
VOLL
 70
     0
 62
     1
  6
Continuous
370
    -3
390
F
  0
LAYER
  5
2C
330
2
100
AcDbSymbolTableRecord
100
AcDbLayerTableRecord
  2
HILF
 70
     0
 62
     2
  6
Continuous
370
    -3
390
F
  0
LAYER
  5
2D
330
2
100
AcDbSymbolTableRecord
100
AcDbLayerTableRecord
  2
MITTEL
 70
     0
 62
     2
  6
STRICHPUNKT
370
    -3
390
F
  0
LAYER
  5
2F
330
2
100
AcDbSymbolTableRecord
100
AcDbLayerTableRecord
  2
BEM
 70
     0
 62
     7
  6
Continuous
370
    -3
390
F
  0
LAYER
  5
30
330
2
100
AcDbSymbolTableRecord
100
AcDbLayerTableRecord
  2
STEMPEL
 70
     0
 62
     3
  6
Continuous
370
    -3
390
F
  0
LAYER
  5
33
330
2
100
AcDbSymbolTableRecord
100
AcDbLayerTableRecord
  2
TEXT
 70
     0
 62
     7
  6
Continuous
370
    -3
390
F
  0
LAYER
  5
184
330
2
100
AcDbSymbolTableRecord
100
AcDbLayerTableRecord
  2
SCHRAFF
 70
     0
 62
     7
  6
Continuous
370
    -3
390
F
  0
LAYER
  5
306
330
2
100
AcDbSymbolTableRecord
100
AcDbLayerTableRecord
  2
DEFPOINTS
 70
     0
 62
     7
  6
Continuous
290
     0
370
    -3
390
F
  0
ENDTAB
  0
TABLE
  2
STYLE
  5
3
330
0
100
AcDbSymbolTable
 70
     2
  0
STYLE
  5
11
330
3
100
AcDbSymbolTableRecord
100
AcDbTextStyleTableRecord
  2
STANDARD
 70
     0
 40
0.0
 41
0.8
 50
0.0
 71
     0
 42
3.5
  3
simplex.shx
  4

  0
STYLE
  5
24
330
3
100
AcDbSymbolTableRecord
100
AcDbTextStyleTableRecord
  2
GREEKS
 70
     0
 40
0.0
 41
0.8
 50
0.0
 71
     0
 42
2.5
  3
SIMPLEX.shx
  4

  0
ENDTAB
  0
TABLE
  2
VIEW
  5
6
330
0
100
AcDbSymbolTable
 70
     0
  0
ENDTAB
  0
TABLE
  2
UCS
  5
7
330
0
100
AcDbSymbolTable
 70
     0
  0
ENDTAB
  0
TABLE
  2
APPID
  5
9
330
0
100
AcDbSymbolTable
 70
     1
  0
APPID
  5
12
330
9
100
AcDbSymbolTableRecord
100
AcDbRegAppTableRecord
  2
ACAD
 70
     0
  0
ENDTAB
  0
TABLE
  2
DIMSTYLE
  5
A
330
0
100
AcDbSymbolTable
 70
     1
100
AcDbDimStyleTable
 71
     1
340
A2
  0
DIMSTYLE
105
A2
102
{ACAD_REACTORS
330
E6C
330
FAD
330
FB0
330
1013
330
12A6
330
12FB
330
13F2
330
1411
102
}
330
A
100
AcDbSymbolTableRecord
100
AcDbDimStyleTableRecord
  2
Standard
 70
     0
340
11
  0
ENDTAB
  0
TABLE
  2
BLOCK_RECORD
  5
1
330
0
100
AcDbSymbolTable
 70
     9
  0
BLOCK_RECORD
  5
1E
102
{ACAD_XDICTIONARY
360
DB
102
}
330
1
100
AcDbSymbolTableRecord
100
AcDbBlockTableRecord
  2
*Model_Space
340
21
  0
BLOCK_RECORD
  5
1A
102
{ACAD_XDICTIONARY
360
DD
102
}
330
1
100
AcDbSymbolTableRecord
100
AcDbBlockTableRecord
  2
*Paper_Space
340
1D
  0
BLOCK_RECORD
  5
22
330
1
100
AcDbSymbolTableRecord
100
AcDbBlockTableRecord
  2
LOGO
340
0
102
{BLKREFS
331
2AF
102
}
  0
BLOCK_RECORD
  5
EC0
330
1
100
AcDbSymbolTableRecord
100
AcDbBlockTableRecord
  2
*D1
340
0
  0
BLOCK_RECORD
  5
FC9
330
1
100
AcDbSymbolTableRecord
100
AcDbBlockTableRecord
  2
*D2
340
0
  0
BLOCK_RECORD
  5
FD5
330
1
100
AcDbSymbolTableRecord
100
AcDbBlockTableRecord
  2
*D3
340
0
  0
BLOCK_RECORD
  5
1017
330
1
100
AcDbSymbolTableRecord
100
AcDbBlockTableRecord
  2
*D4
340
0
  0
BLOCK_RECORD
  5
12A7
330
1
100
AcDbSymbolTableRecord
100
AcDbBlockTableRecord
  2
*D5
340
0
  0
BLOCK_RECORD
  5
1301
330
1
100
AcDbSymbolTableRecord
100
AcDbBlockTableRecord
  2
*D6
340
0
  0
BLOCK_RECORD
  5
13F3
330
1
100
AcDbSymbolTableRecord
100
AcDbBlockTableRecord
  2
*D7
340
0
  0
BLOCK_RECORD
  5
1412
330
1
100
AcDbSymbolTableRecord
100
AcDbBlockTableRecord
  2
*D8
340
0
  0
ENDTAB
  0
ENDSEC
  0
SECTION
  2
BLOCKS
  0
BLOCK
  5
37
330
1E
100
AcDbEntity
  8
0
100
AcDbBlockBegin
  2
*Model_Space
 70
     0
 10
0.0
 20
0.0
 30
0.0
  3
*Model_Space
  1

  0
ENDBLK
  5
38
330
1E
100
AcDbEntity
  8
0
100
AcDbBlockEnd
  0
BLOCK
  5
35
330
1A
100
AcDbEntity
 67
     1
  8
0
100
AcDbBlockBegin
  2
*Paper_Space
 70
     0
 10
0.0
 20
0.0
 30
0.0
  3
*Paper_Space
  1

  0
ENDBLK
  5
36
330
1A
100
AcDbEntity
 67
     1
  8
0
100
AcDbBlockEnd
  0
BLOCK
  5
39
330
22
100
AcDbEntity
  8
0
100
AcDbBlockBegin
  2
LOGO
 70
     0
 10
0.0
 20
0.0
 30
0.0
  3
LOGO
  1

  0
ARC
  5
3A
330
22
100
AcDbEntity
  8
0
100
AcDbCircle
 10
11.59973089678112
 20
-9.271599258481501
 30
0.0
 40
4.5
100
AcDbArc
 50
270.0
 51
231.0575587310159
  0
LINE
  5
3B
330
22
100
AcDbEntity
  8
0
100
AcDbLine
 10
3.599730896781125
 20
-4.771599258481529
 30
0.0
 11
3.599730896781153
 21
-11.77159925848133
 31
0.0
  0
LINE
  5
3C
330
22
100
AcDbEntity
  8
0
100
AcDbLine
 10
2.599730896781125
 20
-4.771599258481529
 30
0.0
 11
2.599730896781153
 21
-11.77159925848133
 31
0.0
  0
CIRCLE
  5
3D
330
22
100
AcDbEntity
  8
0
100
AcDbCircle
 10
11.59973089678112
 20
-9.271599258481501
 30
0.0
 40
3.5
  0
ARC
  5
3E
330
22
100
AcDbEntity
  8
0
100
AcDbCircle
 10
31.59973089678115
 20
-9.271599258481472
 30
0.0
 40
4.5
100
AcDbArc
 50
270.0
 51
231.0575587310182
  0
LINE
  5
3F
330
22
100
AcDbEntity
  8
0
100
AcDbLine
 10
17.59973089678112
 20
-4.771599258481472
 30
0.0
 11
17.59973089678115
 21
-13.77159925848147
 31
0.0
  0
ARC
  5
40
330
22
100
AcDbEntity
  8
0
100
AcDbCircle
 10
22.59973089678116
 20
-7.271599258481472
 30
0.0
 40
2.5
100
AcDbArc
 50
293.1161887722295
 51
90.0
  0
CIRCLE
  5
41
330
22
100
AcDbEntity
  8
0
100
AcDbCircle
 10
31.59973089678115
 20
-9.271599258481472
 30
0.0
 40
3.5
  0
ARC
  5
42
330
22
100
AcDbEntity
  8
0
100
AcDbCircle
 10
4.599730896781153
 20
-11.77159925848133
 30
0.0
 40
1.0
100
AcDbArc
 50
180.0
 51
270.0
  0
ARC
  5
43
330
22
100
AcDbEntity
  8
0
100
AcDbCircle
 10
4.599730896781153
 20
-11.77159925848133
 30
0.0
 40
2.0
100
AcDbArc
 50
179.9999999999992
 51
270.0
  0
LINE
  5
44
330
22
100
AcDbEntity
  8
0
100
AcDbLine
 10
11.59973089678115
 20
-13.77159925848144
 30
0.0
 11
4.599730896781153
 21
-13.77159925848147
 31
0.0
  0
LINE
  5
45
330
22
100
AcDbEntity
  8
0
100
AcDbLine
 10
8.771303772034769
 20
-12.77159925848136
 30
0.0
 11
4.599730896781153
 21
-12.77159925848133
 31
0.0
  0
LINE
  5
46
330
22
100
AcDbEntity
  8
0
100
AcDbLine
 10
31.59973089678115
 20
-13.77159925848147
 30
0.0
 11
23.6715276665056
 21
-13.77159925848144
 31
0.0
  0
LINE
  5
47
330
22
100
AcDbEntity
  8
0
100
AcDbLine
 10
23.56565672307022
 20
-9.51278021337896
 30
0.0
 11
24.4388546544846
 21
-12.77159925848144
 31
0.0
  0
LINE
  5
48
330
22
100
AcDbEntity
  8
0
100
AcDbLine
 10
22.59973089678116
 20
-9.771599258481472
 30
0.0
 11
18.59973089678112
 21
-9.771599258481472
 31
0.0
  0
LINE
  5
49
330
22
100
AcDbEntity
  8
0
100
AcDbLine
 10
18.59973089678115
 20
-13.77159925848144
 30
0.0
 11
17.59973089678115
 21
-13.77159925848144
 31
0.0
  0
LINE
  5
4A
330
22
100
AcDbEntity
  8
0
100
AcDbLine
 10
18.59973089678115
 20
-9.771599258481472
 30
0.0
 11
18.59973089678115
 21
-13.77159925848144
 31
0.0
  0
LINE
  5
4B
330
22
100
AcDbEntity
  8
0
100
AcDbLine
 10
22.59973089678116
 20
-9.771599258481472
 30
0.0
 11
23.67152766650562
 21
-13.77159925848147
 31
0.0
  0
ARC
  5
4C
330
22
100
AcDbEntity
  8
0
100
AcDbCircle
 10
22.59973089678116
 20
-7.271599258481472
 30
0.0
 40
2.5
100
AcDbArc
 50
270.0
 51
270.0000000000007
  0
LINE
  5
4D
330
22
100
AcDbEntity
  8
0
100
AcDbLine
 10
28.77130377203494
 20
-12.77159925848147
 30
0.0
 11
24.43885465448463
 21
-12.77159925848144
 31
0.0
  0
LINE
  5
4E
330
22
100
AcDbEntity
  8
0
100
AcDbLine
 10
3.599730896781125
 20
-4.771599258481472
 30
0.0
 11
2.599730896781125
 21
-4.771599258481472
 31
0.0
  0
LINE
  5
4F
330
22
100
AcDbEntity
  8
0
100
AcDbLine
 10
22.59973089678116
 20
-8.771599258481472
 30
0.0
 11
18.59973089678115
 21
-8.771599258481472
 31
0.0
  0
LINE
  5
50
330
22
100
AcDbEntity
  8
0
100
AcDbLine
 10
22.59973089678116
 20
-5.771599258481472
 30
0.0
 11
18.59973089678115
 21
-5.771599258481472
 31
0.0
  0
LINE
  5
51
330
22
100
AcDbEntity
  8
0
100
AcDbLine
 10
22.59973089678116
 20
-4.771599258481472
 30
0.0
 11
17.59973089678115
 21
-4.771599258481472
 31
0.0
  0
LINE
  5
52
330
22
100
AcDbEntity
  8
0
100
AcDbLine
 10
18.59973089678115
 20
-5.771599258481472
 30
0.0
 11
18.59973089678115
 21
-8.771599258481472
 31
0.0
  0
ARC
  5
53
330
22
100
AcDbEntity
  8
0
100
AcDbCircle
 10
22.59973089678116
 20
-7.271599258481472
 30
0.0
 40
1.5
100
AcDbArc
 50
270.0
 51
90.0
  0
ENDBLK
  5
54
330
22
100
AcDbEntity
  8
0
100
AcDbBlockEnd
  0
BLOCK
  5
ECA
330
EC0
100
AcDbEntity
  8
0
100
AcDbBlockBegin
  2
*D1
 70
     1
 10
0.0
 20
0.0
 30
0.0
  3
*D1
  1

  0
LINE
  5
14E1
330
EC0
100
AcDbEntity
  8
BEM
 62
     0
370
    -2
100
AcDbLine
 10
208.6790347561016
 20
417.0692284037849
 30
0.0
 11
67.33861133213354
 21
417.0692284037849
 31
0.0
  0
LINE
  5
14E2
330
EC0
100
AcDbEntity
  8
BEM
 62
     0
370
    -2
100
AcDbLine
 10
130.0443717975016
 20
242.0692284037849
 30
0.0
 11
67.33861133213349
 21
242.0692284037849
 31
0.0
  0
LINE
  5
14E3
330
EC0
100
AcDbEntity
  8
BEM
 62
     0
370
    -2
100
AcDbLine
 10
69.33861133213352
 20
410.0692284037849
 30
0.0
 11
69.33861133213349
 21
249.0692284037848
 31
0.0
  0
SOLID
  5
14E4
330
EC0
100
AcDbEntity
  8
BEM
 62
     0
100
AcDbTrace
 10
68.17194466546685
 20
410.0692284037849
 30
0.0
 11
70.50527799880019
 21
410.0692284037849
 31
0.0
 12
69.33861133213354
 22
417.0692284037849
 32
0.0
 13
69.33861133213354
 23
417.0692284037849
 33
0.0
  0
SOLID
  5
14E5
330
EC0
100
AcDbEntity
  8
BEM
 62
     0
100
AcDbTrace
 10
68.17194466546682
 20
249.0692284037848
 30
0.0
 11
70.50527799880017
 21
249.0692284037848
 31
0.0
 12
69.33861133213349
 22
242.0692284037849
 32
0.0
 13
69.33861133213349
 23
242.0692284037849
 33
0.0
  0
MTEXT
  5
14E6
330
EC0
100
AcDbEntity
  8
BEM
 62
     1
100
AcDbMText
 10
62.83861133213346
 20
329.5692284037849
 30
0.0
 40
7.0
 41
0.0
 71
     5
 72
     1
  1
\A1;175
 11
0.0000000000000001
 21
1.0
 31
0.0
 73
     1
 44
1.0
  0
POINT
  5
14E7
330
EC0
100
AcDbEntity
  8
DEFPOINTS
 62
     0
100
AcDbPoint
 10
210.6790347561016
 20
417.0692284037849
 30
0.0
  0
POINT
  5
14E8
330
EC0
100
AcDbEntity
  8
DEFPOINTS
 62
     0
100
AcDbPoint
 10
132.0443717975016
 20
242.0692284037849
 30
0.0
  0
POINT
  5
14E9
330
EC0
100
AcDbEntity
  8
DEFPOINTS
 62
     0
100
AcDbPoint
 10
69.33861133213349
 20
242.0692284037849
 30
0.0
  0
ENDBLK
  5
ECB
330
EC0
100
AcDbEntity
  8
0
100
AcDbBlockEnd
  0
BLOCK
  5
FD3
330
FC9
100
AcDbEntity
  8
0
100
AcDbBlockBegin
  2
*D2
 70
     1
 10
0.0
 20
0.0
 30
0.0
  3
*D2
  1

  0
LINE
  5
14D8
330
FC9
100
AcDbEntity
  8
BEM
 62
     0
370
    -2
100
AcDbLine
 10
99.17903475610151
 20
307.0692284037848
 30
0.0
 11
82.52505016597435
 21
307.0692284037848
 31
0.0
  0
LINE
  5
14D9
330
FC9
100
AcDbEntity
  8
BEM
 62
     0
370
    -2
100
AcDbLine
 10
130.0443717975016
 20
242.0692284037849
 30
0.0
 11
82.52505016597433
 21
242.0692284037849
 31
0.0
  0
LINE
  5
14DA
330
FC9
100
AcDbEntity
  8
BEM
 62
     0
370
    -2
100
AcDbLine
 10
84.52505016597434
 20
300.0692284037848
 30
0.0
 11
84.52505016597433
 21
249.0692284037848
 31
0.0
  0
SOLID
  5
14DB
330
FC9
100
AcDbEntity
  8
BEM
 62
     0
100
AcDbTrace
 10
83.35838349930767
 20
300.0692284037848
 30
0.0
 11
85.69171683264102
 21
300.0692284037848
 31
0.0
 12
84.52505016597434
 22
307.0692284037848
 32
0.0
 13
84.52505016597434
 23
307.0692284037848
 33
0.0
  0
SOLID
  5
14DC
330
FC9
100
AcDbEntity
  8
BEM
 62
     0
100
AcDbTrace
 10
83.35838349930766
 20
249.0692284037848
 30
0.0
 11
85.691716832641
 21
249.0692284037848
 31
0.0
 12
84.52505016597433
 22
242.0692284037849
 32
0.0
 13
84.52505016597433
 23
242.0692284037849
 33
0.0
  0
MTEXT
  5
14DD
330
FC9
100
AcDbEntity
  8
BEM
 62
     1
100
AcDbMText
 10
78.02505016597429
 20
274.5692284037848
 30
0.0
 40
7.0
 41
0.0
 71
     5
 72
     1
  1
\A1;65
 11
0.0000000000000001
 21
1.0
 31
0.0
 73
     1
 44
1.0
  0
POINT
  5
14DE
330
FC9
100
AcDbEntity
  8
DEFPOINTS
 62
     0
100
AcDbPoint
 10
101.1790347561015
 20
307.0692284037848
 30
0.0
  0
POINT
  5
14DF
330
FC9
100
AcDbEntity
  8
DEFPOINTS
 62
     0
100
AcDbPoint
 10
132.0443717975016
 20
242.0692284037849
 30
0.0
  0
POINT
  5
14E0
330
FC9
100
AcDbEntity
  8
DEFPOINTS
 62
     0
100
AcDbPoint
 10
84.52505016597433
 20
242.0692284037849
 30
0.0
  0
ENDBLK
  5
FD4
330
FC9
100
AcDbEntity
  8
0
100
AcDbBlockEnd
  0
BLOCK
  5
FDF
330
FD5
100
AcDbEntity
  8
0
100
AcDbBlockBegin
  2
*D3
 70
     1
 10
0.0
 20
0.0
 30
0.0
  3
*D3
  1

  0
LINE
  5
14CF
330
FD5
100
AcDbEntity
  8
BEM
 62
     0
370
    -2
100
AcDbLine
 10
99.17903475610183
 20
612.0692284037849
 30
0.0
 11
48.8776217665032
 21
612.0692284037849
 31
0.0
  0
LINE
  5
14D0
330
FD5
100
AcDbEntity
  8
BEM
 62
     0
370
    -2
100
AcDbLine
 10
130.0443717975016
 20
242.0692284037849
 30
0.0
 11
48.87762176650312
 21
242.0692284037849
 31
0.0
  0
LINE
  5
14D1
330
FD5
100
AcDbEntity
  8
BEM
 62
     0
370
    -2
100
AcDbLine
 10
50.8776217665032
 20
605.0692284037848
 30
0.0
 11
50.87762176650312
 21
249.0692284037849
 31
0.0
  0
SOLID
  5
14D2
330
FD5
100
AcDbEntity
  8
BEM
 62
     0
100
AcDbTrace
 10
49.71095509983654
 20
605.0692284037848
 30
0.0
 11
52.04428843316986
 21
605.0692284037848
 31
0.0
 12
50.8776217665032
 22
612.0692284037849
 32
0.0
 13
50.8776217665032
 23
612.0692284037849
 33
0.0
  0
SOLID
  5
14D3
330
FD5
100
AcDbEntity
  8
BEM
 62
     0
100
AcDbTrace
 10
49.71095509983646
 20
249.0692284037849
 30
0.0
 11
52.04428843316978
 21
249.0692284037849
 31
0.0
 12
50.87762176650312
 22
242.0692284037849
 32
0.0
 13
50.87762176650312
 23
242.0692284037849
 33
0.0
  0
MTEXT
  5
14D4
330
FD5
100
AcDbEntity
  8
BEM
 62
     1
100
AcDbMText
 10
44.37762176650309
 20
427.0692284037848
 30
0.0
 40
7.0
 41
0.0
 71
     5
 72
     1
  1
\A1;370
 11
0.0000000000000001
 21
1.0
 31
0.0
 73
     1
 44
1.0
  0
POINT
  5
14D5
330
FD5
100
AcDbEntity
  8
DEFPOINTS
 62
     0
100
AcDbPoint
 10
101.1790347561018
 20
612.0692284037849
 30
0.0
  0
POINT
  5
14D6
330
FD5
100
AcDbEntity
  8
DEFPOINTS
 62
     0
100
AcDbPoint
 10
132.0443717975016
 20
242.0692284037849
 30
0.0
  0
POINT
  5
14D7
330
FD5
100
AcDbEntity
  8
DEFPOINTS
 62
     0
100
AcDbPoint
 10
50.87762176650312
 20
242.0692284037849
 30
0.0
  0
ENDBLK
  5
FE0
330
FD5
100
AcDbEntity
  8
0
100
AcDbBlockEnd
  0
BLOCK
  5
1021
330
1017
100
AcDbEntity
  8
0
100
AcDbBlockBegin
  2
*D4
 70
     1
 10
0.0
 20
0.0
 30
0.0
  3
*D4
  1

  0
LINE
  5
14EA
330
1017
100
AcDbEntity
  8
BEM
 62
     0
370
    -2
100
AcDbLine
 10
101.1790347561016
 20
614.0692284037847
 30
0.0
 11
101.1790347561016
 21
630.6744302696109
 31
0.0
  0
LINE
  5
14EB
330
1017
100
AcDbEntity
  8
BEM
 62
     0
370
    -2
100
AcDbLine
 10
320.1790347561016
 20
614.0692284037847
 30
0.0
 11
320.1790347561016
 21
630.6744302696109
 31
0.0
  0
LINE
  5
14EC
330
1017
100
AcDbEntity
  8
BEM
 62
     0
370
    -2
100
AcDbLine
 10
108.1790347561016
 20
628.6744302696108
 30
0.0
 11
313.1790347561016
 21
628.6744302696108
 31
0.0
  0
SOLID
  5
14ED
330
1017
100
AcDbEntity
  8
BEM
 62
     0
100
AcDbTrace
 10
108.1790347561016
 20
629.8410969362775
 30
0.0
 11
108.1790347561016
 21
627.5077636029442
 31
0.0
 12
101.1790347561016
 22
628.6744302696108
 32
0.0
 13
101.1790347561016
 23
628.6744302696108
 33
0.0
  0
SOLID
  5
14EE
330
1017
100
AcDbEntity
  8
BEM
 62
     0
100
AcDbTrace
 10
313.1790347561016
 20
629.8410969362775
 30
0.0
 11
313.1790347561016
 21
627.5077636029442
 31
0.0
 12
320.1790347561016
 22
628.6744302696108
 32
0.0
 13
320.1790347561016
 23
628.6744302696108
 33
0.0
  0
MTEXT
  5
14EF
330
1017
100
AcDbEntity
  8
BEM
 62
     1
100
AcDbMText
 10
210.6790347561016
 20
635.1744302696109
 30
0.0
 40
7.0
 41
0.0
 71
     5
 72
     1
  1
\A1;%%c219
  7
GREEKS
 73
     1
 44
1.0
  0
POINT
  5
14F0
330
1017
100
AcDbEntity
  8
DEFPOINTS
 62
     0
100
AcDbPoint
 10
101.1790347561016
 20
612.0692284037846
 30
0.0
  0
POINT
  5
14F1
330
1017
100
AcDbEntity
  8
DEFPOINTS
 62
     0
100
AcDbPoint
 10
320.1790347561016
 20
612.0692284037848
 30
0.0
  0
POINT
  5
14F2
330
1017
100
AcDbEntity
  8
DEFPOINTS
 62
     0
100
AcDbPoint
 10
320.1790347561016
 20
628.6744302696108
 30
0.0
  0
ENDBLK
  5
1022
330
1017
100
AcDbEntity
  8
0
100
AcDbBlockEnd
  0
BLOCK
  5
12B1
330
12A7
100
AcDbEntity
  8
0
100
AcDbBlockBegin
  2
*D5
 70
     1
 10
0.0
 20
0.0
 30
0.0
  3
*D5
  1

  0
LINE
  5
14C6
330
12A7
100
AcDbEntity
  8
BEM
 62
     0
370
    -2
100
AcDbLine
 10
131.1790347561015
 20
249.9600760465043
 30
0.0
 11
131.1790347561015
 21
218.4934216985994
 31
0.0
  0
LINE
  5
14C7
330
12A7
100
AcDbEntity
  8
BEM
 62
     0
370
    -2
100
AcDbLine
 10
290.1790347561016
 20
249.9600760465039
 30
0.0
 11
290.1790347561016
 21
218.4934216985994
 31
0.0
  0
LINE
  5
14C8
330
12A7
100
AcDbEntity
  8
BEM
 62
     0
370
    -2
100
AcDbLine
 10
138.1790347561015
 20
220.4934216985994
 30
0.0
 11
283.1790347561016
 21
220.4934216985994
 31
0.0
  0
SOLID
  5
14C9
330
12A7
100
AcDbEntity
  8
BEM
 62
     0
100
AcDbTrace
 10
138.1790347561015
 20
221.660088365266
 30
0.0
 11
138.1790347561015
 21
219.3267550319327
 31
0.0
 12
131.1790347561015
 22
220.4934216985994
 32
0.0
 13
131.1790347561015
 23
220.4934216985994
 33
0.0
  0
SOLID
  5
14CA
330
12A7
100
AcDbEntity
  8
BEM
 62
     0
100
AcDbTrace
 10
283.1790347561016
 20
221.660088365266
 30
0.0
 11
283.1790347561016
 21
219.3267550319327
 31
0.0
 12
290.1790347561016
 22
220.4934216985994
 32
0.0
 13
290.1790347561016
 23
220.4934216985994
 33
0.0
  0
MTEXT
  5
14CB
330
12A7
100
AcDbEntity
  8
BEM
 62
     1
100
AcDbMText
 10
210.6790347561016
 20
226.9934216985994
 30
0.0
 40
7.0
 41
0.0
 71
     5
 72
     1
  1
\A1;%%c159
 73
     1
 44
1.0
  0
POINT
  5
14CC
330
12A7
100
AcDbEntity
  8
DEFPOINTS
 62
     0
100
AcDbPoint
 10
131.1790347561015
 20
251.9600760465043
 30
0.0
  0
POINT
  5
14CD
330
12A7
100
AcDbEntity
  8
DEFPOINTS
 62
     0
100
AcDbPoint
 10
290.1790347561016
 20
251.9600760465039
 30
0.0
  0
POINT
  5
14CE
330
12A7
100
AcDbEntity
  8
DEFPOINTS
 62
     0
100
AcDbPoint
 10
290.1790347561016
 20
220.4934216985994
 30
0.0
  0
ENDBLK
  5
12B2
330
12A7
100
AcDbEntity
  8
0
100
AcDbBlockEnd
  0
BLOCK
  5
130B
330
1301
100
AcDbEntity
  8
0
100
AcDbBlockBegin
  2
*D6
 70
     1
 10
0.0
 20
0.0
 30
0.0
  3
*D6
  1

  0
LINE
  5
14BD
330
1301
100
AcDbEntity
  8
BEM
 62
     0
370
    -2
100
AcDbLine
 10
416.9857958714731
 20
512.1467905206436
 30
0.0
 11
435.8247645327022
 21
513.1340990321611
 31
0.0
  0
LINE
  5
14BE
330
1301
100
AcDbEntity
  8
BEM
 62
     0
370
    -2
100
AcDbLine
 10
425.7939373071604
 20
344.0774398214487
 30
0.0
 11
444.632905968387
 21
345.0647483329661
 31
0.0
  0
LINE
  5
14BF
330
1301
100
AcDbEntity
  8
BEM
 62
     0
370
    -2
100
AcDbLine
 10
434.1938571568936
 20
506.0390203763932
 30
0.0
 11
442.2692952051773
 21
351.9504831637623
 31
0.0
  0
SOLID
  5
14C0
330
1301
100
AcDbEntity
  8
BEM
 62
     0
100
AcDbTrace
 10
435.3589249474406
 20
506.1000789920099
 30
0.0
 11
433.0287893663466
 21
505.9779617607765
 31
0.0
 12
433.8275054631931
 22
513.0294271196752
 32
0.0
 13
433.8275054631931
 23
513.0294271196752
 33
0.0
  0
SOLID
  5
14C1
330
1301
100
AcDbEntity
  8
BEM
 62
     0
100
AcDbTrace
 10
443.4343629957244
 20
352.011541779379
 30
0.0
 11
441.1042274146304
 21
351.8894245481456
 31
0.0
 12
442.6356468988778
 22
344.9600764204802
 32
0.0
 13
442.6356468988778
 23
344.9600764204802
 33
0.0
  0
MTEXT
  5
14C2
330
1301
100
AcDbEntity
  8
BEM
 62
     1
100
AcDbMText
 10
444.7226681569401
 20
429.3349354856568
 30
0.0
 40
7.0
 41
0.0
 71
     5
 72
     1
  1
\A1;%%c168.3
  7
GREEKS
 11
0.0523359562429282
 21
-0.9986295347545746
 31
0.0
 73
     1
 44
1.0
  0
POINT
  5
14C3
330
1301
100
AcDbEntity
  8
DEFPOINTS
 62
     0
100
AcDbPoint
 10
414.9885368019639
 20
512.0421186081577
 30
0.0
  0
POINT
  5
14C4
330
1301
100
AcDbEntity
  8
DEFPOINTS
 62
     0
100
AcDbPoint
 10
423.7966782376512
 20
343.9727679089628
 30
0.0
  0
POINT
  5
14C5
330
1301
100
AcDbEntity
  8
DEFPOINTS
 62
     0
100
AcDbPoint
 10
442.6356468988778
 20
344.9600764204802
 30
0.0
  0
ENDBLK
  5
130C
330
1301
100
AcDbEntity
  8
0
100
AcDbBlockEnd
  0
BLOCK
  5
13FD
330
13F3
100
AcDbEntity
  8
0
100
AcDbBlockBegin
  2
*D7
 70
     1
 10
0.0
 20
0.0
 30
0.0
  3
*D7
  1

  0
ARC
  5
14B4
330
13F3
100
AcDbEntity
  8
BEM
 62
     0
370
    -2
100
AcDbCircle
 10
210.6790347561016
 20
417.0692284037848
 30
0.0
 40
81.27356928764141
100
AcDbArc
 50
7.936346845519858
 51
85.06365315448014
  0
SOLID
  5
14B5
330
13F3
100
AcDbEntity
  8
BEM
 62
     0
100
AcDbTrace
 10
292.3355292253094
 20
428.4020783177298
 30
0.0
 11
290.0128142268422
 21
428.1797284125341
 31
0.0
 12
291.8412214416625
 22
421.3227583697307
 32
0.0
 13
291.8412214416625
 23
421.3227583697307
 33
0.0
  0
SOLID
  5
14B6
330
13F3
100
AcDbEntity
  8
BEM
 62
     0
100
AcDbTrace
 10
217.6222989997616
 20
496.8757623292677
 30
0.0
 11
217.7227826716151
 21
499.2069310224633
 31
0.0
 12
210.6790347561016
 22
498.3427976914262
 32
0.0
 13
210.6790347561016
 23
498.3427976914262
 33
0.0
  0
MTEXT
  5
14B7
330
13F3
100
AcDbEntity
  8
BEM
 62
     1
100
AcDbMText
 10
281.8287381896347
 20
468.4688311922565
 30
0.0
 40
7.0
 41
0.0
 71
     5
 72
     1
  1
\A1;87°
 11
0.5855931712202666
 21
-0.8106051059672591
 31
0.0
 73
     1
 44
1.0
  0
POINT
  5
14B8
330
13F3
100
AcDbEntity
  8
DEFPOINTS
 62
     0
100
AcDbPoint
 10
250.0812430185073
 20
488.1526937723151
 30
0.0
  0
POINT
  5
14B9
330
13F3
100
AcDbEntity
  8
DEFPOINTS
 62
     0
100
AcDbPoint
 10
424.3857551935802
 20
428.2691230397749
 30
0.0
  0
POINT
  5
14BA
330
13F3
100
AcDbEntity
  8
DEFPOINTS
 62
     0
100
AcDbPoint
 10
210.6790347561016
 20
617.0692284037849
 30
0.0
  0
POINT
  5
14BB
330
13F3
100
AcDbEntity
  8
DEFPOINTS
 62
     0
100
AcDbPoint
 10
210.6790347561016
 20
237.0692284037849
 30
0.0
  0
POINT
  5
14BC
330
13F3
100
AcDbEntity
  8
DEFPOINTS
 62
     0
100
AcDbPoint
 10
241.5458354412784
 20
418.6868888812671
 30
0.0
  0
ENDBLK
  5
13FE
330
13F3
100
AcDbEntity
  8
0
100
AcDbBlockEnd
  0
BLOCK
  5
141C
330
1412
100
AcDbEntity
  8
0
100
AcDbBlockBegin
  2
*D8
 70
     1
 10
0.0
 20
0.0
 30
0.0
  3
*D8
  1

  0
LINE
  5
14AB
330
1412
100
AcDbEntity
  8
BEM
 62
     0
370
    -2
100
AcDbLine
 10
210.7837066685875
 20
415.0719693342757
 30
0.0
 11
217.7662841512146
 21
281.836453955616
 31
0.0
  0
LINE
  5
14AC
330
1412
100
AcDbEntity
  8
BEM
 62
     0
370
    -2
100
AcDbLine
 10
423.901350150137
 20
341.9755088394536
 30
0.0
 11
426.4798569149204
 21
292.7746688103913
 31
0.0
  0
LINE
  5
14AD
330
1412
100
AcDbEntity
  8
BEM
 62
     0
370
    -2
100
AcDbLine
 10
224.6520189820107
 20
284.2000647188258
 30
0.0
 11
419.3847782591524
 21
294.4055761861999
 31
0.0
  0
SOLID
  5
14AE
330
1412
100
AcDbEntity
  8
BEM
 62
     0
100
AcDbTrace
 10
224.590960366394
 20
285.3651325093728
 30
0.0
 11
224.7130775976275
 21
283.0349969282788
 31
0.0
 12
217.6616122387287
 22
283.8337130251252
 32
0.0
 13
217.6616122387287
 23
283.8337130251252
 33
0.0
  0
SOLID
  5
14AF
330
1412
100
AcDbEntity
  8
BEM
 62
     0
100
AcDbTrace
 10
419.3237196435357
 20
295.5706439767469
 30
0.0
 11
419.4458368747692
 21
293.2405083956529
 31
0.0
 12
426.3751850024345
 22
294.7719278799005
 32
0.0
 13
426.3751850024345
 23
294.7719278799005
 33
0.0
  0
MTEXT
  5
14B0
330
1412
100
AcDbEntity
  8
BEM
 62
     1
100
AcDbMText
 10
321.6782149050025
 20
295.7939124284175
 30
0.0
 40
7.0
 41
0.0
 71
     5
 72
     1
  1
\A1;209
 11
0.9986295347545739
 21
0.0523359562429444
 31
0.0
 73
     1
 44
1.0
  0
POINT
  5
14B1
330
1412
100
AcDbEntity
  8
DEFPOINTS
 62
     0
100
AcDbPoint
 10
210.6790347561016
 20
417.0692284037849
 30
0.0
  0
POINT
  5
14B2
330
1412
100
AcDbEntity
  8
DEFPOINTS
 62
     0
100
AcDbPoint
 10
423.7966782376512
 20
343.9727679089628
 30
0.0
  0
POINT
  5
14B3
330
1412
100
AcDbEntity
  8
DEFPOINTS
 62
     0
100
AcDbPoint
 10
426.3751850024345
 20
294.7719278799005
 30
0.0
  0
ENDBLK
  5
141D
330
1412
100
AcDbEntity
  8
0
100
AcDbBlockEnd
  0
ENDSEC
  0
SECTION
  2
ENTITIES
  0
LINE
  5
59
330
1E
100
AcDbEntity
  8
STEMPEL
100
AcDbLine
 10
484.0
 20
460.0
 30
0.0
 11
584.0
 21
459.9999999999998
 31
0.0
  0
LINE
  5
87
330
1E
100
AcDbEntity
  8
HILF
100
AcDbLine
 10
594.0
 20
-0.0000000000000568
 30
0.0
 11
594.0
 21
840.0
 31
0.0
  0
LINE
  5
88
330
1E
100
AcDbEntity
  8
HILF
100
AcDbLine
 10
594.0
 20
840.0
 30
0.0
 11
0.0
 21
840.0
 31
0.0
  0
LINE
  5
89
330
1E
100
AcDbEntity
  8
HILF
100
AcDbLine
 10
0.0
 20
840.0
 30
0.0
 11
0.0
 21
0.0
 31
0.0
  0
LINE
  5
8B
330
1E
100
AcDbEntity
  8
STEMPEL
100
AcDbLine
 10
10.0
 20
830.0
 30
0.0
 11
10.0
 21
39.99999999999995
 31
0.0
  0
LINE
  5
8D
330
1E
100
AcDbEntity
  8
STEMPEL
100
AcDbLine
 10
584.0
 20
39.99999999999995
 30
0.0
 11
584.0
 21
830.0
 31
0.0
  0
LINE
  5
8E
330
1E
100
AcDbEntity
  8
STEMPEL
100
AcDbLine
 10
584.0
 20
830.0
 30
0.0
 11
10.0
 21
830.0
 31
0.0
  0
LINE
  5
9C
330
1E
100
AcDbEntity
  8
BEM
100
AcDbLine
 10
594.0
 20
455.9999999999999
 30
0.0
 11
584.0
 21
455.9999999999999
 31
0.0
  0
LINE
  5
13E
330
1E
100
AcDbEntity
  8
HILF
100
AcDbLine
 10
594.0
 20
-0.0000000000000568
 30
0.0
 11
0.0
 21
0.0
 31
0.0
  0
LINE
  5
13F
330
1E
100
AcDbEntity
  8
STEMPEL
100
AcDbLine
 10
584.0
 20
39.99999999999995
 30
0.0
 11
10.0
 21
39.99999999999995
 31
0.0
  0
LINE
  5
14A
330
1E
100
AcDbEntity
  8
HILF
100
AcDbLine
 10
297.0
 20
-0.0000000000000568
 30
0.0
 11
297.0
 21
39.99999999999995
 31
0.0
  0
TEXT
  5
15B
330
1E
100
AcDbEntity
  8
BEM
100
AcDbText
 10
583.8320989200114
 20
837.3022923857165
 30
0.0
 40
4.0
  1
Diese Zeichnung ist urheberrechtlich geschützt und bleibt unser Eigentum. Sie darf weder ganz noch teilweise verfielfältigt und nicht an Dritte weitergegeben werden.
 50
180.0
 41
0.8
  7
GREEKS
100
AcDbText
  0
TEXT
  5
269
330
1E
100
AcDbEntity
  8
TEXT
 62
     1
100
AcDbText
 10
430.0926913090378
 20
593.8456677344458
 30
0.0
 40
7.0
  1
Außenrohr: P235 TR1 EN10217-1 feuerverzinkt
 50
90.0
 41
0.8
  7
GREEKS
100
AcDbText
  0
TEXT
  5
26A
330
1E
100
AcDbEntity
  8
TEXT
 62
     1
100
AcDbText
 10
441.4457593453928
 20
597.6178851053098
 30
0.0
 40
7.0
  1
Innenrohr: E195 EN10305 feuerverzinkt
 50
90.0
 41
0.8
  7
GREEKS
100
AcDbText
  0
TEXT
  5
26B
330
1E
100
AcDbEntity
  8
TEXT
 62
     1
100
AcDbText
 10
465.3096485700007
 20
590.1234744606126
 30
0.0
 40
7.0
  1
Dämmung: 2 K-PU-Schaum
 50
90.0
 41
0.8
  7
GREEKS
100
AcDbText
  0
TEXT
  5
26C
330
1E
100
AcDbEntity
  8
TEXT
 62
     1
100
AcDbText
 10
452.7148131846185
 20
645.2724139813235
 30
0.0
 40
7.0
  1
und innenbeschichtet
 50
90.0
 41
0.8
  7
GREEKS
100
AcDbText
  0
INSERT
  5
2AF
330
1E
100
AcDbEntity
  8
STEMPEL
100
AcDbBlockReference
  2
LOGO
 10
548.9789472355168
 20
560.9955485457795
 30
0.0
 41
2.0
 42
2.0
 43
2.0
 50
90.0
  0
TEXT
  5
2B0
330
1E
100
AcDbEntity
  8
TEXT
100
AcDbText
 10
503.2363615897698
 20
602.626132208084
 30
0.0
 40
4.0
  1
DIN EN1123-2
 50
90.0
 41
0.8
  7
GREEKS
 72
     1
 11
503.2363615897698
 21
619.6166083985602
 31
0.0
100
AcDbText
  0
TEXT
  5
2B1
330
1E
100
AcDbEntity
  8
TEXT
100
AcDbText
 10
551.3702584697737
 20
644.9837501577826
 30
0.0
 40
4.0
  1
58023FE0W.DWG
 50
90.0
 41
0.8
  7
GREEKS
100
AcDbText
  0
TEXT
  5
2B2
330
1E
100
AcDbEntity
  8
TEXT
100
AcDbText
 10
542.3598805695784
 20
645.1296391125315
 30
0.0
 40
5.0
  1
EDV-Art.Nr. 58023.FE0X
 50
90.0
 41
0.8
  7
GREEKS
100
AcDbText
  0
TEXT
  5
2B3
330
1E
100
AcDbEntity
  8
TEXT
100
AcDbText
 10
522.4966558241471
 20
645.1296391125315
 30
0.0
 40
5.0
  1
Red.-Abzweig 87°
 50
90.0
 41
0.8
  7
GREEKS
100
AcDbText
  0
TEXT
  5
2B4
330
1E
100
AcDbEntity
  8
TEXT
 62
     1
100
AcDbText
 10
506.5825121074622
 20
644.9367181557188
 30
0.0
 40
7.0
  1
Verbundrohr DN150/125
 50
90.0
 41
0.8
  7
GREEKS
100
AcDbText
  0
TEXT
  5
2B5
330
1E
100
AcDbEntity
  8
TEXT
100
AcDbText
 10
530.8923495917427
 20
580.3989971082361
 30
0.0
 40
4.0
  1
24.09.
 50
90.0
 41
0.8
  7
GREEKS
 72
     1
 11
530.8923495917427
 21
587.4085209177599
 31
0.0
100
AcDbText
  0
TEXT
  5
2B6
330
1E
100
AcDbEntity
  8
TEXT
 62
     1
100
AcDbText
 10
505.8509857108604
 20
570.5006306481887
 30
0.0
 40
7.0
  1
1:2
 50
90.0
 41
0.8
  7
GREEKS
100
AcDbText
  0
TEXT
  5
2B7
330
1E
100
AcDbEntity
  8
TEXT
 62
     1
100
AcDbText
 10
505.8509857108604
 20
765.7458567290483
 30
0.0
 40
7.0
  1
58023FE0W
 50
90.0
 41
0.8
  7
GREEKS
 72
     1
 11
505.8509857108604
 21
789.3458567290483
 31
0.0
100
AcDbText
  0
TEXT
  5
2B8
330
1E
100
AcDbEntity
  8
TEXT
100
AcDbText
 10
530.9103608027649
 20
614.4216048581257
 30
0.0
 40
4.0
  1
Koeh
 50
90.0
 41
0.8
  7
GREEKS
 72
     1
 11
530.9103608027649
 21
619.6787477152686
 31
0.0
100
AcDbText
  0
TEXT
  5
2B9
330
1E
100
AcDbEntity
  8
TEXT
100
AcDbText
 10
482.3280000000001
 20
461.8550995097767
 30
0.0
 40
5.0
  1
Erstellt mit AUTOCAD 2004
 50
90.0
 41
0.8
  7
GREEKS
100
AcDbText
  0
TEXT
  5
2BA
330
1E
100
AcDbEntity
  8
TEXT
100
AcDbText
 10
520.8597452884832
 20
558.622109822104
 30
0.0
 40
4.0
  1
2007
 50
90.0
 41
0.8
  7
GREEKS
100
AcDbText
  0
TEXT
  5
2BC
330
1E
100
AcDbEntity
  8
TEXT
100
AcDbText
 10
541.925838221214
 20
757.2400861497006
 30
0.0
 40
5.0
  1
ersetzt durch:
 50
90.0
 41
0.8
  7
GREEKS
100
AcDbText
  0
TEXT
  5
2BE
330
1E
100
AcDbEntity
  8
TEXT
100
AcDbText
 10
550.4705361035019
 20
557.6006777387304
 30
0.0
 40
4.0
  1
Norm.
 50
90.0
 41
0.8
  7
GREEKS
100
AcDbText
  0
TEXT
  5
2BF
330
1E
100
AcDbEntity
  8
TEXT
100
AcDbText
 10
540.3107370857163
 20
557.5515086571672
 30
0.0
 40
4.0
  1
Gepr.
 50
90.0
 41
0.8
  7
GREEKS
100
AcDbText
  0
TEXT
  5
2C0
330
1E
100
AcDbEntity
  8
TEXT
100
AcDbText
 10
530.3700963038203
 20
557.5836127167615
 30
0.0
 40
4.0
  1
Gez.
 50
90.0
 41
0.8
  7
GREEKS
100
AcDbText
  0
TEXT
  5
2C1
330
1E
100
AcDbEntity
  8
TEXT
100
AcDbText
 10
520.6903890808478
 20
612.4626584226295
 30
0.0
 40
4.0
  1
Name
 50
90.0
 41
0.8
  7
GREEKS
100
AcDbText
  0
TEXT
  5
2C2
330
1E
100
AcDbEntity
  8
TEXT
100
AcDbText
 10
520.6811949877008
 20
582.331167315365
 30
0.0
 40
4.0
  1
Tag
 50
90.0
 41
0.8
  7
GREEKS
100
AcDbText
  0
TEXT
  5
2C3
330
1E
100
AcDbEntity
  8
TEXT
100
AcDbText
 10
575.4067578303359
 20
539.0122744386594
 30
0.0
 40
4.0
  1
Name
 50
90.0
 41
0.8
  7
GREEKS
 72
     1
 11
575.4067578303359
 21
545.3360839624687
 31
0.0
100
AcDbText
  0
TEXT
  5
2C4
330
1E
100
AcDbEntity
  8
TEXT
100
AcDbText
 10
575.3284373066019
 20
520.0934676075481
 30
0.0
 40
4.0
  1
Tag
 50
90.0
 41
0.8
  7
GREEKS
 72
     1
 11
575.3284373066019
 21
523.8268009408813
 31
0.0
100
AcDbText
  0
TEXT
  5
2C5
330
1E
100
AcDbEntity
  8
TEXT
100
AcDbText
 10
580.3453415397281
 20
468.2664110704576
 30
0.0
 40
4.0
  1
Index
 50
180.0
 41
0.8
  7
GREEKS
100
AcDbText
  0
TEXT
  5
2C6
330
1E
100
AcDbEntity
  8
TEXT
100
AcDbText
 10
520.8188176290002
 20
756.7238616296992
 30
0.0
 40
5.0
  1
Ersatz für:
 50
90.0
 41
0.8
  7
GREEKS
100
AcDbText
  0
TEXT
  5
2C7
330
1E
100
AcDbEntity
  8
TEXT
100
AcDbText
 10
563.1543942980694
 20
644.742238391136
 30
0.0
 40
5.0
  1
Bauvorhaben
 50
90.0
 41
0.8
  7
GREEKS
100
AcDbText
  0
TEXT
  5
2C8
330
1E
100
AcDbEntity
  8
TEXT
100
AcDbText
 10
491.6867965462863
 20
756.178754957634
 30
0.0
 40
5.0
  1
Zeichnungs Nr.
 50
90.0
 41
0.8
  7
GREEKS
100
AcDbText
  0
TEXT
  5
2C9
330
1E
100
AcDbEntity
  8
TEXT
100
AcDbText
 10
491.4510671988221
 20
644.877940380901
 30
0.0
 40
5.0
  1
Benennung
 50
90.0
 41
0.8
  7
GREEKS
100
AcDbText
  0
TEXT
  5
2CA
330
1E
100
AcDbEntity
  8
TEXT
100
AcDbText
 10
491.581583156518
 20
604.2858954734051
 30
0.0
 40
5.0
  1
Zul. Abw.
 50
90.0
 41
0.8
  7
GREEKS
100
AcDbText
  0
TEXT
  5
2CB
330
1E
100
AcDbEntity
  8
TEXT
100
AcDbText
 10
491.537910491291
 20
563.5163572150377
 30
0.0
 40
5.0
  1
Maßstab
 50
90.0
 41
0.8
  7
GREEKS
100
AcDbText
  0
TEXT
  5
2CC
330
1E
100
AcDbEntity
  8
TEXT
100
AcDbText
 10
575.3261810501586
 20
483.8616597963182
 30
0.0
 40
4.0
  1
Änderung
 50
90.0
 41
0.8
  7
GREEKS
 72
     1
 11
575.3261810501586
 21
494.6045169391753
 31
0.0
100
AcDbText
  0
LINE
  5
2CD
330
1E
100
AcDbEntity
  8
HILF
100
AcDbLine
 10
579.1060174197168
 20
643.4909699289885
 30
0.0
 11
579.1060174197168
 21
824.8588839326728
 31
0.0
  0
LINE
  5
2CE
330
1E
100
AcDbEntity
  8
HILF
100
AcDbLine
 10
510.2201636304418
 20
756.7238616296992
 30
0.0
 11
510.2201636304418
 21
824.8588839326728
 31
0.0
  0
LINE
  5
2CF
330
1E
100
AcDbEntity
  8
VOLL
100
AcDbLine
 10
534.0
 20
752.0
 30
0.0
 11
534.0
 21
830.0
 31
0.0
  0
LINE
  5
2D0
330
1E
100
AcDbEntity
  8
HILF
100
AcDbLine
 10
544.0
 20
644.7736801096947
 30
0.0
 11
544.0
 21
744.8353916556309
 31
0.0
  0
LINE
  5
2D1
330
1E
100
AcDbEntity
  8
HILF
100
AcDbLine
 10
534.0
 20
644.7736801096947
 30
0.0
 11
534.0
 21
744.8353916556309
 31
0.0
  0
LINE
  5
2D2
330
1E
100
AcDbEntity
  8
HILF
100
AcDbLine
 10
524.0000000000001
 20
644.7736801096947
 30
0.0
 11
524.0000000000001
 21
744.8353916556309
 31
0.0
  0
LINE
  5
2D3
330
1E
100
AcDbEntity
  8
HILF
100
AcDbLine
 10
509.9624175243587
 20
644.7736801096947
 30
0.0
 11
509.9624175243588
 21
744.835391655631
 31
0.0
  0
LINE
  5
2D4
330
1E
100
AcDbEntity
  8
HILF
100
AcDbLine
 10
544.0
 20
556.0000000000001
 30
0.0
 11
544.0
 21
640.0
 31
0.0
  0
LINE
  5
2D5
330
1E
100
AcDbEntity
  8
HILF
100
AcDbLine
 10
534.0
 20
556.0000000000001
 30
0.0
 11
534.0
 21
640.0
 31
0.0
  0
LINE
  5
2D6
330
1E
100
AcDbEntity
  8
HILF
100
AcDbLine
 10
524.0000000000001
 20
556.0000000000001
 30
0.0
 11
524.0000000000001
 21
640.0
 31
0.0
  0
LINE
  5
2D7
330
1E
100
AcDbEntity
  8
HILF
100
AcDbLine
 10
554.0
 20
460.0000000000001
 30
0.0
 11
554.0
 21
556.0000000000001
 31
0.0
  0
LINE
  5
2D8
330
1E
100
AcDbEntity
  8
HILF
100
AcDbLine
 10
544.0
 20
460.0000000000001
 30
0.0
 11
544.0
 21
556.0000000000001
 31
0.0
  0
LINE
  5
2D9
330
1E
100
AcDbEntity
  8
HILF
100
AcDbLine
 10
534.0
 20
460.0000000000001
 30
0.0
 11
534.0
 21
556.0000000000001
 31
0.0
  0
LINE
  5
2DA
330
1E
100
AcDbEntity
  8
HILF
100
AcDbLine
 10
524.0000000000001
 20
460.0000000000001
 30
0.0
 11
524.0000000000001
 21
556.0000000000001
 31
0.0
  0
LINE
  5
2DB
330
1E
100
AcDbEntity
  8
HILF
100
AcDbLine
 10
514.0
 20
460.0000000000001
 30
0.0
 11
514.0
 21
556.0000000000001
 31
0.0
  0
LINE
  5
2DC
330
1E
100
AcDbEntity
  8
HILF
100
AcDbLine
 10
504.0
 20
460.0000000000001
 30
0.0
 11
504.0
 21
556.0000000000001
 31
0.0
  0
LINE
  5
2DD
330
1E
100
AcDbEntity
  8
HILF
100
AcDbLine
 10
494.0
 20
460.0000000000001
 30
0.0
 11
494.0
 21
556.0000000000001
 31
0.0
  0
LINE
  5
2DE
330
1E
100
AcDbEntity
  8
VOLL
100
AcDbLine
 10
484.0000000000002
 20
600.0
 30
0.0
 11
554.0
 21
600.0
 31
0.0
  0
LINE
  5
2DF
330
1E
100
AcDbEntity
  8
VOLL
100
AcDbLine
 10
514.0
 20
574.0000000000001
 30
0.0
 11
554.0
 21
574.0000000000001
 31
0.0
  0
LINE
  5
2E0
330
1E
100
AcDbEntity
  8
VOLL
100
AcDbLine
 10
484.0
 20
534.0000000000001
 30
0.0
 11
584.0
 21
534.0
 31
0.0
  0
LINE
  5
2E1
330
1E
100
AcDbEntity
  8
VOLL
100
AcDbLine
 10
484.0
 20
514.0000000000001
 30
0.0
 11
584.0
 21
514.0
 31
0.0
  0
LINE
  5
2E2
330
1E
100
AcDbEntity
  8
VOLL
100
AcDbLine
 10
484.0
 20
474.0000000000001
 30
0.0
 11
584.0
 21
474.0
 31
0.0
  0
LINE
  5
2E3
330
1E
100
AcDbEntity
  8
STEMPEL
100
AcDbLine
 10
514.0000000000001
 20
830.0
 30
0.0
 11
514.0
 21
556.0000000000001
 31
0.0
  0
LINE
  5
2E4
330
1E
100
AcDbEntity
  8
STEMPEL
100
AcDbLine
 10
554.0
 20
830.0
 30
0.0
 11
554.0
 21
556.0000000000001
 31
0.0
  0
LINE
  5
2E5
330
1E
100
AcDbEntity
  8
STEMPEL
100
AcDbLine
 10
564.0
 20
555.9999999999998
 30
0.0
 11
564.0
 21
460.0
 31
0.0
  0
LINE
  5
2E6
330
1E
100
AcDbEntity
  8
STEMPEL
100
AcDbLine
 10
484.0000000000003
 20
752.0
 30
0.0
 11
554.0
 21
752.0
 31
0.0
  0
LINE
  5
2E7
330
1E
100
AcDbEntity
  8
STEMPEL
100
AcDbLine
 10
484.0
 20
640.0
 30
0.0
 11
584.0
 21
640.0
 31
0.0
  0
LINE
  5
2E8
330
1E
100
AcDbEntity
  8
STEMPEL
100
AcDbLine
 10
484.0
 20
556.0000000000001
 30
0.0
 11
584.0
 21
556.0
 31
0.0
  0
LINE
  5
2E9
330
1E
100
AcDbEntity
  8
STEMPEL
100
AcDbLine
 10
484.0000000000001
 20
830.0
 30
0.0
 11
484.0
 21
460.0
 31
0.0
  0
TEXT
  5
E27
330
1E
100
AcDbEntity
  8
TEXT
 62
     1
100
AcDbText
 10
382.6890528138683
 20
434.148712631164
 30
0.0
 40
7.0
  1
DN125
 50
3.000000000000545
 41
0.8
  7
GREEKS
100
AcDbText
  0
HATCH
  5
E28
330
1E
100
AcDbEntity
  8
SCHRAFF
100
AcDbHatch
 10
0.0
 20
0.0
 30
0.0
210
0.0
220
0.0
230
1.0
  2
_USER
 70
     0
 71
     0
 91
        1
 92
        7
 72
     1
 73
     1
 93
        3
 10
293.1749233603654
 20
354.801393716654
 42
0.0
 10
290.1790347561016
 20
354.6443858479251
 42
0.0
 10
290.1790347561016
 20
351.6443858479251
 42
0.4296339059668388
 97
        0
 75
     0
 76
     0
 52
0.0
 41
0.1
 77
     0
 78
     1
 53
0.0
 43
29.75554743703288
 44
44.84932443186449
 45
0.0
 46
0.1
 79
     0
 47
0.1838438224080637
 98
        1
 10
291.8817380852788
 20
353.197713090832
  0
ARC
  5
E29
102
{ACAD_REACTORS
330
13D6
102
}
330
1E
100
AcDbEntity
  8
SCHRAFF
100
AcDbCircle
 10
290.1790347561016
 20
354.6443858479251
 30
0.0
 40
3.0
100
AcDbArc
 50
270.0
 51
3.000000000000545
  0
HATCH
  5
E2A
330
1E
100
AcDbEntity
  8
SCHRAFF
100
AcDbHatch
 10
0.0
 20
0.0
 30
0.0
210
0.0
220
0.0
230
1.0
  2
_USER
 70
     0
 71
     0
 91
        1
 92
        7
 72
     1
 73
     1
 93
        3
 10
290.1790347561016
 20
490.8269078656486
 42
0.0
 10
290.1790347561016
 20
487.8269078656486
 42
0.0
 10
293.1749233603653
 20
487.9839157343774
 42
0.3989595459737129
 97
        0
 75
     0
 76
     0
 52
0.0
 41
0.1
 77
     0
 78
     1
 53
0.0
 43
29.75554743703288
 44
44.84932443186449
 45
0.0
 46
0.1
 79
     0
 47
0.103706770842318
 98
        1
 10
291.2093552071792
 20
488.0565845620313
  0
ARC
  5
E2B
102
{ACAD_REACTORS
330
13D6
102
}
330
1E
100
AcDbEntity
  8
SCHRAFF
100
AcDbCircle
 10
290.1790347561016
 20
487.8269078656486
 30
0.0
 40
3.0
100
AcDbArc
 50
3.000000000000545
 51
90.0
  0
LINE
  5
E6A
330
1E
100
AcDbEntity
  8
MITTEL
100
AcDbLine
 10
424.3857551935803
 20
428.2691230397749
 30
0.0
 11
210.6790347561016
 21
417.0692284037848
 31
0.0
  0
DIMENSION
  5
E6C
330
1E
100
AcDbEntity
  8
BEM
100
AcDbDimension
  2
*D1
 10
69.33861133213349
 20
242.0692284037849
 30
0.0
 11
62.83861133213346
 21
329.5692284037849
 31
0.0
 70
    32
 71
     5
 42
175.0000000000001
  3
Standard
100
AcDbAlignedDimension
 13
210.6790347561016
 23
417.0692284037849
 33
0.0
 14
132.0443717975016
 24
242.0692284037849
 34
0.0
 50
90.0
100
AcDbRotatedDimension
1001
ACAD
1000
DSTYLE
1002
{
1070
    40
1040
2.0
1070
    41
1040
3.5
1070
    42
1040
1.0
1070
    43
1040
7.0
1070
    44
1040
1.0
1070
    73
1070
     0
1070
    74
1070
     0
1070
    77
1070
     1
1070
    78
1070
     8
1070
    79
1070
     2
1070
   140
1040
3.5
1070
   141
1040
1.5
1070
   146
1040
0.5142857142857144
1070
   147
1040
1.5
1070
   172
1070
     1
1070
   178
1070
     1
1070
   179
1070
     2
1070
   271
1070
     2
1070
   272
1070
     2
1070
   284
1070
     8
1070
   285
1070
     8
1070
   286
1070
     8
1002
}
  0
LINE
  5
E8A
102
{ACAD_REACTORS
330
1168
330
138D
102
}
330
1E
100
AcDbEntity
  8
STEMPEL
100
AcDbLine
 10
101.1790347561018
 20
612.069228403785
 30
0.0
 11
320.1790347561016
 21
612.0692284037846
 31
0.0
  0
TEXT
  5
E8B
330
1E
100
AcDbEntity
  8
TEXT
 62
     1
100
AcDbText
 10
200.8062444186904
 20
573.4010195457533
 30
0.0
 40
7.0
  1
DN150
 50
90.0
 41
0.8
  7
GREEKS
100
AcDbText
  0
LINE
  5
E8C
102
{ACAD_REACTORS
330
1168
102
}
330
1E
100
AcDbEntity
  8
STEMPEL
100
AcDbLine
 10
289.3136977147017
 20
242.0692284037849
 30
0.0
 11
132.0443717975016
 21
242.0692284037849
 31
0.0
  0
LINE
  5
E8D
330
1E
100
AcDbEntity
  8
MITTEL
100
AcDbLine
 10
210.6790347561016
 20
617.0692284037849
 30
0.0
 11
210.6790347561016
 21
237.0692284037849
 31
0.0
  0
LINE
  5
F9E
102
{ACAD_REACTORS
330
13D6
102
}
330
1E
100
AcDbEntity
  8
STEMPEL
100
AcDbLine
 10
317.2790347561016
 20
321.2192284037847
 30
0.0
 11
315.4290347561015
 21
323.0692284037849
 31
0.0
  0
LINE
  5
FA0
330
1E
100
AcDbEntity
  8
STEMPEL
100
AcDbLine
 10
290.1790347561014
 20
314.0692284037848
 30
0.0
 11
297.4790347561016
 21
314.0692284037848
 31
0.0
  0
LINE
  5
FA1
102
{ACAD_REACTORS
330
138D
102
}
330
1E
100
AcDbEntity
  8
STEMPEL
100
AcDbLine
 10
320.1790347561016
 20
307.069228403785
 30
0.0
 11
317.2790347561016
 21
307.069228403785
 31
0.0
  0
LINE
  5
FA2
102
{ACAD_REACTORS
330
13D6
102
}
330
1E
100
AcDbEntity
  8
STEMPEL
100
AcDbLine
 10
290.1790347561014
 20
323.0692284037849
 30
0.0
 11
315.4290347561017
 21
323.0692284037849
 31
0.0
  0
LINE
  5
FA3
102
{ACAD_REACTORS
330
138D
330
13D6
102
}
330
1E
100
AcDbEntity
  8
STEMPEL
100
AcDbLine
 10
317.2790347561016
 20
341.4463771229468
 30
0.0
 11
317.2790347561016
 21
307.069228403785
 31
0.0
  0
LINE
  5
FA4
102
{ACAD_REACTORS
330
1371
330
138D
330
1397
102
}
330
1E
100
AcDbEntity
  8
STEMPEL
100
AcDbLine
 10
320.1790347561017
 20
341.4463771229468
 30
0.0
 11
320.1790347561016
 21
305.069228403785
 31
0.0
  0
LINE
  5
FA6
330
1E
100
AcDbEntity
  8
STEMPEL
100
AcDbLine
 10
123.8790347561016
 20
314.0692284037848
 30
0.0
 11
131.1790347561018
 21
314.0692284037848
 31
0.0
  0
LINE
  5
FA8
102
{ACAD_REACTORS
330
13D6
102
}
330
1E
100
AcDbEntity
  8
STEMPEL
100
AcDbLine
 10
104.0790347561014
 20
321.2192284037848
 30
0.0
 11
105.9290347561016
 21
323.0692284037849
 31
0.0
  0
LINE
  5
FA9
102
{ACAD_REACTORS
330
138D
102
}
330
1E
100
AcDbEntity
  8
STEMPEL
100
AcDbLine
 10
104.0790347561014
 20
307.0692284037847
 30
0.0
 11
101.1790347561016
 21
307.0692284037848
 31
0.0
  0
LINE
  5
FAA
102
{ACAD_REACTORS
330
13D6
102
}
330
1E
100
AcDbEntity
  8
STEMPEL
100
AcDbLine
 10
105.9290347561016
 20
323.0692284037849
 30
0.0
 11
131.1790347561018
 21
323.0692284037849
 31
0.0
  0
LINE
  5
FAB
102
{ACAD_REACTORS
330
138D
102
}
330
1E
100
AcDbEntity
  8
STEMPEL
100
AcDbLine
 10
101.1790347561018
 20
612.069228403785
 30
0.0
 11
101.1790347561015
 21
305.0692284037849
 31
0.0
  0
LINE
  5
FAC
102
{ACAD_REACTORS
330
138D
330
13D6
102
}
330
1E
100
AcDbEntity
  8
STEMPEL
100
AcDbLine
 10
104.0790347561016
 20
612.069228403785
 30
0.0
 11
104.0790347561014
 21
307.0692284037848
 31
0.0
  0
DIMENSION
  5
FAD
330
1E
100
AcDbEntity
  8
BEM
100
AcDbDimension
  2
*D2
 10
84.52505016597433
 20
242.0692284037849
 30
0.0
 11
78.02505016597429
 21
274.5692284037848
 31
0.0
 70
    32
 71
     5
 42
64.99999999999992
  3
Standard
100
AcDbAlignedDimension
 13
101.1790347561015
 23
307.0692284037848
 33
0.0
 14
132.0443717975016
 24
242.0692284037849
 34
0.0
 50
90.0
100
AcDbRotatedDimension
1001
ACAD
1000
DSTYLE
1002
{
1070
   279
1070
     1
1070
    40
1040
2.0
1070
    41
1040
3.5
1070
    42
1040
1.0
1070
    43
1040
7.0
1070
    44
1040
1.0
1070
    73
1070
     0
1070
    74
1070
     0
1070
    77
1070
     1
1070
    78
1070
     8
1070
    79
1070
     2
1070
   140
1040
3.5
1070
   141
1040
1.5
1070
   146
1040
0.5142857142857144
1070
   147
1040
1.5
1070
   172
1070
     1
1070
   178
1070
     1
1070
   179
1070
     2
1070
   271
1070
     2
1070
   272
1070
     2
1070
   284
1070
     8
1070
   285
1070
     8
1070
   286
1070
     8
1002
}
  0
DIMENSION
  5
FB0
330
1E
100
AcDbEntity
  8
BEM
100
AcDbDimension
  2
*D3
 10
50.87762176650312
 20
242.0692284037849
 30
0.0
 11
44.37762176650309
 21
427.0692284037848
 31
0.0
 70
    32
 71
     5
 42
370.0
  3
Standard
100
AcDbAlignedDimension
 13
101.1790347561018
 23
612.0692284037849
 33
0.0
 14
132.0443717975016
 24
242.0692284037849
 34
0.0
 50
90.0
100
AcDbRotatedDimension
1001
ACAD
1000
DSTYLE
1002
{
1070
    40
1040
2.0
1070
    41
1040
3.5
1070
    42
1040
1.0
1070
    43
1040
7.0
1070
    44
1040
1.0
1070
    73
1070
     0
1070
    74
1070
     0
1070
    77
1070
     1
1070
    78
1070
     8
1070
    79
1070
     2
1070
   140
1040
3.5
1070
   141
1040
1.5
1070
   146
1040
0.5142857142857144
1070
   147
1040
1.5
1070
   172
1070
     1
1070
   178
1070
     1
1070
   179
1070
     2
1070
   271
1070
     2
1070
   272
1070
     2
1070
   284
1070
     8
1070
   285
1070
     8
1070
   286
1070
     8
1002
}
  0
LINE
  5
1010
102
{ACAD_REACTORS
330
13D6
102
}
330
1E
100
AcDbEntity
  8
STEMPEL
100
AcDbLine
 10
120.1790347561016
 20
594.0692284037847
 30
0.0
 11
104.0790347561016
 21
594.0692284037846
 31
0.0
  0
DIMENSION
  5
1013
330
1E
100
AcDbEntity
  8
BEM
100
AcDbDimension
  2
*D4
 10
320.1790347561016
 20
628.6744302696108
 30
0.0
 11
210.6790347561016
 21
635.1744302696109
 31
0.0
 70
    32
  1
%%c<>
 71
     5
 42
219.0
  3
Standard
100
AcDbAlignedDimension
 13
101.1790347561016
 23
612.0692284037846
 33
0.0
 14
320.1790347561016
 24
612.0692284037848
 34
0.0
100
AcDbRotatedDimension
1001
ACAD
1000
DSTYLE
1002
{
1070
    40
1040
2.0
1070
    41
1040
3.5
1070
    42
1040
1.0
1070
    43
1040
7.0
1070
    44
1040
1.0
1070
    73
1070
     0
1070
    74
1070
     0
1070
    77
1070
     1
1070
    78
1070
     8
1070
    79
1070
     2
1070
   140
1040
3.5
1070
   141
1040
1.5
1070
   146
1040
0.5142857142857144
1070
   147
1040
1.5
1070
   172
1070
     1
1070
   178
1070
     1
1070
   179
1070
     2
1070
   271
1070
     2
1070
   272
1070
     2
1070
   284
1070
     8
1070
   285
1070
     8
1070
   286
1070
     8
1070
   289
1070
     0
1070
   340
1005
24
1002
}
  0
LINE
  5
1014
102
{ACAD_REACTORS
330
1371
330
138D
330
1392
102
}
330
1E
100
AcDbEntity
  8
STEMPEL
100
AcDbLine
 10
320.1790347561016
 20
612.0692284037846
 30
0.0
 11
320.1790347561016
 21
504.1693833476089
 31
0.0
  0
LINE
  5
1015
102
{ACAD_REACTORS
330
138D
330
13D6
102
}
330
1E
100
AcDbEntity
  8
STEMPEL
100
AcDbLine
 10
317.2790347561016
 20
612.0692284037846
 30
0.0
 11
317.2790347561015
 21
504.1693833476089
 31
0.0
  0
LINE
  5
1016
102
{ACAD_REACTORS
330
13D6
102
}
330
1E
100
AcDbEntity
  8
STEMPEL
100
AcDbLine
 10
317.2790347561017
 20
594.0692284037847
 30
0.0
 11
301.1790347561016
 21
594.0692284037847
 31
0.0
  0
LINE
  5
106C
102
{ACAD_REACTORS
330
1168
102
}
330
1E
100
AcDbEntity
  8
STEMPEL
100
AcDbLine
 10
287.6790347561017
 20
485.3234770006536
 30
0.0
 11
290.1790347561016
 21
485.3234770006536
 31
0.0
  0
ARC
  5
106D
102
{ACAD_REACTORS
330
1168
102
}
330
1E
100
AcDbEntity
  8
STEMPEL
100
AcDbCircle
 10
266.1790347561015
 20
580.0642284037844
 30
0.0
 40
32.50004740563918
100
AcDbArc
 50
332.472816379448
 51
0.0943014490918197
  0
ARC
  5
106E
102
{ACAD_REACTORS
330
1168
102
}
330
1E
100
AcDbEntity
  8
STEMPEL
100
AcDbCircle
 10
313.1790347561015
 20
555.5692284037844
 30
0.0
 40
20.5
100
AcDbArc
 50
152.472816379448
 51
180.0
  0
LINE
  5
106F
102
{ACAD_REACTORS
330
1168
102
}
330
1E
100
AcDbEntity
  8
STEMPEL
100
AcDbLine
 10
292.6790347561015
 20
555.5692284037844
 30
0.0
 11
292.6790347561015
 21
540.5101999118515
 31
0.0
  0
ARC
  5
1070
102
{ACAD_REACTORS
330
1168
102
}
330
1E
100
AcDbEntity
  8
STEMPEL
100
AcDbCircle
 10
277.1790347561015
 20
540.5101999118515
 30
0.0
 40
15.5
100
AcDbArc
 50
325.2280559680496
 51
0.0
  0
ARC
  5
1071
102
{ACAD_REACTORS
330
1168
102
}
330
1E
100
AcDbEntity
  8
STEMPEL
100
AcDbCircle
 10
300.1790347561015
 20
524.5414804891802
 30
0.0
 40
12.5
100
AcDbArc
 50
145.2280559680496
 51
180.0
  0
LINE
  5
1073
102
{ACAD_REACTORS
330
1168
330
13D6
102
}
330
1E
100
AcDbEntity
  8
STEMPEL
100
AcDbLine
 10
295.1790347561015
 20
555.5692284037844
 30
0.0
 11
295.1790347561015
 21
540.5101999118515
 31
0.0
  0
LINE
  5
1074
330
1E
100
AcDbEntity
  8
HILF
100
AcDbLine
 10
135.7065640416634
 20
528.2765698933501
 30
0.0
 11
285.6515054705397
 21
528.2765698933501
 31
0.0
  0
LINE
  5
1075
330
1E
100
AcDbEntity
  8
HILF
100
AcDbLine
 10
132.0320554137771
 20
535.8786890506807
 30
0.0
 11
289.326014098426
 21
535.8786890506807
 31
0.0
  0
ARC
  5
1076
102
{ACAD_REACTORS
330
1168
330
13D6
102
}
330
1E
100
AcDbEntity
  8
STEMPEL
100
AcDbCircle
 10
300.1790347561015
 20
524.5414804891802
 30
0.0
 40
10.0
100
AcDbArc
 50
145.2280559680496
 51
180.0
  0
ARC
  5
1077
102
{ACAD_REACTORS
330
1168
330
13D6
102
}
330
1E
100
AcDbEntity
  8
STEMPEL
100
AcDbCircle
 10
277.1790347561015
 20
540.5101999118515
 30
0.0
 40
18.0
100
AcDbArc
 50
325.2280559680496
 51
0.0
  0
LINE
  5
1079
330
1E
100
AcDbEntity
  8
HILF
100
AcDbLine
 10
130.6424086105196
 20
560.5085436474849
 30
0.0
 11
290.7156609016836
 21
560.5085436474849
 31
0.0
  0
ARC
  5
107A
102
{ACAD_REACTORS
330
1168
330
13D6
102
}
330
1E
100
AcDbEntity
  8
STEMPEL
100
AcDbCircle
 10
266.1790347561015
 20
580.0642284037844
 30
0.0
 40
35.00004740563918
100
AcDbArc
 50
332.472816379448
 51
0.0943014490918197
  0
ARC
  5
107B
102
{ACAD_REACTORS
330
1168
330
13D6
102
}
330
1E
100
AcDbEntity
  8
STEMPEL
100
AcDbCircle
 10
313.1790347561015
 20
555.5692284037844
 30
0.0
 40
18.0
100
AcDbArc
 50
152.472816379448
 51
180.0
  0
LINE
  5
107C
102
{ACAD_REACTORS
330
1168
102
}
330
1E
100
AcDbEntity
  8
STEMPEL
100
AcDbLine
 10
298.6790347561015
 20
596.2861241858506
 30
0.0
 11
298.6790347561015
 21
580.1218339329615
 31
0.0
  0
LINE
  5
107D
102
{ACAD_REACTORS
330
1168
330
13D6
102
}
330
1E
100
AcDbEntity
  8
STEMPEL
100
AcDbLine
 10
301.1790347561015
 20
596.2861241858506
 30
0.0
 11
301.1790347561015
 21
580.1218339329615
 31
0.0
  0
LINE
  5
107E
102
{ACAD_REACTORS
330
1168
102
}
330
1E
100
AcDbEntity
  8
STEMPEL
100
AcDbLine
 10
294.6790347561015
 20
612.0692284037848
 30
0.0
 11
295.6340378347925
 21
610.0212176924233
 31
0.0
  0
ARC
  5
107F
102
{ACAD_REACTORS
330
1168
102
}
330
1E
100
AcDbEntity
  8
STEMPEL
100
AcDbCircle
 10
266.1790347561015
 20
596.2861241858506
 30
0.0
 40
32.5
100
AcDbArc
 50
0.0
 51
24.99999999998774
  0
ARC
  5
1080
102
{ACAD_REACTORS
330
1168
102
}
330
1E
100
AcDbEntity
  8
STEMPEL
100
AcDbCircle
 10
266.1790347561015
 20
596.2861241858506
 30
0.0
 40
35.0
100
AcDbArc
 50
0.0
 51
24.99999999998774
  0
LINE
  5
1081
102
{ACAD_REACTORS
330
1168
102
}
330
1E
100
AcDbEntity
  8
STEMPEL
100
AcDbLine
 10
297.4374795535077
 20
612.0692284037844
 30
0.0
 11
297.8998073023843
 21
611.0777633467749
 31
0.0
  0
LINE
  5
1082
102
{ACAD_REACTORS
330
1168
102
}
330
1E
100
AcDbEntity
  8
STEMPEL
100
AcDbLine
 10
133.6790347561016
 20
524.5414804891802
 30
0.0
 11
133.6790347561018
 21
252.0692284037744
 31
0.0
  0
ARC
  5
1083
102
{ACAD_REACTORS
330
1168
102
}
330
1E
100
AcDbEntity
  8
STEMPEL
100
AcDbCircle
 10
121.1790347561016
 20
524.5414804891802
 30
0.0
 40
12.5
100
AcDbArc
 50
0.0
 51
34.77194403194904
  0
ARC
  5
1084
102
{ACAD_REACTORS
330
1168
102
}
330
1E
100
AcDbEntity
  8
STEMPEL
100
AcDbCircle
 10
144.1790347561016
 20
540.5101999118515
 30
0.0
 40
15.5
100
AcDbArc
 50
180.0
 51
214.7719440319504
  0
LINE
  5
1085
102
{ACAD_REACTORS
330
1168
102
}
330
1E
100
AcDbEntity
  8
STEMPEL
100
AcDbLine
 10
128.6790347561016
 20
555.5692284037844
 30
0.0
 11
128.6790347561016
 21
540.5101999118515
 31
0.0
  0
ARC
  5
1086
102
{ACAD_REACTORS
330
1168
102
}
330
1E
100
AcDbEntity
  8
STEMPEL
100
AcDbCircle
 10
108.1790347561016
 20
555.5692284037844
 30
0.0
 40
20.5
100
AcDbArc
 50
0.0
 51
27.52718362055197
  0
ARC
  5
1087
102
{ACAD_REACTORS
330
1168
102
}
330
1E
100
AcDbEntity
  8
STEMPEL
100
AcDbCircle
 10
155.1790347561016
 20
580.0642284037844
 30
0.0
 40
32.50004740563918
100
AcDbArc
 50
179.9056985509081
 51
207.527183620552
  0
LINE
  5
1088
102
{ACAD_REACTORS
330
1168
102
}
330
1E
100
AcDbEntity
  8
STEMPEL
100
AcDbLine
 10
122.6790347561016
 20
596.2861241858506
 30
0.0
 11
122.6790347561016
 21
580.1218339329615
 31
0.0
  0
LINE
  5
1089
102
{ACAD_REACTORS
330
1168
330
13D6
102
}
330
1E
100
AcDbEntity
  8
STEMPEL
100
AcDbLine
 10
126.1790347561016
 20
555.5692284037844
 30
0.0
 11
126.1790347561016
 21
540.5101999118515
 31
0.0
  0
ARC
  5
108A
102
{ACAD_REACTORS
330
1168
330
13D6
102
}
330
1E
100
AcDbEntity
  8
STEMPEL
100
AcDbCircle
 10
121.1790347561016
 20
524.5414804891802
 30
0.0
 40
10.0
100
AcDbArc
 50
0.0
 51
34.77194403194904
  0
ARC
  5
108B
102
{ACAD_REACTORS
330
1168
330
13D6
102
}
330
1E
100
AcDbEntity
  8
STEMPEL
100
AcDbCircle
 10
144.1790347561016
 20
540.5101999118515
 30
0.0
 40
18.0
100
AcDbArc
 50
180.0
 51
214.7719440319504
  0
LINE
  5
108C
102
{ACAD_REACTORS
330
1168
330
13D6
102
}
330
1E
100
AcDbEntity
  8
STEMPEL
100
AcDbLine
 10
131.1790347561016
 20
524.5414804891802
 30
0.0
 11
131.1790347561015
 21
251.9600760465043
 31
0.0
  0
ARC
  5
108D
102
{ACAD_REACTORS
330
1168
330
13D6
102
}
330
1E
100
AcDbEntity
  8
STEMPEL
100
AcDbCircle
 10
155.1790347561016
 20
580.0642284037844
 30
0.0
 40
35.00004740563918
100
AcDbArc
 50
179.9056985509081
 51
207.527183620552
  0
LINE
  5
108E
102
{ACAD_REACTORS
330
1168
330
13D6
102
}
330
1E
100
AcDbEntity
  8
STEMPEL
100
AcDbLine
 10
120.1790347561016
 20
596.2861241858506
 30
0.0
 11
120.1790347561016
 21
580.1218339329615
 31
0.0
  0
ARC
  5
108F
102
{ACAD_REACTORS
330
1168
330
13D6
102
}
330
1E
100
AcDbEntity
  8
STEMPEL
100
AcDbCircle
 10
108.1790347561016
 20
555.5692284037844
 30
0.0
 40
18.0
100
AcDbArc
 50
0.0
 51
27.52718362055197
  0
LINE
  5
1090
102
{ACAD_REACTORS
330
1168
102
}
330
1E
100
AcDbEntity
  8
STEMPEL
100
AcDbLine
 10
126.6790347561018
 20
612.0692284037848
 30
0.0
 11
125.7240316774103
 21
610.021217692423
 31
0.0
  0
ARC
  5
1091
102
{ACAD_REACTORS
330
1168
102
}
330
1E
100
AcDbEntity
  8
STEMPEL
100
AcDbCircle
 10
155.1790347561016
 20
596.2861241858506
 30
0.0
 40
32.5
100
AcDbArc
 50
155.0000000000065
 51
180.0
  0
ARC
  5
1092
102
{ACAD_REACTORS
330
1168
102
}
330
1E
100
AcDbEntity
  8
STEMPEL
100
AcDbCircle
 10
155.1790347561016
 20
596.2861241858506
 30
0.0
 40
35.0
100
AcDbArc
 50
155.0000000000065
 51
180.0
  0
LINE
  5
1093
102
{ACAD_REACTORS
330
1168
102
}
330
1E
100
AcDbEntity
  8
STEMPEL
100
AcDbLine
 10
123.9205899586953
 20
612.0692284037844
 30
0.0
 11
123.4582622098187
 21
611.0777633467749
 31
0.0
  0
LINE
  5
1094
102
{ACAD_REACTORS
330
1168
102
}
330
1E
100
AcDbEntity
  8
STEMPEL
100
AcDbLine
 10
287.6790347561016
 20
252.0692284037746
 30
0.0
 11
286.8041481208434
 21
242.0692284037849
 31
0.0
  0
LINE
  5
1095
102
{ACAD_REACTORS
330
1168
102
}
330
1E
100
AcDbEntity
  8
STEMPEL
100
AcDbLine
 10
290.1790347561016
 20
251.9600760465039
 30
0.0
 11
289.3136977147017
 21
242.0692284037849
 31
0.0
  0
LINE
  5
1096
102
{ACAD_REACTORS
330
1168
102
}
330
1E
100
AcDbEntity
  8
STEMPEL
100
AcDbLine
 10
133.6790347561016
 20
252.0692284037752
 30
0.0
 11
134.55392139136
 21
242.0692284037849
 31
0.0
  0
LINE
  5
1097
102
{ACAD_REACTORS
330
1168
102
}
330
1E
100
AcDbEntity
  8
STEMPEL
100
AcDbLine
 10
131.1790347561016
 20
251.9600760465043
 30
0.0
 11
132.0443717975016
 21
242.0692284037849
 31
0.0
  0
LINE
  5
1098
102
{ACAD_REACTORS
330
1168
102
}
330
1E
100
AcDbEntity
  8
STEMPEL
100
AcDbLine
 10
287.6790347561016
 20
524.5414804891802
 30
0.0
 11
287.6790347561016
 21
485.3234770006536
 31
0.0
  0
LINE
  5
1099
102
{ACAD_REACTORS
330
1168
330
1252
330
13D6
102
}
330
1E
100
AcDbEntity
  8
STEMPEL
100
AcDbLine
 10
290.179034756101
 20
524.5414804891802
 30
0.0
 11
290.1790347561011
 21
485.3234770006536
 31
0.0
  0
LINE
  5
109A
330
1E
100
AcDbEntity
  8
HILF
100
AcDbLine
 10
285.169485162244
 20
252.0692284037848
 30
0.0
 11
136.1885843499592
 21
252.0692284037848
 31
0.0
  0
HATCH
  5
109B
330
1E
100
AcDbEntity
  8
SCHRAFF
100
AcDbHatch
 10
0.0
 20
0.0
 30
0.0
210
0.0
220
0.0
230
1.0
  2
NET
 70
     0
 71
     0
 91
        2
 92
        7
 72
     1
 73
     1
 93
        6
 10
301.1790347561015
 20
596.2861241858502
 42
0.0
 10
301.1790347561015
 20
594.0692284037845
 42
0.0
 10
317.2790347561015
 20
594.0692284037846
 42
0.0
 10
317.2790347561016
 20
612.0692284037846
 42
0.0
 10
297.4374795535076
 20
612.0692284037846
 42
0.0
 10
297.8998073023843
 20
611.0777633467749
 42
-0.1095178116832425
 97
        0
 92
        7
 72
     1
 73
     1
 93
        6
 10
123.4582622098187
 20
611.0777633467749
 42
0.0
 10
123.9205899586955
 20
612.0692284037848
 42
0.0
 10
104.0790347561016
 20
612.0692284037848
 42
0.0
 10
104.0790347561016
 20
594.0692284037844
 42
0.0
 10
120.1790347561016
 20
594.0692284037849
 42
0.0
 10
120.1790347561016
 20
596.2861241858506
 42
-0.1095178116832388
 97
        0
 75
     0
 76
     1
 52
45.0
 41
20.0
 77
     0
 78
     2
 53
45.0
 43
-2.984236992323076
 44
6.476528181519142
 45
-1.767766952966368
 46
1.767766952966368
 79
     0
 53
135.0
 43
-2.984236992323076
 44
6.476528181519142
 45
-1.767766952966368
 46
-1.767766952966368
 79
     0
 47
0.7053609077105772
 98
        2
 10
308.8568854530886
 20
603.6090637323423
 10
115.452051498537
 20
604.314424640053
  0
LINE
  5
1108
102
{ACAD_REACTORS
330
1168
102
}
330
1E
100
AcDbEntity
  8
STEMPEL
100
AcDbLine
 10
287.6790347561019
 20
357.1478167129199
 30
0.0
 11
290.179034756102
 21
357.1478167129199
 31
0.0
  0
LINE
  5
110A
102
{ACAD_REACTORS
330
1168
330
1252
330
13D6
102
}
330
1E
100
AcDbEntity
  8
STEMPEL
100
AcDbLine
 10
290.1790347561014
 20
357.1478167129199
 30
0.0
 11
290.1790347561016
 21
251.9600760465039
 31
0.0
  0
LINE
  5
110B
102
{ACAD_REACTORS
330
1168
102
}
330
1E
100
AcDbEntity
  8
STEMPEL
100
AcDbLine
 10
287.6790347561016
 20
357.1478167129198
 30
0.0
 11
287.6790347561016
 21
252.0692284037746
 31
0.0
  0
ELLIPSE
  5
1112
330
1E
100
AcDbEntity
  8
STEMPEL
100
AcDbEllipse
 10
287.6790347561016
 20
421.2356468567867
 30
0.0
 11
0.0
 21
64.08783014386688
 31
0.0
210
0.0
220
0.0
230
1.0
 40
0.4978827776636951
 41
0.0
 42
3.141592653589793
  0
HATCH
  5
1168
330
1E
100
AcDbEntity
  8
SCHRAFF
100
AcDbHatch
 10
0.0
 20
0.0
 30
0.0
210
0.0
220
0.0
230
1.0
  2
_USER
 70
     0
 71
     1
 91
        3
 92
        7
 72
     1
 73
     1
 93
       20
 10
287.6790347561016
 20
485.3234770006536
 42
0.0
 10
290.179034756101
 20
485.3234770006536
 42
0.0
 10
290.179034756101
 20
524.5414804891802
 42
-0.1528962216020514
 10
291.9647490418159
 20
530.2445945687058
 42
0.1528962216020359
 10
295.1790347561015
 20
540.5101999118515
 42
0.0
 10
295.1790347561015
 20
555.5692284037844
 42
-0.1206909349745684
 10
297.216784882529
 20
563.8882775666176
 42
0.1202734944247557
 10
301.1790347561015
 20
580.0066228746195
 42
0.0
 10
301.1790347561015
 20
596.2861241858506
 42
0.1095178116832392
 10
297.8998073023843
 20
611.0777633467749
 42
0.0
 10
297.4374795535076
 20
612.0692284037846
 42
0.0
 10
294.6790347561016
 20
612.0692284037848
 42
0.0
 10
295.6340378347925
 20
610.0212176924233
 42
-0.1095178116832439
 10
298.6790347561015
 20
596.2861241858503
 42
0.0
 10
298.6790347561015
 20
580.119738482103
 42
-0.1211241773288816
 10
294.9998057334217
 20
565.0437010614555
 42
0.12069093497457
 10
292.6790347561015
 20
555.5692284037843
 42
0.0
 10
292.6790347561015
 20
540.5101999118515
 42
-0.1528962216020476
 10
289.9111776132441
 20
531.6703730885866
 42
0.1528962216020278
 10
287.6790347561016
 20
524.5414804891802
 42
0.0
 97
       20
330
1076
330
1077
330
1073
330
107B
330
107A
330
107D
330
1080
330
1081
330
E8A
330
107E
330
107F
330
107C
330
106D
330
106E
330
106F
330
1070
330
1071
330
1098
330
106C
330
1099
 92
        7
 72
     1
 73
     1
 93
       22
 10
133.6790347561016
 20
524.5414804891802
 42
0.1528962216020389
 10
131.4468918989587
 20
531.6703730885869
 42
-0.1528962216020408
 10
128.6790347561016
 20
540.5101999118515
 42
0.0
 10
128.6790347561016
 20
555.5692284037844
 42
0.1206909349745683
 10
126.3582637787814
 20
565.0437010614555
 42
-0.121124177328738
 10
122.6790347561016
 20
580.1197384820845
 42
0.0
 10
122.6790347561016
 20
596.2861241858506
 42
-0.1095178116832389
 10
125.7240316774103
 20
610.021217692423
 42
0.0
 10
126.6790347561018
 20
612.0692284037849
 42
0.0
 10
123.9205899586955
 20
612.0692284037849
 42
0.0
 10
123.4582622098187
 20
611.0777633467749
 42
0.1095178116832388
 10
120.1790347561016
 20
596.2861241858506
 42
0.0
 10
120.1790347561016
 20
580.0066228746175
 42
0.120273494424741
 10
124.1412846296741
 20
563.8882775666176
 42
-0.1206909349745701
 10
126.1790347561016
 20
555.5692284037843
 42
0.0
 10
126.1790347561016
 20
540.5101999118515
 42
0.1528962216020398
 10
129.3933204703873
 20
530.2445945687057
 42
-0.1528962216020386
 10
131.1790347561016
 20
524.5414804891802
 42
0.0
 10
131.1790347561015
 20
251.9600760465057
 42
0.0
 10
132.0443717975016
 20
242.0692284037849
 42
0.0
 10
134.5539213913601
 20
242.0692284037849
 42
0.0
 10
133.6790347561018
 20
252.0692284037726
 42
0.0
 97
       22
330
1083
330
1084
330
1085
330
1086
330
1087
330
1088
330
1091
330
1090
330
E8A
330
1093
330
1092
330
108E
330
108D
330
108F
330
1089
330
108B
330
108A
330
108C
330
1097
330
E8C
330
1096
330
1082
 92
        7
 72
     0
 73
     1
 93
        6
 10
290.1790347561015
 20
357.1478167129199
 10
287.6790347561016
 20
357.1478167129199
 10
287.6790347561016
 20
252.0692284037753
 10
286.8041481208434
 20
242.0692284037849
 10
289.3136977147017
 20
242.0692284037849
 10
290.1790347561016
 20
251.9600760465039
 97
        6
330
1108
330
110B
330
1094
330
E8C
330
1095
330
110A
 75
     0
 76
     0
 52
45.0
 41
2.0
 77
     0
 78
     1
 53
45.0
 43
-29.00903221630415
 44
0.0
 45
-1.414213562373094
 46
1.414213562373095
 79
     0
 47
0.7840988662130521
 98
        3
 10
288.7891940291333
 20
510.2517568299183
 10
131.8591141215197
 20
495.3538778454465
 10
289.5738433323249
 20
302.4655559116839
  0
LINE
  5
11F7
102
{ACAD_REACTORS
330
1252
330
13D6
330
13F1
102
}
330
1E
100
AcDbEntity
  8
STEMPEL
100
AcDbLine
 10
409.7864043353496
 20
351.3997051864791
 30
0.0
 11
390.7059667419836
 21
350.3997418244621
 31
0.0
  0
LINE
  5
11F8
102
{ACAD_REACTORS
330
1252
102
}
330
1E
100
AcDbEntity
  8
STEMPEL
100
AcDbLine
 10
409.6555644447422
 20
353.8962790233655
 30
0.0
 11
390.5751268513764
 21
352.8963156613485
 31
0.0
  0
LINE
  5
11FA
102
{ACAD_REACTORS
330
1252
102
}
330
1E
100
AcDbEntity
  8
STEMPEL
100
AcDbLine
 10
401.9621788770296
 20
500.6948206322879
 30
0.0
 11
382.8817412836637
 21
499.6948572702708
 31
0.0
  0
LINE
  5
11FB
102
{ACAD_REACTORS
330
1252
330
13D6
330
13F1
102
}
330
1E
100
AcDbEntity
  8
STEMPEL
100
AcDbLine
 10
401.8313389864223
 20
503.1913944691743
 30
0.0
 11
382.7509013930563
 21
502.1914311071573
 31
0.0
  0
LINE
  5
11FC
330
1E
100
AcDbEntity
  8
HILF
100
AcDbLine
 10
367.4057303624421
 20
492.8253350496079
 30
0.0
 11
374.4658345361543
 21
358.1105222814079
 31
0.0
  0
LINE
  5
11FE
330
1E
100
AcDbEntity
  8
HILF
100
AcDbLine
 10
337.4652030917042
 20
486.288888574993
 30
0.0
 11
344.0060799013118
 21
361.4815241132819
 31
0.0
  0
LINE
  5
11FF
330
1E
100
AcDbEntity
  8
HILF
100
AcDbLine
 10
344.8637141516034
 20
490.3730310088244
 30
0.0
 11
351.7909702758803
 21
358.1931100305935
 31
0.0
  0
LINE
  5
1200
102
{ACAD_REACTORS
330
1252
102
}
330
1E
100
AcDbEntity
  8
STEMPEL
100
AcDbLine
 10
333.6561697030067
 20
487.6020170928099
 30
0.0
 11
290.1790347561011
 21
485.3234770006534
 31
0.0
  0
LINE
  5
1201
102
{ACAD_REACTORS
330
1252
330
13D6
102
}
330
1E
100
AcDbEntity
  8
STEMPEL
100
AcDbLine
 10
333.5253298123993
 20
490.0985909296965
 30
0.0
 11
290.179034756101
 21
487.8269078656484
 31
0.0
  0
LINE
  5
1202
102
{ACAD_REACTORS
330
1252
102
}
330
1E
100
AcDbEntity
  8
STEMPEL
100
AcDbLine
 10
362.8540611970519
 20
494.1390754757497
 30
0.0
 11
349.3413247694804
 21
493.4309029675437
 31
0.0
  0
LINE
  5
1203
102
{ACAD_REACTORS
330
1252
330
13D6
102
}
330
1E
100
AcDbEntity
  8
STEMPEL
100
AcDbLine
 10
362.7232213064445
 20
496.6356493126362
 30
0.0
 11
349.210484878873
 21
495.9274768044301
 31
0.0
  0
ARC
  5
1204
102
{ACAD_REACTORS
330
1252
102
}
330
1E
100
AcDbEntity
  8
STEMPEL
100
AcDbCircle
 10
350.1525320912461
 20
477.9521451788476
 30
0.0
 40
15.5
100
AcDbArc
 50
93.0
 51
127.771944031949
  0
ARC
  5
1205
102
{ACAD_REACTORS
330
1252
330
13D6
102
}
330
1E
100
AcDbEntity
  8
STEMPEL
100
AcDbCircle
 10
350.1525320912461
 20
477.9521451788476
 30
0.0
 40
18.0
100
AcDbArc
 50
93.0
 51
127.771944031949
  0
ARC
  5
1206
102
{ACAD_REACTORS
330
1252
330
13D6
102
}
330
1E
100
AcDbEntity
  8
STEMPEL
100
AcDbCircle
 10
333.0019702499698
 20
500.0848862772422
 30
0.0
 40
10.0
100
AcDbArc
 50
273.0
 51
307.771944031949
  0
ARC
  5
1207
102
{ACAD_REACTORS
330
1252
102
}
330
1E
100
AcDbEntity
  8
STEMPEL
100
AcDbCircle
 10
333.0019702499698
 20
500.0848862772422
 30
0.0
 40
12.5
100
AcDbArc
 50
273.0
 51
307.771944031949
  0
ARC
  5
1208
102
{ACAD_REACTORS
330
1252
102
}
330
1E
100
AcDbEntity
  8
STEMPEL
100
AcDbCircle
 10
361.7811740940715
 20
514.6109809382184
 30
0.0
 40
20.5
100
AcDbArc
 50
273.0
 51
298.2271443659088
  0
ARC
  5
1209
102
{ACAD_REACTORS
330
1252
330
13D6
102
}
330
1E
100
AcDbEntity
  8
STEMPEL
100
AcDbCircle
 10
361.7811740940715
 20
514.6109809382184
 30
0.0
 40
18.0
100
AcDbArc
 50
273.0
 51
298.0071583365453
  0
ARC
  5
120A
102
{ACAD_REACTORS
330
1252
102
}
330
1E
100
AcDbEntity
  8
STEMPEL
100
AcDbCircle
 10
384.3209800803446
 20
472.2325450645199
 30
0.0
 40
27.5
100
AcDbArc
 50
93.0
 51
117.8431689300322
  0
ARC
  5
120B
102
{ACAD_REACTORS
330
1252
330
13D6
102
}
330
1E
100
AcDbEntity
  8
STEMPEL
100
AcDbCircle
 10
384.3209800803446
 20
472.2325450645199
 30
0.0
 40
29.99973625969209
100
AcDbArc
 50
93.0
 51
118.0071583365452
  0
LINE
  5
120C
102
{ACAD_REACTORS
330
1252
330
13D6
102
}
330
1E
100
AcDbEntity
  8
STEMPEL
100
AcDbLine
 10
382.7509151961575
 20
502.1911677282964
 30
0.0
 11
382.7509013930563
 21
502.1914311071573
 31
0.0
  0
LINE
  5
120D
102
{ACAD_REACTORS
330
1252
330
13D6
102
}
330
1E
100
AcDbEntity
  8
STEMPEL
100
AcDbLine
 10
340.4860119927108
 20
357.2808628073381
 30
0.0
 11
290.1790347561013
 21
354.6443858479249
 31
0.0
  0
LINE
  5
120E
102
{ACAD_REACTORS
330
1252
102
}
330
1E
100
AcDbEntity
  8
STEMPEL
100
AcDbLine
 10
340.3551721021035
 20
359.7774366442246
 30
0.0
 11
290.1790347561048
 21
357.1478167129199
 31
0.0
  0
LINE
  5
1210
102
{ACAD_REACTORS
330
1252
330
13D6
102
}
330
1E
100
AcDbEntity
  8
STEMPEL
100
AcDbLine
 10
370.2072630491854
 20
353.8316258427321
 30
0.0
 11
356.6945266216139
 21
353.123453334526
 31
0.0
  0
LINE
  5
1211
102
{ACAD_REACTORS
330
1252
102
}
330
1E
100
AcDbEntity
  8
STEMPEL
100
AcDbLine
 10
370.076423158578
 20
356.3281996796185
 30
0.0
 11
356.5636867310066
 21
355.6200271714125
 31
0.0
  0
ARC
  5
1212
102
{ACAD_REACTORS
330
1252
102
}
330
1E
100
AcDbEntity
  8
STEMPEL
100
AcDbCircle
 10
355.7524794092411
 20
371.0987849601083
 30
0.0
 40
15.5
100
AcDbArc
 50
238.228055968051
 51
273.0
  0
ARC
  5
1213
102
{ACAD_REACTORS
330
1252
330
13D6
102
}
330
1E
100
AcDbEntity
  8
STEMPEL
100
AcDbCircle
 10
341.0093715551402
 20
347.2945674597923
 30
0.0
 40
10.0
100
AcDbArc
 50
58.22805596805097
 51
93.0
  0
ARC
  5
1214
102
{ACAD_REACTORS
330
1252
102
}
330
1E
100
AcDbEntity
  8
STEMPEL
100
AcDbCircle
 10
341.0093715551402
 20
347.2945674597923
 30
0.0
 40
12.5
100
AcDbArc
 50
58.22805596805097
 51
93.0
  0
ARC
  5
1215
102
{ACAD_REACTORS
330
1252
330
13D6
102
}
330
1E
100
AcDbEntity
  8
STEMPEL
100
AcDbCircle
 10
355.752479409241
 20
371.0987849601083
 30
0.0
 40
18.0
100
AcDbArc
 50
238.228055968051
 51
273.0
  0
ARC
  5
1216
102
{ACAD_REACTORS
330
1252
102
}
330
1E
100
AcDbEntity
  8
STEMPEL
100
AcDbCircle
 10
371.1493102615584
 20
335.8562942171497
 30
0.0
 40
20.5
100
AcDbArc
 50
67.77285563409414
 51
93.0
  0
ARC
  5
1217
102
{ACAD_REACTORS
330
1252
330
13D6
102
}
330
1E
100
AcDbEntity
  8
STEMPEL
100
AcDbCircle
 10
371.1493102615584
 20
335.8562942171497
 30
0.0
 40
18.0
100
AcDbArc
 50
67.99284166345767
 51
93.0
  0
ARC
  5
1218
102
{ACAD_REACTORS
330
1252
330
13D6
102
}
330
1E
100
AcDbEntity
  8
STEMPEL
100
AcDbCircle
 10
389.1358880546953
 20
380.3586278670993
 30
0.0
 40
29.99973625969209
100
AcDbArc
 50
247.9928416634577
 51
273.0
  0
ARC
  5
1219
102
{ACAD_REACTORS
330
1252
102
}
330
1E
100
AcDbEntity
  8
STEMPEL
100
AcDbCircle
 10
389.1358880546953
 20
380.3586278670993
 30
0.0
 40
27.5
100
AcDbArc
 50
248.1568310699678
 51
273.0
  0
LINE
  5
121A
102
{ACAD_REACTORS
330
1252
330
13D6
102
}
330
1E
100
AcDbEntity
  8
STEMPEL
100
AcDbLine
 10
390.7059529388824
 20
350.4000052033231
 30
0.0
 11
390.7059667419836
 21
350.3997418244621
 31
0.0
  0
LINE
  5
121B
102
{ACAD_REACTORS
330
1252
330
1371
330
13F1
102
}
330
1E
100
AcDbEntity
  8
STEMPEL
100
AcDbLine
 10
423.7966782376511
 20
343.9727679089628
 30
0.0
 11
414.9885368019638
 21
512.0421186081576
 31
0.0
  0
ARC
  5
121C
102
{ACAD_REACTORS
330
1252
102
}
330
1E
100
AcDbEntity
  8
STEMPEL
100
AcDbCircle
 10
403.4014176737104
 20
473.232508426537
 30
0.0
 40
27.5
100
AcDbArc
 50
68.00000000000655
 51
93.0
  0
ARC
  5
121D
102
{ACAD_REACTORS
330
1252
330
13F1
102
}
330
1E
100
AcDbEntity
  8
STEMPEL
100
AcDbCircle
 10
403.4014176737104
 20
473.232508426537
 30
0.0
 40
30.0
100
AcDbArc
 50
68.00000000000655
 51
93.0
  0
LINE
  5
121E
102
{ACAD_REACTORS
330
1252
102
}
330
1E
100
AcDbEntity
  8
STEMPEL
100
AcDbLine
 10
415.7290905828014
 20
497.9115106913803
 30
0.0
 11
413.703098992648
 21
498.7300644271236
 31
0.0
  0
LINE
  5
121F
102
{ACAD_REACTORS
330
1252
330
13F1
102
}
330
1E
100
AcDbEntity
  8
STEMPEL
100
AcDbLine
 10
415.5847247365858
 20
500.6661751360603
 30
0.0
 11
414.6396154761881
 21
501.0480240635406
 31
0.0
  0
ARC
  5
1220
102
{ACAD_REACTORS
330
1252
330
13F1
102
}
330
1E
100
AcDbEntity
  8
STEMPEL
100
AcDbCircle
 10
408.2163256480613
 20
381.3585912291162
 30
0.0
 40
30.0
100
AcDbArc
 50
273.0
 51
297.9999999999935
  0
ARC
  5
1221
102
{ACAD_REACTORS
330
1252
102
}
330
1E
100
AcDbEntity
  8
STEMPEL
100
AcDbCircle
 10
408.2163256480613
 20
381.3585912291162
 30
0.0
 40
27.5
100
AcDbArc
 50
273.0
 51
297.9999999999905
  0
LINE
  5
1222
102
{ACAD_REACTORS
330
1252
330
13F1
102
}
330
1E
100
AcDbEntity
  8
STEMPEL
100
AcDbLine
 10
423.2004903030291
 20
355.34871138106
 30
0.0
 11
422.3004725316383
 21
354.8701634433485
 31
0.0
  0
LINE
  5
1223
102
{ACAD_REACTORS
330
1252
102
}
330
1E
100
AcDbEntity
  8
STEMPEL
100
AcDbLine
 10
423.0561244568134
 20
358.10337582574
 30
0.0
 11
421.1267936246732
 21
357.0775324254957
 31
0.0
  0
HATCH
  5
1252
330
1E
100
AcDbEntity
  8
SCHRAFF
100
AcDbHatch
 10
0.0
 20
0.0
 30
0.0
210
0.0
220
0.0
230
1.0
  2
_USER
 70
     0
 71
     1
 91
        2
 92
        7
 72
     1
 73
     1
 93
       21
 10
290.179034756101
 20
487.8269078656484
 42
0.0
 10
290.1790347561012
 20
485.3234770006535
 42
0.0
 10
333.6561697030067
 20
487.6020170928099
 42
0.1528962216020367
 10
340.658471071968
 20
490.2041982868874
 42
-0.1528962216020412
 10
349.3413247694804
 20
493.4309029675437
 42
0.0
 10
362.8540611970519
 20
494.1390754757497
 42
0.108578132785516
 10
371.3380400624131
 20
496.4749308483241
 42
-0.1102736034490118
 10
382.8817412836637
 20
499.6948572702708
 42
0.0
 10
401.9621788770296
 20
500.6948206322879
 42
-0.1095178116832394
 10
413.703098992648
 20
498.7300644271236
 42
0.0
 10
415.7290905828014
 20
497.9115106913802
 42
0.0
 10
415.5847247365858
 20
500.6661751360603
 42
0.0
 10
414.6396154761881
 20
501.0480240635406
 42
0.1095178116832422
 10
401.8313389864224
 20
503.1913944691743
 42
0.0
 10
382.7509013930563
 20
502.1914311071573
 42
0.0
 10
382.7509151961575
 20
502.1911677282964
 42
0.1095494205537649
 10
370.2336477817994
 20
498.7189801655571
 42
-0.109549420553769
 10
362.7232213064445
 20
496.6356493126362
 42
0.0
 10
349.210484878873
 20
495.9274768044301
 42
0.1528962216020379
 10
339.1271709075685
 20
492.1803358849584
 42
-0.1528962216020344
 10
333.5253298123995
 20
490.0985909296965
 42
0.0
 97
       21
330
1204
330
1202
330
1208
330
120A
330
11FA
330
121C
330
121E
330
121B
330
121F
330
121D
330
11FB
330
120C
330
120B
330
1209
330
1203
330
1205
330
1206
330
1201
330
1099
330
1200
330
1207
 92
        7
 72
     1
 73
     1
 93
       21
 10
290.1790347561014
 20
357.1478167129197
 42
0.0
 10
290.1790347561015
 20
354.6443858479249
 42
0.0
 10
340.4860119927108
 20
357.2808628073381
 42
-0.1528962216020403
 10
346.2747672173192
 20
355.7960737099052
 42
0.1528962216020372
 10
356.6945266216139
 20
353.123453334526
 42
0.0
 10
370.2072630491854
 20
353.8316258427321
 42
-0.1095494205537232
 10
377.8943139950103
 20
352.5447610321606
 42
0.1095494205537925
 10
390.7059529388824
 20
350.400005203323
 42
0.0
 10
390.7059667419836
 20
350.3997418244621
 42
0.0
 10
409.7864043353496
 20
351.3997051864791
 42
0.1095178116832441
 10
422.3004725316383
 20
354.8701634433485
 42
0.0
 10
423.2004903030291
 20
355.34871138106
 42
0.0
 10
423.0561244568134
 20
358.1033758257401
 42
0.0
 10
421.1267936246732
 20
357.0775324254957
 42
-0.1095178116832413
 10
409.6555644447422
 20
353.8962790233655
 42
0.0
 10
390.5751268513764
 20
352.8963156613485
 42
-0.110273603449129
 10
378.7580892725204
 20
354.8919576403757
 42
0.108578132785361
 10
370.0764231585779
 20
356.3281996796185
 42
0.0
 10
356.5636867310066
 20
355.6200271714125
 42
-0.1528962216020386
 10
347.5911161328637
 20
357.9214502724334
 42
0.1528962216020391
 10
340.3551721021034
 20
359.7774366442246
 42
0.0
 97
       21
330
1213
330
1215
330
1210
330
1217
330
1218
330
121A
330
11F7
330
1220
330
1222
330
121B
330
1223
330
1221
330
11F8
330
1219
330
1216
330
1211
330
1212
330
1214
330
120E
330
110A
330
120D
 75
     0
 76
     0
 52
138.0
 41
2.0
 77
     0
 78
     1
 53
138.0
 43
-29.00903221630415
 44
0.0
 45
-1.338261212717716
 46
-1.486289650954788
 79
     0
 47
0.3707245687050209
 98
        2
 10
314.508655162932
 20
488.1231090456769
 10
315.6216116016999
 20
357.2573342178496
  0
DIMENSION
  5
12A6
330
1E
100
AcDbEntity
  8
BEM
100
AcDbDimension
  2
*D5
 10
290.1790347561016
 20
220.4934216985994
 30
0.0
 11
210.6790347561016
 21
226.9934216985994
 31
0.0
 70
    32
  1
%%c<>
 71
     5
 42
159.0000000000001
  3
Standard
100
AcDbAlignedDimension
 13
131.1790347561015
 23
251.9600760465043
 33
0.0
 14
290.1790347561016
 24
251.9600760465039
 34
0.0
100
AcDbRotatedDimension
1001
ACAD
1000
DSTYLE
1002
{
1070
    40
1040
2.0
1070
    41
1040
3.5
1070
    42
1040
1.0
1070
    43
1040
7.0
1070
    44
1040
1.0
1070
    73
1070
     0
1070
    74
1070
     0
1070
    77
1070
     1
1070
    78
1070
     8
1070
    79
1070
     2
1070
   140
1040
3.5
1070
   141
1040
1.5
1070
   146
1040
0.5142857142857144
1070
   147
1040
1.5
1070
   172
1070
     1
1070
   178
1070
     1
1070
   179
1070
     2
1070
   271
1070
     2
1070
   272
1070
     2
1070
   284
1070
     8
1070
   285
1070
     8
1070
   286
1070
     8
1002
}
  0
LINE
  5
12F8
102
{ACAD_REACTORS
330
1371
330
1392
102
}
330
1E
100
AcDbEntity
  8
STEMPEL
100
AcDbLine
 10
414.9885368019638
 20
512.0421186081576
 30
0.0
 11
320.1790347561016
 21
507.0733631510029
 31
0.0
  0
LINE
  5
12F9
102
{ACAD_REACTORS
330
13D6
330
13F1
102
}
330
1E
100
AcDbEntity
  8
STEMPEL
100
AcDbLine
 10
399.4370022892706
 20
503.0659126000207
 30
0.0
 11
399.1622385189951
 21
508.3087176574823
 31
0.0
  0
LINE
  5
12FA
102
{ACAD_REACTORS
330
1371
330
13D6
330
13F1
102
}
330
1E
100
AcDbEntity
  8
STEMPEL
100
AcDbLine
 10
415.1403110750684
 20
509.1460929573694
 30
0.0
 11
320.1790347561016
 21
504.1693833476089
 31
0.0
  0
DIMENSION
  5
12FB
330
1E
100
AcDbEntity
  8
BEM
100
AcDbDimension
  2
*D6
 10
442.6356468988778
 20
344.9600764204802
 30
0.0
 11
444.7226681569401
 21
429.3349354856568
 31
0.0
 70
    32
  1
%%c<>
 71
     5
 42
168.3
  3
Standard
100
AcDbAlignedDimension
 13
414.9885368019638
 23
512.0421186081576
 33
0.0
 14
423.7966782376511
 24
343.9727679089628
 34
0.0
 50
272.9999999999991
100
AcDbRotatedDimension
1001
ACAD
1000
DSTYLE
1002
{
1070
    40
1040
2.0
1070
    41
1040
3.5
1070
    42
1040
1.0
1070
    43
1040
7.0
1070
    44
1040
1.0
1070
    73
1070
     0
1070
    74
1070
     0
1070
    77
1070
     1
1070
    78
1070
     8
1070
    79
1070
     2
1070
   140
1040
3.5
1070
   141
1040
1.5
1070
   146
1040
0.5142857142857144
1070
   147
1040
1.5
1070
   172
1070
     1
1070
   178
1070
     1
1070
   179
1070
     2
1070
   271
1070
     2
1070
   272
1070
     2
1070
   284
1070
     8
1070
   285
1070
     8
1070
   286
1070
     8
1070
   289
1070
     0
1070
   340
1005
24
1002
}
  0
LINE
  5
12FE
102
{ACAD_REACTORS
330
1371
330
13D6
330
13F1
102
}
330
1E
100
AcDbEntity
  8
STEMPEL
100
AcDbLine
 10
423.6449039645466
 20
346.868793559751
 30
0.0
 11
320.1790347561017
 21
341.4463771229468
 31
0.0
  0
LINE
  5
12FF
102
{ACAD_REACTORS
330
1371
330
1397
102
}
330
1E
100
AcDbEntity
  8
STEMPEL
100
AcDbLine
 10
423.7966782376511
 20
343.9727679089628
 30
0.0
 11
320.1790347561017
 21
338.542397319553
 31
0.0
  0
LINE
  5
1300
102
{ACAD_REACTORS
330
13D6
330
13F1
102
}
330
1E
100
AcDbEntity
  8
STEMPEL
100
AcDbLine
 10
407.6668314084734
 20
346.0314182598639
 30
0.0
 11
407.392067638198
 21
351.2742233173256
 31
0.0
  0
LINE
  5
1358
102
{ACAD_REACTORS
330
138D
330
13D6
102
}
330
1E
100
AcDbEntity
  8
STEMPEL
100
AcDbLine
 10
320.1790347561016
 20
504.1693833476089
 30
0.0
 11
317.2790347561015
 21
504.1693833476089
 31
0.0
  0
LINE
  5
1359
102
{ACAD_REACTORS
330
138D
330
13D6
102
}
330
1E
100
AcDbEntity
  8
STEMPEL
100
AcDbLine
 10
320.1790347561017
 20
341.4463771229468
 30
0.0
 11
317.2790347561016
 21
341.4463771229468
 31
0.0
  0
HATCH
  5
1371
330
1E
100
AcDbEntity
  8
SCHRAFF
100
AcDbHatch
 10
0.0
 20
0.0
 30
0.0
210
0.0
220
0.0
230
1.0
  2
_USER
 70
     0
 71
     1
 91
        2
 92
        7
 72
     0
 73
     1
 93
        4
 10
415.1403110750683
 20
509.1460929573694
 10
414.9885368019638
 20
512.0421186081574
 10
320.1790347561016
 20
507.073363151003
 10
320.1790347561016
 20
504.169383347609
 97
        4
330
121B
330
12F8
330
1014
330
12FA
 92
        7
 72
     0
 73
     1
 93
        4
 10
320.1790347561017
 20
341.4463771229468
 10
320.1790347561017
 20
338.542397319553
 10
423.7966782376512
 20
343.9727679089628
 10
423.6449039645465
 20
346.868793559751
 97
        4
330
121B
330
12FE
330
FA4
330
12FF
 75
     0
 76
     0
 52
48.0
 41
2.0
 77
     0
 78
     1
 53
48.0
 43
12.90902575528844
 44
0.0
 45
-1.486289650954788
 46
1.338261212717716
 79
     0
 47
0.8169063540457624
 98
        2
 10
344.7718646389053
 20
506.8988320752471
 10
348.0417859240642
 20
341.8837467597088
  0
HATCH
  5
138D
330
1E
100
AcDbEntity
  8
SCHRAFF
100
AcDbHatch
 10
0.0
 20
0.0
 30
0.0
210
0.0
220
0.0
230
1.0
  2
_USER
 70
     0
 71
     1
 91
        3
 92
        7
 72
     0
 73
     1
 93
        4
 10
320.1790347561016
 20
612.0692284037846
 10
317.2790347561016
 20
612.0692284037846
 10
317.2790347561015
 20
504.1693833476089
 10
320.1790347561016
 20
504.1693833476089
 97
        4
330
E8A
330
1015
330
1358
330
1014
 92
        7
 72
     0
 73
     1
 93
        4
 10
104.0790347561016
 20
612.0692284037849
 10
101.1790347561018
 20
612.069228403785
 10
101.1790347561015
 20
307.0692284037848
 10
104.0790347561014
 20
307.0692284037847
 97
        4
330
E8A
330
FAB
330
FA9
330
FAC
 92
        7
 72
     0
 73
     1
 93
        4
 10
320.1790347561017
 20
341.4463771229468
 10
317.2790347561016
 20
341.4463771229468
 10
317.2790347561017
 20
307.069228403785
 10
320.1790347561016
 20
307.069228403785
 97
        4
330
1359
330
FA3
330
FA1
330
FA4
 75
     0
 76
     0
 52
135.0
 41
2.0
 77
     0
 78
     1
 53
135.0
 43
12.90902575528844
 44
0.0
 45
-1.414213562373095
 46
-1.414213562373094
 79
     0
 47
0.8169063540457624
 98
        3
 10
317.7949911957876
 20
552.6455875482991
 10
102.7974976764708
 20
527.3214911876818
 10
317.7949911957876
 20
326.3625268512937
  0
ARC
  5
138E
102
{ACAD_REACTORS
330
1392
102
}
330
1E
100
AcDbEntity
  8
SCHRAFF
100
AcDbCircle
 10
320.1790347561016
 20
507.0733631510029
 30
0.0
 40
4.0
100
AcDbArc
 50
2.999999999999903
 51
90.0
  0
HATCH
  5
1392
330
1E
100
AcDbEntity
  8
SCHRAFF
100
AcDbHatch
 10
0.0
 20
0.0
 30
0.0
210
0.0
220
0.0
230
1.0
  2
_USER
 70
     0
 71
     1
 91
        1
 92
        7
 72
     1
 73
     1
 93
        3
 10
320.1790347561016
 20
511.0733631510029
 42
0.0
 10
320.1790347561017
 20
507.073363151003
 42
0.0
 10
324.1735528951199
 20
507.2827069759748
 42
0.398959545973716
 97
        3
330
1014
330
12F8
330
138E
 75
     0
 76
     0
 52
0.0
 41
0.1
 77
     0
 78
     1
 53
0.0
 43
12.90902575528844
 44
0.0
 45
0.0
 46
0.1
 79
     0
 47
0.0317801815248045
 98
        1
 10
322.5846531672405
 20
508.9374519150067
  0
ARC
  5
1393
102
{ACAD_REACTORS
330
1397
102
}
330
1E
100
AcDbEntity
  8
SCHRAFF
100
AcDbCircle
 10
320.1790347561017
 20
338.542397319553
 30
0.0
 40
4.0
100
AcDbArc
 50
270.0
 51
3.000000000000716
  0
HATCH
  5
1397
330
1E
100
AcDbEntity
  8
SCHRAFF
100
AcDbHatch
 10
0.0
 20
0.0
 30
0.0
210
0.0
220
0.0
230
1.0
  2
_USER
 70
     0
 71
     1
 91
        1
 92
        7
 72
     1
 73
     1
 93
        3
 10
320.1790347561017
 20
334.542397319553
 42
0.4296339059668355
 10
324.17355289512
 20
338.7517411445248
 42
0.0
 10
320.1790347561017
 20
338.5423973195531
 42
0.0
 97
        3
330
12FF
330
FA4
330
1393
 75
     0
 76
     0
 52
0.0
 41
0.1
 77
     0
 78
     1
 53
0.0
 43
12.90902575528844
 44
0.0
 45
0.0
 46
0.1
 79
     0
 47
0.0317801815248045
 98
        1
 10
321.6305786954699
 20
336.9138728162766
  0
HATCH
  5
13D6
330
1E
100
AcDbEntity
  8
SCHRAFF
100
AcDbHatch
 10
0.0
 20
0.0
 30
0.0
210
0.0
220
0.0
230
1.0
  2
HONEY
 70
     0
 71
     1
 91
        3
 92
        7
 72
     1
 73
     1
 93
       21
 10
290.1790347561011
 20
490.8269078656486
 42
-0.3989595459737817
 10
293.1749233603653
 20
487.9839157343773
 42
0.0
 10
333.5253298123993
 20
490.0985909296965
 42
0.1528962216020373
 10
339.1271709075684
 20
492.1803358849584
 42
-0.1528962216020394
 10
349.210484878873
 20
495.9274768044301
 42
0.0
 10
362.7232213064445
 20
496.6356493126362
 42
0.1095494205537682
 10
370.2336477817994
 20
498.7189801655571
 42
-0.1095494205537645
 10
382.7509151961575
 20
502.1911677282962
 42
0.0
 10
382.7509013930563
 20
502.1914311071573
 42
0.0
 10
399.4370022892705
 20
503.0659126000206
 42
0.0
 10
399.1622385189951
 20
508.3087176574822
 42
0.0
 10
320.1790347561019
 20
504.1693833476089
 42
0.0
 10
317.2790347561015
 20
504.1693833476089
 42
0.0
 10
317.2790347561015
 20
594.0692284037846
 42
0.0
 10
301.1790347561015
 20
594.0692284037847
 42
0.0
 10
301.1790347561015
 20
580.1218339329615
 42
-0.1211084169870766
 10
297.216784882529
 20
563.8882775666176
 42
0.1206909349745684
 10
295.1790347561015
 20
555.5692284037844
 42
0.0
 10
295.1790347561015
 20
540.5101999118515
 42
-0.1528962216020476
 10
291.9647490418155
 20
530.2445945687052
 42
0.1528962216020303
 10
290.179034756101
 20
524.5414804891802
 42
0.0
 97
       21
330
120C
330
11FB
330
12F9
330
12FA
330
1358
330
1015
330
1016
330
107D
330
107A
330
107B
330
1073
330
1077
330
1076
330
1099
330
E2B
330
1201
330
1206
330
1205
330
1203
330
1209
330
120B
 92
        7
 72
     1
 73
     1
 93
       11
 10
131.1790347561016
 20
524.5414804891802
 42
0.1528962216020386
 10
129.3933204703873
 20
530.2445945687057
 42
-0.1528962216020398
 10
126.1790347561016
 20
540.5101999118515
 42
0.0
 10
126.1790347561016
 20
555.5692284037844
 42
0.1206909349745685
 10
124.1412846296741
 20
563.8882775666176
 42
-0.1211084169870768
 10
120.1790347561016
 20
580.1218339329615
 42
0.0
 10
120.1790347561016
 20
594.0692284037847
 42
0.0
 10
104.0790347561015
 20
594.0692284037845
 42
0.0
 10
104.0790347561014
 20
321.2192284037849
 42
0.0
 10
105.9290347561016
 20
323.0692284037849
 42
0.0
 10
131.1790347561015
 20
323.0692284037849
 42
0.0
 97
       11
330
108A
330
108B
330
1089
330
108F
330
108D
330
108E
330
1010
330
FAC
330
FA8
330
FAA
330
108C
 92
        7
 72
     1
 73
     1
 93
       16
 10
290.1790347561014
 20
323.0692284037849
 42
0.0
 10
315.4290347561014
 20
323.0692284037849
 42
0.0
 10
317.2790347561016
 20
321.2192284037847
 42
0.0
 10
317.2790347561017
 20
341.4463771229468
 42
0.0
 10
320.1790347561017
 20
341.4463771229467
 42
0.0
 10
407.6668314084733
 20
346.0314182598639
 42
0.0
 10
407.3920676381981
 20
351.2742233173256
 42
0.0
 10
390.7059667419836
 20
350.399741824462
 42
0.0
 10
390.7059529388824
 20
350.4000052033231
 42
-0.1095494205537219
 10
377.894313995018
 20
352.5447610321574
 42
0.1095494205538413
 10
370.2072630491853
 20
353.8316258427321
 42
0.0
 10
356.6945266216139
 20
353.123453334526
 42
-0.1528962216020407
 10
346.2747672173189
 20
355.7960737099052
 42
0.1528962216020399
 10
340.4860119927106
 20
357.2808628073381
 42
0.0
 10
293.1749233603653
 20
354.8013937166537
 42
-0.429633905966832
 10
290.1790347561014
 20
351.6443858479251
 42
0.0
 97
       16
330
1359
330
12FE
330
1300
330
11F7
330
121A
330
1218
330
1217
330
1210
330
1215
330
1213
330
120D
330
E29
330
110A
330
FA2
330
F9E
330
FA3
 75
     0
 76
     1
 52
0.0
 41
30.0
 77
     0
 78
     3
 53
0.0
 43
12.90902575528844
 44
0.0
 45
5.625
 46
3.247595249999999
 79
     2
 49
3.75
 49
-7.5
 53
120.0
 43
12.90902575528844
 44
0.0
 45
-5.624999987709673
 46
3.247595271287468
 79
     2
 49
3.749999999999999
 49
-7.499999999999999
 53
60.0
 43
12.90902575528844
 44
0.0
 45
0.0000000122903263
 46
6.495190521287468
 79
     2
 49
-7.5
 49
3.75
 47
0.7086416534198407
 98
        3
 10
300.3324161495957
 20
500.8770170260998
 10
123.0473882438914
 20
474.6572763683046
 10
299.6232777312193
 20
341.4326446723373
  0
HATCH
  5
13F1
330
1E
100
AcDbEntity
  8
SCHRAFF
100
AcDbHatch
 10
0.0
 20
0.0
 30
0.0
210
0.0
220
0.0
230
1.0
  2
NET
 70
     0
 71
     1
 91
        2
 92
        7
 72
     1
 73
     1
 93
        6
 10
414.6396154761881
 20
501.0480240635406
 42
0.0
 10
415.5847247365858
 20
500.6661751360603
 42
0.0
 10
415.1403110750683
 20
509.1460929573694
 42
0.0
 10
399.1622385189951
 20
508.3087176574822
 42
0.0
 10
399.4370022892706
 20
503.0659126000206
 42
0.0
 10
401.8313389864223
 20
503.1913944691743
 42
-0.1095178116832432
 97
        6
330
12FA
330
12F9
330
11FB
330
121D
330
121F
330
121B
 92
        7
 72
     1
 73
     1
 93
        6
 10
423.6449039645466
 20
346.8687935597509
 42
0.0
 10
423.2004903030291
 20
355.34871138106
 42
0.0
 10
422.3004725316383
 20
354.8701634433485
 42
-0.1095178116832432
 10
409.7864043353497
 20
351.3997051864791
 42
0.0
 10
407.392067638198
 20
351.2742233173255
 42
0.0
 10
407.6668314084734
 20
346.031418259864
 42
0.0
 97
        6
330
1222
330
1220
330
11F7
330
1300
330
12FE
330
121B
 75
     0
 76
     1
 52
45.0
 41
20.0
 77
     0
 78
     2
 53
45.0
 43
12.90902575528844
 44
0.0
 45
-1.767766952966368
 46
1.767766952966368
 79
     0
 53
135.0
 43
12.90902575528844
 44
0.0
 45
-1.767766952966368
 46
-1.767766952966368
 79
     0
 47
0.7086416534198407
 98
        2
 10
410.2491329029585
 20
505.1288679725687
 10
420.1770951234862
 20
348.5190609606152
  0
DIMENSION
  5
13F2
330
1E
100
AcDbEntity
  8
BEM
100
AcDbDimension
  2
*D7
 10
241.5458354412784
 20
418.6868888812672
 30
0.0
 11
276.5598050008475
 21
464.6624755793247
 31
0.0
 70
   162
 71
     5
 42
1.518436449235065
  3
Standard
100
AcDb2LineAngularDimension
 13
210.6790347561016
 23
617.0692284037849
 33
0.0
 14
210.6790347561016
 24
237.0692284037849
 34
0.0
 15
424.3857551935803
 25
428.2691230397749
 35
0.0
 16
250.0812430185073
 26
488.1526937723151
 36
0.0
1001
ACAD
1000
DSTYLE
1002
{
1070
    40
1040
2.0
1070
    41
1040
3.5
1070
    42
1040
1.0
1070
    43
1040
7.0
1070
    44
1040
1.0
1070
    73
1070
     0
1070
    74
1070
     0
1070
    77
1070
     1
1070
    78
1070
     8
1070
    79
1070
     2
1070
   140
1040
3.5
1070
   141
1040
1.5
1070
   146
1040
0.5142857142857144
1070
   147
1040
1.5
1070
   172
1070
     1
1070
   178
1070
     1
1070
   179
1070
     2
1070
   271
1070
     2
1070
   272
1070
     2
1070
   284
1070
     8
1070
   285
1070
     8
1070
   286
1070
     8
1002
}
  0
DIMENSION
  5
1411
330
1E
100
AcDbEntity
  8
BEM
100
AcDbDimension
  2
*D8
 10
426.3751850024345
 20
294.7719278799005
 30
0.0
 11
321.6782149050025
 21
295.7939124284175
 31
0.0
 70
    32
 71
     5
 42
208.9999999999998
 51
357.0
  3
Standard
100
AcDbAlignedDimension
 13
210.6790347561016
 23
417.0692284037849
 33
0.0
 14
423.7966782376512
 24
343.9727679089628
 34
0.0
 50
3.000000000000007
100
AcDbRotatedDimension
1001
ACAD
1000
DSTYLE
1002
{
1070
    40
1040
2.0
1070
    41
1040
3.5
1070
    42
1040
1.0
1070
    43
1040
7.0
1070
    44
1040
1.0
1070
    73
1070
     0
1070
    74
1070
     0
1070
    77
1070
     1
1070
    78
1070
     8
1070
    79
1070
     2
1070
   140
1040
3.5
1070
   141
1040
1.5
1070
   146
1040
0.5142857142857144
1070
   147
1040
1.5
1070
   172
1070
     1
1070
   178
1070
     1
1070
   179
1070
     2
1070
   271
1070
     2
1070
   272
1070
     2
1070
   284
1070
     8
1070
   285
1070
     8
1070
   286
1070
     8
1002
}
  0
HATCH
  5
1459
330
1E
100
AcDbEntity
  8
SCHRAFF
100
AcDbHatch
 10
0.0
 20
0.0
 30
0.0
210
0.0
220
0.0
230
1.0
  2
NET
 70
     0
 71
     0
 91
        2
 92
        7
 72
     0
 73
     1
 93
       11
 10
317.2790347561017
 20
321.2192284037846
 10
315.4290347561016
 20
323.0692284037849
 10
290.1790347561016
 20
323.0692284037849
 10
290.1790347561016
 20
314.0692284037848
 10
297.4790347561017
 20
314.0692284037848
 10
301.5204866404289
 20
307.0692284037848
 10
312.6790347561016
 20
307.0692284037848
 10
312.6790347561017
 20
305.0692284037849
 10
320.1790347561016
 20
305.0692284037849
 10
320.1790347561016
 20
307.069228403785
 10
317.2790347561017
 20
307.069228403785
 97
        0
 92
        7
 72
     0
 73
     1
 93
       11
 10
131.1790347561015
 20
323.0692284037849
 10
105.9290347561015
 20
323.0692284037849
 10
104.0790347561016
 20
321.2192284037849
 10
104.0790347561016
 20
307.0692284037848
 10
101.1790347561016
 20
307.0692284037848
 10
101.1790347561016
 20
305.0692284037849
 10
108.7790347561016
 20
305.0692284037849
 10
108.7790347561016
 20
307.069228403785
 10
119.8375828717744
 20
307.069228403785
 10
123.8790347561016
 20
314.0692284037848
 10
131.1790347561015
 20
314.0692284037848
 97
        0
 75
     0
 76
     1
 52
45.0
 41
20.0
 77
     0
 78
     2
 53
45.0
 43
-5.360822148195893
 44
49.0809736060279
 45
-1.767766952966368
 46
1.767766952966368
 79
     0
 53
135.0
 43
-5.360822148195893
 44
49.0809736060279
 45
-1.767766952966368
 46
-1.767766952966368
 79
     0
 47
0.2699286479089143
 98
        2
 10
308.1696549235962
 20
318.121325216892
 10
111.8131426077366
 20
316.5017540046928
  0
LINE
  5
145A
330
1E
100
AcDbEntity
  8
STEMPEL
100
AcDbLine
 10
320.1790347561016
 20
305.0692284037849
 30
0.0
 11
290.1790347561017
 21
305.069228403785
 31
0.0
  0
LINE
  5
145B
330
1E
100
AcDbEntity
  8
STEMPEL
100
AcDbLine
 10
297.4790347561016
 20
314.0692284037848
 30
0.0
 11
301.5204866404291
 21
307.0692284037847
 31
0.0
  0
LINE
  5
145C
330
1E
100
AcDbEntity
  8
STEMPEL
100
AcDbLine
 10
312.6790347561017
 20
307.0692284037848
 30
0.0
 11
290.1790347561017
 21
307.0692284037848
 31
0.0
  0
LINE
  5
145D
330
1E
100
AcDbEntity
  8
STEMPEL
100
AcDbLine
 10
312.6790347561017
 20
305.0692284037848
 30
0.0
 11
312.6790347561016
 21
307.0692284037848
 31
0.0
  0
POINT
  5
145E
330
1E
100
AcDbEntity
  8
DEFPOINTS
  6
ByBlock
 62
     0
100
AcDbPoint
 10
302.6790347561016
 20
307.0692284037848
 30
0.0
  0
POINT
  5
145F
330
1E
100
AcDbEntity
  8
DEFPOINTS
  6
ByBlock
 62
     0
100
AcDbPoint
 10
312.6790347561017
 20
305.0692284037848
 30
0.0
  0
POINT
  5
1460
330
1E
100
AcDbEntity
  8
DEFPOINTS
  6
ByBlock
 62
     0
100
AcDbPoint
 10
301.5204866404291
 20
307.0692284037848
 30
0.0
  0
POINT
  5
1461
330
1E
100
AcDbEntity
  8
DEFPOINTS
  6
ByBlock
 62
     0
100
AcDbPoint
 10
301.5204866404291
 20
307.0692284037848
 30
0.0
  0
POINT
  5
1462
330
1E
100
AcDbEntity
  8
DEFPOINTS
  6
ByBlock
 62
     0
100
AcDbPoint
 10
301.5204866404291
 20
307.0692284037847
 30
0.0
  0
POINT
  5
1463
330
1E
100
AcDbEntity
  8
DEFPOINTS
  6
ByBlock
 62
     0
100
AcDbPoint
 10
312.6790347561017
 20
305.0692284037848
 30
0.0
  0
LINE
  5
1464
330
1E
100
AcDbEntity
  8
STEMPEL
100
AcDbLine
 10
131.1790347561015
 20
305.0692284037849
 30
0.0
 11
101.1790347561016
 21
305.0692284037849
 31
0.0
  0
LINE
  5
1465
330
1E
100
AcDbEntity
  8
STEMPEL
100
AcDbLine
 10
131.1790347561015
 20
307.069228403785
 30
0.0
 11
108.7790347561016
 21
307.069228403785
 31
0.0
  0
LINE
  5
1466
330
1E
100
AcDbEntity
  8
STEMPEL
100
AcDbLine
 10
108.7790347561016
 20
305.0692284037848
 30
0.0
 11
108.7790347561016
 21
307.0692284037848
 31
0.0
  0
LINE
  5
1467
330
1E
100
AcDbEntity
  8
STEMPEL
100
AcDbLine
 10
123.8790347561016
 20
314.0692284037848
 30
0.0
 11
119.8375828717742
 21
307.0692284037847
 31
0.0
  0
POINT
  5
1468
330
1E
100
AcDbEntity
  8
DEFPOINTS
  6
ByBlock
 62
     0
100
AcDbPoint
 10
119.8375828717743
 20
307.0692284037848
 30
0.0
  0
POINT
  5
1469
330
1E
100
AcDbEntity
  8
DEFPOINTS
  6
ByBlock
 62
     0
100
AcDbPoint
 10
108.7790347561016
 20
305.0692284037848
 30
0.0
  0
POINT
  5
146A
330
1E
100
AcDbEntity
  8
DEFPOINTS
  6
ByBlock
 62
     0
100
AcDbPoint
 10
108.7790347561016
 20
307.0692284037848
 30
0.0
  0
ENDSEC
  0
SECTION
  2
OBJECTS
  0
DICTIONARY
  5
C
330
0
100
AcDbDictionary
281
     1
  3
ACAD_COLOR
350
11A
  3
ACAD_GROUP
350
D
  3
ACAD_LAYOUT
350
19
  3
ACAD_MATERIAL
350
119
  3
ACAD_MLINESTYLE
350
16
  3
ACAD_PLOTSETTINGS
350
18
  3
ACAD_PLOTSTYLENAME
350
E
  3
AcDbVariableDictionary
350
125
  0
DICTIONARY
  5
DB
330
1E
100
AcDbDictionary
280
     1
281
     1
  3
ACAD_LAYOUTSELFREF
360
10F
  0
DICTIONARY
  5
DD
330
1A
100
AcDbDictionary
280
     1
281
     1
  3
ACAD_LAYOUTSELFREF
360
10E
  0
DICTIONARY
  5
11A
102
{ACAD_REACTORS
330
C
102
}
330
C
100
AcDbDictionary
281
     1
  0
DICTIONARY
  5
D
102
{ACAD_REACTORS
330
C
102
}
330
C
100
AcDbDictionary
281
     1
  0
DICTIONARY
  5
19
102
{ACAD_REACTORS
330
C
102
}
330
C
100
AcDbDictionary
281
     1
  3
Layout1
350
1D
  3
Model
350
21
  0
DICTIONARY
  5
119
102
{ACAD_REACTORS
330
C
102
}
330
C
100
AcDbDictionary
281
     1
  0
DICTIONARY
  5
16
102
{ACAD_REACTORS
330
C
102
}
330
C
100
AcDbDictionary
281
     1
  3
Standard
350
17
  0
DICTIONARY
  5
18
102
{ACAD_REACTORS
330
C
102
}
330
C
100
AcDbDictionary
281
     1
  0
ACDBDICTIONARYWDFLT
  5
E
102
{ACAD_REACTORS
330
C
102
}
330
C
100
AcDbDictionary
281
     1
  3
Normal
350
F
100
AcDbDictionaryWithDefault
340
F
  0
DICTIONARY
  5
125
102
{ACAD_REACTORS
330
C
102
}
330
C
100
AcDbDictionary
281
     1
  3
DIMASSOC
350
126
  3
PROJECTNAME
350
127
  0
XRECORD
  5
10F
102
{ACAD_REACTORS
330
DB
102
}
330
DB
100
AcDbXrecord
280
     1
340
1E
  0
XRECORD
  5
10E
102
{ACAD_REACTORS
330
DD
102
}
330
DD
100
AcDbXrecord
280
     1
340
1A
  0
LAYOUT
  5
1D
102
{ACAD_REACTORS
330
19
102
}
330
19
100
AcDbPlotSettings
  1

  2
\\NT_WORK01\HP LaserJet 5000 PCL 6
  4

  6

 40
0.0
 41
0.0
 42
0.0
 43
0.0
 44
0.0
 45
0.0
 46
0.0
 47
0.0
 48
0.0
 49
0.0
140
0.0
141
0.0
142
1.0
143
1.0
 70
   688
 72
     0
 73
     0
 74
     5
  7

 75
    16
147
1.0
 76
     0
 77
     2
 78
   300
148
0.0
149
0.0
100
AcDbLayout
  1
Layout1
 70
     0
 71
     1
 10
0.0
 20
0.0
 11
12.0
 21
9.0
 12
0.0
 22
0.0
 32
0.0
 14
1.000000000000000E+20
 24
1.000000000000000E+20
 34
1.000000000000000E+20
 15
-1.000000000000000E+20
 25
-1.000000000000000E+20
 35
-1.000000000000000E+20
146
0.0
 13
0.0
 23
0.0
 33
0.0
 16
1.0
 26
0.0
 36
0.0
 17
0.0
 27
1.0
 37
0.0
 76
     0
330
1A
  0
LAYOUT
  5
21
102
{ACAD_REACTORS
330
19
102
}
330
19
100
AcDbPlotSettings
  1

  2
none_device
  4
Letter_(8.50_x_11.00_Inches)
  6

 40
6.349999904632568
 41
6.349999904632568
 42
6.350006103515625
 43
6.350006103515625
 44
215.8999938964844
 45
279.3999938964844
 46
0.0
 47
0.0
 48
0.0
 49
0.0
140
0.0
141
0.0
142
1.0
143
1.0
 70
 11952
 72
     0
 73
     1
 74
     0
  7

 75
     0
147
1.0
 76
     0
 77
     2
 78
   300
148
3232.979308760778
149
108.7792942125838
100
AcDbLayout
  1
Model
 70
     1
 71
     0
 10
0.0
 20
0.0
 11
12.0
 21
9.0
 12
0.0
 22
0.0
 32
0.0
 14
0.0
 24
0.0
 34
0.0
 15
0.0
 25
0.0
 35
0.0
146
0.0
 13
0.0
 23
0.0
 33
0.0
 16
1.0
 26
0.0
 36
0.0
 17
0.0
 27
1.0
 37
0.0
 76
     0
330
1E
  0
MLINESTYLE
  5
17
102
{ACAD_REACTORS
330
16
102
}
330
16
100
AcDbMlineStyle
  2
STANDARD
 70
     0
  3

 62
   256
 51
90.0
 52
90.0
 71
     2
 49
0.5
 62
   256
  6
BYLAYER
 49
-0.5
 62
   256
  6
BYLAYER
  0
ACDBPLACEHOLDER
  5
F
102
{ACAD_REACTORS
330
E
102
}
330
E
  0
DICTIONARYVAR
  5
126
102
{ACAD_REACTORS
330
125
102
}
330
125
100
DictionaryVariables
280
     0
  1
1
  0
DICTIONARYVAR
  5
127
102
{ACAD_REACTORS
330
125
102
}
330
125
100
DictionaryVariables
280
     0
  1

  0
ENDSEC
  0
EOF
