  0
SECTION
  2
HEADER
  9
$ACADVER
  1
AC1018
  9
$ACADMAINTVER
 70
     2
  9
$DWGCODEPAGE
  3
ANSI_1252
  9
$INSBASE
 10
0.0
 20
0.0
 30
0.0
  9
$EXTMIN
 10
-0.0090573584943741
 20
-0.0128083857496222
 30
-0.0000000000112498
  9
$EXTMAX
 10
594.0090656570853
 20
840.0128201211312
 30
0.0000000000002956
  9
$LIMMIN
 10
0.0
 20
0.0
  9
$LIMMAX
 10
594.0
 20
840.0
  9
$ORTHOMODE
 70
     0
  9
$REGENMODE
 70
     1
  9
$FILLMODE
 70
     1
  9
$QTEXTMODE
 70
     0
  9
$MIRRTEXT
 70
     1
  9
$LTSCALE
 40
20.0
  9
$ATTMODE
 70
     1
  9
$TEXTSIZE
 40
3.5
  9
$TRACEWID
 40
1.0
  9
$TEXTSTYLE
  7
STANDARD
  9
$CLAYER
  8
BEM
  9
$CELTYPE
  6
ByLayer
  9
$CECOLOR
 62
   256
  9
$CELTSCALE
 40
1.0
  9
$DISPSILH
 70
     0
  9
$DIMSCALE
 40
2.0
  9
$DIMASZ
 40
3.5
  9
$DIMEXO
 40
1.0
  9
$DIMDLI
 40
7.0
  9
$DIMRND
 40
0.0
  9
$DIMDLE
 40
0.0
  9
$DIMEXE
 40
1.0
  9
$DIMTP
 40
0.0
  9
$DIMTM
 40
0.0
  9
$DIMTXT
 40
3.5
  9
$DIMCEN
 40
1.5
  9
$DIMTSZ
 40
0.0
  9
$DIMTOL
 70
     0
  9
$DIMLIM
 70
     0
  9
$DIMTIH
 70
     0
  9
$DIMTOH
 70
     0
  9
$DIMSE1
 70
     0
  9
$DIMSE2
 70
     0
  9
$DIMTAD
 70
     1
  9
$DIMZIN
 70
     8
  9
$DIMBLK
  1

  9
$DIMASO
 70
     1
  9
$DIMSHO
 70
     0
  9
$DIMPOST
  1

  9
$DIMAPOST
  1

  9
$DIMALT
 70
     0
  9
$DIMALTD
 70
     2
  9
$DIMALTF
 40
25.4
  9
$DIMLFAC
 40
1.0
  9
$DIMTOFL
 70
     1
  9
$DIMTVP
 40
0.0
  9
$DIMTIX
 70
     0
  9
$DIMSOXD
 70
     0
  9
$DIMSAH
 70
     0
  9
$DIMBLK1
  1

  9
$DIMBLK2
  1

  9
$DIMSTYLE
  2
Standard
  9
$DIMCLRD
 70
     0
  9
$DIMCLRE
 70
     0
  9
$DIMCLRT
 70
     1
  9
$DIMTFAC
 40
0.5142857142857144
  9
$DIMGAP
 40
1.5
  9
$DIMJUST
 70
     0
  9
$DIMSD1
 70
     0
  9
$DIMSD2
 70
     0
  9
$DIMTOLJ
 70
     1
  9
$DIMTZIN
 70
     8
  9
$DIMALTZ
 70
     8
  9
$DIMALTTZ
 70
     8
  9
$DIMUPT
 70
     0
  9
$DIMDEC
 70
     2
  9
$DIMTDEC
 70
     2
  9
$DIMALTU
 70
     2
  9
$DIMALTTD
 70
     2
  9
$DIMTXSTY
  7
STANDARD
  9
$DIMAUNIT
 70
     0
  9
$DIMADEC
 70
     2
  9
$DIMALTRND
 40
0.0
  9
$DIMAZIN
 70
     2
  9
$DIMDSEP
 70
    46
  9
$DIMATFIT
 70
     3
  9
$DIMFRAC
 70
     0
  9
$DIMLDRBLK
  1

  9
$DIMLUNIT
 70
     2
  9
$DIMLWD
 70
    -2
  9
$DIMLWE
 70
    -2
  9
$DIMTMOVE
 70
     0
  9
$LUNITS
 70
     2
  9
$LUPREC
 70
     2
  9
$SKETCHINC
 40
1.0
  9
$FILLETRAD
 40
0.0
  9
$AUNITS
 70
     0
  9
$AUPREC
 70
     0
  9
$MENU
  1
ACAD
  9
$ELEVATION
 40
0.0
  9
$PELEVATION
 40
0.0
  9
$THICKNESS
 40
0.0
  9
$LIMCHECK
 70
     0
  9
$CHAMFERA
 40
0.0
  9
$CHAMFERB
 40
0.0
  9
$CHAMFERC
 40
0.0
  9
$CHAMFERD
 40
0.0
  9
$SKPOLY
 70
     0
  9
$TDCREATE
 40
2455397.825393172
  9
$TDUCREATE
 40
2455397.783726505
  9
$TDUPDATE
 40
2455532.480084572
  9
$TDUUPDATE
 40
2455532.438417905
  9
$TDINDWG
 40
0.1435958218
  9
$TDUSRTIMER
 40
0.1435958218
  9
$USRTIMER
 70
     1
  9
$ANGBASE
 50
0.0
  9
$ANGDIR
 70
     0
  9
$PDMODE
 70
     0
  9
$PDSIZE
 40
0.0
  9
$PLINEWID
 40
0.0
  9
$SPLFRAME
 70
     0
  9
$SPLINETYPE
 70
     6
  9
$SPLINESEGS
 70
     8
  9
$HANDSEED
  5
14BD
  9
$SURFTAB1
 70
     6
  9
$SURFTAB2
 70
     6
  9
$SURFTYPE
 70
     6
  9
$SURFU
 70
     6
  9
$SURFV
 70
     6
  9
$UCSBASE
  2

  9
$UCSNAME
  2

  9
$UCSORG
 10
0.0
 20
0.0
 30
0.0
  9
$UCSXDIR
 10
1.0
 20
0.0
 30
0.0
  9
$UCSYDIR
 10
0.0
 20
1.0
 30
0.0
  9
$UCSORTHOREF
  2

  9
$UCSORTHOVIEW
 70
     0
  9
$UCSORGTOP
 10
0.0
 20
0.0
 30
0.0
  9
$UCSORGBOTTOM
 10
0.0
 20
0.0
 30
0.0
  9
$UCSORGLEFT
 10
0.0
 20
0.0
 30
0.0
  9
$UCSORGRIGHT
 10
0.0
 20
0.0
 30
0.0
  9
$UCSORGFRONT
 10
0.0
 20
0.0
 30
0.0
  9
$UCSORGBACK
 10
0.0
 20
0.0
 30
0.0
  9
$PUCSBASE
  2

  9
$PUCSNAME
  2

  9
$PUCSORG
 10
0.0
 20
0.0
 30
0.0
  9
$PUCSXDIR
 10
1.0
 20
0.0
 30
0.0
  9
$PUCSYDIR
 10
0.0
 20
1.0
 30
0.0
  9
$PUCSORTHOREF
  2

  9
$PUCSORTHOVIEW
 70
     0
  9
$PUCSORGTOP
 10
0.0
 20
0.0
 30
0.0
  9
$PUCSORGBOTTOM
 10
0.0
 20
0.0
 30
0.0
  9
$PUCSORGLEFT
 10
0.0
 20
0.0
 30
0.0
  9
$PUCSORGRIGHT
 10
0.0
 20
0.0
 30
0.0
  9
$PUCSORGFRONT
 10
0.0
 20
0.0
 30
0.0
  9
$PUCSORGBACK
 10
0.0
 20
0.0
 30
0.0
  9
$USERI1
 70
     0
  9
$USERI2
 70
     0
  9
$USERI3
 70
     0
  9
$USERI4
 70
     0
  9
$USERI5
 70
     0
  9
$USERR1
 40
0.0
  9
$USERR2
 40
0.0
  9
$USERR3
 40
0.0
  9
$USERR4
 40
0.0
  9
$USERR5
 40
0.0
  9
$WORLDVIEW
 70
     1
  9
$SHADEDGE
 70
     3
  9
$SHADEDIF
 70
    70
  9
$TILEMODE
 70
     1
  9
$MAXACTVP
 70
    16
  9
$PINSBASE
 10
0.0
 20
0.0
 30
0.0
  9
$PLIMCHECK
 70
     0
  9
$PEXTMIN
 10
1.000000000000000E+20
 20
1.000000000000000E+20
 30
1.000000000000000E+20
  9
$PEXTMAX
 10
-1.000000000000000E+20
 20
-1.000000000000000E+20
 30
-1.000000000000000E+20
  9
$PLIMMIN
 10
0.0
 20
0.0
  9
$PLIMMAX
 10
12.0
 20
9.0
  9
$UNITMODE
 70
     0
  9
$VISRETAIN
 70
     0
  9
$PLINEGEN
 70
     0
  9
$PSLTSCALE
 70
     0
  9
$TREEDEPTH
 70
  3020
  9
$CMLSTYLE
  2
Standard
  9
$CMLJUST
 70
     0
  9
$CMLSCALE
 40
1.0
  9
$PROXYGRAPHICS
 70
     1
  9
$MEASUREMENT
 70
     0
  9
$CELWEIGHT
370
    -1
  9
$ENDCAPS
280
     0
  9
$JOINSTYLE
280
     0
  9
$LWDISPLAY
290
     0
  9
$INSUNITS
 70
     0
  9
$HYPERLINKBASE
  1

  9
$STYLESHEET
  1
monochrome 1.ctb
  9
$XEDIT
290
     1
  9
$CEPSNTYPE
380
     0
  9
$PSTYLEMODE
290
     1
  9
$FINGERPRINTGUID
  2
{D68B0D0D-A558-11D7-B632-000102183313}
  9
$VERSIONGUID
  2
{1A1308B8-8AC0-4667-A913-6CA90FC47C23}
  9
$EXTNAMES
290
     1
  9
$PSVPSCALE
 40
0.0
  9
$OLESTARTUP
290
     0
  9
$SORTENTS
280
   127
  9
$INDEXCTL
280
     0
  9
$HIDETEXT
280
     0
  9
$XCLIPFRAME
290
     0
  9
$HALOGAP
280
     0
  9
$OBSCOLOR
 70
   257
  9
$OBSLTYPE
280
     0
  9
$INTERSECTIONDISPLAY
280
     0
  9
$INTERSECTIONCOLOR
 70
   257
  9
$DIMASSOC
280
     1
  9
$PROJECTNAME
  1

  0
ENDSEC
  0
SECTION
  2
CLASSES
  0
CLASS
  1
ACDBDICTIONARYWDFLT
  2
AcDbDictionaryWithDefault
  3
ObjectDBX Classes
 90
        0
 91
        1
280
     0
281
     0
  0
CLASS
  1
DICTIONARYVAR
  2
AcDbDictionaryVar
  3
ObjectDBX Classes
 90
        0
 91
        2
280
     0
281
     0
  0
ENDSEC
  0
SECTION
  2
TABLES
  0
TABLE
  2
VPORT
  5
8
330
0
100
AcDbSymbolTable
 70
     2
  0
VPORT
  5
14BC
330
8
100
AcDbSymbolTableRecord
100
AcDbViewportTableRecord
  2
*Active
 70
     0
 10
0.0
 20
0.0
 11
1.0
 21
1.0
 12
297.0000041492954
 22
420.0000058676908
 13
0.0
 23
0.0
 14
1.0
 24
1.0
 15
10.0
 25
10.0
 16
0.0
 26
0.0
 36
1.0
 17
0.0
 27
0.0
 37
0.0
 40
846.8091463683093
 41
1.336927223719676
 42
50.0
 43
0.0
 44
0.0
 50
0.0
 51
0.0
 71
     0
 72
  1500
 73
     1
 74
     0
 75
     0
 76
     0
 77
     0
 78
     0
281
     0
 65
     1
110
0.0
120
0.0
130
0.0
111
1.0
121
0.0
131
0.0
112
0.0
122
1.0
132
0.0
 79
     0
146
0.0
  0
ENDTAB
  0
TABLE
  2
LTYPE
  5
5
330
0
100
AcDbSymbolTable
 70
     2
  0
LTYPE
  5
13
330
5
100
AcDbSymbolTableRecord
100
AcDbLinetypeTableRecord
  2
ByBlock
 70
     0
  3

 72
    65
 73
     0
 40
0.0
  0
LTYPE
  5
14
330
5
100
AcDbSymbolTableRecord
100
AcDbLinetypeTableRecord
  2
ByLayer
 70
     0
  3

 72
    65
 73
     0
 40
0.0
  0
LTYPE
  5
15
330
5
100
AcDbSymbolTableRecord
100
AcDbLinetypeTableRecord
  2
Continuous
 70
     0
  3
Solid line
 72
    65
 73
     0
 40
0.0
  0
LTYPE
  5
25
330
5
100
AcDbSymbolTableRecord
100
AcDbLinetypeTableRecord
  2
STRICHPUNKT
 70
     0
  3
__ . __ . __ . __ . __ . __ . __ . __ . __ . __
 72
    65
 73
     4
 40
1.0
 49
0.5
 74
     0
 49
-0.25
 74
     0
 49
0.0
 74
     0
 49
-0.25
 74
     0
  0
ENDTAB
  0
TABLE
  2
LAYER
  5
2
330
0
100
AcDbSymbolTable
 70
     9
  0
LAYER
  5
10
330
2
100
AcDbSymbolTableRecord
100
AcDbLayerTableRecord
  2
0
 70
     0
 62
     7
  6
Continuous
370
    -3
390
F
  0
LAYER
  5
2B
330
2
100
AcDbSymbolTableRecord
100
AcDbLayerTableRecord
  2
VOLL
 70
     0
 62
     1
  6
Continuous
370
    -3
390
F
  0
LAYER
  5
2C
330
2
100
AcDbSymbolTableRecord
100
AcDbLayerTableRecord
  2
HILF
 70
     0
 62
     2
  6
Continuous
370
    -3
390
F
  0
LAYER
  5
2D
330
2
100
AcDbSymbolTableRecord
100
AcDbLayerTableRecord
  2
MITTEL
 70
     0
 62
     2
  6
STRICHPUNKT
370
    -3
390
F
  0
LAYER
  5
2F
330
2
100
AcDbSymbolTableRecord
100
AcDbLayerTableRecord
  2
BEM
 70
     0
 62
     7
  6
Continuous
370
    -3
390
F
  0
LAYER
  5
30
330
2
100
AcDbSymbolTableRecord
100
AcDbLayerTableRecord
  2
STEMPEL
 70
     0
 62
     3
  6
Continuous
370
    -3
390
F
  0
LAYER
  5
33
330
2
100
AcDbSymbolTableRecord
100
AcDbLayerTableRecord
  2
TEXT
 70
     0
 62
     7
  6
Continuous
370
    -3
390
F
  0
LAYER
  5
184
330
2
100
AcDbSymbolTableRecord
100
AcDbLayerTableRecord
  2
SCHRAFF
 70
     0
 62
     7
  6
Continuous
370
    -3
390
F
  0
LAYER
  5
306
330
2
100
AcDbSymbolTableRecord
100
AcDbLayerTableRecord
  2
DEFPOINTS
 70
     0
 62
     7
  6
Continuous
290
     0
370
    -3
390
F
  0
ENDTAB
  0
TABLE
  2
STYLE
  5
3
330
0
100
AcDbSymbolTable
 70
     2
  0
STYLE
  5
11
330
3
100
AcDbSymbolTableRecord
100
AcDbTextStyleTableRecord
  2
STANDARD
 70
     0
 40
0.0
 41
0.8
 50
0.0
 71
     0
 42
3.5
  3
simplex.shx
  4

  0
STYLE
  5
24
330
3
100
AcDbSymbolTableRecord
100
AcDbTextStyleTableRecord
  2
GREEKS
 70
     0
 40
0.0
 41
0.8
 50
0.0
 71
     0
 42
2.5
  3
SIMPLEX.shx
  4

  0
ENDTAB
  0
TABLE
  2
VIEW
  5
6
330
0
100
AcDbSymbolTable
 70
     0
  0
ENDTAB
  0
TABLE
  2
UCS
  5
7
330
0
100
AcDbSymbolTable
 70
     0
  0
ENDTAB
  0
TABLE
  2
APPID
  5
9
330
0
100
AcDbSymbolTable
 70
     1
  0
APPID
  5
12
330
9
100
AcDbSymbolTableRecord
100
AcDbRegAppTableRecord
  2
ACAD
 70
     0
  0
ENDTAB
  0
TABLE
  2
DIMSTYLE
  5
A
330
0
100
AcDbSymbolTable
 70
     1
100
AcDbDimStyleTable
 71
     1
340
A2
  0
DIMSTYLE
105
A2
102
{ACAD_REACTORS
330
E46
330
EA6
330
FCD
330
1019
330
10FD
330
1137
330
1144
330
14A5
102
}
330
A
100
AcDbSymbolTableRecord
100
AcDbDimStyleTableRecord
  2
Standard
 70
     0
340
11
  0
ENDTAB
  0
TABLE
  2
BLOCK_RECORD
  5
1
330
0
100
AcDbSymbolTable
 70
     9
  0
BLOCK_RECORD
  5
1E
102
{ACAD_XDICTIONARY
360
DB
102
}
330
1
100
AcDbSymbolTableRecord
100
AcDbBlockTableRecord
  2
*Model_Space
340
21
  0
BLOCK_RECORD
  5
1A
102
{ACAD_XDICTIONARY
360
DD
102
}
330
1
100
AcDbSymbolTableRecord
100
AcDbBlockTableRecord
  2
*Paper_Space
340
1D
  0
BLOCK_RECORD
  5
22
330
1
100
AcDbSymbolTableRecord
100
AcDbBlockTableRecord
  2
LOGO
340
0
102
{BLKREFS
331
2AF
102
}
  0
BLOCK_RECORD
  5
EC7
330
1
100
AcDbSymbolTableRecord
100
AcDbBlockTableRecord
  2
*D1
340
0
  0
BLOCK_RECORD
  5
EFA
330
1
100
AcDbSymbolTableRecord
100
AcDbBlockTableRecord
  2
*D2
340
0
  0
BLOCK_RECORD
  5
FDE
330
1
100
AcDbSymbolTableRecord
100
AcDbBlockTableRecord
  2
*D3
340
0
  0
BLOCK_RECORD
  5
102A
330
1
100
AcDbSymbolTableRecord
100
AcDbBlockTableRecord
  2
*D4
340
0
  0
BLOCK_RECORD
  5
10FE
330
1
100
AcDbSymbolTableRecord
100
AcDbBlockTableRecord
  2
*D5
340
0
  0
BLOCK_RECORD
  5
1138
330
1
100
AcDbSymbolTableRecord
100
AcDbBlockTableRecord
  2
*D6
340
0
  0
BLOCK_RECORD
  5
1145
330
1
100
AcDbSymbolTableRecord
100
AcDbBlockTableRecord
  2
*D7
340
0
  0
BLOCK_RECORD
  5
14A6
330
1
100
AcDbSymbolTableRecord
100
AcDbBlockTableRecord
  2
*D8
340
0
  0
ENDTAB
  0
ENDSEC
  0
SECTION
  2
BLOCKS
  0
BLOCK
  5
37
330
1E
100
AcDbEntity
  8
0
100
AcDbBlockBegin
  2
*Model_Space
 70
     0
 10
0.0
 20
0.0
 30
0.0
  3
*Model_Space
  1

  0
ENDBLK
  5
38
330
1E
100
AcDbEntity
  8
0
100
AcDbBlockEnd
  0
BLOCK
  5
35
330
1A
100
AcDbEntity
 67
     1
  8
0
100
AcDbBlockBegin
  2
*Paper_Space
 70
     0
 10
0.0
 20
0.0
 30
0.0
  3
*Paper_Space
  1

  0
ENDBLK
  5
36
330
1A
100
AcDbEntity
 67
     1
  8
0
100
AcDbBlockEnd
  0
BLOCK
  5
39
330
22
100
AcDbEntity
  8
0
100
AcDbBlockBegin
  2
LOGO
 70
     0
 10
0.0
 20
0.0
 30
0.0
  3
LOGO
  1

  0
ARC
  5
3A
330
22
100
AcDbEntity
  8
0
100
AcDbCircle
 10
11.59973089678112
 20
-9.271599258481501
 30
0.0
 40
4.5
100
AcDbArc
 50
270.0
 51
231.0575587310159
  0
LINE
  5
3B
330
22
100
AcDbEntity
  8
0
100
AcDbLine
 10
3.599730896781125
 20
-4.771599258481529
 30
0.0
 11
3.599730896781153
 21
-11.77159925848133
 31
0.0
  0
LINE
  5
3C
330
22
100
AcDbEntity
  8
0
100
AcDbLine
 10
2.599730896781125
 20
-4.771599258481529
 30
0.0
 11
2.599730896781153
 21
-11.77159925848133
 31
0.0
  0
CIRCLE
  5
3D
330
22
100
AcDbEntity
  8
0
100
AcDbCircle
 10
11.59973089678112
 20
-9.271599258481501
 30
0.0
 40
3.5
  0
ARC
  5
3E
330
22
100
AcDbEntity
  8
0
100
AcDbCircle
 10
31.59973089678115
 20
-9.271599258481472
 30
0.0
 40
4.5
100
AcDbArc
 50
270.0
 51
231.0575587310182
  0
LINE
  5
3F
330
22
100
AcDbEntity
  8
0
100
AcDbLine
 10
17.59973089678112
 20
-4.771599258481472
 30
0.0
 11
17.59973089678115
 21
-13.77159925848147
 31
0.0
  0
ARC
  5
40
330
22
100
AcDbEntity
  8
0
100
AcDbCircle
 10
22.59973089678116
 20
-7.271599258481472
 30
0.0
 40
2.5
100
AcDbArc
 50
293.1161887722295
 51
90.0
  0
CIRCLE
  5
41
330
22
100
AcDbEntity
  8
0
100
AcDbCircle
 10
31.59973089678115
 20
-9.271599258481472
 30
0.0
 40
3.5
  0
ARC
  5
42
330
22
100
AcDbEntity
  8
0
100
AcDbCircle
 10
4.599730896781153
 20
-11.77159925848133
 30
0.0
 40
1.0
100
AcDbArc
 50
180.0
 51
270.0
  0
ARC
  5
43
330
22
100
AcDbEntity
  8
0
100
AcDbCircle
 10
4.599730896781153
 20
-11.77159925848133
 30
0.0
 40
2.0
100
AcDbArc
 50
179.9999999999992
 51
270.0
  0
LINE
  5
44
330
22
100
AcDbEntity
  8
0
100
AcDbLine
 10
11.59973089678115
 20
-13.77159925848144
 30
0.0
 11
4.599730896781153
 21
-13.77159925848147
 31
0.0
  0
LINE
  5
45
330
22
100
AcDbEntity
  8
0
100
AcDbLine
 10
8.771303772034769
 20
-12.77159925848136
 30
0.0
 11
4.599730896781153
 21
-12.77159925848133
 31
0.0
  0
LINE
  5
46
330
22
100
AcDbEntity
  8
0
100
AcDbLine
 10
31.59973089678115
 20
-13.77159925848147
 30
0.0
 11
23.6715276665056
 21
-13.77159925848144
 31
0.0
  0
LINE
  5
47
330
22
100
AcDbEntity
  8
0
100
AcDbLine
 10
23.56565672307022
 20
-9.51278021337896
 30
0.0
 11
24.4388546544846
 21
-12.77159925848144
 31
0.0
  0
LINE
  5
48
330
22
100
AcDbEntity
  8
0
100
AcDbLine
 10
22.59973089678116
 20
-9.771599258481472
 30
0.0
 11
18.59973089678112
 21
-9.771599258481472
 31
0.0
  0
LINE
  5
49
330
22
100
AcDbEntity
  8
0
100
AcDbLine
 10
18.59973089678115
 20
-13.77159925848144
 30
0.0
 11
17.59973089678115
 21
-13.77159925848144
 31
0.0
  0
LINE
  5
4A
330
22
100
AcDbEntity
  8
0
100
AcDbLine
 10
18.59973089678115
 20
-9.771599258481472
 30
0.0
 11
18.59973089678115
 21
-13.77159925848144
 31
0.0
  0
LINE
  5
4B
330
22
100
AcDbEntity
  8
0
100
AcDbLine
 10
22.59973089678116
 20
-9.771599258481472
 30
0.0
 11
23.67152766650562
 21
-13.77159925848147
 31
0.0
  0
ARC
  5
4C
330
22
100
AcDbEntity
  8
0
100
AcDbCircle
 10
22.59973089678116
 20
-7.271599258481472
 30
0.0
 40
2.5
100
AcDbArc
 50
270.0
 51
270.0000000000007
  0
LINE
  5
4D
330
22
100
AcDbEntity
  8
0
100
AcDbLine
 10
28.77130377203494
 20
-12.77159925848147
 30
0.0
 11
24.43885465448463
 21
-12.77159925848144
 31
0.0
  0
LINE
  5
4E
330
22
100
AcDbEntity
  8
0
100
AcDbLine
 10
3.599730896781125
 20
-4.771599258481472
 30
0.0
 11
2.599730896781125
 21
-4.771599258481472
 31
0.0
  0
LINE
  5
4F
330
22
100
AcDbEntity
  8
0
100
AcDbLine
 10
22.59973089678116
 20
-8.771599258481472
 30
0.0
 11
18.59973089678115
 21
-8.771599258481472
 31
0.0
  0
LINE
  5
50
330
22
100
AcDbEntity
  8
0
100
AcDbLine
 10
22.59973089678116
 20
-5.771599258481472
 30
0.0
 11
18.59973089678115
 21
-5.771599258481472
 31
0.0
  0
LINE
  5
51
330
22
100
AcDbEntity
  8
0
100
AcDbLine
 10
22.59973089678116
 20
-4.771599258481472
 30
0.0
 11
17.59973089678115
 21
-4.771599258481472
 31
0.0
  0
LINE
  5
52
330
22
100
AcDbEntity
  8
0
100
AcDbLine
 10
18.59973089678115
 20
-5.771599258481472
 30
0.0
 11
18.59973089678115
 21
-8.771599258481472
 31
0.0
  0
ARC
  5
53
330
22
100
AcDbEntity
  8
0
100
AcDbCircle
 10
22.59973089678116
 20
-7.271599258481472
 30
0.0
 40
1.5
100
AcDbArc
 50
270.0
 51
90.0
  0
ENDBLK
  5
54
330
22
100
AcDbEntity
  8
0
100
AcDbBlockEnd
  0
BLOCK
  5
ED1
330
EC7
100
AcDbEntity
  8
0
100
AcDbBlockBegin
  2
*D1
 70
     1
 10
0.0
 20
0.0
 30
0.0
  3
*D1
  1

  0
LINE
  5
1481
330
EC7
100
AcDbEntity
  8
BEM
 62
     0
370
    -2
100
AcDbLine
 10
264.585815257532
 20
451.0041683871679
 30
0.0
 11
171.6677938355861
 21
358.0861469652223
 31
0.0
  0
LINE
  5
1482
330
EC7
100
AcDbEntity
  8
BEM
 62
     0
370
    -2
100
AcDbLine
 10
267.4142423822784
 20
228.9726390945915
 30
0.0
 11
286.9261991689938
 21
248.4845958813068
 31
0.0
  0
LINE
  5
1483
330
EC7
100
AcDbEntity
  8
BEM
 62
     0
370
    -2
100
AcDbLine
 10
178.031754866265
 20
354.5506130592895
 30
0.0
 11
280.5622381383149
 21
252.0201297872396
 31
0.0
  0
SOLID
  5
1484
330
EC7
100
AcDbEntity
  8
BEM
 62
     0
100
AcDbTrace
 10
178.8567127776494
 20
355.3755709706738
 30
0.0
 11
177.2067969548807
 21
353.7256551479052
 31
0.0
 12
173.0820073979592
 22
359.5003605275954
 32
0.0
 13
173.0820073979592
 23
359.5003605275954
 33
0.0
  0
SOLID
  5
1485
330
EC7
100
AcDbEntity
  8
BEM
 62
     0
100
AcDbTrace
 10
281.3871960496992
 20
252.8450876986239
 30
0.0
 11
279.7372802269305
 21
251.1951718758552
 31
0.0
 12
285.5119856066206
 22
247.0703823189337
 32
0.0
 13
285.5119856066206
 23
247.0703823189337
 33
0.0
  0
MTEXT
  5
1486
330
EC7
100
AcDbEntity
  8
BEM
 62
     1
100
AcDbMText
 10
233.8931905800025
 20
307.8815655009771
 30
0.0
 40
7.0
 41
0.0
 71
     5
 72
     1
  1
\A1;%%c159
 11
0.707106781186547
 21
-0.7071067811865481
 31
0.0
 73
     1
 44
1.0
  0
POINT
  5
1487
330
EC7
100
AcDbEntity
  8
DEFPOINTS
 62
     0
100
AcDbPoint
 10
266.0000288199051
 20
452.418381949541
 30
0.0
  0
POINT
  5
1488
330
EC7
100
AcDbEntity
  8
DEFPOINTS
 62
     0
100
AcDbPoint
 10
266.0000288199053
 20
227.5584255322184
 30
0.0
  0
POINT
  5
1489
330
EC7
100
AcDbEntity
  8
DEFPOINTS
 62
     0
100
AcDbPoint
 10
285.5119856066206
 20
247.0703823189337
 30
0.0
  0
ENDBLK
  5
ED2
330
EC7
100
AcDbEntity
  8
0
100
AcDbBlockEnd
  0
BLOCK
  5
F04
330
EFA
100
AcDbEntity
  8
0
100
AcDbBlockBegin
  2
*D2
 70
     1
 10
0.0
 20
0.0
 30
0.0
  3
*D2
  1

  0
LINE
  5
1478
330
EFA
100
AcDbEntity
  8
BEM
 62
     0
370
    -2
100
AcDbLine
 10
107.0000288199052
 20
128.3792513835999
 30
0.0
 11
107.0000288199052
 21
95.95828315524011
 31
0.0
  0
LINE
  5
1479
330
EFA
100
AcDbEntity
  8
BEM
 62
     0
370
    -2
100
AcDbLine
 10
266.0000288199052
 20
128.3792513835994
 30
0.0
 11
266.0000288199052
 21
95.95828315524011
 31
0.0
  0
LINE
  5
147A
330
EFA
100
AcDbEntity
  8
BEM
 62
     0
370
    -2
100
AcDbLine
 10
114.0000288199052
 20
97.95828315524012
 30
0.0
 11
259.0000288199052
 21
97.95828315524012
 31
0.0
  0
SOLID
  5
147B
330
EFA
100
AcDbEntity
  8
BEM
 62
     0
100
AcDbTrace
 10
114.0000288199052
 20
99.12494982190679
 30
0.0
 11
114.0000288199052
 21
96.79161648857345
 31
0.0
 12
107.0000288199052
 22
97.95828315524012
 32
0.0
 13
107.0000288199052
 23
97.95828315524012
 33
0.0
  0
SOLID
  5
147C
330
EFA
100
AcDbEntity
  8
BEM
 62
     0
100
AcDbTrace
 10
259.0000288199052
 20
99.12494982190679
 30
0.0
 11
259.0000288199052
 21
96.79161648857345
 31
0.0
 12
266.0000288199052
 22
97.95828315524012
 32
0.0
 13
266.0000288199052
 23
97.95828315524012
 33
0.0
  0
MTEXT
  5
147D
330
EFA
100
AcDbEntity
  8
BEM
 62
     1
100
AcDbMText
 10
186.5000288199052
 20
104.4582831552401
 30
0.0
 40
7.0
 41
0.0
 71
     5
 72
     1
  1
\A1;%%C159
 73
     1
 44
1.0
  0
POINT
  5
147E
330
EFA
100
AcDbEntity
  8
DEFPOINTS
 62
     0
100
AcDbPoint
 10
107.0000288199052
 20
130.3792513835999
 30
0.0
  0
POINT
  5
147F
330
EFA
100
AcDbEntity
  8
DEFPOINTS
 62
     0
100
AcDbPoint
 10
266.0000288199052
 20
130.3792513835994
 30
0.0
  0
POINT
  5
1480
330
EFA
100
AcDbEntity
  8
DEFPOINTS
 62
     0
100
AcDbPoint
 10
266.0000288199052
 20
97.95828315524012
 30
0.0
  0
ENDBLK
  5
F05
330
EFA
100
AcDbEntity
  8
0
100
AcDbBlockEnd
  0
BLOCK
  5
FE8
330
FDE
100
AcDbEntity
  8
0
100
AcDbBlockBegin
  2
*D3
 70
     1
 10
0.0
 20
0.0
 30
0.0
  3
*D3
  1

  0
LINE
  5
1493
330
FDE
100
AcDbEntity
  8
BEM
 62
     0
370
    -2
100
AcDbLine
 10
336.7602198220467
 20
565.6049798228754
 30
0.0
 11
348.196484474653
 21
577.0412444754819
 31
0.0
  0
LINE
  5
1494
330
FDE
100
AcDbEntity
  8
BEM
 62
     0
370
    -2
100
AcDbLine
 10
491.6166049019004
 20
410.7485947430216
 30
0.0
 11
503.0528695545073
 21
422.1848593956287
 31
0.0
  0
LINE
  5
1495
330
FDE
100
AcDbEntity
  8
BEM
 62
     0
370
    -2
100
AcDbLine
 10
351.7320183805858
 20
570.6772834448029
 30
0.0
 11
496.6889085238284
 21
425.7203933015614
 31
0.0
  0
SOLID
  5
1496
330
FDE
100
AcDbEntity
  8
BEM
 62
     0
100
AcDbTrace
 10
352.5569762919701
 20
571.5022413561873
 30
0.0
 11
350.9070604692015
 21
569.8523255334187
 31
0.0
 12
346.7822709122799
 22
575.6270309131088
 32
0.0
 13
346.7822709122799
 23
575.6270309131088
 33
0.0
  0
SOLID
  5
1497
330
FDE
100
AcDbEntity
  8
BEM
 62
     0
100
AcDbTrace
 10
497.5138664352127
 20
426.5453512129457
 30
0.0
 11
495.8639506124441
 21
424.8954353901771
 31
0.0
 12
501.6386559921342
 22
420.7706458332556
 32
0.0
 13
501.6386559921342
 23
420.7706458332556
 33
0.0
  0
MTEXT
  5
1498
330
FDE
100
AcDbEntity
  8
BEM
 62
     1
100
AcDbMText
 10
428.8066575299196
 20
502.7950324508947
 30
0.0
 40
7.0
 41
0.0
 71
     5
 72
     1
  1
\A1;%%c219
  7
GREEKS
 11
0.7071067811865504
 21
-0.7071067811865447
 31
0.0
 73
     1
 44
1.0
  0
POINT
  5
1499
330
FDE
100
AcDbEntity
  8
DEFPOINTS
 62
     0
100
AcDbPoint
 10
335.3460062596736
 20
564.1907662605023
 30
0.0
  0
POINT
  5
149A
330
FDE
100
AcDbEntity
  8
DEFPOINTS
 62
     0
100
AcDbPoint
 10
490.2023913395272
 20
409.3343811806485
 30
0.0
  0
POINT
  5
149B
330
FDE
100
AcDbEntity
  8
DEFPOINTS
 62
     0
100
AcDbPoint
 10
501.6386559921342
 20
420.7706458332556
 30
0.0
  0
ENDBLK
  5
FE9
330
FDE
100
AcDbEntity
  8
0
100
AcDbBlockEnd
  0
BLOCK
  5
1034
330
102A
100
AcDbEntity
  8
0
100
AcDbBlockBegin
  2
*D4
 70
     1
 10
0.0
 20
0.0
 30
0.0
  3
*D4
  1

  0
LINE
  5
146F
330
102A
100
AcDbEntity
  8
BEM
 62
     0
370
    -2
100
AcDbLine
 10
77.0000288199052
 20
582.4884037408804
 30
0.0
 11
77.0000288199052
 21
603.7875260774265
 31
0.0
  0
LINE
  5
1470
330
102A
100
AcDbEntity
  8
BEM
 62
     0
370
    -2
100
AcDbLine
 10
296.0000288199051
 20
582.4884037408804
 30
0.0
 11
296.0000288199051
 21
603.7875260774265
 31
0.0
  0
LINE
  5
1471
330
102A
100
AcDbEntity
  8
BEM
 62
     0
370
    -2
100
AcDbLine
 10
84.0000288199052
 20
601.7875260774266
 30
0.0
 11
289.0000288199051
 21
601.7875260774266
 31
0.0
  0
SOLID
  5
1472
330
102A
100
AcDbEntity
  8
BEM
 62
     0
100
AcDbTrace
 10
84.0000288199052
 20
602.9541927440932
 30
0.0
 11
84.0000288199052
 21
600.6208594107599
 31
0.0
 12
77.0000288199052
 22
601.7875260774266
 32
0.0
 13
77.0000288199052
 23
601.7875260774266
 33
0.0
  0
SOLID
  5
1473
330
102A
100
AcDbEntity
  8
BEM
 62
     0
100
AcDbTrace
 10
289.0000288199051
 20
602.9541927440932
 30
0.0
 11
289.0000288199051
 21
600.6208594107599
 31
0.0
 12
296.0000288199051
 22
601.7875260774266
 32
0.0
 13
296.0000288199051
 23
601.7875260774266
 33
0.0
  0
MTEXT
  5
1474
330
102A
100
AcDbEntity
  8
BEM
 62
     1
100
AcDbMText
 10
186.5000288199051
 20
608.2875260774265
 30
0.0
 40
7.0
 41
0.0
 71
     5
 72
     1
  1
\A1;%%c219
  7
GREEKS
 73
     1
 44
1.0
  0
POINT
  5
1475
330
102A
100
AcDbEntity
  8
DEFPOINTS
 62
     0
100
AcDbPoint
 10
77.0000288199052
 20
580.4884037408803
 30
0.0
  0
POINT
  5
1476
330
102A
100
AcDbEntity
  8
DEFPOINTS
 62
     0
100
AcDbPoint
 10
296.0000288199051
 20
580.4884037408804
 30
0.0
  0
POINT
  5
1477
330
102A
100
AcDbEntity
  8
DEFPOINTS
 62
     0
100
AcDbPoint
 10
296.0000288199051
 20
601.7875260774266
 30
0.0
  0
ENDBLK
  5
1035
330
102A
100
AcDbEntity
  8
0
100
AcDbBlockEnd
  0
BLOCK
  5
1108
330
10FE
100
AcDbEntity
  8
0
100
AcDbBlockBegin
  2
*D5
 70
     1
 10
0.0
 20
0.0
 30
0.0
  3
*D5
  1

  0
LINE
  5
145D
330
10FE
100
AcDbEntity
  8
BEM
 62
     0
370
    -2
100
AcDbLine
 10
75.0000288199052
 20
185.4884037408804
 30
0.0
 11
58.4864715191934
 21
185.4884037408804
 31
0.0
  0
LINE
  5
145E
330
10FE
100
AcDbEntity
  8
BEM
 62
     0
370
    -2
100
AcDbLine
 10
105.8653658613052
 20
120.4884037408804
 30
0.0
 11
58.48647151919339
 21
120.4884037408804
 31
0.0
  0
LINE
  5
145F
330
10FE
100
AcDbEntity
  8
BEM
 62
     0
370
    -2
100
AcDbLine
 10
60.4864715191934
 20
178.4884037408804
 30
0.0
 11
60.48647151919339
 21
127.4884037408804
 31
0.0
  0
SOLID
  5
1460
330
10FE
100
AcDbEntity
  8
BEM
 62
     0
100
AcDbTrace
 10
59.31980485252673
 20
178.4884037408804
 30
0.0
 11
61.65313818586007
 21
178.4884037408804
 31
0.0
 12
60.4864715191934
 22
185.4884037408804
 32
0.0
 13
60.4864715191934
 23
185.4884037408804
 33
0.0
  0
SOLID
  5
1461
330
10FE
100
AcDbEntity
  8
BEM
 62
     0
100
AcDbTrace
 10
59.31980485252672
 20
127.4884037408804
 30
0.0
 11
61.65313818586005
 21
127.4884037408804
 31
0.0
 12
60.48647151919339
 22
120.4884037408804
 32
0.0
 13
60.48647151919339
 23
120.4884037408804
 33
0.0
  0
MTEXT
  5
1462
330
10FE
100
AcDbEntity
  8
BEM
 62
     1
100
AcDbMText
 10
53.98647151919337
 20
152.9884037408804
 30
0.0
 40
7.0
 41
0.0
 71
     5
 72
     1
  1
\A1;65
 11
0.0000000000000001
 21
1.0
 31
0.0
 73
     1
 44
1.0
  0
POINT
  5
1463
330
10FE
100
AcDbEntity
  8
DEFPOINTS
 62
     0
100
AcDbPoint
 10
77.0000288199052
 20
185.4884037408804
 30
0.0
  0
POINT
  5
1464
330
10FE
100
AcDbEntity
  8
DEFPOINTS
 62
     0
100
AcDbPoint
 10
107.8653658613052
 20
120.4884037408804
 30
0.0
  0
POINT
  5
1465
330
10FE
100
AcDbEntity
  8
DEFPOINTS
 62
     0
100
AcDbPoint
 10
60.48647151919339
 20
120.4884037408804
 30
0.0
  0
ENDBLK
  5
1109
330
10FE
100
AcDbEntity
  8
0
100
AcDbBlockEnd
  0
BLOCK
  5
1142
330
1138
100
AcDbEntity
  8
0
100
AcDbBlockBegin
  2
*D6
 70
     1
 10
0.0
 20
0.0
 30
0.0
  3
*D6
  1

  0
LINE
  5
149C
330
1138
100
AcDbEntity
  8
BEM
 62
     0
370
    -2
100
AcDbLine
 10
75.0000288199052
 20
580.4884037408806
 30
0.0
 11
26.24678616973789
 21
580.4884037408806
 31
0.0
  0
LINE
  5
149D
330
1138
100
AcDbEntity
  8
BEM
 62
     0
370
    -2
100
AcDbLine
 10
105.8653658613052
 20
120.4884037408804
 30
0.0
 11
26.24678616973779
 21
120.4884037408804
 31
0.0
  0
LINE
  5
149E
330
1138
100
AcDbEntity
  8
BEM
 62
     0
370
    -2
100
AcDbLine
 10
28.24678616973789
 20
573.4884037408805
 30
0.0
 11
28.24678616973779
 21
127.4884037408804
 31
0.0
  0
SOLID
  5
149F
330
1138
100
AcDbEntity
  8
BEM
 62
     0
100
AcDbTrace
 10
27.08011950307122
 20
573.4884037408805
 30
0.0
 11
29.41345283640456
 21
573.4884037408805
 31
0.0
 12
28.24678616973789
 22
580.4884037408806
 32
0.0
 13
28.24678616973789
 23
580.4884037408806
 33
0.0
  0
SOLID
  5
14A0
330
1138
100
AcDbEntity
  8
BEM
 62
     0
100
AcDbTrace
 10
27.08011950307112
 20
127.4884037408804
 30
0.0
 11
29.41345283640446
 21
127.4884037408804
 31
0.0
 12
28.24678616973779
 22
120.4884037408804
 32
0.0
 13
28.24678616973779
 23
120.4884037408804
 33
0.0
  0
MTEXT
  5
14A1
330
1138
100
AcDbEntity
  8
BEM
 62
     1
100
AcDbMText
 10
21.74678616973778
 20
350.4884037408805
 30
0.0
 40
7.0
 41
0.0
 71
     5
 72
     1
  1
\A1;460
 11
0.0000000000000001
 21
1.0
 31
0.0
 73
     1
 44
1.0
  0
POINT
  5
14A2
330
1138
100
AcDbEntity
  8
DEFPOINTS
 62
     0
100
AcDbPoint
 10
77.0000288199052
 20
580.4884037408806
 30
0.0
  0
POINT
  5
14A3
330
1138
100
AcDbEntity
  8
DEFPOINTS
 62
     0
100
AcDbPoint
 10
107.8653658613052
 20
120.4884037408804
 30
0.0
  0
POINT
  5
14A4
330
1138
100
AcDbEntity
  8
DEFPOINTS
 62
     0
100
AcDbPoint
 10
28.24678616973779
 20
120.4884037408804
 30
0.0
  0
ENDBLK
  5
1143
330
1138
100
AcDbEntity
  8
0
100
AcDbBlockEnd
  0
BLOCK
  5
114F
330
1145
100
AcDbEntity
  8
0
100
AcDbBlockBegin
  2
*D7
 70
     1
 10
0.0
 20
0.0
 30
0.0
  3
*D7
  1

  0
LINE
  5
148A
330
1145
100
AcDbEntity
  8
BEM
 62
     0
370
    -2
100
AcDbLine
 10
187.9142423822782
 20
259.0741901785073
 30
0.0
 11
293.1183797489005
 21
153.8700528118851
 31
0.0
  0
LINE
  5
148B
330
1145
100
AcDbEntity
  8
BEM
 62
     0
370
    -2
100
AcDbLine
 10
491.6166049019004
 20
407.9201676182753
 30
0.0
 11
519.3925497285955
 21
380.1442227915803
 31
0.0
  0
LINE
  5
148C
330
1145
100
AcDbEntity
  8
BEM
 62
     0
370
    -2
100
AcDbLine
 10
296.6539136548332
 20
160.2340138425641
 30
0.0
 11
513.0285886979167
 21
376.6086888856476
 31
0.0
  0
SOLID
  5
148D
330
1145
100
AcDbEntity
  8
BEM
 62
     0
100
AcDbTrace
 10
295.8289557434489
 20
161.0589717539484
 30
0.0
 11
297.4788715662175
 21
159.4090559311797
 31
0.0
 12
291.7041661865274
 22
155.2842663742582
 32
0.0
 13
291.7041661865274
 23
155.2842663742582
 33
0.0
  0
SOLID
  5
148E
330
1145
100
AcDbEntity
  8
BEM
 62
     0
100
AcDbTrace
 10
512.2036307865323
 20
377.4336467970319
 30
0.0
 11
513.853546609301
 21
375.7837309742632
 31
0.0
 12
517.9783361662224
 22
381.5584363539534
 32
0.0
 13
517.9783361662224
 23
381.5584363539534
 33
0.0
  0
MTEXT
  5
148F
330
1145
100
AcDbEntity
  8
BEM
 62
     1
100
AcDbMText
 10
400.2450570986623
 20
273.0175454418183
 30
0.0
 40
7.0
 41
0.0
 71
     5
 72
     1
  1
\A1;320
 11
0.7071067811865474
 21
0.7071067811865478
 31
0.0
 73
     1
 44
1.0
  0
POINT
  5
1490
330
1145
100
AcDbEntity
  8
DEFPOINTS
 62
     0
100
AcDbPoint
 10
186.5000288199052
 20
260.4884037408804
 30
0.0
  0
POINT
  5
1491
330
1145
100
AcDbEntity
  8
DEFPOINTS
 62
     0
100
AcDbPoint
 10
490.2023913395274
 20
409.3343811806485
 30
0.0
  0
POINT
  5
1492
330
1145
100
AcDbEntity
  8
DEFPOINTS
 62
     0
100
AcDbPoint
 10
517.9783361662224
 20
381.5584363539534
 30
0.0
  0
ENDBLK
  5
1150
330
1145
100
AcDbEntity
  8
0
100
AcDbBlockEnd
  0
BLOCK
  5
14B0
330
14A6
100
AcDbEntity
  8
0
100
AcDbBlockBegin
  2
*D8
 70
     1
 10
0.0
 20
0.0
 30
0.0
  3
*D8
  1

  0
LINE
  5
14A7
330
14A6
100
AcDbEntity
  8
BEM
 62
     0
370
    -2
100
AcDbLine
 10
184.5000288199052
 20
260.4884037408805
 30
0.0
 11
41.48593175120552
 21
260.4884037408805
 31
0.0
  0
LINE
  5
14A8
330
14A6
100
AcDbEntity
  8
BEM
 62
     0
370
    -2
100
AcDbLine
 10
107.8653658613052
 20
120.4884037408804
 30
0.0
 11
41.4859317512055
 21
120.4884037408804
 31
0.0
  0
LINE
  5
14A9
330
14A6
100
AcDbEntity
  8
BEM
 62
     0
370
    -2
100
AcDbLine
 10
43.48593175120552
 20
253.4884037408805
 30
0.0
 11
43.4859317512055
 21
127.4884037408804
 31
0.0
  0
SOLID
  5
14AA
330
14A6
100
AcDbEntity
  8
BEM
 62
     0
100
AcDbTrace
 10
42.31926508453886
 20
253.4884037408805
 30
0.0
 11
44.65259841787219
 21
253.4884037408805
 31
0.0
 12
43.48593175120552
 22
260.4884037408805
 32
0.0
 13
43.48593175120552
 23
260.4884037408805
 33
0.0
  0
SOLID
  5
14AB
330
14A6
100
AcDbEntity
  8
BEM
 62
     0
100
AcDbTrace
 10
42.31926508453883
 20
127.4884037408804
 30
0.0
 11
44.65259841787216
 21
127.4884037408804
 31
0.0
 12
43.4859317512055
 22
120.4884037408804
 32
0.0
 13
43.4859317512055
 23
120.4884037408804
 33
0.0
  0
MTEXT
  5
14AC
330
14A6
100
AcDbEntity
  8
BEM
 62
     1
100
AcDbMText
 10
36.98593175120548
 20
190.4884037408804
 30
0.0
 40
7.0
 41
0.0
 71
     5
 72
     1
  1
\A1;140
 11
0.0000000000000001
 21
1.0
 31
0.0
 73
     1
 44
1.0
  0
POINT
  5
14AD
330
14A6
100
AcDbEntity
  8
DEFPOINTS
 62
     0
100
AcDbPoint
 10
186.5000288199052
 20
260.4884037408805
 30
0.0
  0
POINT
  5
14AE
330
14A6
100
AcDbEntity
  8
DEFPOINTS
 62
     0
100
AcDbPoint
 10
109.8653658613052
 20
120.4884037408804
 30
0.0
  0
POINT
  5
14AF
330
14A6
100
AcDbEntity
  8
DEFPOINTS
 62
     0
100
AcDbPoint
 10
43.4859317512055
 20
120.4884037408804
 30
0.0
  0
ENDBLK
  5
14B1
330
14A6
100
AcDbEntity
  8
0
100
AcDbBlockEnd
  0
ENDSEC
  0
SECTION
  2
ENTITIES
  0
LINE
  5
59
330
1E
100
AcDbEntity
  8
STEMPEL
100
AcDbLine
 10
484.0
 20
460.0
 30
0.0
 11
584.0
 21
459.9999999999998
 31
0.0
  0
LINE
  5
87
330
1E
100
AcDbEntity
  8
HILF
100
AcDbLine
 10
594.0
 20
-0.0000000000000568
 30
0.0
 11
594.0
 21
840.0
 31
0.0
  0
LINE
  5
88
330
1E
100
AcDbEntity
  8
HILF
100
AcDbLine
 10
594.0
 20
840.0
 30
0.0
 11
0.0
 21
840.0
 31
0.0
  0
LINE
  5
89
330
1E
100
AcDbEntity
  8
HILF
100
AcDbLine
 10
0.0
 20
840.0
 30
0.0
 11
0.0
 21
0.0
 31
0.0
  0
LINE
  5
8B
330
1E
100
AcDbEntity
  8
STEMPEL
100
AcDbLine
 10
10.0
 20
830.0
 30
0.0
 11
10.0
 21
39.99999999999995
 31
0.0
  0
LINE
  5
8D
330
1E
100
AcDbEntity
  8
STEMPEL
100
AcDbLine
 10
584.0
 20
39.99999999999995
 30
0.0
 11
584.0
 21
830.0
 31
0.0
  0
LINE
  5
8E
330
1E
100
AcDbEntity
  8
STEMPEL
100
AcDbLine
 10
584.0
 20
830.0
 30
0.0
 11
10.0
 21
830.0
 31
0.0
  0
LINE
  5
9C
330
1E
100
AcDbEntity
  8
BEM
100
AcDbLine
 10
594.0
 20
455.9999999999999
 30
0.0
 11
584.0
 21
455.9999999999999
 31
0.0
  0
LINE
  5
13E
330
1E
100
AcDbEntity
  8
HILF
100
AcDbLine
 10
594.0
 20
-0.0000000000000568
 30
0.0
 11
0.0
 21
0.0
 31
0.0
  0
LINE
  5
13F
330
1E
100
AcDbEntity
  8
STEMPEL
100
AcDbLine
 10
584.0
 20
39.99999999999995
 30
0.0
 11
10.0
 21
39.99999999999995
 31
0.0
  0
LINE
  5
14A
330
1E
100
AcDbEntity
  8
HILF
100
AcDbLine
 10
297.0
 20
-0.0000000000000568
 30
0.0
 11
297.0
 21
39.99999999999995
 31
0.0
  0
TEXT
  5
15B
330
1E
100
AcDbEntity
  8
BEM
100
AcDbText
 10
583.8320989200114
 20
837.3022923857165
 30
0.0
 40
4.0
  1
Diese Zeichnung ist urheberrechtlich geschützt und bleibt unser Eigentum. Sie darf weder ganz noch teilweise verfielfältigt und nicht an Dritte weitergegeben werden.
 50
180.0
 41
0.8
  7
GREEKS
100
AcDbText
  0
INSERT
  5
2AF
330
1E
100
AcDbEntity
  8
STEMPEL
100
AcDbBlockReference
  2
LOGO
 10
548.9789472355168
 20
560.9955485457795
 30
0.0
 41
2.0
 42
2.0
 43
2.0
 50
90.0
  0
TEXT
  5
2B0
330
1E
100
AcDbEntity
  8
TEXT
100
AcDbText
 10
503.2363615897698
 20
602.626132208084
 30
0.0
 40
4.0
  1
DIN EN1123-2
 50
90.0
 41
0.8
  7
GREEKS
 72
     1
 11
503.2363615897698
 21
619.6166083985602
 31
0.0
100
AcDbText
  0
TEXT
  5
2B1
330
1E
100
AcDbEntity
  8
TEXT
100
AcDbText
 10
551.3702584697737
 20
644.9837501577826
 30
0.0
 40
4.0
  1
58022FF0W.DWG
 50
90.0
 41
0.8
  7
GREEKS
100
AcDbText
  0
TEXT
  5
2B2
330
1E
100
AcDbEntity
  8
TEXT
100
AcDbText
 10
542.3598805695784
 20
645.1296391125315
 30
0.0
 40
5.0
  1
EDV-Art.Nr. 58022.FF0X
 50
90.0
 41
0.8
  7
GREEKS
100
AcDbText
  0
TEXT
  5
2B3
330
1E
100
AcDbEntity
  8
TEXT
100
AcDbText
 10
522.4966558241471
 20
645.1296391125315
 30
0.0
 40
5.0
  1
Einfach-Abzweig 45°
 50
90.0
 41
0.8
  7
GREEKS
100
AcDbText
  0
TEXT
  5
2B4
330
1E
100
AcDbEntity
  8
TEXT
 62
     1
100
AcDbText
 10
506.5825121074622
 20
644.9367181557188
 30
0.0
 40
7.0
  1
Verbundrohr DN150/150
 50
90.0
 41
0.8
  7
GREEKS
100
AcDbText
  0
TEXT
  5
2B5
330
1E
100
AcDbEntity
  8
TEXT
100
AcDbText
 10
530.8923495917427
 20
580.3989971082361
 30
0.0
 40
4.0
  1
24.09.
 50
90.0
 41
0.8
  7
GREEKS
 72
     1
 11
530.8923495917427
 21
587.4085209177599
 31
0.0
100
AcDbText
  0
TEXT
  5
2B6
330
1E
100
AcDbEntity
  8
TEXT
 62
     1
100
AcDbText
 10
505.8509857108604
 20
570.5006306481887
 30
0.0
 40
7.0
  1
1:2
 50
90.0
 41
0.8
  7
GREEKS
100
AcDbText
  0
TEXT
  5
2B7
330
1E
100
AcDbEntity
  8
TEXT
 62
     1
100
AcDbText
 10
505.8509857108604
 20
765.8791900623817
 30
0.0
 40
7.0
  1
58022FF0W
 50
90.0
 41
0.8
  7
GREEKS
 72
     1
 11
505.8509857108604
 21
789.3458567290483
 31
0.0
100
AcDbText
  0
TEXT
  5
2B8
330
1E
100
AcDbEntity
  8
TEXT
100
AcDbText
 10
530.9103608027649
 20
614.4216048581257
 30
0.0
 40
4.0
  1
Koeh
 50
90.0
 41
0.8
  7
GREEKS
 72
     1
 11
530.9103608027649
 21
619.6787477152686
 31
0.0
100
AcDbText
  0
TEXT
  5
2B9
330
1E
100
AcDbEntity
  8
TEXT
100
AcDbText
 10
482.3280000000001
 20
461.8550995097767
 30
0.0
 40
5.0
  1
Erstellt mit AUTOCAD 2004
 50
90.0
 41
0.8
  7
GREEKS
100
AcDbText
  0
TEXT
  5
2BA
330
1E
100
AcDbEntity
  8
TEXT
100
AcDbText
 10
520.8597452884832
 20
558.622109822104
 30
0.0
 40
4.0
  1
2007
 50
90.0
 41
0.8
  7
GREEKS
100
AcDbText
  0
TEXT
  5
2BC
330
1E
100
AcDbEntity
  8
TEXT
100
AcDbText
 10
541.925838221214
 20
757.2400861497006
 30
0.0
 40
5.0
  1
ersetzt durch:
 50
90.0
 41
0.8
  7
GREEKS
100
AcDbText
  0
TEXT
  5
2BE
330
1E
100
AcDbEntity
  8
TEXT
100
AcDbText
 10
550.4705361035019
 20
557.6006777387304
 30
0.0
 40
4.0
  1
Norm.
 50
90.0
 41
0.8
  7
GREEKS
100
AcDbText
  0
TEXT
  5
2BF
330
1E
100
AcDbEntity
  8
TEXT
100
AcDbText
 10
540.3107370857163
 20
557.5515086571672
 30
0.0
 40
4.0
  1
Gepr.
 50
90.0
 41
0.8
  7
GREEKS
100
AcDbText
  0
TEXT
  5
2C0
330
1E
100
AcDbEntity
  8
TEXT
100
AcDbText
 10
530.3700963038203
 20
557.5836127167615
 30
0.0
 40
4.0
  1
Gez.
 50
90.0
 41
0.8
  7
GREEKS
100
AcDbText
  0
TEXT
  5
2C1
330
1E
100
AcDbEntity
  8
TEXT
100
AcDbText
 10
520.6903890808478
 20
612.4626584226295
 30
0.0
 40
4.0
  1
Name
 50
90.0
 41
0.8
  7
GREEKS
100
AcDbText
  0
TEXT
  5
2C2
330
1E
100
AcDbEntity
  8
TEXT
100
AcDbText
 10
520.6811949877008
 20
582.331167315365
 30
0.0
 40
4.0
  1
Tag
 50
90.0
 41
0.8
  7
GREEKS
100
AcDbText
  0
TEXT
  5
2C3
330
1E
100
AcDbEntity
  8
TEXT
100
AcDbText
 10
575.4067578303359
 20
539.0122744386594
 30
0.0
 40
4.0
  1
Name
 50
90.0
 41
0.8
  7
GREEKS
 72
     1
 11
575.4067578303359
 21
545.3360839624687
 31
0.0
100
AcDbText
  0
TEXT
  5
2C4
330
1E
100
AcDbEntity
  8
TEXT
100
AcDbText
 10
575.3284373066019
 20
520.0934676075481
 30
0.0
 40
4.0
  1
Tag
 50
90.0
 41
0.8
  7
GREEKS
 72
     1
 11
575.3284373066019
 21
523.8268009408813
 31
0.0
100
AcDbText
  0
TEXT
  5
2C5
330
1E
100
AcDbEntity
  8
TEXT
100
AcDbText
 10
580.3453415397281
 20
468.2664110704576
 30
0.0
 40
4.0
  1
Index
 50
180.0
 41
0.8
  7
GREEKS
100
AcDbText
  0
TEXT
  5
2C6
330
1E
100
AcDbEntity
  8
TEXT
100
AcDbText
 10
520.8188176290002
 20
756.7238616296992
 30
0.0
 40
5.0
  1
Ersatz für:
 50
90.0
 41
0.8
  7
GREEKS
100
AcDbText
  0
TEXT
  5
2C7
330
1E
100
AcDbEntity
  8
TEXT
100
AcDbText
 10
563.1543942980694
 20
644.742238391136
 30
0.0
 40
5.0
  1
Bauvorhaben
 50
90.0
 41
0.8
  7
GREEKS
100
AcDbText
  0
TEXT
  5
2C8
330
1E
100
AcDbEntity
  8
TEXT
100
AcDbText
 10
491.6867965462863
 20
756.178754957634
 30
0.0
 40
5.0
  1
Zeichnungs Nr.
 50
90.0
 41
0.8
  7
GREEKS
100
AcDbText
  0
TEXT
  5
2C9
330
1E
100
AcDbEntity
  8
TEXT
100
AcDbText
 10
491.4510671988221
 20
644.877940380901
 30
0.0
 40
5.0
  1
Benennung
 50
90.0
 41
0.8
  7
GREEKS
100
AcDbText
  0
TEXT
  5
2CA
330
1E
100
AcDbEntity
  8
TEXT
100
AcDbText
 10
491.581583156518
 20
604.2858954734051
 30
0.0
 40
5.0
  1
Zul. Abw.
 50
90.0
 41
0.8
  7
GREEKS
100
AcDbText
  0
TEXT
  5
2CB
330
1E
100
AcDbEntity
  8
TEXT
100
AcDbText
 10
491.537910491291
 20
563.5163572150377
 30
0.0
 40
5.0
  1
Maßstab
 50
90.0
 41
0.8
  7
GREEKS
100
AcDbText
  0
TEXT
  5
2CC
330
1E
100
AcDbEntity
  8
TEXT
100
AcDbText
 10
575.3261810501586
 20
483.8616597963182
 30
0.0
 40
4.0
  1
Änderung
 50
90.0
 41
0.8
  7
GREEKS
 72
     1
 11
575.3261810501586
 21
494.6045169391753
 31
0.0
100
AcDbText
  0
LINE
  5
2CD
330
1E
100
AcDbEntity
  8
HILF
100
AcDbLine
 10
579.1060174197168
 20
643.4909699289885
 30
0.0
 11
579.1060174197168
 21
824.8588839326728
 31
0.0
  0
LINE
  5
2CE
330
1E
100
AcDbEntity
  8
HILF
100
AcDbLine
 10
510.2201636304418
 20
756.7238616296992
 30
0.0
 11
510.2201636304418
 21
824.8588839326728
 31
0.0
  0
LINE
  5
2CF
330
1E
100
AcDbEntity
  8
VOLL
100
AcDbLine
 10
534.0
 20
752.0
 30
0.0
 11
534.0
 21
830.0
 31
0.0
  0
LINE
  5
2D0
330
1E
100
AcDbEntity
  8
HILF
100
AcDbLine
 10
544.0
 20
644.7736801096947
 30
0.0
 11
544.0
 21
744.8353916556309
 31
0.0
  0
LINE
  5
2D1
330
1E
100
AcDbEntity
  8
HILF
100
AcDbLine
 10
534.0
 20
644.7736801096947
 30
0.0
 11
534.0
 21
744.8353916556309
 31
0.0
  0
LINE
  5
2D2
330
1E
100
AcDbEntity
  8
HILF
100
AcDbLine
 10
524.0000000000001
 20
644.7736801096947
 30
0.0
 11
524.0000000000001
 21
744.8353916556309
 31
0.0
  0
LINE
  5
2D3
330
1E
100
AcDbEntity
  8
HILF
100
AcDbLine
 10
509.9624175243587
 20
644.7736801096947
 30
0.0
 11
509.9624175243588
 21
744.835391655631
 31
0.0
  0
LINE
  5
2D4
330
1E
100
AcDbEntity
  8
HILF
100
AcDbLine
 10
544.0
 20
556.0000000000001
 30
0.0
 11
544.0
 21
640.0
 31
0.0
  0
LINE
  5
2D5
330
1E
100
AcDbEntity
  8
HILF
100
AcDbLine
 10
534.0
 20
556.0000000000001
 30
0.0
 11
534.0
 21
640.0
 31
0.0
  0
LINE
  5
2D6
330
1E
100
AcDbEntity
  8
HILF
100
AcDbLine
 10
524.0000000000001
 20
556.0000000000001
 30
0.0
 11
524.0000000000001
 21
640.0
 31
0.0
  0
LINE
  5
2D7
330
1E
100
AcDbEntity
  8
HILF
100
AcDbLine
 10
554.0
 20
460.0000000000001
 30
0.0
 11
554.0
 21
556.0000000000001
 31
0.0
  0
LINE
  5
2D8
330
1E
100
AcDbEntity
  8
HILF
100
AcDbLine
 10
544.0
 20
460.0000000000001
 30
0.0
 11
544.0
 21
556.0000000000001
 31
0.0
  0
LINE
  5
2D9
330
1E
100
AcDbEntity
  8
HILF
100
AcDbLine
 10
534.0
 20
460.0000000000001
 30
0.0
 11
534.0
 21
556.0000000000001
 31
0.0
  0
LINE
  5
2DA
330
1E
100
AcDbEntity
  8
HILF
100
AcDbLine
 10
524.0000000000001
 20
460.0000000000001
 30
0.0
 11
524.0000000000001
 21
556.0000000000001
 31
0.0
  0
LINE
  5
2DB
330
1E
100
AcDbEntity
  8
HILF
100
AcDbLine
 10
514.0
 20
460.0000000000001
 30
0.0
 11
514.0
 21
556.0000000000001
 31
0.0
  0
LINE
  5
2DC
330
1E
100
AcDbEntity
  8
HILF
100
AcDbLine
 10
504.0
 20
460.0000000000001
 30
0.0
 11
504.0
 21
556.0000000000001
 31
0.0
  0
LINE
  5
2DD
330
1E
100
AcDbEntity
  8
HILF
100
AcDbLine
 10
494.0
 20
460.0000000000001
 30
0.0
 11
494.0
 21
556.0000000000001
 31
0.0
  0
LINE
  5
2DE
330
1E
100
AcDbEntity
  8
VOLL
100
AcDbLine
 10
484.0000000000002
 20
600.0
 30
0.0
 11
554.0
 21
600.0
 31
0.0
  0
LINE
  5
2DF
330
1E
100
AcDbEntity
  8
VOLL
100
AcDbLine
 10
514.0
 20
574.0000000000001
 30
0.0
 11
554.0
 21
574.0000000000001
 31
0.0
  0
LINE
  5
2E0
330
1E
100
AcDbEntity
  8
VOLL
100
AcDbLine
 10
484.0
 20
534.0000000000001
 30
0.0
 11
584.0
 21
534.0
 31
0.0
  0
LINE
  5
2E1
330
1E
100
AcDbEntity
  8
VOLL
100
AcDbLine
 10
484.0
 20
514.0000000000001
 30
0.0
 11
584.0
 21
514.0
 31
0.0
  0
LINE
  5
2E2
330
1E
100
AcDbEntity
  8
VOLL
100
AcDbLine
 10
484.0
 20
474.0000000000001
 30
0.0
 11
584.0
 21
474.0
 31
0.0
  0
LINE
  5
2E3
330
1E
100
AcDbEntity
  8
STEMPEL
100
AcDbLine
 10
514.0000000000001
 20
830.0
 30
0.0
 11
514.0
 21
556.0000000000001
 31
0.0
  0
LINE
  5
2E4
330
1E
100
AcDbEntity
  8
STEMPEL
100
AcDbLine
 10
554.0
 20
830.0
 30
0.0
 11
554.0
 21
556.0000000000001
 31
0.0
  0
LINE
  5
2E5
330
1E
100
AcDbEntity
  8
STEMPEL
100
AcDbLine
 10
564.0
 20
555.9999999999998
 30
0.0
 11
564.0
 21
460.0
 31
0.0
  0
LINE
  5
2E6
330
1E
100
AcDbEntity
  8
STEMPEL
100
AcDbLine
 10
484.0000000000003
 20
752.0
 30
0.0
 11
554.0
 21
752.0
 31
0.0
  0
LINE
  5
2E7
330
1E
100
AcDbEntity
  8
STEMPEL
100
AcDbLine
 10
484.0
 20
640.0
 30
0.0
 11
584.0
 21
640.0
 31
0.0
  0
LINE
  5
2E8
330
1E
100
AcDbEntity
  8
STEMPEL
100
AcDbLine
 10
484.0
 20
556.0000000000001
 30
0.0
 11
584.0
 21
556.0
 31
0.0
  0
LINE
  5
2E9
330
1E
100
AcDbEntity
  8
STEMPEL
100
AcDbLine
 10
484.0000000000001
 20
830.0
 30
0.0
 11
484.0
 21
460.0
 31
0.0
  0
TEXT
  5
865
330
1E
100
AcDbEntity
  8
TEXT
 62
     1
100
AcDbText
 10
448.0638729767433
 20
107.784882288665
 30
0.0
 40
7.0
  1
Rohrende leicht eingezogen
 41
0.8
  7
GREEKS
100
AcDbText
  0
LINE
  5
E45
330
1E
100
AcDbEntity
  8
MITTEL
100
AcDbLine
 10
227.02705219018
 20
301.0154271111553
 30
0.0
 11
186.5000288199052
 21
260.4884037408805
 31
0.0
  0
DIMENSION
  5
E46
330
1E
100
AcDbEntity
  8
BEM
100
AcDbDimension
  2
*D1
 10
285.5119856066206
 20
247.0703823189337
 30
0.0
 11
233.8931905800025
 21
307.8815655009771
 31
0.0
 70
    32
  1
%%c<>
 71
     5
 42
159.0000000000007
  3
Standard
100
AcDbAlignedDimension
 13
266.0000288199051
 23
452.418381949541
 33
0.0
 14
266.0000288199053
 24
227.5584255322184
 34
0.0
 50
314.9999999999999
100
AcDbRotatedDimension
1001
ACAD
1000
DSTYLE
1002
{
1070
    40
1040
2.0
1070
    41
1040
3.5
1070
    42
1040
1.0
1070
    43
1040
7.0
1070
    44
1040
1.0
1070
    73
1070
     0
1070
    74
1070
     0
1070
    77
1070
     1
1070
    78
1070
     8
1070
    79
1070
     2
1070
   140
1040
3.5
1070
   141
1040
1.5
1070
   146
1040
0.5142857142857144
1070
   147
1040
1.5
1070
   172
1070
     1
1070
   178
1070
     1
1070
   179
1070
     2
1070
   271
1070
     2
1070
   272
1070
     2
1070
   284
1070
     8
1070
   285
1070
     8
1070
   286
1070
     8
1002
}
  0
HATCH
  5
E47
330
1E
100
AcDbEntity
  8
SCHRAFF
100
AcDbHatch
 10
0.0
 20
0.0
 30
0.0
210
0.0
220
0.0
230
1.0
  2
_USER
 70
     0
 71
     1
 91
        1
 92
        7
 72
     1
 73
     1
 93
        3
 10
268.2961294140957
 20
229.8545261264089
 42
0.0
 10
266.0000288199054
 20
227.5584255322185
 42
0.0
 10
266.0000288199054
 20
224.3112489313412
 42
0.3944793082501576
 97
        3
330
E8D
330
E8A
330
E48
 75
     0
 76
     0
 52
0.0
 41
0.1
 77
     0
 78
     1
 53
0.0
 43
26.8764537041111
 44
-91.00832814274827
 45
0.0
 46
0.1
 79
     0
 47
0.0962752643560195
 98
        1
 10
267.8842185783578
 20
226.903499163926
  0
ARC
  5
E48
102
{ACAD_REACTORS
330
E47
330
134D
102
}
330
1E
100
AcDbEntity
  8
SCHRAFF
100
AcDbCircle
 10
264.1817219611892
 20
228.3115928936545
 30
0.0
 40
4.394199773482192
100
AcDbArc
 50
294.443583171366
 51
20.55641682863598
  0
HATCH
  5
E49
330
1E
100
AcDbEntity
  8
SCHRAFF
100
AcDbHatch
 10
0.0
 20
0.0
 30
0.0
210
0.0
220
0.0
230
1.0
  2
_USER
 70
     0
 71
     0
 91
        2
 92
        7
 72
     1
 73
     1
 93
        4
 10
266.0000288199051
 20
454.0100694448307
 42
0.0611389277029277
 10
267.1255218413541
 20
453.5438749709901
 42
0.0
 10
271.5433060149728
 20
457.9616591446089
 42
0.2221532603436452
 10
266.0000288199051
 20
460.2577597387996
 42
0.0
 97
        0
 92
        7
 72
     1
 73
     1
 93
        3
 10
266.0000288199051
 20
452.4183819495411
 42
0.0
 10
267.125521841354
 20
453.5438749709901
 42
-0.0611389277029251
 10
266.0000288199051
 20
454.0100694448307
 42
0.0
 97
        0
 75
     0
 76
     0
 52
0.0
 41
0.1
 77
     0
 78
     1
 53
0.0
 43
26.8764537041111
 44
-91.00832814274827
 45
0.0
 46
0.1
 79
     0
 47
0.1161942855125678
 98
        2
 10
267.8543191400627
 20
457.668672092509
 10
266.1101080209578
 20
453.3694828865127
  0
ARC
  5
E4A
102
{ACAD_REACTORS
330
134D
102
}
330
1E
100
AcDbEntity
  8
SCHRAFF
100
AcDbCircle
 10
266.3152739448879
 20
453.1794510057468
 30
0.0
 40
7.085325257829441
100
AcDbArc
 50
42.44991526087726
 51
92.55008473911997
  0
LINE
  5
E5A
102
{ACAD_REACTORS
330
1277
330
12E1
102
}
330
1E
100
AcDbEntity
  8
STEMPEL
100
AcDbLine
 10
186.5000288199052
 20
260.4884037408805
 30
0.0
 11
266.0000288199051
 21
452.4183819495411
 31
0.0
  0
LINE
  5
E5B
102
{ACAD_REACTORS
330
1277
330
12E1
102
}
330
1E
100
AcDbEntity
  8
STEMPEL
100
AcDbLine
 10
266.0000288199053
 20
227.5584255322185
 30
0.0
 11
186.5000288199052
 21
260.4884037408805
 31
0.0
  0
LINE
  5
E8A
102
{ACAD_REACTORS
330
E47
330
1277
330
134D
102
}
330
1E
100
AcDbEntity
  8
STEMPEL
  6
Continuous
100
AcDbLine
 10
266.0000288199053
 20
227.5584255322185
 30
0.0
 11
266.0000288199052
 21
130.3792513835994
 31
0.0
  0
LINE
  5
E8B
330
1E
100
AcDbEntity
  8
MITTEL
100
AcDbLine
 10
416.3097327055332
 20
490.2981076265083
 30
0.0
 11
239.1477199784071
 21
313.1360948993822
 31
0.0
  0
LINE
  5
E8C
102
{ACAD_REACTORS
330
12E1
330
134D
102
}
330
1E
100
AcDbEntity
  8
STEMPEL
  6
Continuous
100
AcDbLine
 10
294.6677456028665
 20
481.0860987325026
 30
0.0
 11
266.0000288199051
 21
452.4183819495411
 31
0.0
  0
LINE
  5
E8D
102
{ACAD_REACTORS
330
E47
330
12E1
330
134D
102
}
330
1E
100
AcDbEntity
  8
STEMPEL
  6
Continuous
100
AcDbLine
 10
407.0977238115274
 20
368.6561205238414
 30
0.0
 11
266.0000288199053
 21
227.5584255322185
 31
0.0
  0
TEXT
  5
E8E
330
1E
100
AcDbEntity
  8
VOLL
100
AcDbText
 10
380.0991738186507
 20
468.0497827332586
 30
0.0
 40
7.0
  1
DN150
 50
45.0
 41
0.8
  7
GREEKS
100
AcDbText
  0
LINE
  5
E8F
102
{ACAD_REACTORS
330
12E1
330
1304
330
13C4
102
}
330
1E
100
AcDbEntity
  8
STEMPEL
100
AcDbLine
 10
335.3460062596737
 20
564.1907662605023
 30
0.0
 11
490.2023913395273
 21
409.3343811806484
 31
0.0
  0
LINE
  5
E90
102
{ACAD_REACTORS
330
12E1
330
134D
102
}
330
1E
100
AcDbEntity
  8
STEMPEL
  6
Continuous
100
AcDbLine
 10
432.5731886728236
 20
387.0605175732722
 30
0.0
 11
421.9248475080964
 21
376.4121764085449
 31
0.0
  0
LINE
  5
E91
102
{ACAD_REACTORS
330
12E1
330
134D
102
}
330
1E
100
AcDbEntity
  8
STEMPEL
  6
Continuous
100
AcDbLine
 10
313.0721426522971
 20
506.5615635937986
 30
0.0
 11
302.4238014875698
 21
495.9132224290711
 31
0.0
  0
LINE
  5
E92
330
1E
100
AcDbEntity
  8
HILF
  6
Continuous
100
AcDbLine
 10
300.5102993087346
 20
480.5257591186878
 30
0.0
 11
406.5373841977124
 21
374.4986742297097
 31
0.0
  0
LINE
  5
E93
330
1E
100
AcDbEntity
  8
HILF
  6
Continuous
100
AcDbLine
 10
303.2875393479642
 20
488.499539094531
 30
0.0
 11
414.511164173556
 21
377.2759142689394
 31
0.0
  0
ARC
  5
E94
102
{ACAD_REACTORS
330
12E1
330
134D
102
}
330
1E
100
AcDbEntity
  8
STEMPEL
  6
Continuous
100
AcDbCircle
 10
287.5966777910011
 20
488.1571665443682
 30
0.0
 40
10.0
100
AcDbArc
 50
315.0
 51
349.77194403195
  0
ARC
  5
E95
102
{ACAD_REACTORS
330
12E1
330
134D
102
}
330
1E
100
AcDbEntity
  8
STEMPEL
  6
Continuous
100
AcDbCircle
 10
315.1517235489279
 20
483.1853003677137
 30
0.0
 40
18.0
100
AcDbArc
 50
135.0
 51
169.77194403195
  0
ARC
  5
E96
102
{ACAD_REACTORS
330
12E1
330
134D
102
}
330
1E
100
AcDbEntity
  8
STEMPEL
  6
Continuous
100
AcDbCircle
 10
414.1687916233929
 20
361.5850527119763
 30
0.0
 40
10.0
100
AcDbArc
 50
100.2280559680518
 51
135.0
  0
ARC
  5
E97
102
{ACAD_REACTORS
330
12E1
330
134D
102
}
330
1E
100
AcDbEntity
  8
STEMPEL
  6
Continuous
100
AcDbCircle
 10
409.1969254467385
 20
389.140098469903
 30
0.0
 40
18.0
100
AcDbArc
 50
280.2280559680518
 51
315.0
  0
LINE
  5
E98
330
1E
100
AcDbEntity
  8
HILF
  6
Continuous
100
AcDbLine
 10
319.7208478749653
 20
506.8981049776076
 30
0.0
 11
432.9097300566323
 21
393.7092227959404
 31
0.0
  0
ARC
  5
E99
102
{ACAD_REACTORS
330
12E1
330
13C4
102
}
330
1E
100
AcDbEntity
  8
STEMPEL
  6
Continuous
100
AcDbCircle
 10
362.3694324230721
 20
514.8466600557538
 30
0.0
 40
35.0
100
AcDbArc
 50
110.0000000000104
 51
135.0
  0
ARC
  5
E9A
102
{ACAD_REACTORS
330
12E1
330
134D
102
}
330
1E
100
AcDbEntity
  8
STEMPEL
  6
Continuous
100
AcDbCircle
 10
350.8988199118716
 20
503.3760475445534
 30
0.0
 40
35.00004740563918
100
AcDbArc
 50
134.9056985509105
 51
162.5271836205502
  0
LINE
  5
E9B
102
{ACAD_REACTORS
330
12E1
330
134D
330
13C4
102
}
330
1E
100
AcDbEntity
  8
STEMPEL
  6
Continuous
100
AcDbLine
 10
337.6206950815429
 20
539.5953973972829
 30
0.0
 11
326.1908158306572
 21
528.1655181463974
 31
0.0
  0
ARC
  5
E9C
102
{ACAD_REACTORS
330
12E1
330
134D
102
}
330
1E
100
AcDbEntity
  8
STEMPEL
  6
Continuous
100
AcDbCircle
 10
300.3442205909392
 20
519.2894856551567
 30
0.0
 40
18.0
100
AcDbArc
 50
315.0
 51
342.5271836205503
  0
LINE
  5
E9D
102
{ACAD_REACTORS
330
12E1
330
13C4
102
}
330
1E
100
AcDbEntity
  8
STEMPEL
  6
Continuous
100
AcDbLine
 10
351.4267141581555
 20
548.1100583620198
 30
0.0
 11
350.3987274066732
 21
547.7359017832604
 31
0.0
  0
ARC
  5
E9E
102
{ACAD_REACTORS
330
12E1
330
13C4
102
}
330
1E
100
AcDbEntity
  8
STEMPEL
  6
Continuous
100
AcDbCircle
 10
440.8582851347786
 20
436.3578073440472
 30
0.0
 40
35.0
100
AcDbArc
 50
315.0
 51
339.9999999999902
  0
ARC
  5
E9F
102
{ACAD_REACTORS
330
12E1
330
134D
102
}
330
1E
100
AcDbEntity
  8
STEMPEL
  6
Continuous
100
AcDbCircle
 10
429.3876726235781
 20
424.8871948328467
 30
0.0
 40
35.00004740563918
100
AcDbArc
 50
287.4728163794487
 51
315.0943014490942
  0
ARC
  5
EA0
102
{ACAD_REACTORS
330
12E1
330
134D
102
}
330
1E
100
AcDbEntity
  8
STEMPEL
  6
Continuous
100
AcDbCircle
 10
445.3011107341815
 20
374.3325955119145
 30
0.0
 40
18.0
100
AcDbArc
 50
107.4728163794487
 51
135.0
  0
LINE
  5
EA1
102
{ACAD_REACTORS
330
12E1
330
134D
330
13C4
102
}
330
1E
100
AcDbEntity
  8
STEMPEL
  6
Continuous
100
AcDbLine
 10
465.6070224763079
 20
411.609070002518
 30
0.0
 11
454.1771432254223
 21
400.1791907516324
 31
0.0
  0
LINE
  5
EA2
102
{ACAD_REACTORS
330
12E1
330
13C4
102
}
330
1E
100
AcDbEntity
  8
STEMPEL
  6
Continuous
100
AcDbLine
 10
474.1216834410449
 20
425.4150890791307
 30
0.0
 11
473.7475268622857
 21
424.3871023276486
 31
0.0
  0
DIMENSION
  5
EA6
330
1E
100
AcDbEntity
  8
BEM
100
AcDbDimension
  2
*D2
 10
266.0000288199052
 20
97.95828315524012
 30
0.0
 11
186.5000288199052
 21
104.4582831552401
 31
0.0
 70
    32
  1
%%C<>
 71
     5
 42
159.0
  3
Standard
100
AcDbAlignedDimension
 13
107.0000288199052
 23
130.3792513835999
 33
0.0
 14
266.0000288199052
 24
130.3792513835994
 34
0.0
100
AcDbRotatedDimension
1001
ACAD
1000
DSTYLE
1002
{
1070
    40
1040
2.0
1070
    41
1040
3.5
1070
    42
1040
1.0
1070
    43
1040
7.0
1070
    44
1040
1.0
1070
    73
1070
     0
1070
    74
1070
     0
1070
    77
1070
     1
1070
    78
1070
     8
1070
    79
1070
     2
1070
   140
1040
3.5
1070
   141
1040
1.5
1070
   146
1040
0.5142857142857144
1070
   147
1040
1.5
1070
   172
1070
     1
1070
   178
1070
     1
1070
   179
1070
     2
1070
   271
1070
     2
1070
   272
1070
     2
1070
   284
1070
     8
1070
   285
1070
     8
1070
   286
1070
     8
1002
}
  0
LINE
  5
EA7
102
{ACAD_REACTORS
330
1277
102
}
330
1E
100
AcDbEntity
  8
STEMPEL
100
AcDbLine
 10
266.0000288199052
 20
130.3792513835994
 30
0.0
 11
265.1346917785053
 21
120.4884037408805
 31
0.0
  0
LINE
  5
EA8
102
{ACAD_REACTORS
330
1277
102
}
330
1E
100
AcDbEntity
  8
STEMPEL
100
AcDbLine
 10
107.0000288199052
 20
130.3792513835999
 30
0.0
 11
107.8653658613052
 21
120.4884037408804
 31
0.0
  0
LINE
  5
EA9
330
1E
100
AcDbEntity
  8
HILF
100
AcDbLine
 10
260.9904792260477
 20
130.4884037408803
 30
0.0
 11
112.0095784137627
 21
130.4884037408804
 31
0.0
  0
LINE
  5
EAA
102
{ACAD_REACTORS
330
1277
330
1374
102
}
330
1E
100
AcDbEntity
  8
STEMPEL
  6
Continuous
100
AcDbLine
 10
273.2584736173113
 20
580.4884037408802
 30
0.0
 11
273.7208013661879
 21
579.4969386838706
 31
0.0
  0
LINE
  5
EAB
102
{ACAD_REACTORS
330
1277
330
134D
330
1374
102
}
330
1E
100
AcDbEntity
  8
STEMPEL
  6
Continuous
100
AcDbLine
 10
277.0000288199051
 20
564.7052995229464
 30
0.0
 11
277.0000288199051
 21
548.5410092700573
 31
0.0
  0
ARC
  5
EAC
102
{ACAD_REACTORS
330
1277
330
134D
102
}
330
1E
100
AcDbEntity
  8
STEMPEL
  6
Continuous
100
AcDbCircle
 10
289.0000288199051
 20
523.9884037408802
 30
0.0
 40
18.0
100
AcDbArc
 50
152.472816379448
 51
180.0
  0
ARC
  5
EAD
102
{ACAD_REACTORS
330
1277
330
134D
102
}
330
1E
100
AcDbEntity
  8
STEMPEL
  6
Continuous
100
AcDbCircle
 10
242.0000288199051
 20
548.4834037408802
 30
0.0
 40
35.00004740563918
100
AcDbArc
 50
332.472816379448
 51
0.0943014490918197
  0
ARC
  5
EAE
102
{ACAD_REACTORS
330
1277
330
1374
102
}
330
1E
100
AcDbEntity
  8
STEMPEL
  6
Continuous
100
AcDbCircle
 10
242.0000288199051
 20
564.7052995229464
 30
0.0
 40
35.0
100
AcDbArc
 50
0.0
 51
24.99999999998774
  0
LINE
  5
EAF
102
{ACAD_REACTORS
330
1277
330
1374
102
}
330
1E
100
AcDbEntity
  8
STEMPEL
  6
Continuous
100
AcDbLine
 10
99.74158402249896
 20
580.4884037408802
 30
0.0
 11
99.27925627362231
 21
579.4969386838706
 31
0.0
  0
ARC
  5
EB0
102
{ACAD_REACTORS
330
1277
330
134D
102
}
330
1E
100
AcDbEntity
  8
STEMPEL
  6
Continuous
100
AcDbCircle
 10
84.0000288199052
 20
523.9884037408802
 30
0.0
 40
18.0
100
AcDbArc
 50
0.0
 51
27.52718362055197
  0
LINE
  5
EB1
102
{ACAD_REACTORS
330
1277
330
134D
330
1374
102
}
330
1E
100
AcDbEntity
  8
STEMPEL
  6
Continuous
100
AcDbLine
 10
96.00002881990519
 20
564.7052995229464
 30
0.0
 11
96.00002881990519
 21
548.5410092700573
 31
0.0
  0
ARC
  5
EB2
102
{ACAD_REACTORS
330
1277
330
134D
102
}
330
1E
100
AcDbEntity
  8
STEMPEL
  6
Continuous
100
AcDbCircle
 10
131.0000288199052
 20
548.4834037408802
 30
0.0
 40
35.00004740563918
100
AcDbArc
 50
179.9056985509081
 51
207.527183620552
  0
ARC
  5
EB3
102
{ACAD_REACTORS
330
1277
330
1374
102
}
330
1E
100
AcDbEntity
  8
STEMPEL
  6
Continuous
100
AcDbCircle
 10
131.0000288199052
 20
564.7052995229464
 30
0.0
 40
35.0
100
AcDbArc
 50
155.0000000000065
 51
180.0
  0
LINE
  5
EB4
330
1E
100
AcDbEntity
  8
HILF
  6
Continuous
100
AcDbLine
 10
106.4634026743231
 20
528.9277189845806
 30
0.0
 11
266.5366549654871
 21
528.9277189845805
 31
0.0
  0
LINE
  5
EB5
102
{ACAD_REACTORS
330
1277
330
134D
102
}
330
1E
100
AcDbEntity
  8
STEMPEL
  6
Continuous
100
AcDbLine
 10
266.0000288199051
 20
492.960655826276
 30
0.0
 11
266.0000288199051
 21
452.4183819495411
 31
0.0
  0
ARC
  5
EB7
102
{ACAD_REACTORS
330
1277
330
134D
102
}
330
1E
100
AcDbEntity
  8
STEMPEL
  6
Continuous
100
AcDbCircle
 10
253.0000288199051
 20
508.9293752489473
 30
0.0
 40
18.0
100
AcDbArc
 50
325.228055968051
 51
0.0
  0
ARC
  5
EB8
102
{ACAD_REACTORS
330
1277
330
134D
102
}
330
1E
100
AcDbEntity
  8
STEMPEL
  6
Continuous
100
AcDbCircle
 10
276.0000288199051
 20
492.960655826276
 30
0.0
 40
10.0
100
AcDbArc
 50
145.2280559680509
 51
180.0
  0
LINE
  5
EB9
102
{ACAD_REACTORS
330
1277
330
134D
102
}
330
1E
100
AcDbEntity
  8
STEMPEL
  6
Continuous
100
AcDbLine
 10
107.0000288199052
 20
492.960655826276
 30
0.0
 11
107.0000288199052
 21
130.3792513835999
 31
0.0
  0
ARC
  5
EBA
102
{ACAD_REACTORS
330
1277
330
134D
102
}
330
1E
100
AcDbEntity
  8
STEMPEL
  6
Continuous
100
AcDbCircle
 10
120.0000288199052
 20
508.9293752489473
 30
0.0
 40
18.0
100
AcDbArc
 50
180.0
 51
214.7719440319491
  0
ARC
  5
EBB
102
{ACAD_REACTORS
330
1277
330
134D
102
}
330
1E
100
AcDbEntity
  8
STEMPEL
  6
Continuous
100
AcDbCircle
 10
97.00002881990521
 20
492.960655826276
 30
0.0
 40
10.0
100
AcDbArc
 50
0.0
 51
34.77194403194904
  0
LINE
  5
EBC
330
1E
100
AcDbEntity
  8
HILF
  6
Continuous
100
AcDbLine
 10
107.8530494775807
 20
504.2978643877765
 30
0.0
 11
265.1470081622296
 21
504.2978643877764
 31
0.0
  0
LINE
  5
EBD
330
1E
100
AcDbEntity
  8
HILF
  6
Continuous
100
AcDbLine
 10
111.527558105467
 20
496.695745230446
 30
0.0
 11
261.4724995343432
 21
496.695745230446
 31
0.0
  0
LINE
  5
EBE
102
{ACAD_REACTORS
330
1277
330
134D
102
}
330
1E
100
AcDbEntity
  8
STEMPEL
  6
Continuous
100
AcDbLine
 10
102.0000288199052
 20
523.9884037408802
 30
0.0
 11
102.0000288199052
 21
508.9293752489473
 31
0.0
  0
LINE
  5
EBF
102
{ACAD_REACTORS
330
1277
330
134D
102
}
330
1E
100
AcDbEntity
  8
STEMPEL
  6
Continuous
100
AcDbLine
 10
271.0000288199051
 20
523.9884037408802
 30
0.0
 11
271.0000288199051
 21
508.9293752489473
 31
0.0
  0
LINE
  5
EC0
102
{ACAD_REACTORS
330
1277
330
129E
330
1374
102
}
330
1E
100
AcDbEntity
  8
STEMPEL
100
AcDbLine
 10
77.0000288199052
 20
580.4884037408806
 30
0.0
 11
296.0000288199052
 21
580.4884037408804
 31
0.0
  0
TEXT
  5
EC1
330
1E
100
AcDbEntity
  8
VOLL
100
AcDbText
 10
176.627238482494
 20
544.1517305993524
 30
0.0
 40
7.0
  1
DN150
 50
90.0
 41
0.8
  7
GREEKS
100
AcDbText
  0
LINE
  5
EC2
102
{ACAD_REACTORS
330
1277
102
}
330
1E
100
AcDbEntity
  8
STEMPEL
100
AcDbLine
 10
265.1346917785053
 20
120.4884037408805
 30
0.0
 11
107.8653658613052
 21
120.4884037408804
 31
0.0
  0
LINE
  5
EC3
330
1E
100
AcDbEntity
  8
MITTEL
100
AcDbLine
 10
186.5000288199052
 20
585.4884037408806
 30
0.0
 11
186.5000288199052
 21
115.4884037408804
 31
0.0
  0
LINE
  5
FC8
102
{ACAD_REACTORS
330
134D
330
13C4
102
}
330
1E
100
AcDbEntity
  8
STEMPEL
  6
Continuous
100
AcDbLine
 10
475.4238596127287
 20
398.6570687847316
 30
0.0
 11
464.0394404356251
 21
410.0414879618351
 31
0.0
  0
LINE
  5
FC9
102
{ACAD_REACTORS
330
1304
330
13DA
102
}
330
1E
100
AcDbEntity
  8
STEMPEL
100
AcDbLine
 10
490.2023913395274
 20
409.3343811806484
 30
0.0
 11
296.0000288199052
 21
215.1320186610263
 31
0.0
  0
LINE
  5
FCA
102
{ACAD_REACTORS
330
1304
330
134D
330
13C4
102
}
330
1E
100
AcDbEntity
  8
STEMPEL
100
AcDbLine
 10
488.1517816740865
 20
411.3849908460895
 30
0.0
 11
296.0000288199052
 21
219.2332379919081
 31
0.0
  0
DIMENSION
  5
FCD
330
1E
100
AcDbEntity
  8
BEM
100
AcDbDimension
  2
*D3
 10
501.6386559921342
 20
420.7706458332556
 30
0.0
 11
428.8066575299196
 21
502.7950324508947
 31
0.0
 70
    32
  1
%%c<>
 71
     5
 42
218.9999999999998
  3
Standard
100
AcDbAlignedDimension
 13
335.3460062596736
 23
564.1907662605023
 33
0.0
 14
490.2023913395273
 24
409.3343811806485
 34
0.0
 50
315.0000000000002
100
AcDbRotatedDimension
1001
ACAD
1000
DSTYLE
1002
{
1070
    40
1040
2.0
1070
    41
1040
3.5
1070
    42
1040
1.0
1070
    43
1040
7.0
1070
    44
1040
1.0
1070
    73
1070
     0
1070
    74
1070
     0
1070
    77
1070
     1
1070
    78
1070
     8
1070
    79
1070
     2
1070
   140
1040
3.5
1070
   141
1040
1.5
1070
   146
1040
0.5142857142857144
1070
   147
1040
1.5
1070
   172
1070
     1
1070
   178
1070
     1
1070
   179
1070
     2
1070
   271
1070
     2
1070
   272
1070
     2
1070
   284
1070
     8
1070
   285
1070
     8
1070
   286
1070
     8
1070
   289
1070
     0
1070
   340
1005
24
1002
}
  0
LINE
  5
FCF
102
{ACAD_REACTORS
330
134D
330
13C4
102
}
330
1E
100
AcDbEntity
  8
STEMPEL
  6
Continuous
100
AcDbLine
 10
336.0531130408601
 20
538.0278153566
 30
0.0
 11
324.6686938637566
 21
549.4122345337035
 31
0.0
  0
LINE
  5
FD0
102
{ACAD_REACTORS
330
1304
102
}
330
1E
100
AcDbEntity
  8
STEMPEL
100
AcDbLine
 10
335.3460062596736
 20
564.1907662605023
 30
0.0
 11
296.0000288199052
 21
524.844788820734
 31
0.0
  0
LINE
  5
FD1
102
{ACAD_REACTORS
330
1304
330
134D
330
13C4
102
}
330
1E
100
AcDbEntity
  8
STEMPEL
100
AcDbLine
 10
337.3966159251145
 20
562.1401565950614
 30
0.0
 11
296.0000288199052
 21
520.7435694898521
 31
0.0
  0
LINE
  5
1015
102
{ACAD_REACTORS
330
129E
330
134D
330
1374
102
}
330
1E
100
AcDbEntity
  8
STEMPEL
100
AcDbLine
 10
79.90002881990517
 20
580.4884037408803
 30
0.0
 11
79.90002881990517
 21
185.4884037408803
 31
0.0
  0
LINE
  5
1016
102
{ACAD_REACTORS
330
129E
102
}
330
1E
100
AcDbEntity
  8
STEMPEL
100
AcDbLine
 10
77.0000288199052
 20
580.4884037408803
 30
0.0
 11
77.0000288199052
 21
183.4884037408804
 31
0.0
  0
LINE
  5
1017
102
{ACAD_REACTORS
330
134D
330
1374
102
}
330
1E
100
AcDbEntity
  8
STEMPEL
  6
Continuous
100
AcDbLine
 10
96.00002881990519
 20
562.4884037408803
 30
0.0
 11
79.90002881990506
 21
562.4884037408803
 31
0.0
  0
DIMENSION
  5
1019
330
1E
100
AcDbEntity
  8
BEM
100
AcDbDimension
  2
*D4
 10
296.0000288199051
 20
601.7875260774266
 30
0.0
 11
186.5000288199051
 21
608.2875260774265
 31
0.0
 70
    32
  1
%%c<>
 71
     5
 42
218.9999999999999
  3
Standard
100
AcDbAlignedDimension
 13
77.0000288199052
 23
580.4884037408803
 33
0.0
 14
296.0000288199051
 24
580.4884037408804
 34
0.0
100
AcDbRotatedDimension
1001
ACAD
1000
DSTYLE
1002
{
1070
    40
1040
2.0
1070
    41
1040
3.5
1070
    42
1040
1.0
1070
    43
1040
7.0
1070
    44
1040
1.0
1070
    73
1070
     0
1070
    74
1070
     0
1070
    77
1070
     1
1070
    78
1070
     8
1070
    79
1070
     2
1070
   140
1040
3.5
1070
   141
1040
1.5
1070
   146
1040
0.5142857142857144
1070
   147
1040
1.5
1070
   172
1070
     1
1070
   178
1070
     1
1070
   179
1070
     2
1070
   271
1070
     2
1070
   272
1070
     2
1070
   284
1070
     8
1070
   285
1070
     8
1070
   286
1070
     8
1070
   289
1070
     0
1070
   340
1005
24
1002
}
  0
LINE
  5
101B
102
{ACAD_REACTORS
330
129E
330
134D
330
1374
102
}
330
1E
100
AcDbEntity
  8
STEMPEL
100
AcDbLine
 10
293.1000288199052
 20
580.4884037408804
 30
0.0
 11
293.1000288199052
 21
520.743569489852
 31
0.0
  0
LINE
  5
101C
102
{ACAD_REACTORS
330
129E
330
1304
102
}
330
1E
100
AcDbEntity
  8
STEMPEL
100
AcDbLine
 10
296.0000288199052
 20
580.4884037408804
 30
0.0
 11
296.0000288199052
 21
520.743569489852
 31
0.0
  0
LINE
  5
101D
102
{ACAD_REACTORS
330
134D
330
1374
102
}
330
1E
100
AcDbEntity
  8
STEMPEL
  6
Continuous
100
AcDbLine
 10
293.1000288199052
 20
562.4884037408804
 30
0.0
 11
277.0000288199051
 21
562.4884037408804
 31
0.0
  0
LINE
  5
10B7
102
{ACAD_REACTORS
330
134D
102
}
330
1E
100
AcDbEntity
  8
STEMPEL
100
AcDbLine
 10
293.1000288199052
 20
199.6384037408803
 30
0.0
 11
291.2500288199051
 21
201.4884037408804
 31
0.0
  0
LINE
  5
10B9
330
1E
100
AcDbEntity
  8
STEMPEL
100
AcDbLine
 10
266.000028819905
 20
192.4884037408804
 30
0.0
 11
273.3000288199051
 21
192.4884037408804
 31
0.0
  0
LINE
  5
10BA
102
{ACAD_REACTORS
330
129E
102
}
330
1E
100
AcDbEntity
  8
STEMPEL
  6
Continuous
100
AcDbLine
 10
296.0000288199052
 20
185.4884037408805
 30
0.0
 11
293.1000288199051
 21
185.4884037408805
 31
0.0
  0
LINE
  5
10BB
102
{ACAD_REACTORS
330
134D
102
}
330
1E
100
AcDbEntity
  8
STEMPEL
100
AcDbLine
 10
266.000028819905
 20
201.4884037408804
 30
0.0
 11
291.2500288199053
 21
201.4884037408804
 31
0.0
  0
LINE
  5
10BC
330
1E
100
AcDbEntity
  8
STEMPEL
100
AcDbLine
 10
99.70002881990518
 20
192.4884037408804
 30
0.0
 11
107.0000288199054
 21
192.4884037408804
 31
0.0
  0
LINE
  5
10BE
102
{ACAD_REACTORS
330
134D
102
}
330
1E
100
AcDbEntity
  8
STEMPEL
100
AcDbLine
 10
79.90002881990512
 20
199.6384037408804
 30
0.0
 11
81.75002881990513
 21
201.4884037408804
 31
0.0
  0
LINE
  5
10BF
102
{ACAD_REACTORS
330
129E
102
}
330
1E
100
AcDbEntity
  8
STEMPEL
  6
Continuous
100
AcDbLine
 10
79.90002881990517
 20
185.4884037408804
 30
0.0
 11
77.0000288199052
 21
185.4884037408803
 31
0.0
  0
LINE
  5
10C0
102
{ACAD_REACTORS
330
134D
102
}
330
1E
100
AcDbEntity
  8
STEMPEL
100
AcDbLine
 10
81.75002881990513
 20
201.4884037408804
 30
0.0
 11
107.0000288199054
 21
201.4884037408804
 31
0.0
  0
LINE
  5
10D7
102
{ACAD_REACTORS
330
129E
330
134D
102
}
330
1E
100
AcDbEntity
  8
STEMPEL
100
AcDbLine
 10
296.0000288199052
 20
520.7435694898521
 30
0.0
 11
293.1000288199052
 21
520.743569489852
 31
0.0
  0
LINE
  5
10D8
102
{ACAD_REACTORS
330
129E
330
134D
102
}
330
1E
100
AcDbEntity
  8
STEMPEL
100
AcDbLine
 10
296.0000288199052
 20
219.2332379919081
 30
0.0
 11
293.1000288199052
 21
219.2332379919081
 31
0.0
  0
LINE
  5
10D9
102
{ACAD_REACTORS
330
129E
330
134D
102
}
330
1E
100
AcDbEntity
  8
STEMPEL
100
AcDbLine
 10
293.1000288199052
 20
219.2332379919081
 30
0.0
 11
293.1000288199052
 21
185.4884037408805
 31
0.0
  0
LINE
  5
10DA
102
{ACAD_REACTORS
330
129E
330
1304
330
13DA
102
}
330
1E
100
AcDbEntity
  8
STEMPEL
100
AcDbLine
 10
296.0000288199052
 20
219.2332379919081
 30
0.0
 11
296.0000288199051
 21
183.4884037408804
 31
0.0
  0
DIMENSION
  5
10FD
330
1E
100
AcDbEntity
  8
BEM
100
AcDbDimension
  2
*D5
 10
60.48647151919339
 20
120.4884037408804
 30
0.0
 11
53.98647151919337
 21
152.9884037408804
 31
0.0
 70
    32
 71
     5
 42
64.99999999999997
  3
Standard
100
AcDbAlignedDimension
 13
77.0000288199052
 23
185.4884037408804
 33
0.0
 14
107.8653658613052
 24
120.4884037408804
 34
0.0
 50
90.0
100
AcDbRotatedDimension
1001
ACAD
1000
DSTYLE
1002
{
1070
   279
1070
     1
1070
    40
1040
2.0
1070
    41
1040
3.5
1070
    42
1040
1.0
1070
    43
1040
7.0
1070
    44
1040
1.0
1070
    73
1070
     0
1070
    74
1070
     0
1070
    77
1070
     1
1070
    78
1070
     8
1070
    79
1070
     2
1070
   140
1040
3.5
1070
   141
1040
1.5
1070
   146
1040
0.5142857142857144
1070
   147
1040
1.5
1070
   172
1070
     1
1070
   178
1070
     1
1070
   179
1070
     2
1070
   271
1070
     2
1070
   272
1070
     2
1070
   284
1070
     8
1070
   285
1070
     8
1070
   286
1070
     8
1002
}
  0
DIMENSION
  5
1137
330
1E
100
AcDbEntity
  8
BEM
100
AcDbDimension
  2
*D6
 10
28.24678616973779
 20
120.4884037408804
 30
0.0
 11
21.74678616973778
 21
350.4884037408805
 31
0.0
 70
    32
 71
     5
 42
460.0000000000001
  3
Standard
100
AcDbAlignedDimension
 13
77.0000288199052
 23
580.4884037408806
 33
0.0
 14
107.8653658613052
 24
120.4884037408804
 34
0.0
 50
90.0
100
AcDbRotatedDimension
1001
ACAD
1000
DSTYLE
1002
{
1070
    40
1040
2.0
1070
    41
1040
3.5
1070
    42
1040
1.0
1070
    43
1040
7.0
1070
    44
1040
1.0
1070
    73
1070
     0
1070
    74
1070
     0
1070
    77
1070
     1
1070
    78
1070
     8
1070
    79
1070
     2
1070
   140
1040
3.5
1070
   141
1040
1.5
1070
   146
1040
0.5142857142857144
1070
   147
1040
1.5
1070
   172
1070
     1
1070
   178
1070
     1
1070
   179
1070
     2
1070
   271
1070
     2
1070
   272
1070
     2
1070
   284
1070
     8
1070
   285
1070
     8
1070
   286
1070
     8
1002
}
  0
DIMENSION
  5
1144
330
1E
100
AcDbEntity
  8
BEM
100
AcDbDimension
  2
*D7
 10
517.9783361662224
 20
381.5584363539534
 30
0.0
 11
400.2450570986623
 21
273.0175454418183
 31
0.0
 70
    32
 71
     5
 42
319.9999999999999
 51
315.0
  3
Standard
100
AcDbAlignedDimension
 13
186.5000288199052
 23
260.4884037408804
 33
0.0
 14
490.2023913395273
 24
409.3343811806484
 34
0.0
 50
45.00000000000003
100
AcDbRotatedDimension
1001
ACAD
1000
DSTYLE
1002
{
1070
    40
1040
2.0
1070
    41
1040
3.5
1070
    42
1040
1.0
1070
    43
1040
7.0
1070
    44
1040
1.0
1070
    73
1070
     0
1070
    74
1070
     0
1070
    77
1070
     1
1070
    78
1070
     8
1070
    79
1070
     2
1070
   140
1040
3.5
1070
   141
1040
1.5
1070
   146
1040
0.5142857142857144
1070
   147
1040
1.5
1070
   172
1070
     1
1070
   178
1070
     1
1070
   179
1070
     2
1070
   271
1070
     2
1070
   272
1070
     2
1070
   284
1070
     8
1070
   285
1070
     8
1070
   286
1070
     8
1002
}
  0
TEXT
  5
11A2
330
1E
100
AcDbEntity
  8
TEXT
 62
     1
100
AcDbText
 10
453.8968656589824
 20
661.8601053658492
 30
0.0
 40
7.0
  1
und innenbeschichtet
 50
90.0
 41
0.8
  7
GREEKS
100
AcDbText
  0
TEXT
  5
11A3
330
1E
100
AcDbEntity
  8
TEXT
 62
     1
100
AcDbText
 10
466.4917010443645
 20
606.7111658451383
 30
0.0
 40
7.0
  1
Dämmung: 2 K-PU-Schaum
 50
90.0
 41
0.8
  7
GREEKS
100
AcDbText
  0
TEXT
  5
11A4
330
1E
100
AcDbEntity
  8
TEXT
 62
     1
100
AcDbText
 10
442.6278118197567
 20
614.2055764898355
 30
0.0
 40
7.0
  1
Innenrohr: E195 EN10305 feuerverzinkt
 50
90.0
 41
0.8
  7
GREEKS
100
AcDbText
  0
TEXT
  5
11A5
330
1E
100
AcDbEntity
  8
TEXT
 62
     1
100
AcDbText
 10
431.2747437834017
 20
610.4333591189714
 30
0.0
 40
7.0
  1
Außenrohr: P235 TR1 EN10217-1 feuerverzinkt
 50
90.0
 41
0.8
  7
GREEKS
100
AcDbText
  0
ARC
  5
11AE
102
{ACAD_REACTORS
330
12E1
102
}
330
1E
100
AcDbEntity
  8
STEMPEL
  6
Continuous
100
AcDbCircle
 10
362.3694324230721
 20
514.8466600557538
 30
0.0
 40
32.5
100
AcDbArc
 50
110.0000000000104
 51
135.0
  0
LINE
  5
11AF
102
{ACAD_REACTORS
330
12E1
102
}
330
1E
100
AcDbEntity
  8
STEMPEL
  6
Continuous
100
AcDbLine
 10
339.3884620345092
 20
537.8276304443166
 30
0.0
 11
327.9585827836236
 21
526.397751193431
 31
0.0
  0
ARC
  5
11B0
102
{ACAD_REACTORS
330
12E1
102
}
330
1E
100
AcDbEntity
  8
STEMPEL
  6
Continuous
100
AcDbCircle
 10
350.8988199118716
 20
503.3760475445534
 30
0.0
 40
32.50004740563918
100
AcDbArc
 50
134.9056985509105
 51
162.5271836205502
  0
ARC
  5
11B1
102
{ACAD_REACTORS
330
12E1
102
}
330
1E
100
AcDbEntity
  8
STEMPEL
  6
Continuous
100
AcDbCircle
 10
300.3442205909392
 20
519.2894856551567
 30
0.0
 40
20.5
100
AcDbArc
 50
315.0
 51
342.5271836205503
  0
LINE
  5
11B3
102
{ACAD_REACTORS
330
12E1
102
}
330
1E
100
AcDbEntity
  8
STEMPEL
  6
Continuous
100
AcDbLine
 10
314.8399096052635
 20
504.7937966408322
 30
0.0
 11
304.1915684405362
 21
494.1454554761048
 31
0.0
  0
ARC
  5
11B4
102
{ACAD_REACTORS
330
12E1
102
}
330
1E
100
AcDbEntity
  8
STEMPEL
  6
Continuous
100
AcDbCircle
 10
315.1517235489279
 20
483.1853003677137
 30
0.0
 40
15.5
100
AcDbArc
 50
135.0
 51
169.77194403195
  0
ARC
  5
11B6
102
{ACAD_REACTORS
330
12E1
102
}
330
1E
100
AcDbEntity
  8
STEMPEL
  6
Continuous
100
AcDbCircle
 10
287.5966777910011
 20
488.1571665443682
 30
0.0
 40
12.5
100
AcDbArc
 50
315.0
 51
349.77194403195
  0
LINE
  5
11B8
102
{ACAD_REACTORS
330
12E1
102
}
330
1E
100
AcDbEntity
  8
STEMPEL
  6
Continuous
100
AcDbLine
 10
296.4355125558329
 20
479.3183317795362
 30
0.0
 11
263.5000288199051
 21
446.3828480436085
 31
0.0
  0
LINE
  5
11B9
102
{ACAD_REACTORS
330
12E1
102
}
330
1E
100
AcDbEntity
  8
STEMPEL
  6
Continuous
100
AcDbLine
 10
353.3772291799308
 20
546.1595433402452
 30
0.0
 11
351.253777764987
 21
545.3866702312956
 31
0.0
  0
LINE
  5
11BA
102
{ACAD_REACTORS
330
12E1
102
}
330
1E
100
AcDbEntity
  8
STEMPEL
  6
Continuous
100
AcDbLine
 10
472.1711684192701
 20
427.3656041009056
 30
0.0
 11
471.3982953103207
 21
425.2421526859625
 31
0.0
  0
ARC
  5
11BB
102
{ACAD_REACTORS
330
12E1
102
}
330
1E
100
AcDbEntity
  8
STEMPEL
  6
Continuous
100
AcDbCircle
 10
440.8582851347786
 20
436.3578073440472
 30
0.0
 40
32.5
100
AcDbArc
 50
315.0
 51
339.9999999999902
  0
LINE
  5
11BC
102
{ACAD_REACTORS
330
12E1
102
}
330
1E
100
AcDbEntity
  8
STEMPEL
  6
Continuous
100
AcDbLine
 10
463.8392555233416
 20
413.3768369554844
 30
0.0
 11
452.4093762724559
 21
401.9469577045987
 31
0.0
  0
ARC
  5
11BD
102
{ACAD_REACTORS
330
12E1
102
}
330
1E
100
AcDbEntity
  8
STEMPEL
  6
Continuous
100
AcDbCircle
 10
429.3876726235781
 20
424.8871948328467
 30
0.0
 40
32.50004740563918
100
AcDbArc
 50
287.4728163794487
 51
315.0943014490942
  0
ARC
  5
11BE
102
{ACAD_REACTORS
330
12E1
102
}
330
1E
100
AcDbEntity
  8
STEMPEL
  6
Continuous
100
AcDbCircle
 10
445.3011107341815
 20
374.3325955119145
 30
0.0
 40
20.5
100
AcDbArc
 50
107.4728163794487
 51
135.0
  0
LINE
  5
11C0
102
{ACAD_REACTORS
330
12E1
102
}
330
1E
100
AcDbEntity
  8
STEMPEL
  6
Continuous
100
AcDbLine
 10
430.8054217198573
 20
388.8282845262386
 30
0.0
 11
420.1570805551299
 21
378.1799433615113
 31
0.0
  0
ARC
  5
11C1
102
{ACAD_REACTORS
330
12E1
102
}
330
1E
100
AcDbEntity
  8
STEMPEL
  6
Continuous
100
AcDbCircle
 10
409.1969254467385
 20
389.140098469903
 30
0.0
 40
15.5
100
AcDbArc
 50
280.2280559680518
 51
315.0
  0
ARC
  5
11C3
102
{ACAD_REACTORS
330
12E1
102
}
330
1E
100
AcDbEntity
  8
STEMPEL
  6
Continuous
100
AcDbCircle
 10
414.1687916233929
 20
361.5850527119763
 30
0.0
 40
12.5
100
AcDbArc
 50
100.2280559680518
 51
135.0
  0
LINE
  5
11C5
102
{ACAD_REACTORS
330
12E1
102
}
330
1E
100
AcDbEntity
  8
STEMPEL
  6
Continuous
100
AcDbLine
 10
405.329956858561
 20
370.4238874768078
 30
0.0
 11
263.5000288199052
 21
228.5939594381511
 31
0.0
  0
LINE
  5
11C6
102
{ACAD_REACTORS
330
1277
102
}
330
1E
100
AcDbEntity
  8
STEMPEL
  6
Continuous
100
AcDbLine
 10
263.5000288199051
 20
492.960655826276
 30
0.0
 11
263.500028819905
 21
446.3828480436084
 31
0.0
  0
ARC
  5
11C7
102
{ACAD_REACTORS
330
1277
102
}
330
1E
100
AcDbEntity
  8
STEMPEL
  6
Continuous
100
AcDbCircle
 10
276.0000288199051
 20
492.960655826276
 30
0.0
 40
12.5
100
AcDbArc
 50
145.2280559680509
 51
180.0
  0
ARC
  5
11C9
102
{ACAD_REACTORS
330
1277
102
}
330
1E
100
AcDbEntity
  8
STEMPEL
  6
Continuous
100
AcDbCircle
 10
253.0000288199051
 20
508.9293752489473
 30
0.0
 40
15.5
100
AcDbArc
 50
325.228055968051
 51
0.0
  0
LINE
  5
11CB
102
{ACAD_REACTORS
330
1277
102
}
330
1E
100
AcDbEntity
  8
STEMPEL
  6
Continuous
100
AcDbLine
 10
268.5000288199051
 20
523.9884037408802
 30
0.0
 11
268.5000288199051
 21
508.9293752489473
 31
0.0
  0
ARC
  5
11CC
102
{ACAD_REACTORS
330
1277
102
}
330
1E
100
AcDbEntity
  8
STEMPEL
  6
Continuous
100
AcDbCircle
 10
289.0000288199051
 20
523.9884037408802
 30
0.0
 40
20.5
100
AcDbArc
 50
152.472816379448
 51
180.0
  0
ARC
  5
11CE
102
{ACAD_REACTORS
330
1277
102
}
330
1E
100
AcDbEntity
  8
STEMPEL
  6
Continuous
100
AcDbCircle
 10
242.0000288199051
 20
548.4834037408802
 30
0.0
 40
32.50004740563918
100
AcDbArc
 50
332.472816379448
 51
0.0943014490918197
  0
LINE
  5
11CF
102
{ACAD_REACTORS
330
1277
102
}
330
1E
100
AcDbEntity
  8
STEMPEL
  6
Continuous
100
AcDbLine
 10
274.5000288199051
 20
564.7052995229464
 30
0.0
 11
274.5000288199051
 21
548.5410092700573
 31
0.0
  0
ARC
  5
11D0
102
{ACAD_REACTORS
330
1277
102
}
330
1E
100
AcDbEntity
  8
STEMPEL
  6
Continuous
100
AcDbCircle
 10
242.0000288199051
 20
564.7052995229464
 30
0.0
 40
32.5
100
AcDbArc
 50
0.0
 51
24.99999999998774
  0
LINE
  5
11D1
102
{ACAD_REACTORS
330
1277
102
}
330
1E
100
AcDbEntity
  8
STEMPEL
  6
Continuous
100
AcDbLine
 10
109.5000288199052
 20
492.960655826276
 30
0.0
 11
109.5000288199052
 21
130.4884037408711
 31
0.0
  0
ARC
  5
11D2
102
{ACAD_REACTORS
330
1277
102
}
330
1E
100
AcDbEntity
  8
STEMPEL
  6
Continuous
100
AcDbCircle
 10
97.00002881990521
 20
492.960655826276
 30
0.0
 40
12.5
100
AcDbArc
 50
0.0
 51
34.77194403194904
  0
ARC
  5
11D3
102
{ACAD_REACTORS
330
1277
102
}
330
1E
100
AcDbEntity
  8
STEMPEL
  6
Continuous
100
AcDbCircle
 10
120.0000288199052
 20
508.9293752489473
 30
0.0
 40
15.5
100
AcDbArc
 50
180.0
 51
214.7719440319491
  0
LINE
  5
11D4
102
{ACAD_REACTORS
330
1277
102
}
330
1E
100
AcDbEntity
  8
STEMPEL
  6
Continuous
100
AcDbLine
 10
104.5000288199052
 20
523.9884037408802
 30
0.0
 11
104.5000288199052
 21
508.9293752489473
 31
0.0
  0
ARC
  5
11D5
102
{ACAD_REACTORS
330
1277
102
}
330
1E
100
AcDbEntity
  8
STEMPEL
  6
Continuous
100
AcDbCircle
 10
84.0000288199052
 20
523.9884037408802
 30
0.0
 40
20.5
100
AcDbArc
 50
0.0
 51
27.52718362055197
  0
ARC
  5
11D6
102
{ACAD_REACTORS
330
1277
102
}
330
1E
100
AcDbEntity
  8
STEMPEL
  6
Continuous
100
AcDbCircle
 10
131.0000288199052
 20
548.4834037408802
 30
0.0
 40
32.50004740563918
100
AcDbArc
 50
179.9056985509081
 51
207.527183620552
  0
LINE
  5
11D7
102
{ACAD_REACTORS
330
1277
102
}
330
1E
100
AcDbEntity
  8
STEMPEL
  6
Continuous
100
AcDbLine
 10
98.50002881990519
 20
564.7052995229464
 30
0.0
 11
98.50002881990519
 21
548.5410092700573
 31
0.0
  0
ARC
  5
11D8
102
{ACAD_REACTORS
330
1277
102
}
330
1E
100
AcDbEntity
  8
STEMPEL
  6
Continuous
100
AcDbCircle
 10
131.0000288199052
 20
564.7052995229464
 30
0.0
 40
32.5
100
AcDbArc
 50
155.0000000000065
 51
180.0
  0
LINE
  5
11D9
102
{ACAD_REACTORS
330
1277
102
}
330
1E
100
AcDbEntity
  8
STEMPEL
  6
Continuous
100
AcDbLine
 10
102.5000288199053
 20
580.4884037408804
 30
0.0
 11
101.5450257412139
 21
578.4403930295188
 31
0.0
  0
LINE
  5
11DA
102
{ACAD_REACTORS
330
1277
102
}
330
1E
100
AcDbEntity
  8
STEMPEL
  6
Continuous
100
AcDbLine
 10
270.5000288199051
 20
580.4884037408804
 30
0.0
 11
271.4550318985961
 21
578.4403930295191
 31
0.0
  0
LINE
  5
11DB
102
{ACAD_REACTORS
330
1277
102
}
330
1E
100
AcDbEntity
  8
STEMPEL
  6
Continuous
100
AcDbLine
 10
263.5000288199053
 20
228.5939594381511
 30
0.0
 11
263.5000288199052
 21
130.4884037408707
 31
0.0
  0
LINE
  5
11DC
102
{ACAD_REACTORS
330
1277
102
}
330
1E
100
AcDbEntity
  8
STEMPEL
100
AcDbLine
 10
263.5000288199052
 20
130.4884037408707
 30
0.0
 11
262.6251421846469
 21
120.4884037408805
 31
0.0
  0
LINE
  5
11DE
102
{ACAD_REACTORS
330
1277
102
}
330
1E
100
AcDbEntity
  8
STEMPEL
100
AcDbLine
 10
109.5000288199052
 20
130.4884037408711
 30
0.0
 11
110.3749154551636
 21
120.4884037408804
 31
0.0
  0
HATCH
  5
1277
330
1E
100
AcDbEntity
  8
SCHRAFF
100
AcDbHatch
 10
0.0
 20
0.0
 30
0.0
210
0.0
220
0.0
230
1.0
  2
_USER
 70
     0
 71
     1
 91
        3
 92
        7
 72
     1
 73
     1
 93
       20
 10
263.500028819905
 20
446.3828480436083
 42
0.0
 10
266.000028819905
 20
452.418381949541
 42
0.0
 10
266.0000288199051
 20
492.960655826276
 42
-0.1528962216020417
 10
267.7857431056194
 20
498.6637699058015
 42
0.152896221602038
 10
271.0000288199051
 20
508.9293752489473
 42
0.0
 10
271.0000288199051
 20
523.9884037408802
 42
-0.1206909349745684
 10
273.0377789463326
 20
532.3074529037134
 42
0.1202734944247557
 10
277.0000288199051
 20
548.4257982117153
 42
0.0
 10
277.0000288199051
 20
564.7052995229464
 42
0.1095178116832392
 10
273.7208013661879
 20
579.4969386838706
 42
0.0
 10
273.2584736173112
 20
580.4884037408806
 42
0.0
 10
270.5000288199049
 20
580.4884037408806
 42
0.0
 10
271.4550318985961
 20
578.4403930295191
 42
-0.109517811683243
 10
274.5000288199051
 20
564.7052995229462
 42
0.0
 10
274.5000288199051
 20
548.5389138192009
 42
-0.1211241773288985
 10
270.8207997972253
 20
533.4628763985513
 42
0.12069093497457
 10
268.5000288199051
 20
523.9884037408801
 42
0.0
 10
268.5000288199051
 20
508.9293752489473
 42
-0.1528962216020417
 10
265.7321716770479
 20
500.0895484256827
 42
0.1528962216020364
 10
263.5000288199051
 20
492.960655826276
 42
0.0
 97
       20
330
EB8
330
EB7
330
EBF
330
EAC
330
EAD
330
EAB
330
EAE
330
EAA
330
EC0
330
11DA
330
11D0
330
11CF
330
11CE
330
11CC
330
11CB
330
11C9
330
11C7
330
11C6
330
E5A
330
EB5
 92
        7
 72
     1
 73
     1
 93
       22
 10
109.5000288199052
 20
492.960655826276
 42
0.1528962216020391
 10
107.2678859627623
 20
500.0895484256828
 42
-0.1528962216020395
 10
104.5000288199052
 20
508.9293752489473
 42
0.0
 10
104.5000288199052
 20
523.9884037408802
 42
0.1206909349745683
 10
102.179257842585
 20
533.4628763985513
 42
-0.121124177328738
 10
98.50002881990519
 20
548.5389138191804
 42
0.0
 10
98.50002881990519
 20
564.7052995229464
 42
-0.1095178116832389
 10
101.5450257412139
 20
578.4403930295188
 42
0.0
 10
102.5000288199054
 20
580.4884037408806
 42
0.0
 10
99.74158402249914
 20
580.4884037408806
 42
0.0
 10
99.27925627362231
 20
579.4969386838706
 42
0.1095178116832388
 10
96.00002881990519
 20
564.7052995229464
 42
0.0
 10
96.00002881990519
 20
548.4257982117132
 42
0.120273494424741
 10
99.96227869347768
 20
532.3074529037134
 42
-0.1206909349745701
 10
102.0000288199052
 20
523.9884037408801
 42
0.0
 10
102.0000288199052
 20
508.9293752489473
 42
0.1528962216020397
 10
105.2143145341909
 20
498.6637699058014
 42
-0.1528962216020413
 10
107.0000288199052
 20
492.9606558262759
 42
0.0
 10
107.0000288199052
 20
130.3792513836002
 42
0.0
 10
107.8653658613052
 20
120.4884037408804
 42
0.0
 10
110.3749154551636
 20
120.4884037408804
 42
0.0
 10
109.5000288199052
 20
130.4884037408711
 42
0.0
 97
       22
330
11D2
330
11D3
330
11D4
330
11D5
330
11D6
330
11D7
330
11D8
330
11D9
330
EC0
330
EAF
330
EB3
330
EB1
330
EB2
330
EB0
330
EBE
330
EBA
330
EBB
330
EB9
330
EA8
330
EC2
330
11DE
330
11D1
 92
        7
 72
     0
 73
     1
 93
        6
 10
263.5000288199052
 20
130.4884037408713
 10
262.6251421846468
 20
120.4884037408804
 10
265.1346917785053
 20
120.4884037408805
 10
266.0000288199051
 20
130.3792513835998
 10
266.0000288199053
 20
227.5584255322184
 10
263.5000288199053
 20
228.5939594381512
 97
        6
330
E5B
330
11DB
330
11DC
330
EC2
330
EA7
330
E8A
 75
     0
 76
     0
 52
45.0
 41
2.0
 77
     0
 78
     1
 53
45.0
 43
21.51503985325235
 44
0.0
 45
-1.414213562373094
 46
1.414213562373095
 79
     0
 47
0.9317325446634274
 98
        3
 10
264.2477698560015
 20
480.914715698379
 10
108.5389903661389
 20
443.6454129709936
 10
264.2477698560015
 20
204.190148191605
  0
HATCH
  5
129E
330
1E
100
AcDbEntity
  8
SCHRAFF
100
AcDbHatch
 10
0.0
 20
0.0
 30
0.0
210
0.0
220
0.0
230
1.0
  2
_USER
 70
     0
 71
     1
 91
        3
 92
        7
 72
     0
 73
     1
 93
        4
 10
296.0000288199053
 20
580.4884037408806
 10
293.1000288199053
 20
580.4884037408806
 10
293.1000288199052
 20
520.7435694898521
 10
296.0000288199053
 20
520.7435694898522
 97
        4
330
EC0
330
101B
330
10D7
330
101C
 92
        7
 72
     0
 73
     1
 93
        4
 10
79.90002881990517
 20
580.4884037408807
 10
77.0000288199052
 20
580.4884037408804
 10
77.00002881990521
 20
185.4884037408804
 10
79.90002881990517
 20
185.4884037408804
 97
        4
330
EC0
330
1016
330
10BF
330
1015
 92
        7
 72
     0
 73
     1
 93
        4
 10
296.0000288199052
 20
219.2332379919081
 10
293.1000288199052
 20
219.2332379919081
 10
293.1000288199052
 20
185.4884037408805
 10
296.0000288199051
 20
185.4884037408805
 97
        4
330
10D8
330
10D9
330
10BA
330
10DA
 75
     0
 76
     0
 52
135.0
 41
2.0
 77
     0
 78
     1
 53
135.0
 43
21.51503985325235
 44
0.0
 45
-1.414213562373095
 46
-1.414213562373094
 79
     0
 47
0.9317325446634274
 98
        3
 10
295.0165711399095
 20
546.1359944818577
 10
78.70257561739208
 20
505.1397610859553
 10
295.0165711399095
 20
200.4632175230881
  0
HATCH
  5
12E1
330
1E
100
AcDbEntity
  8
SCHRAFF
100
AcDbHatch
 10
0.0
 20
0.0
 30
0.0
210
0.0
220
0.0
230
1.0
  2
_USER
 70
     0
 71
     1
 91
        2
 92
        7
 72
     1
 73
     1
 93
       20
 10
296.4355125558329
 20
479.3183317795362
 42
0.1528962216020398
 10
299.8980375043613
 20
485.9375834297901
 42
-0.1528962216020326
 10
304.1915684405362
 20
494.1454554761048
 42
0.0
 10
314.8399096052635
 20
504.7937966408322
 42
0.1206909349745681
 10
319.8983405740252
 20
513.134293400882
 42
-0.1211241773289968
 10
327.9571010761223
 20
526.3962694859296
 42
0.0
 10
339.3884620345092
 20
537.8276304443166
 42
-0.1095178116832352
 10
351.253777764987
 20
545.3866702312956
 42
0.0
 10
353.3772291799309
 20
546.1595433402453
 42
0.0
 10
351.4267141581563
 20
548.1100583620202
 42
0.0
 10
350.3987274066732
 20
547.7359017832604
 42
0.1095178116832359
 10
337.6206950815431
 20
539.5953973972831
 42
0.0
 10
326.1093493100265
 20
528.0840516257666
 42
0.1202734944246581
 10
317.5136917956002
 20
513.8849266026229
 42
-0.1206909349745634
 10
313.0721426522975
 20
506.561563593799
 42
0.0
 10
302.4238014875698
 20
495.9132224290711
 42
0.1528962216020331
 10
297.4377655616891
 20
486.3815000527059
 42
-0.1528962216020374
 10
294.6677456028666
 20
481.0860987325026
 42
0.0
 10
266.0000288199051
 20
452.4183819495411
 42
0.0
 10
263.5000288199051
 20
446.3828480436086
 42
0.0
 97
       20
330
11B6
330
11B4
330
11B3
330
11B1
330
11B0
330
11AF
330
11AE
330
11B9
330
E8F
330
E9D
330
E99
330
E9B
330
E9A
330
E9C
330
E91
330
E95
330
E94
330
E8C
330
E5A
330
11B8
 92
        7
 72
     1
 73
     1
 93
       20
 10
263.5000288199053
 20
228.5939594381512
 42
0.0
 10
266.0000288199053
 20
227.5584255322185
 42
0.0
 10
407.0977238115274
 20
368.6561205238414
 42
-0.1528962216020433
 10
412.3931251317306
 20
371.4261404826644
 42
0.1528962216020381
 10
421.9248475080964
 20
376.4121764085449
 42
0.0
 10
432.5731886728236
 20
387.0605175732722
 42
-0.1206909349745659
 10
439.8965516816477
 20
391.5020667165752
 42
0.1202734944254132
 10
454.095676704865
 20
400.0977242310751
 42
0.0
 10
465.6070224763079
 20
411.609070002518
 42
0.1095178116832408
 10
473.7475268622857
 20
424.3871023276486
 42
0.0
 10
474.121683441045
 20
425.4150890791309
 42
0.0
 10
472.1711684192702
 20
427.3656041009056
 42
0.0
 10
471.3982953103207
 20
425.2421526859625
 42
-0.109517811683235
 10
463.8392555233418
 20
413.3768369554847
 42
0.0
 10
452.4078945648791
 20
401.9454759970219
 42
-0.1211241773281595
 10
439.1459184799074
 20
393.8867154950005
 42
0.1206909349745709
 10
430.8054217198574
 20
388.8282845262387
 42
0.0
 10
420.1570805551299
 20
378.1799433615113
 42
-0.1528962216020365
 10
411.9492085088151
 20
373.8864124253364
 42
0.1528962216020433
 10
405.329956858561
 20
370.4238874768078
 42
0.0
 97
       20
330
E96
330
E97
330
E90
330
EA0
330
E9F
330
EA1
330
E9E
330
EA2
330
E8F
330
11BA
330
11BB
330
11BC
330
11BD
330
11BE
330
11C0
330
11C1
330
11C3
330
11C5
330
E5B
330
E8D
 75
     0
 76
     0
 52
90.0
 41
2.0
 77
     0
 78
     1
 53
90.0
 43
21.51503985325235
 44
0.0
 45
-2.0
 46
0.0000000000000001
 79
     0
 47
0.7395283890506971
 98
        2
 10
276.3175253017366
 20
460.7625667332381
 10
375.4840330991124
 20
339.4799110105676
  0
HATCH
  5
1304
330
1E
100
AcDbEntity
  8
SCHRAFF
100
AcDbHatch
 10
0.0
 20
0.0
 30
0.0
210
0.0
220
0.0
230
1.0
  2
_USER
 70
     0
 71
     1
 91
        2
 92
        7
 72
     0
 73
     1
 93
        4
 10
296.0000288199053
 20
524.8447888207341
 10
296.0000288199052
 20
520.7435694898521
 10
337.3966159251146
 20
562.1401565950614
 10
335.3460062596736
 20
564.1907662605023
 97
        4
330
E8F
330
FD0
330
101C
330
FD1
 92
        7
 72
     0
 73
     1
 93
        4
 10
296.0000288199052
 20
219.2332379919081
 10
296.0000288199052
 20
215.1320186610263
 10
490.2023913395273
 20
409.3343811806484
 10
488.1517816740864
 20
411.3849908460893
 97
        4
330
E8F
330
FCA
330
10DA
330
FC9
 75
     0
 76
     0
 52
0.0
 41
2.0
 77
     0
 78
     1
 53
0.0
 43
21.51503985325235
 44
0.0
 45
0.0
 46
2.0
 79
     0
 47
0.7395283890506971
 98
        2
 10
311.8398562260523
 20
539.1525751717245
 10
416.9267512434917
 20
338.7403812102441
  0
HATCH
  5
134D
330
1E
100
AcDbEntity
  8
SCHRAFF
100
AcDbHatch
 10
0.0
 20
0.0
 30
0.0
210
0.0
220
0.0
230
1.0
  2
HONEY
 70
     0
 71
     1
 91
        3
 92
        7
 72
     1
 73
     1
 93
       20
 10
302.4238014875698
 20
495.9132224290711
 42
0.0
 10
313.0721426522971
 20
506.5615635937986
 42
0.1206909349745695
 10
317.5136917956001
 20
513.8849266026228
 42
-0.1211084169870773
 10
326.1908158306572
 20
528.1655181463974
 42
0.0
 10
336.05311304086
 20
538.0278153566002
 42
0.0
 10
324.6686938637567
 20
549.4122345337037
 42
0.0
 10
296.0000288199052
 20
520.7435694898521
 42
0.0
 10
293.1000288199051
 20
520.743569489852
 42
0.0
 10
293.1000288199052
 20
562.4884037408804
 42
0.0
 10
277.0000288199051
 20
562.4884037408805
 42
0.0
 10
277.0000288199051
 20
548.5410092700573
 42
-0.1211084169870766
 10
273.0377789463326
 20
532.3074529037134
 42
0.1206909349745684
 10
271.0000288199051
 20
523.9884037408802
 42
0.0
 10
271.0000288199051
 20
508.9293752489473
 42
-0.1528962216020418
 10
267.7857431056193
 20
498.6637699058013
 42
0.152896221602038
 10
266.0000288199051
 20
492.9606558262759
 42
0.0
 10
266.0000288199051
 20
460.2577597387996
 42
-0.2221532603436439
 10
271.5433060149728
 20
457.9616591446089
 42
0.0
 10
294.6677456028665
 20
481.0860987325026
 42
0.1528962216020402
 10
297.4377655616891
 20
486.3815000527058
 42
-0.1528962216020338
 97
       20
330
E9C
330
E9A
330
E9B
330
FCF
330
FD1
330
10D7
330
101B
330
101D
330
EAB
330
EAD
330
EAC
330
EBF
330
EB7
330
EB8
330
EB5
330
E4A
330
E8C
330
E94
330
E95
330
E91
 92
        7
 72
     1
 73
     1
 93
       11
 10
107.0000288199052
 20
492.960655826276
 42
0.1528962216020385
 10
105.2143145341909
 20
498.6637699058014
 42
-0.1528962216020397
 10
102.0000288199052
 20
508.9293752489473
 42
0.0
 10
102.0000288199052
 20
523.9884037408802
 42
0.1206909349745685
 10
99.96227869347768
 20
532.3074529037134
 42
-0.1211084169870768
 10
96.00002881990519
 20
548.5410092700573
 42
0.0
 10
96.00002881990519
 20
562.4884037408804
 42
0.0
 10
79.90002881990517
 20
562.4884037408803
 42
0.0
 10
79.90002881990517
 20
199.6384037408804
 42
0.0
 10
81.75002881990513
 20
201.4884037408804
 42
0.0
 10
107.0000288199052
 20
201.4884037408804
 42
0.0
 97
       11
330
EBB
330
EBA
330
EBE
330
EB0
330
EB2
330
EB1
330
1017
330
1015
330
10BE
330
10C0
330
EB9
 92
        7
 72
     1
 73
     1
 93
       15
 10
475.4238596127286
 20
398.6570687847316
 42
0.0
 10
464.039440435625
 20
410.041487961835
 42
0.0
 10
454.1771432254223
 20
400.1791907516324
 42
-0.1211084169870745
 10
439.8965516816481
 20
391.5020667165754
 42
0.1206909349745712
 10
432.5731886728237
 20
387.0605175732724
 42
0.0
 10
421.9248475080964
 20
376.4121764085449
 42
-0.1528962216020367
 10
412.3931251317307
 20
371.4261404826643
 42
0.152896221602046
 10
407.0977238115274
 20
368.6561205238414
 42
0.0
 10
268.2961294140957
 20
229.8545261264089
 42
-0.394479308250162
 10
266.0000288199053
 20
224.3112489313411
 42
0.0
 10
266.0000288199053
 20
201.4884037408804
 42
0.0
 10
291.2500288199051
 20
201.4884037408804
 42
0.0
 10
293.1000288199052
 20
199.6384037408803
 42
0.0
 10
293.1000288199052
 20
219.2332379919081
 42
0.0
 10
296.0000288199054
 20
219.2332379919082
 42
0.0
 97
       15
330
FC8
330
EA1
330
E9F
330
EA0
330
E90
330
E97
330
E96
330
E8D
330
E48
330
E8A
330
10BB
330
10B7
330
10D9
330
10D8
330
FCA
 75
     0
 76
     1
 52
0.0
 41
30.0
 77
     0
 78
     3
 53
0.0
 43
21.51503985325235
 44
0.0
 45
5.625
 46
3.247595249999999
 79
     2
 49
3.75
 49
-7.5
 53
120.0
 43
21.51503985325235
 44
0.0
 45
-5.624999987709673
 46
3.247595271287468
 79
     2
 49
3.749999999999999
 49
-7.499999999999999
 53
60.0
 43
21.51503985325235
 44
0.0
 45
0.0000000122903263
 46
6.495190521287468
 79
     2
 49
-7.5
 49
3.75
 47
0.9350132912257434
 98
        3
 10
288.1336439924271
 20
497.9653529593397
 10
99.12810941894258
 20
448.4096492125168
 10
331.1745109362664
 20
272.6271484598578
  0
HATCH
  5
1374
330
1E
100
AcDbEntity
  8
SCHRAFF
100
AcDbHatch
 10
0.0
 20
0.0
 30
0.0
210
0.0
220
0.0
230
1.0
  2
NET
 70
     0
 71
     1
 91
        2
 92
        7
 72
     1
 73
     1
 93
        6
 10
277.0000288199051
 20
564.7052995229462
 42
0.0
 10
277.000028819905
 20
562.4884037408804
 42
0.0
 10
293.1000288199052
 20
562.4884037408805
 42
0.0
 10
293.1000288199052
 20
580.4884037408804
 42
0.0
 10
273.2584736173113
 20
580.4884037408804
 42
0.0
 10
273.7208013661879
 20
579.4969386838706
 42
-0.1095178116832409
 97
        6
330
EC0
330
EAA
330
EAE
330
EAB
330
101D
330
101B
 92
        7
 72
     1
 73
     1
 93
        6
 10
79.90002881990519
 20
562.4884037408803
 42
0.0
 10
96.00002881990519
 20
562.4884037408803
 42
0.0
 10
96.00002881990519
 20
564.7052995229464
 42
-0.1095178116832388
 10
99.27925627362231
 20
579.4969386838706
 42
0.0
 10
99.74158402249914
 20
580.4884037408806
 42
0.0
 10
79.90002881990517
 20
580.4884037408806
 42
0.0
 97
        6
330
EAF
330
EC0
330
1015
330
1017
330
EB1
330
EB3
 75
     0
 76
     1
 52
45.0
 41
20.0
 77
     0
 78
     2
 53
45.0
 43
21.51503985325235
 44
0.0
 45
-1.767766952966368
 46
1.767766952966368
 79
     0
 53
135.0
 43
21.51503985325235
 44
0.0
 45
-1.767766952966368
 46
-1.767766952966368
 79
     0
 47
0.9350132912257434
 98
        2
 10
281.5839477579652
 20
571.8314042180463
 10
87.9000560156037
 20
571.8314042180463
  0
HATCH
  5
13C4
330
1E
100
AcDbEntity
  8
SCHRAFF
100
AcDbHatch
 10
0.0
 20
0.0
 30
0.0
210
0.0
220
0.0
230
1.0
  2
NET
 70
     0
 71
     1
 91
        2
 92
        7
 72
     1
 73
     1
 93
        6
 10
350.3987274066732
 20
547.7359017832604
 42
0.0
 10
351.4267141581559
 20
548.1100583620201
 42
0.0
 10
337.3966159251146
 20
562.1401565950614
 42
0.0
 10
324.6686938637565
 20
549.4122345337035
 42
0.0
 10
336.0531130408601
 20
538.0278153566002
 42
0.0
 10
337.6206950815429
 20
539.5953973972829
 42
-0.1095178116832381
 97
        6
330
FD1
330
FCF
330
E9B
330
E99
330
E9D
330
E8F
 92
        7
 72
     1
 73
     1
 93
        6
 10
474.1216834410449
 20
425.4150890791309
 42
0.0
 10
473.7475268622857
 20
424.3871023276486
 42
-0.1095178116832373
 10
465.6070224763083
 20
411.6090700025183
 42
0.0
 10
464.0394404356251
 20
410.0414879618352
 42
0.0
 10
475.4238596127287
 20
398.6570687847316
 42
0.0
 10
488.1517816740863
 20
411.3849908460893
 42
0.0
 97
        6
330
EA2
330
E9E
330
EA1
330
FC8
330
FCA
330
E8F
 75
     0
 76
     1
 52
45.0
 41
20.0
 77
     0
 78
     2
 53
45.0
 43
21.51503985325235
 44
0.0
 45
-1.767766952966368
 46
1.767766952966368
 79
     0
 53
135.0
 43
21.51503985325235
 44
0.0
 45
-1.767766952966368
 46
-1.767766952966368
 79
     0
 47
0.9350132912257434
 98
        2
 10
338.6598786045038
 20
548.4560713658956
 10
478.0748538016532
 20
411.9441289341375
  0
ARC
  5
13CF
330
1E
100
AcDbEntity
  8
SCHRAFF
100
AcDbCircle
 10
296.0000288199052
 20
524.844788820734
 30
0.0
 40
4.0
100
AcDbArc
 50
45.00000000000057
 51
90.0
  0
HATCH
  5
13D4
330
1E
100
AcDbEntity
  8
SCHRAFF
100
AcDbHatch
 10
0.0
 20
0.0
 30
0.0
210
0.0
220
0.0
230
1.0
  2
_USER
 70
     0
 71
     0
 91
        1
 92
        7
 72
     1
 73
     1
 93
        3
 10
298.8284559446514
 20
527.6732159454802
 42
0.1989123673796591
 10
296.0000288199052
 20
528.844788820734
 42
0.0
 10
296.0000288199052
 20
524.844788820734
 42
0.0
 97
        0
 75
     0
 76
     0
 52
0.0
 41
0.1
 77
     0
 78
     1
 53
0.0
 43
21.51503985325235
 44
0.0
 45
0.0
 46
0.1
 79
     0
 47
0.1160979995277162
 98
        1
 10
296.4989980972027
 20
526.9494824235191
  0
ARC
  5
13D6
102
{ACAD_REACTORS
330
13DA
102
}
330
1E
100
AcDbEntity
  8
SCHRAFF
100
AcDbCircle
 10
293.0247062885583
 20
216.3644376059444
 30
0.0
 40
6.019198632764905
100
AcDbArc
 50
299.6239596238587
 51
15.37604037614148
  0
HATCH
  5
13DA
330
1E
100
AcDbEntity
  8
SCHRAFF
100
AcDbHatch
 10
0.0
 20
0.0
 30
0.0
210
0.0
220
0.0
230
1.0
  2
_USER
 70
     0
 71
     1
 91
        1
 92
        7
 72
     1
 73
     1
 93
        3
 10
298.8284559446514
 20
217.9604457857725
 42
0.0
 10
296.0000288199051
 20
215.1320186610263
 42
0.0
 10
296.0000288199051
 20
211.1320186610262
 42
0.3431180574413684
 97
        3
330
FC9
330
10DA
330
13D6
 75
     0
 76
     0
 52
0.0
 41
0.1
 77
     0
 78
     1
 53
0.0
 43
21.51503985325235
 44
0.0
 45
0.0
 46
0.1
 79
     0
 47
0.0273708450490211
 98
        1
 10
298.042318405131
 20
215.5009830751696
  0
HATCH
  5
1406
330
1E
100
AcDbEntity
  8
SCHRAFF
100
AcDbHatch
 10
0.0
 20
0.0
 30
0.0
210
0.0
220
0.0
230
1.0
  2
NET
 70
     0
 71
     0
 91
        2
 92
        7
 72
     0
 73
     1
 93
       11
 10
293.1000288199052
 20
199.6384037408802
 10
291.2500288199051
 20
201.4884037408804
 10
266.0000288199052
 20
201.4884037408804
 10
266.0000288199051
 20
192.4884037408804
 10
273.3000288199052
 20
192.4884037408804
 10
277.3414807042325
 20
185.4884037408804
 10
288.5000288199051
 20
185.4884037408804
 10
288.5000288199052
 20
183.4884037408804
 10
296.0000288199051
 20
183.4884037408804
 10
296.0000288199051
 20
185.4884037408805
 10
293.1000288199052
 20
185.4884037408806
 97
        0
 92
        7
 72
     0
 73
     1
 93
       11
 10
107.000028819905
 20
201.4884037408804
 10
81.7500288199051
 20
201.4884037408804
 10
79.90002881990512
 20
199.6384037408804
 10
79.90002881990512
 20
185.4884037408803
 10
77.00002881990517
 20
185.4884037408803
 10
77.00002881990515
 20
183.4884037408804
 10
84.60002881990517
 20
183.4884037408804
 10
84.60002881990517
 20
185.4884037408806
 10
95.65857693557793
 20
185.4884037408805
 10
99.70002881990522
 20
192.4884037408804
 10
107.000028819905
 20
192.4884037408804
 97
        0
 75
     0
 76
     1
 52
45.0
 41
20.0
 77
     0
 78
     2
 53
45.0
 43
-29.53982808439235
 44
-72.49985105687653
 45
-1.767766952966368
 46
1.767766952966368
 79
     0
 53
135.0
 43
-29.53982808439235
 44
-72.49985105687653
 45
-1.767766952966368
 46
-1.767766952966368
 79
     0
 47
0.2699286479089143
 98
        2
 10
283.9906489873998
 20
196.5405005539875
 10
87.63413667154015
 20
194.9209293417883
  0
LINE
  5
1407
330
1E
100
AcDbEntity
  8
STEMPEL
100
AcDbLine
 10
296.0000288199051
 20
183.4884037408804
 30
0.0
 11
266.0000288199053
 21
183.4884037408805
 31
0.0
  0
LINE
  5
1408
330
1E
100
AcDbEntity
  8
STEMPEL
100
AcDbLine
 10
273.3000288199051
 20
192.4884037408804
 30
0.0
 11
277.3414807042326
 21
185.4884037408803
 31
0.0
  0
LINE
  5
1409
330
1E
100
AcDbEntity
  8
STEMPEL
100
AcDbLine
 10
288.5000288199052
 20
185.4884037408804
 30
0.0
 11
266.0000288199053
 21
185.4884037408804
 31
0.0
  0
LINE
  5
140A
330
1E
100
AcDbEntity
  8
STEMPEL
100
AcDbLine
 10
288.5000288199052
 20
183.4884037408804
 30
0.0
 11
288.5000288199051
 21
185.4884037408804
 31
0.0
  0
POINT
  5
140B
330
1E
100
AcDbEntity
  8
DEFPOINTS
  6
ByBlock
 62
     0
100
AcDbPoint
 10
278.5000288199052
 20
185.4884037408804
 30
0.0
  0
POINT
  5
140C
330
1E
100
AcDbEntity
  8
DEFPOINTS
  6
ByBlock
 62
     0
100
AcDbPoint
 10
288.5000288199052
 20
183.4884037408804
 30
0.0
  0
POINT
  5
140D
330
1E
100
AcDbEntity
  8
DEFPOINTS
  6
ByBlock
 62
     0
100
AcDbPoint
 10
277.3414807042326
 20
185.4884037408804
 30
0.0
  0
POINT
  5
140E
330
1E
100
AcDbEntity
  8
DEFPOINTS
  6
ByBlock
 62
     0
100
AcDbPoint
 10
277.3414807042326
 20
185.4884037408804
 30
0.0
  0
POINT
  5
140F
330
1E
100
AcDbEntity
  8
DEFPOINTS
  6
ByBlock
 62
     0
100
AcDbPoint
 10
277.3414807042326
 20
185.4884037408803
 30
0.0
  0
POINT
  5
1410
330
1E
100
AcDbEntity
  8
DEFPOINTS
  6
ByBlock
 62
     0
100
AcDbPoint
 10
288.5000288199052
 20
183.4884037408804
 30
0.0
  0
LINE
  5
1411
330
1E
100
AcDbEntity
  8
STEMPEL
100
AcDbLine
 10
107.000028819905
 20
183.4884037408804
 30
0.0
 11
77.00002881990515
 21
183.4884037408804
 31
0.0
  0
LINE
  5
1412
330
1E
100
AcDbEntity
  8
STEMPEL
100
AcDbLine
 10
107.000028819905
 20
185.4884037408805
 30
0.0
 11
84.60002881990517
 21
185.4884037408805
 31
0.0
  0
LINE
  5
1413
330
1E
100
AcDbEntity
  8
STEMPEL
100
AcDbLine
 10
84.60002881990517
 20
183.4884037408804
 30
0.0
 11
84.60002881990517
 21
185.4884037408804
 31
0.0
  0
LINE
  5
1414
330
1E
100
AcDbEntity
  8
STEMPEL
100
AcDbLine
 10
99.70002881990518
 20
192.4884037408804
 30
0.0
 11
95.65857693557779
 21
185.4884037408803
 31
0.0
  0
POINT
  5
1415
330
1E
100
AcDbEntity
  8
DEFPOINTS
  6
ByBlock
 62
     0
100
AcDbPoint
 10
95.65857693557786
 20
185.4884037408804
 30
0.0
  0
POINT
  5
1416
330
1E
100
AcDbEntity
  8
DEFPOINTS
  6
ByBlock
 62
     0
100
AcDbPoint
 10
84.60002881990517
 20
183.4884037408804
 30
0.0
  0
POINT
  5
1417
330
1E
100
AcDbEntity
  8
DEFPOINTS
  6
ByBlock
 62
     0
100
AcDbPoint
 10
84.60002881990517
 20
185.4884037408804
 30
0.0
  0
LINE
  5
1443
330
1E
100
AcDbEntity
  8
BEM
100
AcDbLine
 10
417.7239462679064
 20
491.7123211888815
 30
0.0
 11
423.0692000939043
 21
497.0575750148795
 31
0.0
  0
LINE
  5
1444
330
1E
100
AcDbEntity
  8
BEM
100
AcDbLine
 10
186.5000288199052
 20
587.4884037408807
 30
0.0
 11
186.5000288199052
 21
598.4521940580026
 31
0.0
  0
ARC
  5
1445
330
1E
100
AcDbEntity
  8
BEM
100
AcDbCircle
 10
186.5000288199052
 20
260.4884037408804
 30
0.0
 40
371.7029103214927
100
AcDbArc
 50
46.07902406034416
 51
88.92097593965585
  0
SOLID
  5
1446
330
1E
100
AcDbEntity
  8
BEM
100
AcDbTrace
 10
445.1546952698569
 20
529.0576620653866
 30
0.0
 11
443.5203884011395
 21
527.3922835788835
 31
0.0
 12
449.3336772950077
 22
523.3220522159829
 32
0.0
 13
449.3336772950077
 23
523.3220522159829
 33
0.0
  0
SOLID
  5
1447
330
1E
100
AcDbEntity
  8
BEM
100
AcDbTrace
 10
193.488733015461
 20
630.9587862622276
 30
0.0
 11
193.5107039670998
 21
633.2920161526859
 31
0.0
 12
186.5000288199052
 22
632.191314062373
 32
0.0
 13
186.5000288199052
 23
632.191314062373
 33
0.0
  0
MTEXT
  5
1448
330
1E
100
AcDbEntity
  8
BEM
 62
     1
100
AcDbMText
 10
331.2320166722003
 20
609.9023317231092
 30
0.0
 40
7.0
 41
0.0
 71
     5
 72
     1
  1
\A1;45°
 11
0.9238795325112867
 21
-0.3826834323650898
 31
0.0
 73
     1
 44
1.0
  0
LINE
  5
1452
330
1E
100
AcDbEntity
  8
BEM
100
AcDbLine
 10
186.5000288199052
 20
616.0333857338611
 30
0.0
 11
186.5000288199052
 21
634.1913140623731
 31
0.0
  0
LINE
  5
1453
330
1E
100
AcDbEntity
  8
BEM
100
AcDbLine
 10
433.5642682351158
 20
507.552643156091
 30
0.0
 11
450.7478908573808
 21
524.736265778356
 31
0.0
  0
DIMENSION
  5
14A5
330
1E
100
AcDbEntity
  8
BEM
100
AcDbDimension
  2
*D8
 10
43.4859317512055
 20
120.4884037408804
 30
0.0
 11
36.98593175120548
 21
190.4884037408804
 31
0.0
 70
    32
 71
     5
 42
140.0000000000001
  3
Standard
100
AcDbAlignedDimension
 13
186.5000288199052
 23
260.4884037408805
 33
0.0
 14
109.8653658613052
 24
120.4884037408804
 34
0.0
 50
90.0
100
AcDbRotatedDimension
1001
ACAD
1000
DSTYLE
1002
{
1070
    40
1040
2.0
1070
    41
1040
3.5
1070
    42
1040
1.0
1070
    43
1040
7.0
1070
    44
1040
1.0
1070
    73
1070
     0
1070
    74
1070
     0
1070
    77
1070
     1
1070
    78
1070
     8
1070
    79
1070
     2
1070
   140
1040
3.5
1070
   141
1040
1.5
1070
   146
1040
0.5142857142857144
1070
   147
1040
1.5
1070
   172
1070
     1
1070
   178
1070
     1
1070
   179
1070
     2
1070
   271
1070
     2
1070
   272
1070
     2
1070
   284
1070
     8
1070
   285
1070
     8
1070
   286
1070
     8
1002
}
  0
ENDSEC
  0
SECTION
  2
OBJECTS
  0
DICTIONARY
  5
C
330
0
100
AcDbDictionary
281
     1
  3
ACAD_COLOR
350
11A
  3
ACAD_GROUP
350
D
  3
ACAD_LAYOUT
350
19
  3
ACAD_MATERIAL
350
119
  3
ACAD_MLINESTYLE
350
16
  3
ACAD_PLOTSETTINGS
350
18
  3
ACAD_PLOTSTYLENAME
350
E
  3
AcDbVariableDictionary
350
125
  0
DICTIONARY
  5
DB
330
1E
100
AcDbDictionary
280
     1
281
     1
  3
ACAD_LAYOUTSELFREF
360
10F
  0
DICTIONARY
  5
DD
330
1A
100
AcDbDictionary
280
     1
281
     1
  3
ACAD_LAYOUTSELFREF
360
10E
  0
DICTIONARY
  5
11A
102
{ACAD_REACTORS
330
C
102
}
330
C
100
AcDbDictionary
281
     1
  0
DICTIONARY
  5
D
102
{ACAD_REACTORS
330
C
102
}
330
C
100
AcDbDictionary
281
     1
  0
DICTIONARY
  5
19
102
{ACAD_REACTORS
330
C
102
}
330
C
100
AcDbDictionary
281
     1
  3
Layout1
350
1D
  3
Model
350
21
  0
DICTIONARY
  5
119
102
{ACAD_REACTORS
330
C
102
}
330
C
100
AcDbDictionary
281
     1
  0
DICTIONARY
  5
16
102
{ACAD_REACTORS
330
C
102
}
330
C
100
AcDbDictionary
281
     1
  3
Standard
350
17
  0
DICTIONARY
  5
18
102
{ACAD_REACTORS
330
C
102
}
330
C
100
AcDbDictionary
281
     1
  0
ACDBDICTIONARYWDFLT
  5
E
102
{ACAD_REACTORS
330
C
102
}
330
C
100
AcDbDictionary
281
     1
  3
Normal
350
F
100
AcDbDictionaryWithDefault
340
F
  0
DICTIONARY
  5
125
102
{ACAD_REACTORS
330
C
102
}
330
C
100
AcDbDictionary
281
     1
  3
DIMASSOC
350
126
  3
PROJECTNAME
350
127
  0
XRECORD
  5
10F
102
{ACAD_REACTORS
330
DB
102
}
330
DB
100
AcDbXrecord
280
     1
340
1E
  0
XRECORD
  5
10E
102
{ACAD_REACTORS
330
DD
102
}
330
DD
100
AcDbXrecord
280
     1
340
1A
  0
LAYOUT
  5
1D
102
{ACAD_REACTORS
330
19
102
}
330
19
100
AcDbPlotSettings
  1

  2
\\NT_WORK01\HP LaserJet 5000 PCL 6
  4

  6

 40
0.0
 41
0.0
 42
0.0
 43
0.0
 44
0.0
 45
0.0
 46
0.0
 47
0.0
 48
0.0
 49
0.0
140
0.0
141
0.0
142
1.0
143
1.0
 70
   688
 72
     0
 73
     0
 74
     5
  7

 75
    16
147
1.0
 76
     0
 77
     2
 78
   300
148
0.0
149
0.0
100
AcDbLayout
  1
Layout1
 70
     0
 71
     1
 10
0.0
 20
0.0
 11
12.0
 21
9.0
 12
0.0
 22
0.0
 32
0.0
 14
1.000000000000000E+20
 24
1.000000000000000E+20
 34
1.000000000000000E+20
 15
-1.000000000000000E+20
 25
-1.000000000000000E+20
 35
-1.000000000000000E+20
146
0.0
 13
0.0
 23
0.0
 33
0.0
 16
1.0
 26
0.0
 36
0.0
 17
0.0
 27
1.0
 37
0.0
 76
     0
330
1A
  0
LAYOUT
  5
21
102
{ACAD_REACTORS
330
19
102
}
330
19
100
AcDbPlotSettings
  1

  2
none_device
  4
Letter_(8.50_x_11.00_Inches)
  6

 40
6.349999904632568
 41
6.349999904632568
 42
6.350006103515625
 43
6.350006103515625
 44
215.8999938964844
 45
279.3999938964844
 46
0.0
 47
0.0
 48
0.0
 49
0.0
140
0.0
141
0.0
142
1.0
143
1.0
 70
 11952
 72
     0
 73
     1
 74
     0
  7

 75
     0
147
1.0
 76
     0
 77
     2
 78
   300
148
3232.979308760778
149
108.7792942125838
100
AcDbLayout
  1
Model
 70
     1
 71
     0
 10
0.0
 20
0.0
 11
12.0
 21
9.0
 12
0.0
 22
0.0
 32
0.0
 14
0.0
 24
0.0
 34
0.0
 15
0.0
 25
0.0
 35
0.0
146
0.0
 13
0.0
 23
0.0
 33
0.0
 16
1.0
 26
0.0
 36
0.0
 17
0.0
 27
1.0
 37
0.0
 76
     0
330
1E
  0
MLINESTYLE
  5
17
102
{ACAD_REACTORS
330
16
102
}
330
16
100
AcDbMlineStyle
  2
STANDARD
 70
     0
  3

 62
   256
 51
90.0
 52
90.0
 71
     2
 49
0.5
 62
   256
  6
BYLAYER
 49
-0.5
 62
   256
  6
BYLAYER
  0
ACDBPLACEHOLDER
  5
F
102
{ACAD_REACTORS
330
E
102
}
330
E
  0
DICTIONARYVAR
  5
126
102
{ACAD_REACTORS
330
125
102
}
330
125
100
DictionaryVariables
280
     0
  1
1
  0
DICTIONARYVAR
  5
127
102
{ACAD_REACTORS
330
125
102
}
330
125
100
DictionaryVariables
280
     0
  1

  0
ENDSEC
  0
EOF
