  0
SECTION
  2
HEADER
  9
$ACADVER
  1
AC1018
  9
$ACADMAINTVER
 70
     2
  9
$DWGCODEPAGE
  3
ANSI_1252
  9
$INSBASE
 10
0.0
 20
0.0
 30
0.0
  9
$EXTMIN
 10
-0.0064041928749248
 20
-0.0090573584946014
 30
-0.0000000000112498
  9
$EXTMAX
 10
420.0064100605654
 20
594.0090656570857
 30
0.0000000000002956
  9
$LIMMIN
 10
0.0
 20
0.0
  9
$LIMMAX
 10
419.9999999999999
 20
594.0
  9
$ORTHOMODE
 70
     0
  9
$REGENMODE
 70
     1
  9
$FILLMODE
 70
     1
  9
$QTEXTMODE
 70
     0
  9
$MIRRTEXT
 70
     1
  9
$LTSCALE
 40
20.0
  9
$ATTMODE
 70
     1
  9
$TEXTSIZE
 40
3.5
  9
$TRACEWID
 40
0.5
  9
$TEXTSTYLE
  7
STANDARD
  9
$CLAYER
  8
STEMPEL
  9
$CELTYPE
  6
ByLayer
  9
$CECOLOR
 62
   256
  9
$CELTSCALE
 40
1.0
  9
$DISPSILH
 70
     0
  9
$DIMSCALE
 40
2.0
  9
$DIMASZ
 40
3.5
  9
$DIMEXO
 40
1.0
  9
$DIMDLI
 40
7.0
  9
$DIMRND
 40
0.0
  9
$DIMDLE
 40
0.0
  9
$DIMEXE
 40
1.0
  9
$DIMTP
 40
0.0
  9
$DIMTM
 40
0.0
  9
$DIMTXT
 40
3.5
  9
$DIMCEN
 40
1.5
  9
$DIMTSZ
 40
0.0
  9
$DIMTOL
 70
     0
  9
$DIMLIM
 70
     0
  9
$DIMTIH
 70
     0
  9
$DIMTOH
 70
     0
  9
$DIMSE1
 70
     0
  9
$DIMSE2
 70
     0
  9
$DIMTAD
 70
     1
  9
$DIMZIN
 70
     8
  9
$DIMBLK
  1

  9
$DIMASO
 70
     1
  9
$DIMSHO
 70
     0
  9
$DIMPOST
  1

  9
$DIMAPOST
  1

  9
$DIMALT
 70
     0
  9
$DIMALTD
 70
     2
  9
$DIMALTF
 40
25.4
  9
$DIMLFAC
 40
1.0
  9
$DIMTOFL
 70
     1
  9
$DIMTVP
 40
0.0
  9
$DIMTIX
 70
     0
  9
$DIMSOXD
 70
     0
  9
$DIMSAH
 70
     0
  9
$DIMBLK1
  1

  9
$DIMBLK2
  1

  9
$DIMSTYLE
  2
Standard
  9
$DIMCLRD
 70
     0
  9
$DIMCLRE
 70
     0
  9
$DIMCLRT
 70
     1
  9
$DIMTFAC
 40
0.5142857142857144
  9
$DIMGAP
 40
1.5
  9
$DIMJUST
 70
     0
  9
$DIMSD1
 70
     0
  9
$DIMSD2
 70
     0
  9
$DIMTOLJ
 70
     1
  9
$DIMTZIN
 70
     8
  9
$DIMALTZ
 70
     8
  9
$DIMALTTZ
 70
     8
  9
$DIMUPT
 70
     0
  9
$DIMDEC
 70
     2
  9
$DIMTDEC
 70
     2
  9
$DIMALTU
 70
     2
  9
$DIMALTTD
 70
     2
  9
$DIMTXSTY
  7
STANDARD
  9
$DIMAUNIT
 70
     0
  9
$DIMADEC
 70
     2
  9
$DIMALTRND
 40
0.0
  9
$DIMAZIN
 70
     2
  9
$DIMDSEP
 70
    46
  9
$DIMATFIT
 70
     3
  9
$DIMFRAC
 70
     0
  9
$DIMLDRBLK
  1

  9
$DIMLUNIT
 70
     2
  9
$DIMLWD
 70
    -2
  9
$DIMLWE
 70
    -2
  9
$DIMTMOVE
 70
     0
  9
$LUNITS
 70
     2
  9
$LUPREC
 70
     2
  9
$SKETCHINC
 40
1.0
  9
$FILLETRAD
 40
0.0
  9
$AUNITS
 70
     0
  9
$AUPREC
 70
     0
  9
$MENU
  1
ACAD
  9
$ELEVATION
 40
0.0
  9
$PELEVATION
 40
0.0
  9
$THICKNESS
 40
0.0
  9
$LIMCHECK
 70
     0
  9
$CHAMFERA
 40
0.0
  9
$CHAMFERB
 40
0.0
  9
$CHAMFERC
 40
0.0
  9
$CHAMFERD
 40
0.0
  9
$SKPOLY
 70
     0
  9
$TDCREATE
 40
2455397.823042361
  9
$TDUCREATE
 40
2455397.781375695
  9
$TDUPDATE
 40
2455532.456334815
  9
$TDUUPDATE
 40
2455532.414668148
  9
$TDINDWG
 40
0.0640967708
  9
$TDUSRTIMER
 40
0.0640967708
  9
$USRTIMER
 70
     1
  9
$ANGBASE
 50
0.0
  9
$ANGDIR
 70
     0
  9
$PDMODE
 70
     0
  9
$PDSIZE
 40
0.0
  9
$PLINEWID
 40
0.0
  9
$SPLFRAME
 70
     0
  9
$SPLINETYPE
 70
     6
  9
$SPLINESEGS
 70
     8
  9
$HANDSEED
  5
B4C
  9
$SURFTAB1
 70
     6
  9
$SURFTAB2
 70
     6
  9
$SURFTYPE
 70
     6
  9
$SURFU
 70
     6
  9
$SURFV
 70
     6
  9
$UCSBASE
  2

  9
$UCSNAME
  2

  9
$UCSORG
 10
0.0
 20
0.0
 30
0.0
  9
$UCSXDIR
 10
1.0
 20
0.0
 30
0.0
  9
$UCSYDIR
 10
0.0
 20
1.0
 30
0.0
  9
$UCSORTHOREF
  2

  9
$UCSORTHOVIEW
 70
     0
  9
$UCSORGTOP
 10
0.0
 20
0.0
 30
0.0
  9
$UCSORGBOTTOM
 10
0.0
 20
0.0
 30
0.0
  9
$UCSORGLEFT
 10
0.0
 20
0.0
 30
0.0
  9
$UCSORGRIGHT
 10
0.0
 20
0.0
 30
0.0
  9
$UCSORGFRONT
 10
0.0
 20
0.0
 30
0.0
  9
$UCSORGBACK
 10
0.0
 20
0.0
 30
0.0
  9
$PUCSBASE
  2

  9
$PUCSNAME
  2

  9
$PUCSORG
 10
0.0
 20
0.0
 30
0.0
  9
$PUCSXDIR
 10
1.0
 20
0.0
 30
0.0
  9
$PUCSYDIR
 10
0.0
 20
1.0
 30
0.0
  9
$PUCSORTHOREF
  2

  9
$PUCSORTHOVIEW
 70
     0
  9
$PUCSORGTOP
 10
0.0
 20
0.0
 30
0.0
  9
$PUCSORGBOTTOM
 10
0.0
 20
0.0
 30
0.0
  9
$PUCSORGLEFT
 10
0.0
 20
0.0
 30
0.0
  9
$PUCSORGRIGHT
 10
0.0
 20
0.0
 30
0.0
  9
$PUCSORGFRONT
 10
0.0
 20
0.0
 30
0.0
  9
$PUCSORGBACK
 10
0.0
 20
0.0
 30
0.0
  9
$USERI1
 70
     0
  9
$USERI2
 70
     0
  9
$USERI3
 70
     0
  9
$USERI4
 70
     0
  9
$USERI5
 70
     0
  9
$USERR1
 40
0.0
  9
$USERR2
 40
0.0
  9
$USERR3
 40
0.0
  9
$USERR4
 40
0.0
  9
$USERR5
 40
0.0
  9
$WORLDVIEW
 70
     1
  9
$SHADEDGE
 70
     3
  9
$SHADEDIF
 70
    70
  9
$TILEMODE
 70
     1
  9
$MAXACTVP
 70
    16
  9
$PINSBASE
 10
0.0
 20
0.0
 30
0.0
  9
$PLIMCHECK
 70
     0
  9
$PEXTMIN
 10
1.000000000000000E+20
 20
1.000000000000000E+20
 30
1.000000000000000E+20
  9
$PEXTMAX
 10
-1.000000000000000E+20
 20
-1.000000000000000E+20
 30
-1.000000000000000E+20
  9
$PLIMMIN
 10
0.0
 20
0.0
  9
$PLIMMAX
 10
12.0
 20
9.0
  9
$UNITMODE
 70
     0
  9
$VISRETAIN
 70
     0
  9
$PLINEGEN
 70
     0
  9
$PSLTSCALE
 70
     0
  9
$TREEDEPTH
 70
  3020
  9
$CMLSTYLE
  2
Standard
  9
$CMLJUST
 70
     0
  9
$CMLSCALE
 40
1.0
  9
$PROXYGRAPHICS
 70
     1
  9
$MEASUREMENT
 70
     0
  9
$CELWEIGHT
370
    -1
  9
$ENDCAPS
280
     0
  9
$JOINSTYLE
280
     0
  9
$LWDISPLAY
290
     0
  9
$INSUNITS
 70
     0
  9
$HYPERLINKBASE
  1

  9
$STYLESHEET
  1
monochrome 1.ctb
  9
$XEDIT
290
     1
  9
$CEPSNTYPE
380
     0
  9
$PSTYLEMODE
290
     1
  9
$FINGERPRINTGUID
  2
{D68B0D02-A558-11D7-B632-000102183313}
  9
$VERSIONGUID
  2
{5DBEC5F1-105A-49A6-B0E2-7DAADDC63F50}
  9
$EXTNAMES
290
     1
  9
$PSVPSCALE
 40
0.0
  9
$OLESTARTUP
290
     0
  9
$SORTENTS
280
   127
  9
$INDEXCTL
280
     0
  9
$HIDETEXT
280
     0
  9
$XCLIPFRAME
290
     0
  9
$HALOGAP
280
     0
  9
$OBSCOLOR
 70
   257
  9
$OBSLTYPE
280
     0
  9
$INTERSECTIONDISPLAY
280
     0
  9
$INTERSECTIONCOLOR
 70
   257
  9
$DIMASSOC
280
     1
  9
$PROJECTNAME
  1

  0
ENDSEC
  0
SECTION
  2
CLASSES
  0
CLASS
  1
ACDBDICTIONARYWDFLT
  2
AcDbDictionaryWithDefault
  3
ObjectDBX Classes
 90
        0
 91
        1
280
     0
281
     0
  0
CLASS
  1
DICTIONARYVAR
  2
AcDbDictionaryVar
  3
ObjectDBX Classes
 90
        0
 91
        2
280
     0
281
     0
  0
ENDSEC
  0
SECTION
  2
TABLES
  0
TABLE
  2
VPORT
  5
8
330
0
100
AcDbSymbolTable
 70
     3
  0
VPORT
  5
B4B
330
8
100
AcDbSymbolTableRecord
100
AcDbViewportTableRecord
  2
*Active
 70
     0
 10
0.0
 20
0.0
 11
1.0
 21
1.0
 12
210.0000029338453
 22
297.0000041492956
 13
0.0
 23
0.0
 14
1.0
 24
1.0
 15
10.0
 25
10.0
 16
0.0
 26
0.0
 36
1.0
 17
0.0
 27
0.0
 37
0.0
 40
598.8150392175905
 41
1.336927223719676
 42
50.0
 43
0.0
 44
0.0
 50
0.0
 51
0.0
 71
     0
 72
  1500
 73
     1
 74
     0
 75
     0
 76
     0
 77
     0
 78
     0
281
     0
 65
     1
110
0.0
120
0.0
130
0.0
111
1.0
121
0.0
131
0.0
112
0.0
122
1.0
132
0.0
 79
     0
146
0.0
  0
ENDTAB
  0
TABLE
  2
LTYPE
  5
5
330
0
100
AcDbSymbolTable
 70
     2
  0
LTYPE
  5
13
330
5
100
AcDbSymbolTableRecord
100
AcDbLinetypeTableRecord
  2
ByBlock
 70
     0
  3

 72
    65
 73
     0
 40
0.0
  0
LTYPE
  5
14
330
5
100
AcDbSymbolTableRecord
100
AcDbLinetypeTableRecord
  2
ByLayer
 70
     0
  3

 72
    65
 73
     0
 40
0.0
  0
LTYPE
  5
15
330
5
100
AcDbSymbolTableRecord
100
AcDbLinetypeTableRecord
  2
Continuous
 70
     0
  3
Solid line
 72
    65
 73
     0
 40
0.0
  0
LTYPE
  5
25
330
5
100
AcDbSymbolTableRecord
100
AcDbLinetypeTableRecord
  2
STRICHPUNKT
 70
     0
  3
__ . __ . __ . __ . __ . __ . __ . __ . __ . __
 72
    65
 73
     4
 40
1.0
 49
0.5
 74
     0
 49
-0.25
 74
     0
 49
0.0
 74
     0
 49
-0.25
 74
     0
  0
ENDTAB
  0
TABLE
  2
LAYER
  5
2
330
0
100
AcDbSymbolTable
 70
     9
  0
LAYER
  5
10
330
2
100
AcDbSymbolTableRecord
100
AcDbLayerTableRecord
  2
0
 70
     0
 62
     7
  6
Continuous
370
    -3
390
F
  0
LAYER
  5
2A
330
2
100
AcDbSymbolTableRecord
100
AcDbLayerTableRecord
  2
VOLL
 70
     0
 62
     1
  6
Continuous
370
    -3
390
F
  0
LAYER
  5
2B
330
2
100
AcDbSymbolTableRecord
100
AcDbLayerTableRecord
  2
HILF
 70
     0
 62
     2
  6
Continuous
370
    -3
390
F
  0
LAYER
  5
2C
330
2
100
AcDbSymbolTableRecord
100
AcDbLayerTableRecord
  2
MITTEL
 70
     0
 62
     2
  6
STRICHPUNKT
370
    -3
390
F
  0
LAYER
  5
2F
330
2
100
AcDbSymbolTableRecord
100
AcDbLayerTableRecord
  2
BEM
 70
     0
 62
     7
  6
Continuous
370
    -3
390
F
  0
LAYER
  5
30
330
2
100
AcDbSymbolTableRecord
100
AcDbLayerTableRecord
  2
STEMPEL
 70
     0
 62
     3
  6
Continuous
370
    -3
390
F
  0
LAYER
  5
31
330
2
100
AcDbSymbolTableRecord
100
AcDbLayerTableRecord
  2
TEXT
 70
     0
 62
     7
  6
Continuous
370
    -3
390
F
  0
LAYER
  5
199
330
2
100
AcDbSymbolTableRecord
100
AcDbLayerTableRecord
  2
DEFPOINTS
 70
     0
 62
     7
  6
Continuous
290
     0
370
    -3
390
F
  0
LAYER
  5
19A
330
2
100
AcDbSymbolTableRecord
100
AcDbLayerTableRecord
  2
SCHRAFF
 70
     0
 62
     7
  6
Continuous
370
    -3
390
F
  0
ENDTAB
  0
TABLE
  2
STYLE
  5
3
330
0
100
AcDbSymbolTable
 70
     2
  0
STYLE
  5
11
330
3
100
AcDbSymbolTableRecord
100
AcDbTextStyleTableRecord
  2
STANDARD
 70
     0
 40
0.0
 41
0.8
 50
0.0
 71
     0
 42
3.5
  3
simplex.shx
  4

  0
STYLE
  5
24
330
3
100
AcDbSymbolTableRecord
100
AcDbTextStyleTableRecord
  2
GREEKS
 70
     0
 40
0.0
 41
0.8
 50
0.0
 71
     0
 42
2.5
  3
SIMPLEX.shx
  4

  0
ENDTAB
  0
TABLE
  2
VIEW
  5
6
330
0
100
AcDbSymbolTable
 70
     0
  0
ENDTAB
  0
TABLE
  2
UCS
  5
7
330
0
100
AcDbSymbolTable
 70
     0
  0
ENDTAB
  0
TABLE
  2
APPID
  5
9
330
0
100
AcDbSymbolTable
 70
     1
  0
APPID
  5
12
330
9
100
AcDbSymbolTableRecord
100
AcDbRegAppTableRecord
  2
ACAD
 70
     0
  0
ENDTAB
  0
TABLE
  2
DIMSTYLE
  5
A
330
0
100
AcDbSymbolTable
 70
     1
100
AcDbDimStyleTable
 71
     1
340
9D
  0
DIMSTYLE
105
9D
102
{ACAD_REACTORS
330
9B9
330
9BA
330
9E5
330
9E6
102
}
330
A
100
AcDbSymbolTableRecord
100
AcDbDimStyleTableRecord
  2
Standard
 70
     0
340
11
  0
ENDTAB
  0
TABLE
  2
BLOCK_RECORD
  5
1
330
0
100
AcDbSymbolTable
 70
     5
  0
BLOCK_RECORD
  5
1E
102
{ACAD_XDICTIONARY
360
A0
102
}
330
1
100
AcDbSymbolTableRecord
100
AcDbBlockTableRecord
  2
*Model_Space
340
21
  0
BLOCK_RECORD
  5
1A
102
{ACAD_XDICTIONARY
360
A2
102
}
330
1
100
AcDbSymbolTableRecord
100
AcDbBlockTableRecord
  2
*Paper_Space
340
1D
  0
BLOCK_RECORD
  5
22
330
1
100
AcDbSymbolTableRecord
100
AcDbBlockTableRecord
  2
LOGO
340
0
102
{BLKREFS
331
9B
102
}
  0
BLOCK_RECORD
  5
A04
330
1
100
AcDbSymbolTableRecord
100
AcDbBlockTableRecord
  2
*D1
340
0
  0
BLOCK_RECORD
  5
A10
330
1
100
AcDbSymbolTableRecord
100
AcDbBlockTableRecord
  2
*D2
340
0
  0
BLOCK_RECORD
  5
A42
330
1
100
AcDbSymbolTableRecord
100
AcDbBlockTableRecord
  2
*D3
340
0
  0
BLOCK_RECORD
  5
A4E
330
1
100
AcDbSymbolTableRecord
100
AcDbBlockTableRecord
  2
*D4
340
0
  0
ENDTAB
  0
ENDSEC
  0
SECTION
  2
BLOCKS
  0
BLOCK
  5
35
330
1E
100
AcDbEntity
  8
0
100
AcDbBlockBegin
  2
*Model_Space
 70
     0
 10
0.0
 20
0.0
 30
0.0
  3
*Model_Space
  1

  0
ENDBLK
  5
36
330
1E
100
AcDbEntity
  8
0
100
AcDbBlockEnd
  0
BLOCK
  5
33
330
1A
100
AcDbEntity
 67
     1
  8
0
100
AcDbBlockBegin
  2
*Paper_Space
 70
     0
 10
0.0
 20
0.0
 30
0.0
  3
*Paper_Space
  1

  0
ENDBLK
  5
34
330
1A
100
AcDbEntity
 67
     1
  8
0
100
AcDbBlockEnd
  0
BLOCK
  5
37
330
22
100
AcDbEntity
  8
0
100
AcDbBlockBegin
  2
LOGO
 70
     0
 10
0.0
 20
0.0
 30
0.0
  3
LOGO
  1

  0
ARC
  5
38
330
22
100
AcDbEntity
  8
0
100
AcDbCircle
 10
11.59973089678112
 20
-9.271599258481501
 30
0.0
 40
4.5
100
AcDbArc
 50
270.0
 51
231.0575587310159
  0
LINE
  5
39
330
22
100
AcDbEntity
  8
0
100
AcDbLine
 10
3.599730896781125
 20
-4.771599258481529
 30
0.0
 11
3.599730896781153
 21
-11.77159925848133
 31
0.0
  0
LINE
  5
3A
330
22
100
AcDbEntity
  8
0
100
AcDbLine
 10
2.599730896781125
 20
-4.771599258481529
 30
0.0
 11
2.599730896781153
 21
-11.77159925848133
 31
0.0
  0
CIRCLE
  5
3B
330
22
100
AcDbEntity
  8
0
100
AcDbCircle
 10
11.59973089678112
 20
-9.271599258481501
 30
0.0
 40
3.5
  0
ARC
  5
3C
330
22
100
AcDbEntity
  8
0
100
AcDbCircle
 10
31.59973089678115
 20
-9.271599258481472
 30
0.0
 40
4.5
100
AcDbArc
 50
270.0
 51
231.0575587310182
  0
LINE
  5
3D
330
22
100
AcDbEntity
  8
0
100
AcDbLine
 10
17.59973089678112
 20
-4.771599258481472
 30
0.0
 11
17.59973089678115
 21
-13.77159925848147
 31
0.0
  0
ARC
  5
3E
330
22
100
AcDbEntity
  8
0
100
AcDbCircle
 10
22.59973089678116
 20
-7.271599258481472
 30
0.0
 40
2.5
100
AcDbArc
 50
293.1161887722295
 51
90.0
  0
CIRCLE
  5
3F
330
22
100
AcDbEntity
  8
0
100
AcDbCircle
 10
31.59973089678115
 20
-9.271599258481472
 30
0.0
 40
3.5
  0
ARC
  5
40
330
22
100
AcDbEntity
  8
0
100
AcDbCircle
 10
4.599730896781153
 20
-11.77159925848133
 30
0.0
 40
1.0
100
AcDbArc
 50
180.0
 51
270.0
  0
ARC
  5
41
330
22
100
AcDbEntity
  8
0
100
AcDbCircle
 10
4.599730896781153
 20
-11.77159925848133
 30
0.0
 40
2.0
100
AcDbArc
 50
179.9999999999992
 51
270.0
  0
LINE
  5
42
330
22
100
AcDbEntity
  8
0
100
AcDbLine
 10
11.59973089678115
 20
-13.77159925848144
 30
0.0
 11
4.599730896781153
 21
-13.77159925848147
 31
0.0
  0
LINE
  5
43
330
22
100
AcDbEntity
  8
0
100
AcDbLine
 10
8.771303772034769
 20
-12.77159925848136
 30
0.0
 11
4.599730896781153
 21
-12.77159925848133
 31
0.0
  0
LINE
  5
44
330
22
100
AcDbEntity
  8
0
100
AcDbLine
 10
31.59973089678115
 20
-13.77159925848147
 30
0.0
 11
23.6715276665056
 21
-13.77159925848144
 31
0.0
  0
LINE
  5
45
330
22
100
AcDbEntity
  8
0
100
AcDbLine
 10
23.56565672307022
 20
-9.51278021337896
 30
0.0
 11
24.4388546544846
 21
-12.77159925848144
 31
0.0
  0
LINE
  5
46
330
22
100
AcDbEntity
  8
0
100
AcDbLine
 10
22.59973089678116
 20
-9.771599258481472
 30
0.0
 11
18.59973089678112
 21
-9.771599258481472
 31
0.0
  0
LINE
  5
47
330
22
100
AcDbEntity
  8
0
100
AcDbLine
 10
18.59973089678115
 20
-13.77159925848144
 30
0.0
 11
17.59973089678115
 21
-13.77159925848144
 31
0.0
  0
LINE
  5
48
330
22
100
AcDbEntity
  8
0
100
AcDbLine
 10
18.59973089678115
 20
-9.771599258481472
 30
0.0
 11
18.59973089678115
 21
-13.77159925848144
 31
0.0
  0
LINE
  5
49
330
22
100
AcDbEntity
  8
0
100
AcDbLine
 10
22.59973089678116
 20
-9.771599258481472
 30
0.0
 11
23.67152766650562
 21
-13.77159925848147
 31
0.0
  0
ARC
  5
4A
330
22
100
AcDbEntity
  8
0
100
AcDbCircle
 10
22.59973089678116
 20
-7.271599258481472
 30
0.0
 40
2.5
100
AcDbArc
 50
270.0
 51
270.0000000000007
  0
LINE
  5
4B
330
22
100
AcDbEntity
  8
0
100
AcDbLine
 10
28.77130377203494
 20
-12.77159925848147
 30
0.0
 11
24.43885465448463
 21
-12.77159925848144
 31
0.0
  0
LINE
  5
4C
330
22
100
AcDbEntity
  8
0
100
AcDbLine
 10
3.599730896781125
 20
-4.771599258481472
 30
0.0
 11
2.599730896781125
 21
-4.771599258481472
 31
0.0
  0
LINE
  5
4D
330
22
100
AcDbEntity
  8
0
100
AcDbLine
 10
22.59973089678116
 20
-8.771599258481472
 30
0.0
 11
18.59973089678115
 21
-8.771599258481472
 31
0.0
  0
LINE
  5
4E
330
22
100
AcDbEntity
  8
0
100
AcDbLine
 10
22.59973089678116
 20
-5.771599258481472
 30
0.0
 11
18.59973089678115
 21
-5.771599258481472
 31
0.0
  0
LINE
  5
4F
330
22
100
AcDbEntity
  8
0
100
AcDbLine
 10
22.59973089678116
 20
-4.771599258481472
 30
0.0
 11
17.59973089678115
 21
-4.771599258481472
 31
0.0
  0
LINE
  5
50
330
22
100
AcDbEntity
  8
0
100
AcDbLine
 10
18.59973089678115
 20
-5.771599258481472
 30
0.0
 11
18.59973089678115
 21
-8.771599258481472
 31
0.0
  0
ARC
  5
51
330
22
100
AcDbEntity
  8
0
100
AcDbCircle
 10
22.59973089678116
 20
-7.271599258481472
 30
0.0
 40
1.5
100
AcDbArc
 50
270.0
 51
90.0
  0
ENDBLK
  5
52
330
22
100
AcDbEntity
  8
0
100
AcDbBlockEnd
  0
BLOCK
  5
A0E
330
A04
100
AcDbEntity
  8
0
100
AcDbBlockBegin
  2
*D1
 70
     1
 10
0.0
 20
0.0
 30
0.0
  3
*D1
  1

  0
LINE
  5
A5A
330
A04
100
AcDbEntity
  8
BEM
 62
     0
370
    -2
100
AcDbLine
 10
136.5398569042974
 20
200.9882547977569
 30
0.0
 11
136.5398569042974
 21
172.2493744648011
 31
0.0
  0
LINE
  5
A5B
330
A04
100
AcDbEntity
  8
BEM
 62
     0
370
    -2
100
AcDbLine
 10
295.5398569042976
 20
200.988254797757
 30
0.0
 11
295.5398569042976
 21
172.2493744648011
 31
0.0
  0
LINE
  5
A5C
330
A04
100
AcDbEntity
  8
BEM
 62
     0
370
    -2
100
AcDbLine
 10
143.5398569042974
 20
174.2493744648011
 30
0.0
 11
288.5398569042976
 21
174.2493744648011
 31
0.0
  0
SOLID
  5
A5D
330
A04
100
AcDbEntity
  8
BEM
 62
     0
100
AcDbTrace
 10
143.5398569042974
 20
175.4160411314678
 30
0.0
 11
143.5398569042974
 21
173.0827077981344
 31
0.0
 12
136.5398569042974
 22
174.2493744648011
 32
0.0
 13
136.5398569042974
 23
174.2493744648011
 33
0.0
  0
SOLID
  5
A5E
330
A04
100
AcDbEntity
  8
BEM
 62
     0
100
AcDbTrace
 10
288.5398569042976
 20
175.4160411314678
 30
0.0
 11
288.5398569042976
 21
173.0827077981344
 31
0.0
 12
295.5398569042976
 22
174.2493744648011
 32
0.0
 13
295.5398569042976
 23
174.2493744648011
 33
0.0
  0
MTEXT
  5
A5F
330
A04
100
AcDbEntity
  8
BEM
 62
     1
100
AcDbMText
 10
216.0398569042975
 20
180.7493744648011
 30
0.0
 40
7.0
 41
0.0
 71
     5
 72
     1
  1
\A1;%%c159
  7
GREEKS
 73
     1
 44
1.0
  0
POINT
  5
A60
330
A04
100
AcDbEntity
  8
DEFPOINTS
 62
     0
100
AcDbPoint
 10
136.5398569042974
 20
202.9882547977569
 30
0.0
  0
POINT
  5
A61
330
A04
100
AcDbEntity
  8
DEFPOINTS
 62
     0
100
AcDbPoint
 10
295.5398569042976
 20
202.988254797757
 30
0.0
  0
POINT
  5
A62
330
A04
100
AcDbEntity
  8
DEFPOINTS
 62
     0
100
AcDbPoint
 10
295.5398569042976
 20
174.2493744648011
 30
0.0
  0
ENDBLK
  5
A0F
330
A04
100
AcDbEntity
  8
0
100
AcDbBlockEnd
  0
BLOCK
  5
A1A
330
A10
100
AcDbEntity
  8
0
100
AcDbBlockBegin
  2
*D2
 70
     1
 10
0.0
 20
0.0
 30
0.0
  3
*D2
  1

  0
LINE
  5
B37
330
A10
100
AcDbEntity
  8
BEM
 62
     0
370
    -2
100
AcDbLine
 10
106.5398569042974
 20
524.9882547977569
 30
0.0
 11
106.5398569042974
 21
543.4797222996419
 31
0.0
  0
LINE
  5
B38
330
A10
100
AcDbEntity
  8
BEM
 62
     0
370
    -2
100
AcDbLine
 10
325.5398569042974
 20
524.988254797757
 30
0.0
 11
325.5398569042974
 21
543.4797222996419
 31
0.0
  0
LINE
  5
B39
330
A10
100
AcDbEntity
  8
BEM
 62
     0
370
    -2
100
AcDbLine
 10
113.5398569042974
 20
541.4797222996419
 30
0.0
 11
318.5398569042974
 21
541.4797222996419
 31
0.0
  0
SOLID
  5
B3A
330
A10
100
AcDbEntity
  8
BEM
 62
     0
100
AcDbTrace
 10
113.5398569042974
 20
542.6463889663085
 30
0.0
 11
113.5398569042974
 21
540.3130556329752
 31
0.0
 12
106.5398569042974
 22
541.4797222996419
 32
0.0
 13
106.5398569042974
 23
541.4797222996419
 33
0.0
  0
SOLID
  5
B3B
330
A10
100
AcDbEntity
  8
BEM
 62
     0
100
AcDbTrace
 10
318.5398569042974
 20
542.6463889663085
 30
0.0
 11
318.5398569042974
 21
540.3130556329752
 31
0.0
 12
325.5398569042974
 22
541.4797222996419
 32
0.0
 13
325.5398569042974
 23
541.4797222996419
 33
0.0
  0
MTEXT
  5
B3C
330
A10
100
AcDbEntity
  8
BEM
 62
     1
100
AcDbMText
 10
216.0398569042974
 20
547.9797222996419
 30
0.0
 40
7.0
 41
0.0
 71
     5
 72
     1
  1
\A1;%%c219
  7
GREEKS
 73
     1
 44
1.0
  0
POINT
  5
B3D
330
A10
100
AcDbEntity
  8
DEFPOINTS
 62
     0
100
AcDbPoint
 10
106.5398569042974
 20
522.9882547977569
 30
0.0
  0
POINT
  5
B3E
330
A10
100
AcDbEntity
  8
DEFPOINTS
 62
     0
100
AcDbPoint
 10
325.5398569042974
 20
522.9882547977569
 30
0.0
  0
POINT
  5
B3F
330
A10
100
AcDbEntity
  8
DEFPOINTS
 62
     0
100
AcDbPoint
 10
325.5398569042974
 20
541.4797222996419
 30
0.0
  0
ENDBLK
  5
A1B
330
A10
100
AcDbEntity
  8
0
100
AcDbBlockEnd
  0
BLOCK
  5
A4C
330
A42
100
AcDbEntity
  8
0
100
AcDbBlockBegin
  2
*D3
 70
     1
 10
0.0
 20
0.0
 30
0.0
  3
*D3
  1

  0
LINE
  5
A89
330
A42
100
AcDbEntity
  8
BEM
 62
     0
370
    -2
100
AcDbLine
 10
327.5398569042975
 20
522.9882547977569
 30
0.0
 11
359.9055395205287
 21
522.9882547977569
 31
0.0
  0
LINE
  5
A8A
330
A42
100
AcDbEntity
  8
BEM
 62
     0
370
    -2
100
AcDbLine
 10
296.6745198628975
 20
192.988254797757
 30
0.0
 11
359.9055395205287
 21
192.988254797757
 31
0.0
  0
LINE
  5
A8B
330
A42
100
AcDbEntity
  8
BEM
 62
     0
370
    -2
100
AcDbLine
 10
357.9055395205287
 20
515.988254797757
 30
0.0
 11
357.9055395205287
 21
199.988254797757
 31
0.0
  0
SOLID
  5
A8C
330
A42
100
AcDbEntity
  8
BEM
 62
     0
100
AcDbTrace
 10
356.7388728538621
 20
515.988254797757
 30
0.0
 11
359.0722061871954
 21
515.988254797757
 31
0.0
 12
357.9055395205287
 22
522.9882547977569
 32
0.0
 13
357.9055395205287
 23
522.9882547977569
 33
0.0
  0
SOLID
  5
A8D
330
A42
100
AcDbEntity
  8
BEM
 62
     0
100
AcDbTrace
 10
356.738872853862
 20
199.988254797757
 30
0.0
 11
359.0722061871954
 21
199.988254797757
 31
0.0
 12
357.9055395205287
 22
192.988254797757
 32
0.0
 13
357.9055395205287
 23
192.988254797757
 33
0.0
  0
MTEXT
  5
A8E
330
A42
100
AcDbEntity
  8
BEM
 62
     1
100
AcDbMText
 10
351.4055395205286
 20
357.9882547977571
 30
0.0
 40
7.0
 41
0.0
 71
     5
 72
     1
  1
\A1;330
  7
GREEKS
 11
0.0000000000000001
 21
1.0
 31
0.0
 73
     1
 44
1.0
  0
POINT
  5
A8F
330
A42
100
AcDbEntity
  8
DEFPOINTS
 62
     0
100
AcDbPoint
 10
325.5398569042975
 20
522.9882547977569
 30
0.0
  0
POINT
  5
A90
330
A42
100
AcDbEntity
  8
DEFPOINTS
 62
     0
100
AcDbPoint
 10
294.6745198628974
 20
192.988254797757
 30
0.0
  0
POINT
  5
A91
330
A42
100
AcDbEntity
  8
DEFPOINTS
 62
     0
100
AcDbPoint
 10
357.9055395205287
 20
192.988254797757
 30
0.0
  0
ENDBLK
  5
A4D
330
A42
100
AcDbEntity
  8
0
100
AcDbBlockEnd
  0
BLOCK
  5
A58
330
A4E
100
AcDbEntity
  8
0
100
AcDbBlockBegin
  2
*D4
 70
     1
 10
0.0
 20
0.0
 30
0.0
  3
*D4
  1

  0
LINE
  5
A92
330
A4E
100
AcDbEntity
  8
BEM
 62
     0
370
    -2
100
AcDbLine
 10
327.5398569042975
 20
522.9882547977569
 30
0.0
 11
343.3109859781808
 21
522.9882547977569
 31
0.0
  0
LINE
  5
A93
330
A4E
100
AcDbEntity
  8
BEM
 62
     0
370
    -2
100
AcDbLine
 10
327.5398569042975
 20
257.9882547977571
 30
0.0
 11
343.3109859781807
 21
257.9882547977571
 31
0.0
  0
LINE
  5
A94
330
A4E
100
AcDbEntity
  8
BEM
 62
     0
370
    -2
100
AcDbLine
 10
341.3109859781808
 20
515.988254797757
 30
0.0
 11
341.3109859781807
 21
264.9882547977571
 31
0.0
  0
SOLID
  5
A95
330
A4E
100
AcDbEntity
  8
BEM
 62
     0
100
AcDbTrace
 10
340.1443193115141
 20
515.988254797757
 30
0.0
 11
342.4776526448475
 21
515.988254797757
 31
0.0
 12
341.3109859781808
 22
522.9882547977569
 32
0.0
 13
341.3109859781808
 23
522.9882547977569
 33
0.0
  0
SOLID
  5
A96
330
A4E
100
AcDbEntity
  8
BEM
 62
     0
100
AcDbTrace
 10
340.144319311514
 20
264.9882547977571
 30
0.0
 11
342.4776526448474
 21
264.9882547977571
 31
0.0
 12
341.3109859781807
 22
257.9882547977571
 32
0.0
 13
341.3109859781807
 23
257.9882547977571
 33
0.0
  0
MTEXT
  5
A97
330
A4E
100
AcDbEntity
  8
BEM
 62
     1
100
AcDbMText
 10
334.8109859781807
 20
390.4882547977571
 30
0.0
 40
7.0
 41
0.0
 71
     5
 72
     1
  1
\A1;265
  7
GREEKS
 11
0.0000000000000001
 21
1.0
 31
0.0
 73
     1
 44
1.0
  0
POINT
  5
A98
330
A4E
100
AcDbEntity
  8
DEFPOINTS
 62
     0
100
AcDbPoint
 10
325.5398569042975
 20
522.9882547977569
 30
0.0
  0
POINT
  5
A99
330
A4E
100
AcDbEntity
  8
DEFPOINTS
 62
     0
100
AcDbPoint
 10
325.5398569042975
 20
257.9882547977571
 30
0.0
  0
POINT
  5
A9A
330
A4E
100
AcDbEntity
  8
DEFPOINTS
 62
     0
100
AcDbPoint
 10
341.3109859781807
 20
257.9882547977571
 30
0.0
  0
ENDBLK
  5
A59
330
A4E
100
AcDbEntity
  8
0
100
AcDbBlockEnd
  0
ENDSEC
  0
SECTION
  2
ENTITIES
  0
LINE
  5
57
330
1E
100
AcDbEntity
  8
STEMPEL
100
AcDbLine
 10
410.0
 20
110.0
 30
0.0
 11
39.99999999999997
 21
110.0
 31
0.0
  0
LINE
  5
58
330
1E
100
AcDbEntity
  8
STEMPEL
100
AcDbLine
 10
136.0000000000001
 20
109.9999999999999
 30
0.0
 11
136.0
 21
9.999999999999971
 31
0.0
  0
LINE
  5
59
330
1E
100
AcDbEntity
  8
STEMPEL
100
AcDbLine
 10
220.0
 20
110.0
 30
0.0
 11
220.0
 21
9.999999999999971
 31
0.0
  0
LINE
  5
5A
330
1E
100
AcDbEntity
  8
STEMPEL
100
AcDbLine
 10
332.0
 20
109.9999999999997
 30
0.0
 11
332.0
 21
40.0
 31
0.0
  0
LINE
  5
5B
330
1E
100
AcDbEntity
  8
STEMPEL
100
AcDbLine
 10
135.9999999999999
 20
29.99999999999997
 30
0.0
 11
39.99999999999997
 21
29.99999999999997
 31
0.0
  0
LINE
  5
5C
330
1E
100
AcDbEntity
  8
STEMPEL
100
AcDbLine
 10
410.0
 20
40.0
 30
0.0
 11
136.0000000000001
 21
39.99999999999997
 31
0.0
  0
LINE
  5
5D
330
1E
100
AcDbEntity
  8
STEMPEL
100
AcDbLine
 10
410.0
 20
80.0
 30
0.0
 11
136.0000000000001
 21
79.99999999999994
 31
0.0
  0
LINE
  5
5E
330
1E
100
AcDbEntity
  8
VOLL
100
AcDbLine
 10
54.00000000000009
 20
110.0
 30
0.0
 11
53.99999999999997
 21
9.999999999999971
 31
0.0
  0
LINE
  5
5F
330
1E
100
AcDbEntity
  8
VOLL
100
AcDbLine
 10
94.00000000000011
 20
109.9999999999999
 30
0.0
 11
94.0
 21
9.999999999999971
 31
0.0
  0
LINE
  5
60
330
1E
100
AcDbEntity
  8
VOLL
100
AcDbLine
 10
114.0000000000001
 20
109.9999999999999
 30
0.0
 11
114.0
 21
9.999999999999971
 31
0.0
  0
LINE
  5
61
330
1E
100
AcDbEntity
  8
VOLL
100
AcDbLine
 10
154.0000000000001
 20
79.99999999999994
 30
0.0
 11
154.0000000000001
 21
39.99999999999997
 31
0.0
  0
LINE
  5
62
330
1E
100
AcDbEntity
  8
VOLL
100
AcDbLine
 10
180.0000000000001
 20
109.9999999999998
 30
0.0
 11
180.0
 21
39.99999999999997
 31
0.0
  0
LINE
  5
63
330
1E
100
AcDbEntity
  8
HILF
100
AcDbLine
 10
40.00000000000008
 20
100.0
 30
0.0
 11
136.0000000000001
 21
100.0
 31
0.0
  0
LINE
  5
64
330
1E
100
AcDbEntity
  8
HILF
100
AcDbLine
 10
40.00000000000008
 20
90.00000000000005
 30
0.0
 11
136.0000000000001
 21
90.00000000000005
 31
0.0
  0
LINE
  5
65
330
1E
100
AcDbEntity
  8
HILF
100
AcDbLine
 10
40.00000000000008
 20
79.99999999999994
 30
0.0
 11
136.0000000000001
 21
79.99999999999994
 31
0.0
  0
LINE
  5
66
330
1E
100
AcDbEntity
  8
HILF
100
AcDbLine
 10
40.00000000000008
 20
69.99999999999994
 30
0.0
 11
136.0000000000001
 21
69.99999999999994
 31
0.0
  0
LINE
  5
67
330
1E
100
AcDbEntity
  8
HILF
100
AcDbLine
 10
40.00000000000008
 20
59.99999999999997
 30
0.0
 11
136.0000000000001
 21
59.99999999999997
 31
0.0
  0
LINE
  5
68
330
1E
100
AcDbEntity
  8
HILF
100
AcDbLine
 10
40.00000000000008
 20
49.99999999999997
 30
0.0
 11
136.0000000000001
 21
49.99999999999997
 31
0.0
  0
LINE
  5
69
330
1E
100
AcDbEntity
  8
HILF
100
AcDbLine
 10
40.00000000000008
 20
39.99999999999997
 30
0.0
 11
136.0000000000001
 21
39.99999999999997
 31
0.0
  0
LINE
  5
6A
330
1E
100
AcDbEntity
  8
HILF
100
AcDbLine
 10
136.0000000000001
 20
69.99999999999994
 30
0.0
 11
220.0
 21
69.99999999999994
 31
0.0
  0
LINE
  5
6B
330
1E
100
AcDbEntity
  8
HILF
100
AcDbLine
 10
136.0000000000001
 20
59.99999999999997
 30
0.0
 11
220.0
 21
59.99999999999997
 31
0.0
  0
LINE
  5
6C
330
1E
100
AcDbEntity
  8
HILF
100
AcDbLine
 10
136.0000000000001
 20
49.99999999999997
 30
0.0
 11
220.0
 21
49.99999999999997
 31
0.0
  0
LINE
  5
6D
330
1E
100
AcDbEntity
  8
HILF
100
AcDbLine
 10
224.7736801096948
 20
84.03758247564139
 30
0.0
 11
324.8353916556311
 21
84.03758247564139
 31
0.0
  0
LINE
  5
6E
330
1E
100
AcDbEntity
  8
HILF
100
AcDbLine
 10
224.7736801096948
 20
69.99999999999994
 30
0.0
 11
324.835391655631
 21
69.99999999999994
 31
0.0
  0
LINE
  5
6F
330
1E
100
AcDbEntity
  8
HILF
100
AcDbLine
 10
224.7736801096948
 20
59.99999999999997
 30
0.0
 11
324.835391655631
 21
59.99999999999997
 31
0.0
  0
LINE
  5
70
330
1E
100
AcDbEntity
  8
HILF
100
AcDbLine
 10
224.7736801096948
 20
49.99999999999997
 30
0.0
 11
324.835391655631
 21
49.99999999999997
 31
0.0
  0
LINE
  5
71
330
1E
100
AcDbEntity
  8
VOLL
100
AcDbLine
 10
332.0
 20
60.0
 30
0.0
 11
410.0
 21
60.0
 31
0.0
  0
LINE
  5
72
330
1E
100
AcDbEntity
  8
HILF
100
AcDbLine
 10
336.7238616296993
 20
83.77983636955827
 30
0.0
 11
404.8588839326728
 21
83.77983636955827
 31
0.0
  0
LINE
  5
73
330
1E
100
AcDbEntity
  8
HILF
100
AcDbLine
 10
223.4909699289885
 20
14.89398258028314
 30
0.0
 11
404.8588839326728
 21
14.89398258028314
 31
0.0
  0
TEXT
  5
74
330
1E
100
AcDbEntity
  8
TEXT
100
AcDbText
 10
63.86165979631819
 20
18.67381894984132
 30
0.0
 40
4.0
  1
Änderung
 41
0.8
  7
GREEKS
 72
     1
 11
74.60451693917534
 21
18.67381894984132
 31
0.0
100
AcDbText
  0
TEXT
  5
75
330
1E
100
AcDbEntity
  8
TEXT
100
AcDbText
 10
143.5163572150377
 20
102.4620895087088
 30
0.0
 40
5.0
  1
Maßstab
 41
0.8
  7
GREEKS
100
AcDbText
  0
TEXT
  5
76
330
1E
100
AcDbEntity
  8
TEXT
100
AcDbText
 10
184.2858954734051
 20
102.4184168434819
 30
0.0
 40
5.0
  1
Zul. Abw.
 41
0.8
  7
GREEKS
100
AcDbText
  0
TEXT
  5
77
330
1E
100
AcDbEntity
  8
TEXT
100
AcDbText
 10
224.877940380901
 20
102.5489328011779
 30
0.0
 40
5.0
  1
Benennung
 41
0.8
  7
GREEKS
100
AcDbText
  0
TEXT
  5
78
330
1E
100
AcDbEntity
  8
TEXT
100
AcDbText
 10
336.178754957634
 20
102.3132034537136
 30
0.0
 40
5.0
  1
Zeichnungs Nr.
 41
0.8
  7
GREEKS
100
AcDbText
  0
TEXT
  5
79
330
1E
100
AcDbEntity
  8
TEXT
100
AcDbText
 10
224.742238391136
 20
30.84560570193057
 30
0.0
 40
5.0
  1
Bauvorhaben
 41
0.8
  7
GREEKS
100
AcDbText
  0
TEXT
  5
7A
330
1E
100
AcDbEntity
  8
TEXT
100
AcDbText
 10
336.7238616296993
 20
73.1811823709997
 30
0.0
 40
5.0
  1
Ersatz für:
 41
0.8
  7
GREEKS
100
AcDbText
  0
TEXT
  5
7B
330
1E
100
AcDbEntity
  8
TEXT
100
AcDbText
 10
48.26641107045756
 20
13.65465846027192
 30
0.0
 40
4.0
  1
Index
 50
90.0
 41
0.8
  7
GREEKS
100
AcDbText
  0
TEXT
  5
7C
330
1E
100
AcDbEntity
  8
TEXT
100
AcDbText
 10
100.0934676075481
 20
18.6715626933981
 30
0.0
 40
4.0
  1
Tag
 41
0.8
  7
GREEKS
 72
     1
 11
103.8268009408814
 21
18.6715626933981
 31
0.0
100
AcDbText
  0
TEXT
  5
7D
330
1E
100
AcDbEntity
  8
TEXT
100
AcDbText
 10
119.0122744386592
 20
18.59324216966408
 30
0.0
 40
4.0
  1
Name
 41
0.8
  7
GREEKS
 72
     1
 11
125.3360839624688
 21
18.59324216966408
 31
0.0
100
AcDbText
  0
TEXT
  5
7E
330
1E
100
AcDbEntity
  8
TEXT
100
AcDbText
 10
162.3311673153651
 20
73.31880501229926
 30
0.0
 40
4.0
  1
Tag
 41
0.8
  7
GREEKS
100
AcDbText
  0
TEXT
  5
7F
330
1E
100
AcDbEntity
  8
TEXT
100
AcDbText
 10
192.4626584226295
 20
73.30961091915225
 30
0.0
 40
4.0
  1
Name
 41
0.8
  7
GREEKS
100
AcDbText
  0
TEXT
  5
80
330
1E
100
AcDbEntity
  8
TEXT
100
AcDbText
 10
137.5836127167615
 20
63.62990369617964
 30
0.0
 40
4.0
  1
Gez.
 41
0.8
  7
GREEKS
100
AcDbText
  0
TEXT
  5
81
330
1E
100
AcDbEntity
  8
TEXT
100
AcDbText
 10
137.5515086571672
 20
53.68926291428377
 30
0.0
 40
4.0
  1
Gepr.
 41
0.8
  7
GREEKS
100
AcDbText
  0
TEXT
  5
82
330
1E
100
AcDbEntity
  8
TEXT
100
AcDbText
 10
137.6006777387304
 20
43.52946389649807
 30
0.0
 40
4.0
  1
Norm.
 41
0.8
  7
GREEKS
100
AcDbText
  0
LINE
  5
83
330
1E
100
AcDbEntity
  8
STEMPEL
100
AcDbLine
 10
49.99999999999989
 20
10.0
 30
0.0
 11
410.0
 21
10.0
 31
0.0
  0
TEXT
  5
84
330
1E
100
AcDbEntity
  8
TEXT
100
AcDbText
 10
337.2400861497006
 20
52.07416177878602
 30
0.0
 40
5.0
  1
ersetzt durch:
 41
0.8
  7
GREEKS
100
AcDbText
  0
LINE
  5
85
330
1E
100
AcDbEntity
  8
STEMPEL
100
AcDbLine
 10
410.0
 20
10.0
 30
0.0
 11
39.99999999999989
 21
10.0
 31
0.0
  0
LINE
  5
86
330
1E
100
AcDbEntity
  8
STEMPEL
100
AcDbLine
 10
410.0
 20
10.0
 30
0.0
 11
410.0
 21
584.0
 31
0.0
  0
LINE
  5
87
330
1E
100
AcDbEntity
  8
STEMPEL
100
AcDbLine
 10
40.0
 20
10.0
 30
0.0
 11
39.99999999999989
 21
584.0
 31
0.0
  0
LINE
  5
88
330
1E
100
AcDbEntity
  8
STEMPEL
100
AcDbLine
 10
410.0
 20
584.0
 30
0.0
 11
39.99999999999989
 21
584.0
 31
0.0
  0
LINE
  5
89
330
1E
100
AcDbEntity
  8
HILF
100
AcDbLine
 10
0.0
 20
0.0
 30
0.0
 11
-0.0000000000001137
 21
594.0
 31
0.0
  0
LINE
  5
8A
330
1E
100
AcDbEntity
  8
HILF
100
AcDbLine
 10
419.9999999999999
 20
594.0000000000002
 30
0.0
 11
0.0
 21
594.0
 31
0.0
  0
LINE
  5
8B
330
1E
100
AcDbEntity
  8
HILF
100
AcDbLine
 10
420.0
 20
0.0
 30
0.0
 11
0.0
 21
0.0
 31
0.0
  0
LINE
  5
8C
330
1E
100
AcDbEntity
  8
HILF
100
AcDbLine
 10
31.08767135713856
 20
297.0
 30
0.0
 11
0.0000000000001137
 21
297.0
 31
0.0
  0
TEXT
  5
8D
330
1E
100
AcDbEntity
  8
TEXT
100
AcDbText
 10
138.622109822104
 20
73.14025471151666
 30
0.0
 40
4.0
  1
2007
 41
0.8
  7
GREEKS
100
AcDbText
  0
LINE
  5
8E
330
1E
100
AcDbEntity
  8
HILF
100
AcDbLine
 10
420.0
 20
-0.0000000000001137
 30
0.0
 11
419.9999999999999
 21
594.0
 31
0.0
  0
TEXT
  5
8F
330
1E
100
AcDbEntity
  8
VOLL
100
AcDbText
 10
78.07675471698113
 20
31.02594776470585
 30
0.0
 40
1.8
  1

  7
GREEKS
100
AcDbText
  0
TEXT
  5
90
330
1E
100
AcDbEntity
  8
TEXT
100
AcDbText
 10
41.85509950977674
 20
111.6719999999999
 30
0.0
 40
5.0
  1
Erstellt mit AUTOCAD 2004
 41
0.8
  7
GREEKS
100
AcDbText
  0
TEXT
  5
91
330
1E
100
AcDbEntity
  8
TEXT
100
AcDbText
 10
194.4216048581257
 20
63.0896391972351
 30
0.0
 40
4.0
  1
Koeh
 41
0.8
  7
GREEKS
 72
     1
 11
199.6787477152685
 21
63.0896391972351
 31
0.0
100
AcDbText
  0
TEXT
  5
92
330
1E
100
AcDbEntity
  8
TEXT
 62
     1
100
AcDbText
 10
347.2064127456858
 20
88.14901428913959
 30
0.0
 40
7.0
  1
58014150W
 41
0.8
  7
GREEKS
 72
     1
 11
370.1397460790191
 21
88.14901428913959
 31
0.0
100
AcDbText
  0
TEXT
  5
93
330
1E
100
AcDbEntity
  8
TEXT
 62
     1
100
AcDbText
 10
150.5006306481887
 20
88.14901428913959
 30
0.0
 40
7.0
  1
1:2
 41
0.8
  7
GREEKS
100
AcDbText
  0
TEXT
  5
94
330
1E
100
AcDbEntity
  8
TEXT
100
AcDbText
 10
160.398997108236
 20
63.10765040825732
 30
0.0
 40
4.0
  1
26.09.
 41
0.8
  7
GREEKS
 72
     1
 11
167.4085209177598
 21
63.10765040825732
 31
0.0
100
AcDbText
  0
TEXT
  5
95
330
1E
100
AcDbEntity
  8
TEXT
 62
     1
100
AcDbText
 10
226.8935731057402
 20
87.41748789253779
 30
0.0
 40
7.0
  1
Verbundrohr DN150
 41
0.8
  7
GREEKS
100
AcDbText
  0
TEXT
  5
96
330
1E
100
AcDbEntity
  8
TEXT
100
AcDbText
 10
225.1296391125315
 20
71.50334417585288
 30
0.0
 40
5.0
  1
250mm lang
 41
0.8
  7
GREEKS
100
AcDbText
  0
TEXT
  5
98
330
1E
100
AcDbEntity
  8
TEXT
100
AcDbText
 10
225.1296391125315
 20
51.64011943042158
 30
0.0
 40
5.0
  1
EDV-Art.Nr. 58014.150X
 41
0.8
  7
GREEKS
100
AcDbText
  0
TEXT
  5
99
330
1E
100
AcDbEntity
  8
TEXT
100
AcDbText
 10
224.9837501577827
 20
42.62974153022632
 30
0.0
 40
4.0
  1
58014150W.DWG
 41
0.8
  7
GREEKS
100
AcDbText
  0
TEXT
  5
9A
330
1E
100
AcDbEntity
  8
TEXT
100
AcDbText
 10
182.626132208084
 20
90.76363841023022
 30
0.0
 40
4.0
  1
DIN EN1123-2
 41
0.8
  7
GREEKS
 72
     1
 11
199.6166083985602
 21
90.76363841023022
 31
0.0
100
AcDbText
  0
INSERT
  5
9B
330
1E
100
AcDbEntity
  8
STEMPEL
100
AcDbBlockReference
  2
LOGO
 10
140.9955485457794
 20
45.02105276448322
 30
0.0
 41
2.0
 42
2.0
 43
2.0
  0
TEXT
  5
118
330
1E
100
AcDbEntity
  8
TEXT
100
AcDbText
 10
417.3022923857165
 20
10.16790107998849
 30
0.0
 40
4.0
  1
Diese Zeichnung ist urheberrechtlich geschützt und bleibt unser Eigentum. Sie darf weder ganz noch teilweise verfielfältigt und nicht an Dritte weitergegeben werden.
 50
90.0
 41
0.8
  7
GREEKS
100
AcDbText
  0
TEXT
  5
3D8
330
1E
100
AcDbEntity
  8
TEXT
 62
     1
100
AcDbText
 10
193.6033828683802
 20
152.364339848487
 30
0.0
 40
7.0
  1
Außenrohr: P235 TR1 EN10217-1 feuerverzinkt
 41
0.8
  7
GREEKS
100
AcDbText
  0
TEXT
  5
3D9
330
1E
100
AcDbEntity
  8
TEXT
 62
     1
100
AcDbText
 10
197.3756002392442
 20
141.011271812132
 30
0.0
 40
7.0
  1
Innenrohr: E195 EN10305 feuerverzinkt
 41
0.8
  7
GREEKS
100
AcDbText
  0
TEXT
  5
3DA
330
1E
100
AcDbEntity
  8
TEXT
 62
     1
100
AcDbText
 10
189.8811895945471
 20
117.1473825875242
 30
0.0
 40
7.0
  1
Dämmung: 2 K-PU-Schaum
 41
0.8
  7
GREEKS
100
AcDbText
  0
TEXT
  5
3DB
330
1E
100
AcDbEntity
  8
TEXT
 62
     1
100
AcDbText
 10
245.030129115258
 20
129.7422179729062
 30
0.0
 40
7.0
  1
und innenbeschichtet
 41
0.8
  7
GREEKS
100
AcDbText
  0
TEXT
  5
478
330
1E
100
AcDbEntity
  8
TEXT
 62
     1
100
AcDbText
 10
201.8583284992232
 20
380.0807397111359
 30
0.0
 40
7.0
  1
DN150
 50
90.0
 41
0.8
  7
GREEKS
100
AcDbText
  0
DIMENSION
  5
9B9
330
1E
100
AcDbEntity
  8
BEM
100
AcDbDimension
  2
*D1
 10
295.5398569042976
 20
174.2493744648011
 30
0.0
 11
216.0398569042975
 21
180.7493744648011
 31
0.0
 70
    32
  1
%%c<>
 71
     5
 42
159.0000000000001
  3
Standard
100
AcDbAlignedDimension
 13
136.5398569042974
 23
202.9882547977569
 33
0.0
 14
295.5398569042976
 24
202.988254797757
 34
0.0
100
AcDbRotatedDimension
1001
ACAD
1000
DSTYLE
1002
{
1070
    40
1040
2.0
1070
    41
1040
3.5
1070
    42
1040
1.0
1070
    43
1040
7.0
1070
    44
1040
1.0
1070
    73
1070
     0
1070
    74
1070
     0
1070
    77
1070
     1
1070
    78
1070
     8
1070
    79
1070
     2
1070
   140
1040
3.5
1070
   141
1040
1.5
1070
   146
1040
0.5142857142857144
1070
   147
1040
1.5
1070
   172
1070
     1
1070
   178
1070
     1
1070
   179
1070
     2
1070
   271
1070
     2
1070
   272
1070
     2
1070
   284
1070
     8
1070
   285
1070
     8
1070
   286
1070
     8
1070
   289
1070
     0
1070
   340
1005
24
1002
}
  0
DIMENSION
  5
9BA
330
1E
100
AcDbEntity
  8
BEM
100
AcDbDimension
  2
*D2
 10
325.5398569042974
 20
541.4797222996419
 30
0.0
 11
216.0398569042974
 21
547.9797222996419
 31
0.0
 70
    32
  1
%%c<>
 71
     5
 42
218.9999999999999
  3
Standard
100
AcDbAlignedDimension
 13
106.5398569042974
 23
522.9882547977569
 33
0.0
 14
325.5398569042974
 24
522.9882547977569
 34
0.0
100
AcDbRotatedDimension
1001
ACAD
1000
DSTYLE
1002
{
1070
    40
1040
2.0
1070
    41
1040
3.5
1070
    42
1040
1.0
1070
    43
1040
7.0
1070
    44
1040
1.0
1070
    73
1070
     0
1070
    74
1070
     0
1070
    77
1070
     1
1070
    78
1070
     8
1070
    79
1070
     2
1070
   140
1040
3.5
1070
   141
1040
1.5
1070
   146
1040
0.5142857142857144
1070
   147
1040
1.5
1070
   172
1070
     1
1070
   178
1070
     1
1070
   179
1070
     2
1070
   271
1070
     2
1070
   272
1070
     2
1070
   284
1070
     8
1070
   285
1070
     8
1070
   286
1070
     8
1070
   289
1070
     0
1070
   340
1005
24
1002
}
  0
HATCH
  5
9BD
330
1E
100
AcDbEntity
  8
SCHRAFF
100
AcDbHatch
 10
0.0
 20
0.0
 30
0.0
210
0.0
220
0.0
230
1.0
  2
NET
 70
     0
 71
     1
 91
        2
 92
        7
 72
     1
 73
     1
 93
        6
 10
125.5398569042974
 20
504.9882547977569
 42
0.0
 10
125.5398569042974
 20
507.205150579823
 42
-0.1095178116832401
 10
128.8190843580146
 20
521.9967897407474
 42
0.0
 10
129.2814121068912
 20
522.9882547977569
 42
0.0
 10
109.4398569042974
 20
522.9882547977569
 42
0.0
 10
109.4398569042974
 20
504.9882547977569
 42
0.0
 97
        6
330
9E3
330
9C4
330
9C7
330
9DE
330
9E1
330
9E0
 92
        7
 72
     1
 73
     1
 93
        6
 10
302.7983017017036
 20
522.9882547977569
 42
0.0
 10
303.2606294505815
 20
521.9967897407444
 42
-0.1095178116832188
 10
306.5398569042974
 20
507.2051505798229
 42
0.0
 10
306.5398569042974
 20
504.988254797757
 42
0.0
 10
322.6398569042975
 20
504.9882547977569
 42
0.0
 10
322.6398569042975
 20
522.9882547977569
 42
0.0
 97
        6
330
9C4
330
A03
330
A01
330
9FE
330
9FD
330
9E7
 75
     0
 76
     1
 52
45.0
 41
20.0
 77
     0
 78
     2
 53
45.0
 43
-368.4151793342044
 44
0.0
 45
-1.767766952966368
 46
1.767766952966368
 79
     0
 53
135.0
 43
-368.4151793342044
 44
0.0
 45
-1.767766952966368
 46
-1.767766952966368
 79
     0
 47
0.7473116165668432
 98
        2
 10
116.9876087483931
 20
511.0244742629244
 10
314.4078959735002
 20
516.2556562286049
  0
HATCH
  5
9BE
330
1E
100
AcDbEntity
  8
SCHRAFF
100
AcDbHatch
 10
0.0
 20
0.0
 30
0.0
210
0.0
220
0.0
230
1.0
  2
HONEY
 70
     0
 71
     1
 91
        2
 92
        7
 72
     1
 73
     1
 93
       11
 10
131.5398569042974
 20
451.4292263058239
 42
0.0
 10
131.5398569042974
 20
466.4882547977568
 42
0.1206909349745688
 10
129.50210677787
 20
474.80730396059
 42
-0.121108416986647
 10
125.5398569042974
 20
491.0408603268745
 42
0.0
 10
125.5398569042974
 20
504.9882547977569
 42
0.0
 10
109.4398569042974
 20
504.9882547977569
 42
0.0
 10
109.4398569042974
 20
272.138254797757
 42
0.0
 10
111.2898569042974
 20
273.988254797757
 42
0.0
 10
136.5398569042974
 20
273.988254797757
 42
0.0
 10
136.5398569042974
 20
435.4605068831526
 42
0.1528962216020396
 10
134.7541426185831
 20
441.1636209626781
 42
-0.1528962216020392
 97
       11
330
9DA
330
9D8
330
9DC
330
9D4
330
9E1
330
9DE
330
9C7
330
9D0
330
9CE
330
9CA
330
9D6
 92
        7
 72
     1
 73
     1
 93
       11
 10
295.5398569042976
 20
273.988254797757
 42
0.0
 10
320.7898569042974
 20
273.9882547977569
 42
0.0
 10
322.6398569042975
 20
272.1382547977568
 42
0.0
 10
322.6398569042976
 20
504.988254797757
 42
0.0
 10
306.5398569042973
 20
504.988254797757
 42
0.0
 10
306.5398569042974
 20
491.0408603269261
 42
-0.1211084169870201
 10
302.5776070307249
 20
474.80730396059
 42
0.120690934974569
 10
300.5398569042974
 20
466.4882547977568
 42
0.0
 10
300.5398569042974
 20
451.4292263058239
 42
-0.1528962216020399
 10
297.3255711900117
 20
441.163620962678
 42
0.1528962216020398
 10
295.5398569042974
 20
435.4605068831526
 42
0.0
 97
       11
330
9FD
330
9FE
330
9F4
330
9FB
330
9F7
330
9F9
330
9F5
330
9E9
330
9EE
330
9F2
330
9E7
 75
     0
 76
     1
 52
0.0
 41
30.0
 77
     0
 78
     3
 53
0.0
 43
-368.4151793342044
 44
0.0
 45
5.625
 46
3.247595249999999
 79
     2
 49
3.75
 49
-7.5
 53
120.0
 43
-368.4151793342044
 44
0.0
 45
-5.624999987709673
 46
3.247595271287468
 79
     2
 49
3.749999999999998
 49
-7.499999999999997
 53
60.0
 43
-368.4151793342044
 44
0.0
 45
0.0000000122903263
 46
6.495190521287468
 79
     2
 49
-7.5
 49
3.75
 47
0.7473116165668432
 98
        2
 10
124.4656500979763
 20
437.040624028702
 10
306.9298546239175
 20
375.0137599453146
  0
HATCH
  5
9BF
330
1E
100
AcDbEntity
  8
SCHRAFF
100
AcDbHatch
 10
0.0
 20
0.0
 30
0.0
210
0.0
220
0.0
230
1.0
  2
_USER
 70
     0
 71
     1
 91
        2
 92
        7
 72
     0
 73
     1
 93
        4
 10
109.4398569042974
 20
522.9882547977569
 10
106.5398569042975
 20
522.9882547977568
 10
106.5398569042975
 20
257.9882547977569
 10
109.4398569042974
 20
257.9882547977569
 97
        4
330
9C4
330
9C8
330
9CF
330
9C7
 92
        7
 72
     0
 73
     1
 93
        4
 10
325.5398569042975
 20
522.9882547977569
 10
322.6398569042975
 20
522.9882547977569
 10
322.6398569042975
 20
257.9882547977571
 10
325.5398569042975
 20
257.9882547977571
 97
        4
330
9C4
330
9E7
330
9EF
330
9E8
 75
     0
 76
     0
 52
135.0
 41
2.0
 77
     0
 78
     1
 53
135.0
 43
-368.4151793342044
 44
0.0
 45
-1.414213562373095
 46
-1.414213562373094
 79
     0
 47
0.7473116165668432
 98
        2
 10
108.7617657410369
 20
451.9868560176591
 10
324.8771522114598
 20
405.6535364321398
  0
HATCH
  5
9C0
330
1E
100
AcDbEntity
  8
SCHRAFF
100
AcDbHatch
 10
0.0
 20
0.0
 30
0.0
210
0.0
220
0.0
230
1.0
  2
_USER
 70
     0
 71
     0
 91
        2
 92
        7
 72
     1
 73
     1
 93
       22
 10
139.0398569042974
 20
435.4605068831526
 42
0.1528962216020402
 10
136.8077140471546
 20
442.5893994825594
 42
-0.1528962216020395
 10
134.0398569042974
 20
451.4292263058239
 42
0.0
 10
134.0398569042974
 20
466.4882547977568
 42
0.1191385083149398
 10
131.7767446090333
 20
475.8512632269345
 42
-0.1244894853097825
 10
128.0398569042974
 20
491.3436022996687
 42
0.0
 10
128.0398569042974
 20
507.205150579823
 42
-0.1095178116832397
 10
131.0848538256062
 20
520.9402440863956
 42
0.0
 10
132.0398569042975
 20
522.9882547977569
 42
0.0
 10
129.2814121068912
 20
522.9882547977569
 42
0.0
 10
128.8190843580147
 20
521.9967897407475
 42
0.1095178116832411
 10
125.5398569042974
 20
507.205150579823
 42
0.0
 10
125.5398569042974
 20
490.9256492685997
 42
0.1202734944248129
 10
129.5021067778699
 20
474.80730396059
 42
-0.120690934974569
 10
131.5398569042974
 20
466.4882547977568
 42
0.0
 10
131.5398569042974
 20
451.4292263058239
 42
0.1528962216020391
 10
134.7541426185831
 20
441.1636209626781
 42
-0.1528962216020398
 10
136.5398569042974
 20
435.4605068831526
 42
0.0
 10
136.5398569042973
 20
202.8791024404766
 42
0.0
 10
137.4051939456975
 20
192.9882547977569
 42
0.0
 10
139.9147435395559
 20
192.9882547977569
 42
0.0
 10
139.0398569042967
 20
202.988254797757
 42
0.0
 97
        0
 92
        7
 72
     1
 73
     1
 93
       22
 10
295.5398569042974
 20
435.4605068831526
 42
-0.1528962216020403
 10
297.3255711900117
 20
441.1636209626781
 42
0.1528962216020388
 10
300.5398569042974
 20
451.4292263058239
 42
0.0
 10
300.5398569042974
 20
466.4882547977567
 42
-0.1206909349745694
 10
302.5776070307248
 20
474.8073039605899
 42
0.1202734944244708
 10
306.5398569042974
 20
490.9256492685525
 42
0.0
 10
306.5398569042974
 20
507.205150579823
 42
0.1095178116832169
 10
303.2606294505815
 20
521.9967897407443
 42
0.0
 10
302.7983017017034
 20
522.9882547977569
 42
0.0
 10
300.0398569042973
 20
522.9882547977569
 42
0.0
 10
300.9948599829877
 20
520.9402440863978
 42
-0.1095178116832559
 10
304.0398569042974
 20
507.2051505798233
 42
0.0
 10
304.0398569042974
 20
491.3436022996632
 42
-0.1244894853096561
 10
300.3029691995664
 20
475.8512632269441
 42
0.1191385083150733
 10
298.0398569042974
 20
466.4882547977568
 42
0.0
 10
298.0398569042974
 20
451.4292263058239
 42
-0.1528962216020393
 10
295.2719997614403
 20
442.5893994825594
 42
0.1528962216020441
 10
293.0398569042974
 20
435.4605068831524
 42
0.0
 10
293.0398569042991
 20
202.9882547977671
 42
0.0
 10
292.164970269039
 20
192.988254797757
 42
0.0
 10
294.6745198628974
 20
192.988254797757
 42
0.0
 10
295.5398569042977
 20
202.8791024404786
 42
0.0
 97
        0
 75
     0
 76
     0
 52
45.0
 41
2.0
 77
     0
 78
     1
 53
45.0
 43
-368.4151793342044
 44
0.0
 45
-1.414213562373094
 46
1.414213562373095
 79
     0
 47
0.7473116165668432
 98
        2
 10
137.9261239767402
 20
400.4223544664593
 10
293.4693807451536
 20
375.7610710550518
  0
LINE
  5
9C1
330
1E
100
AcDbEntity
  8
HILF
  6
Continuous
100
AcDbLine
 10
290.5303073104398
 20
202.988254797757
 30
0.0
 11
141.5494064981551
 21
202.9882547977569
 31
0.0
  0
LINE
  5
9C2
330
1E
100
AcDbEntity
  8
STEMPEL
  6
Continuous
100
AcDbLine
 10
294.6745198628974
 20
192.988254797757
 30
0.0
 11
137.4051939456975
 21
192.9882547977569
 31
0.0
  0
LINE
  5
9C3
330
1E
100
AcDbEntity
  8
HILF
  6
Continuous
100
AcDbLine
 10
136.0032307587153
 20
471.4275700414573
 30
0.0
 11
296.0764830498796
 21
471.4275700414573
 31
0.0
  0
LINE
  5
9C4
102
{ACAD_REACTORS
330
9BF
330
9BD
102
}
330
1E
100
AcDbEntity
  8
STEMPEL
  6
Continuous
100
AcDbLine
 10
325.5398569042974
 20
522.9882547977569
 30
0.0
 11
106.5398569042974
 21
522.9882547977569
 31
0.0
  0
LINE
  5
9C5
330
1E
100
AcDbEntity
  8
HILF
  6
Continuous
100
AcDbLine
 10
137.3928775619729
 20
446.7977154446532
 30
0.0
 11
294.6868362466216
 21
446.7977154446532
 31
0.0
  0
LINE
  5
9C6
330
1E
100
AcDbEntity
  8
HILF
  6
Continuous
100
AcDbLine
 10
141.0673861898594
 20
439.1955962873226
 30
0.0
 11
291.0123276187355
 21
439.1955962873226
 31
0.0
  0
LINE
  5
9C7
102
{ACAD_REACTORS
330
9BF
330
9BE
330
9BD
102
}
330
1E
100
AcDbEntity
  8
STEMPEL
100
AcDbLine
 10
109.4398569042974
 20
522.9882547977569
 30
0.0
 11
109.4398569042974
 21
257.9882547977569
 31
0.0
  0
LINE
  5
9C8
102
{ACAD_REACTORS
330
9BF
102
}
330
1E
100
AcDbEntity
  8
STEMPEL
100
AcDbLine
 10
106.5398569042975
 20
522.9882547977569
 30
0.0
 11
106.5398569042975
 21
255.988254797757
 31
0.0
  0
LINE
  5
9C9
330
1E
100
AcDbEntity
  8
STEMPEL
  6
Continuous
100
AcDbLine
 10
139.0398569042974
 20
435.4605068831526
 30
0.0
 11
139.0398569042967
 21
202.9882547977569
 31
0.0
  0
LINE
  5
9CA
102
{ACAD_REACTORS
330
9BE
102
}
330
1E
100
AcDbEntity
  8
STEMPEL
  6
Continuous
100
AcDbLine
 10
136.5398569042974
 20
435.4605068831526
 30
0.0
 11
136.5398569042974
 21
202.9882547977569
 31
0.0
  0
LINE
  5
9CC
330
1E
100
AcDbEntity
  8
STEMPEL
100
AcDbLine
 10
136.5493701590673
 20
202.7703654408878
 30
0.0
 11
137.4051939456975
 21
192.9882547977569
 31
0.0
  0
LINE
  5
9CD
330
1E
100
AcDbEntity
  8
STEMPEL
100
AcDbLine
 10
139.0398569042967
 20
202.9882547977569
 30
0.0
 11
139.914743539556
 21
192.9882547977569
 31
0.0
  0
LINE
  5
9CE
102
{ACAD_REACTORS
330
9BE
102
}
330
1E
100
AcDbEntity
  8
STEMPEL
100
AcDbLine
 10
111.2898569042974
 20
273.988254797757
 30
0.0
 11
136.5398569042977
 21
273.988254797757
 31
0.0
  0
LINE
  5
9CF
102
{ACAD_REACTORS
330
9BF
102
}
330
1E
100
AcDbEntity
  8
STEMPEL
  6
Continuous
100
AcDbLine
 10
109.4398569042974
 20
257.9882547977569
 30
0.0
 11
106.5398569042975
 21
257.9882547977569
 31
0.0
  0
LINE
  5
9D0
102
{ACAD_REACTORS
330
9BE
102
}
330
1E
100
AcDbEntity
  8
STEMPEL
100
AcDbLine
 10
109.4398569042974
 20
272.1382547977569
 30
0.0
 11
111.2898569042974
 21
273.988254797757
 31
0.0
  0
LINE
  5
9D2
330
1E
100
AcDbEntity
  8
STEMPEL
100
AcDbLine
 10
129.2398569042975
 20
264.9882547977569
 30
0.0
 11
136.5398569042976
 21
264.9882547977569
 31
0.0
  0
ARC
  5
9D3
330
1E
100
AcDbEntity
  8
STEMPEL
  6
Continuous
100
AcDbCircle
 10
160.5378845840555
 20
490.985556317039
 30
0.0
 40
32.5
100
AcDbArc
 50
179.3687711177352
 51
207.3071230068022
  0
ARC
  5
9D4
102
{ACAD_REACTORS
330
9BE
102
}
330
1E
100
AcDbEntity
  8
STEMPEL
  6
Continuous
100
AcDbCircle
 10
160.5398569042975
 20
490.9832547977568
 30
0.0
 40
35.00004740563918
100
AcDbArc
 50
179.9056985509049
 51
207.5271836205476
  0
ARC
  5
9D5
330
1E
100
AcDbEntity
  8
STEMPEL
  6
Continuous
100
AcDbCircle
 10
126.5398569042974
 20
435.4605068831526
 30
0.0
 40
12.5
100
AcDbArc
 50
0.0
 51
34.77194403194904
  0
ARC
  5
9D6
102
{ACAD_REACTORS
330
9BE
102
}
330
1E
100
AcDbEntity
  8
STEMPEL
  6
Continuous
100
AcDbCircle
 10
126.5398569042974
 20
435.4605068831526
 30
0.0
 40
10.0
100
AcDbArc
 50
0.0
 51
34.77194403194904
  0
LINE
  5
9D7
330
1E
100
AcDbEntity
  8
STEMPEL
  6
Continuous
100
AcDbLine
 10
134.0398569042974
 20
466.4882547977568
 30
0.0
 11
134.0398569042974
 21
451.4292263058239
 31
0.0
  0
LINE
  5
9D8
102
{ACAD_REACTORS
330
9BE
102
}
330
1E
100
AcDbEntity
  8
STEMPEL
  6
Continuous
100
AcDbLine
 10
131.5398569042974
 20
466.4882547977568
 30
0.0
 11
131.5398569042974
 21
451.4292263058239
 31
0.0
  0
ARC
  5
9D9
330
1E
100
AcDbEntity
  8
STEMPEL
  6
Continuous
100
AcDbCircle
 10
149.5398569042975
 20
451.4292263058239
 30
0.0
 40
15.5
100
AcDbArc
 50
180.0
 51
214.7719440319491
  0
ARC
  5
9DA
102
{ACAD_REACTORS
330
9BE
102
}
330
1E
100
AcDbEntity
  8
STEMPEL
  6
Continuous
100
AcDbCircle
 10
149.5398569042975
 20
451.4292263058239
 30
0.0
 40
18.0
100
AcDbArc
 50
180.0
 51
214.7719440319491
  0
ARC
  5
9DB
330
1E
100
AcDbEntity
  8
STEMPEL
  6
Continuous
100
AcDbCircle
 10
113.5398569042974
 20
466.4882547977568
 30
0.0
 40
20.5
100
AcDbArc
 50
0.0
 51
27.88431368737399
  0
ARC
  5
9DC
102
{ACAD_REACTORS
330
9BE
102
}
330
1E
100
AcDbEntity
  8
STEMPEL
  6
Continuous
100
AcDbCircle
 10
113.5398569042974
 20
466.4882547977568
 30
0.0
 40
18.0
100
AcDbArc
 50
0.0
 51
27.52718362054758
  0
LINE
  5
9DE
102
{ACAD_REACTORS
330
9BE
330
9BD
102
}
330
1E
100
AcDbEntity
  8
STEMPEL
  6
Continuous
100
AcDbLine
 10
125.5398569042974
 20
504.9882547977569
 30
0.0
 11
109.4398569042974
 21
504.9882547977569
 31
0.0
  0
ARC
  5
9DF
330
1E
100
AcDbEntity
  8
STEMPEL
  6
Continuous
100
AcDbCircle
 10
160.5398569042975
 20
507.205150579823
 30
0.0
 40
32.5
100
AcDbArc
 50
155.0000000000079
 51
180.0
  0
ARC
  5
9E0
102
{ACAD_REACTORS
330
9BD
102
}
330
1E
100
AcDbEntity
  8
STEMPEL
  6
Continuous
100
AcDbCircle
 10
160.5398569042975
 20
507.205150579823
 30
0.0
 40
35.0
100
AcDbArc
 50
155.0000000000079
 51
180.0
  0
LINE
  5
9E1
102
{ACAD_REACTORS
330
9BE
330
9BD
102
}
330
1E
100
AcDbEntity
  8
STEMPEL
  6
Continuous
100
AcDbLine
 10
125.5398569042974
 20
507.205150579823
 30
0.0
 11
125.5398569042974
 21
491.0408603269339
 31
0.0
  0
LINE
  5
9E2
330
1E
100
AcDbEntity
  8
STEMPEL
  6
Continuous
100
AcDbLine
 10
128.0398569042974
 20
507.205150579823
 30
0.0
 11
128.0398569042974
 21
491.3436022996775
 31
0.0
  0
LINE
  5
9E3
102
{ACAD_REACTORS
330
9BD
102
}
330
1E
100
AcDbEntity
  8
STEMPEL
  6
Continuous
100
AcDbLine
 10
129.2814121068912
 20
522.9882547977569
 30
0.0
 11
128.8190843580146
 21
521.9967897407473
 31
0.0
  0
LINE
  5
9E4
330
1E
100
AcDbEntity
  8
STEMPEL
  6
Continuous
100
AcDbLine
 10
132.0398569042974
 20
522.9882547977569
 30
0.0
 11
131.0848538256063
 21
520.9402440863957
 31
0.0
  0
DIMENSION
  5
9E5
330
1E
100
AcDbEntity
  8
BEM
100
AcDbDimension
  2
*D3
 10
357.9055395205287
 20
192.988254797757
 30
0.0
 11
351.4055395205286
 21
357.9882547977571
 31
0.0
 70
    32
 71
     5
 42
330.0000000000001
  3
Standard
100
AcDbAlignedDimension
 13
325.5398569042975
 23
522.9882547977569
 33
0.0
 14
294.6745198628974
 24
192.988254797757
 34
0.0
 50
90.0
100
AcDbRotatedDimension
1001
ACAD
1000
DSTYLE
1002
{
1070
    40
1040
2.0
1070
    41
1040
3.5
1070
    42
1040
1.0
1070
    43
1040
7.0
1070
    44
1040
1.0
1070
    73
1070
     0
1070
    74
1070
     0
1070
    77
1070
     1
1070
    78
1070
     8
1070
    79
1070
     2
1070
   140
1040
3.5
1070
   141
1040
1.5
1070
   146
1040
0.5142857142857144
1070
   147
1040
1.5
1070
   172
1070
     1
1070
   178
1070
     1
1070
   179
1070
     2
1070
   271
1070
     2
1070
   272
1070
     2
1070
   284
1070
     8
1070
   285
1070
     8
1070
   286
1070
     8
1070
   289
1070
     0
1070
   340
1005
24
1002
}
  0
DIMENSION
  5
9E6
330
1E
100
AcDbEntity
  8
BEM
100
AcDbDimension
  2
*D4
 10
341.3109859781807
 20
257.9882547977571
 30
0.0
 11
334.8109859781807
 21
390.4882547977571
 31
0.0
 70
    32
 71
     5
 42
265.0
  3
Standard
100
AcDbAlignedDimension
 13
325.5398569042975
 23
522.9882547977569
 33
0.0
 14
325.5398569042975
 24
257.9882547977571
 34
0.0
 50
90.0
100
AcDbRotatedDimension
1001
ACAD
1000
DSTYLE
1002
{
1070
    40
1040
2.0
1070
    41
1040
3.5
1070
    42
1040
1.0
1070
    43
1040
7.0
1070
    44
1040
1.0
1070
    73
1070
     0
1070
    74
1070
     0
1070
    77
1070
     1
1070
    78
1070
     8
1070
    79
1070
     2
1070
   140
1040
3.5
1070
   141
1040
1.5
1070
   146
1040
0.5142857142857144
1070
   147
1040
1.5
1070
   172
1070
     1
1070
   178
1070
     1
1070
   179
1070
     2
1070
   271
1070
     2
1070
   272
1070
     2
1070
   284
1070
     8
1070
   285
1070
     8
1070
   286
1070
     8
1070
   289
1070
     0
1070
   340
1005
24
1002
}
  0
LINE
  5
9E7
102
{ACAD_REACTORS
330
9BF
330
9BE
330
9BD
102
}
330
1E
100
AcDbEntity
  8
STEMPEL
100
AcDbLine
 10
322.6398569042975
 20
522.9882547977569
 30
0.0
 11
322.6398569042975
 21
257.9882547977571
 31
0.0
  0
LINE
  5
9E8
102
{ACAD_REACTORS
330
9BF
102
}
330
1E
100
AcDbEntity
  8
STEMPEL
100
AcDbLine
 10
325.5398569042975
 20
522.9882547977569
 30
0.0
 11
325.5398569042975
 21
255.988254797757
 31
0.0
  0
LINE
  5
9E9
102
{ACAD_REACTORS
330
9BE
102
}
330
1E
100
AcDbEntity
  8
STEMPEL
  6
Continuous
100
AcDbLine
 10
295.5398569042974
 20
435.4605068831526
 30
0.0
 11
295.5398569042976
 21
202.988254797757
 31
0.0
  0
LINE
  5
9EA
330
1E
100
AcDbEntity
  8
STEMPEL
  6
Continuous
100
AcDbLine
 10
293.0398569042974
 20
435.4605068831526
 30
0.0
 11
293.039856904299
 21
202.988254797757
 31
0.0
  0
LINE
  5
9EB
330
1E
100
AcDbEntity
  8
MITTEL
100
AcDbLine
 10
216.0398569042975
 20
527.9882547977568
 30
0.0
 11
216.0398569042975
 21
187.9882547977569
 31
0.0
  0
LINE
  5
9EC
330
1E
100
AcDbEntity
  8
STEMPEL
100
AcDbLine
 10
293.0398569042983
 20
202.9882547977569
 30
0.0
 11
292.164970269039
 21
192.988254797757
 31
0.0
  0
LINE
  5
9ED
330
1E
100
AcDbEntity
  8
STEMPEL
100
AcDbLine
 10
295.5303436495276
 20
202.7703654408878
 30
0.0
 11
294.6745198628974
 21
192.988254797757
 31
0.0
  0
LINE
  5
9EE
102
{ACAD_REACTORS
330
9BE
102
}
330
1E
100
AcDbEntity
  8
STEMPEL
100
AcDbLine
 10
295.5398569042973
 20
273.988254797757
 30
0.0
 11
320.7898569042976
 21
273.988254797757
 31
0.0
  0
LINE
  5
9EF
102
{ACAD_REACTORS
330
9BF
102
}
330
1E
100
AcDbEntity
  8
STEMPEL
  6
Continuous
100
AcDbLine
 10
325.5398569042975
 20
257.9882547977571
 30
0.0
 11
322.6398569042976
 21
257.9882547977571
 31
0.0
  0
LINE
  5
9F0
330
1E
100
AcDbEntity
  8
STEMPEL
100
AcDbLine
 10
295.5398569042973
 20
264.9882547977569
 30
0.0
 11
302.8398569042975
 21
264.9882547977569
 31
0.0
  0
LINE
  5
9F2
102
{ACAD_REACTORS
330
9BE
102
}
330
1E
100
AcDbEntity
  8
STEMPEL
100
AcDbLine
 10
322.6398569042975
 20
272.1382547977568
 30
0.0
 11
320.7898569042974
 21
273.988254797757
 31
0.0
  0
ARC
  5
9F3
330
1E
100
AcDbEntity
  8
STEMPEL
  6
Continuous
100
AcDbCircle
 10
271.5418292245392
 20
490.985556317039
 30
0.0
 40
32.5
100
AcDbArc
 50
332.6928769931978
 51
0.6312288822648352
  0
ARC
  5
9F4
102
{ACAD_REACTORS
330
9BE
102
}
330
1E
100
AcDbEntity
  8
STEMPEL
  6
Continuous
100
AcDbCircle
 10
271.5398569042974
 20
490.9832547977568
 30
0.0
 40
35.00004740563918
100
AcDbArc
 50
332.4728163794524
 51
0.0943014490885628
  0
ARC
  5
9F5
102
{ACAD_REACTORS
330
9BE
102
}
330
1E
100
AcDbEntity
  8
STEMPEL
  6
Continuous
100
AcDbCircle
 10
305.5398569042974
 20
435.4605068831526
 30
0.0
 40
10.0
100
AcDbArc
 50
145.2280559680509
 51
180.0
  0
ARC
  5
9F6
330
1E
100
AcDbEntity
  8
STEMPEL
  6
Continuous
100
AcDbCircle
 10
305.5398569042974
 20
435.4605068831526
 30
0.0
 40
12.5
100
AcDbArc
 50
145.2280559680509
 51
180.0
  0
LINE
  5
9F7
102
{ACAD_REACTORS
330
9BE
102
}
330
1E
100
AcDbEntity
  8
STEMPEL
  6
Continuous
100
AcDbLine
 10
300.5398569042974
 20
466.4882547977568
 30
0.0
 11
300.5398569042974
 21
451.4292263058239
 31
0.0
  0
LINE
  5
9F8
330
1E
100
AcDbEntity
  8
STEMPEL
  6
Continuous
100
AcDbLine
 10
298.0398569042974
 20
466.4882547977568
 30
0.0
 11
298.0398569042974
 21
451.4292263058239
 31
0.0
  0
ARC
  5
9F9
102
{ACAD_REACTORS
330
9BE
102
}
330
1E
100
AcDbEntity
  8
STEMPEL
  6
Continuous
100
AcDbCircle
 10
282.5398569042974
 20
451.4292263058239
 30
0.0
 40
18.0
100
AcDbArc
 50
325.228055968051
 51
0.0
  0
ARC
  5
9FA
330
1E
100
AcDbEntity
  8
STEMPEL
  6
Continuous
100
AcDbCircle
 10
282.5398569042974
 20
451.4292263058239
 30
0.0
 40
15.5
100
AcDbArc
 50
325.228055968051
 51
0.0
  0
ARC
  5
9FB
102
{ACAD_REACTORS
330
9BE
102
}
330
1E
100
AcDbEntity
  8
STEMPEL
  6
Continuous
100
AcDbCircle
 10
318.5398569042974
 20
466.4882547977568
 30
0.0
 40
18.0
100
AcDbArc
 50
152.4728163794524
 51
180.0
  0
ARC
  5
9FC
330
1E
100
AcDbEntity
  8
STEMPEL
  6
Continuous
100
AcDbCircle
 10
318.5398569042974
 20
466.4882547977568
 30
0.0
 40
20.5
100
AcDbArc
 50
152.115686312626
 51
180.0
  0
LINE
  5
9FD
102
{ACAD_REACTORS
330
9BE
330
9BD
102
}
330
1E
100
AcDbEntity
  8
STEMPEL
  6
Continuous
100
AcDbLine
 10
322.6398569042975
 20
504.988254797757
 30
0.0
 11
306.5398569042974
 21
504.988254797757
 31
0.0
  0
LINE
  5
9FE
102
{ACAD_REACTORS
330
9BE
330
9BD
102
}
330
1E
100
AcDbEntity
  8
STEMPEL
  6
Continuous
100
AcDbLine
 10
306.5398569042974
 20
507.205150579823
 30
0.0
 11
306.5398569042974
 21
491.0408603269339
 31
0.0
  0
LINE
  5
9FF
330
1E
100
AcDbEntity
  8
STEMPEL
  6
Continuous
100
AcDbLine
 10
304.0398569042974
 20
507.205150579823
 30
0.0
 11
304.0398569042974
 21
491.3436022996775
 31
0.0
  0
LINE
  5
A00
330
1E
100
AcDbEntity
  8
STEMPEL
  6
Continuous
100
AcDbLine
 10
300.0398569042974
 20
522.9882547977569
 30
0.0
 11
300.9948599829886
 21
520.9402440863957
 31
0.0
  0
ARC
  5
A01
102
{ACAD_REACTORS
330
9BD
102
}
330
1E
100
AcDbEntity
  8
STEMPEL
  6
Continuous
100
AcDbCircle
 10
271.5398569042974
 20
507.205150579823
 30
0.0
 40
35.0
100
AcDbArc
 50
0.0
 51
24.99999999999207
  0
ARC
  5
A02
330
1E
100
AcDbEntity
  8
STEMPEL
  6
Continuous
100
AcDbCircle
 10
271.5398569042974
 20
507.205150579823
 30
0.0
 40
32.5
100
AcDbArc
 50
0.0
 51
24.99999999999207
  0
LINE
  5
A03
102
{ACAD_REACTORS
330
9BD
102
}
330
1E
100
AcDbEntity
  8
STEMPEL
  6
Continuous
100
AcDbLine
 10
302.7983017017036
 20
522.9882547977569
 30
0.0
 11
303.2606294505801
 21
521.9967897407473
 31
0.0
  0
HATCH
  5
B0A
330
1E
100
AcDbEntity
  8
SCHRAFF
100
AcDbHatch
 10
0.0
 20
0.0
 30
0.0
210
0.0
220
0.0
230
1.0
  2
NET
 70
     0
 71
     0
 91
        2
 92
        7
 72
     0
 73
     1
 93
       11
 10
322.6398569042976
 20
272.1382547977567
 10
320.7898569042975
 20
273.988254797757
 10
295.5398569042976
 20
273.988254797757
 10
295.5398569042975
 20
264.9882547977569
 10
302.8398569042975
 20
264.9882547977569
 10
306.8813087886248
 20
257.9882547977569
 10
318.0398569042974
 20
257.9882547977569
 10
318.0398569042976
 20
255.988254797757
 10
325.5398569042975
 20
255.988254797757
 10
325.5398569042975
 20
257.9882547977571
 10
322.6398569042976
 20
257.9882547977571
 97
        0
 92
        7
 72
     0
 73
     1
 93
       11
 10
136.5398569042973
 20
273.988254797757
 10
111.2898569042974
 20
273.988254797757
 10
109.4398569042974
 20
272.138254797757
 10
109.4398569042974
 20
257.9882547977569
 10
106.5398569042975
 20
257.9882547977569
 10
106.5398569042975
 20
255.988254797757
 10
114.1398569042975
 20
255.988254797757
 10
114.1398569042975
 20
257.9882547977571
 10
125.1984050199702
 20
257.9882547977571
 10
129.2398569042975
 20
264.9882547977569
 10
136.5398569042973
 20
264.9882547977569
 97
        0
 75
     0
 76
     1
 52
45.0
 41
20.0
 77
     0
 78
     2
 53
45.0
 43
-0.0000000000000142
 44
0.0
 45
-1.767766952966368
 46
1.767766952966368
 79
     0
 53
135.0
 43
-0.0000000000000142
 44
0.0
 45
-1.767766952966368
 46
-1.767766952966368
 79
     0
 47
0.2699286479089143
 98
        2
 10
313.5304770717921
 20
269.0403516108641
 10
117.1739647559325
 20
267.4207803986649
  0
LINE
  5
B0B
330
1E
100
AcDbEntity
  8
STEMPEL
100
AcDbLine
 10
325.5398569042975
 20
255.988254797757
 30
0.0
 11
295.5398569042976
 21
255.9882547977571
 31
0.0
  0
LINE
  5
B0C
330
1E
100
AcDbEntity
  8
STEMPEL
100
AcDbLine
 10
302.8398569042975
 20
264.9882547977569
 30
0.0
 11
306.8813087886249
 21
257.9882547977568
 31
0.0
  0
LINE
  5
B0D
330
1E
100
AcDbEntity
  8
STEMPEL
100
AcDbLine
 10
318.0398569042976
 20
257.9882547977569
 30
0.0
 11
295.5398569042976
 21
257.9882547977569
 31
0.0
  0
LINE
  5
B0E
330
1E
100
AcDbEntity
  8
STEMPEL
100
AcDbLine
 10
318.0398569042976
 20
255.9882547977569
 30
0.0
 11
318.0398569042974
 21
257.9882547977569
 31
0.0
  0
POINT
  5
B0F
330
1E
100
AcDbEntity
  8
DEFPOINTS
  6
ByBlock
 62
     0
100
AcDbPoint
 10
308.0398569042976
 20
257.9882547977569
 30
0.0
  0
POINT
  5
B10
330
1E
100
AcDbEntity
  8
DEFPOINTS
  6
ByBlock
 62
     0
100
AcDbPoint
 10
318.0398569042976
 20
255.9882547977569
 30
0.0
  0
POINT
  5
B11
330
1E
100
AcDbEntity
  8
DEFPOINTS
  6
ByBlock
 62
     0
100
AcDbPoint
 10
306.8813087886249
 20
257.9882547977569
 30
0.0
  0
POINT
  5
B12
330
1E
100
AcDbEntity
  8
DEFPOINTS
  6
ByBlock
 62
     0
100
AcDbPoint
 10
306.8813087886249
 20
257.9882547977569
 30
0.0
  0
POINT
  5
B13
330
1E
100
AcDbEntity
  8
DEFPOINTS
  6
ByBlock
 62
     0
100
AcDbPoint
 10
306.8813087886249
 20
257.9882547977568
 30
0.0
  0
POINT
  5
B14
330
1E
100
AcDbEntity
  8
DEFPOINTS
  6
ByBlock
 62
     0
100
AcDbPoint
 10
318.0398569042976
 20
255.9882547977569
 30
0.0
  0
LINE
  5
B15
330
1E
100
AcDbEntity
  8
STEMPEL
100
AcDbLine
 10
136.5398569042973
 20
255.988254797757
 30
0.0
 11
106.5398569042975
 21
255.988254797757
 31
0.0
  0
LINE
  5
B16
330
1E
100
AcDbEntity
  8
STEMPEL
100
AcDbLine
 10
136.5398569042973
 20
257.9882547977571
 30
0.0
 11
114.1398569042975
 21
257.9882547977571
 31
0.0
  0
LINE
  5
B17
330
1E
100
AcDbEntity
  8
STEMPEL
100
AcDbLine
 10
114.1398569042975
 20
255.9882547977569
 30
0.0
 11
114.1398569042975
 21
257.9882547977569
 31
0.0
  0
LINE
  5
B18
330
1E
100
AcDbEntity
  8
STEMPEL
100
AcDbLine
 10
129.2398569042975
 20
264.9882547977569
 30
0.0
 11
125.1984050199701
 21
257.9882547977568
 31
0.0
  0
POINT
  5
B19
330
1E
100
AcDbEntity
  8
DEFPOINTS
  6
ByBlock
 62
     0
100
AcDbPoint
 10
125.1984050199702
 20
257.9882547977569
 30
0.0
  0
POINT
  5
B1A
330
1E
100
AcDbEntity
  8
DEFPOINTS
  6
ByBlock
 62
     0
100
AcDbPoint
 10
114.1398569042975
 20
255.9882547977569
 30
0.0
  0
POINT
  5
B1B
330
1E
100
AcDbEntity
  8
DEFPOINTS
  6
ByBlock
 62
     0
100
AcDbPoint
 10
114.1398569042975
 20
257.9882547977569
 30
0.0
  0
ENDSEC
  0
SECTION
  2
OBJECTS
  0
DICTIONARY
  5
C
330
0
100
AcDbDictionary
281
     1
  3
ACAD_COLOR
350
DF
  3
ACAD_GROUP
350
D
  3
ACAD_LAYOUT
350
19
  3
ACAD_MATERIAL
350
DE
  3
ACAD_MLINESTYLE
350
16
  3
ACAD_PLOTSETTINGS
350
18
  3
ACAD_PLOTSTYLENAME
350
E
  3
AcDbVariableDictionary
350
EA
  0
DICTIONARY
  5
A0
330
1E
100
AcDbDictionary
280
     1
281
     1
  3
ACAD_LAYOUTSELFREF
360
D4
  0
DICTIONARY
  5
A2
330
1A
100
AcDbDictionary
280
     1
281
     1
  3
ACAD_LAYOUTSELFREF
360
D3
  0
DICTIONARY
  5
DF
102
{ACAD_REACTORS
330
C
102
}
330
C
100
AcDbDictionary
281
     1
  0
DICTIONARY
  5
D
102
{ACAD_REACTORS
330
C
102
}
330
C
100
AcDbDictionary
281
     1
  0
DICTIONARY
  5
19
102
{ACAD_REACTORS
330
C
102
}
330
C
100
AcDbDictionary
281
     1
  3
Layout1
350
1D
  3
Model
350
21
  0
DICTIONARY
  5
DE
102
{ACAD_REACTORS
330
C
102
}
330
C
100
AcDbDictionary
281
     1
  0
DICTIONARY
  5
16
102
{ACAD_REACTORS
330
C
102
}
330
C
100
AcDbDictionary
281
     1
  3
Standard
350
17
  0
DICTIONARY
  5
18
102
{ACAD_REACTORS
330
C
102
}
330
C
100
AcDbDictionary
281
     1
  0
ACDBDICTIONARYWDFLT
  5
E
102
{ACAD_REACTORS
330
C
102
}
330
C
100
AcDbDictionary
281
     1
  3
Normal
350
F
100
AcDbDictionaryWithDefault
340
F
  0
DICTIONARY
  5
EA
102
{ACAD_REACTORS
330
C
102
}
330
C
100
AcDbDictionary
281
     1
  3
DIMASSOC
350
EB
  3
PROJECTNAME
350
EC
  0
XRECORD
  5
D4
102
{ACAD_REACTORS
330
A0
102
}
330
A0
100
AcDbXrecord
280
     1
340
1E
  0
XRECORD
  5
D3
102
{ACAD_REACTORS
330
A2
102
}
330
A2
100
AcDbXrecord
280
     1
340
1A
  0
LAYOUT
  5
1D
102
{ACAD_REACTORS
330
19
102
}
330
19
100
AcDbPlotSettings
  1

  2
\\NT_WORK01\HP LaserJet 5000 PCL 6
  4

  6

 40
0.0
 41
0.0
 42
0.0
 43
0.0
 44
0.0
 45
0.0
 46
0.0
 47
0.0
 48
0.0
 49
0.0
140
0.0
141
0.0
142
1.0
143
1.0
 70
   688
 72
     0
 73
     0
 74
     5
  7

 75
    16
147
1.0
 76
     0
 77
     2
 78
   300
148
0.0
149
0.0
100
AcDbLayout
  1
Layout1
 70
     0
 71
     1
 10
0.0
 20
0.0
 11
12.0
 21
9.0
 12
0.0
 22
0.0
 32
0.0
 14
1.000000000000000E+20
 24
1.000000000000000E+20
 34
1.000000000000000E+20
 15
-1.000000000000000E+20
 25
-1.000000000000000E+20
 35
-1.000000000000000E+20
146
0.0
 13
0.0
 23
0.0
 33
0.0
 16
1.0
 26
0.0
 36
0.0
 17
0.0
 27
1.0
 37
0.0
 76
     0
330
1A
  0
LAYOUT
  5
21
102
{ACAD_REACTORS
330
19
102
}
330
19
100
AcDbPlotSettings
  1

  2
none_device
  4
Letter_(8.50_x_11.00_Inches)
  6

 40
6.349999904632568
 41
6.349999904632568
 42
6.350006103515625
 43
6.350006103515625
 44
215.8999938964844
 45
279.3999938964844
 46
0.0
 47
0.0
 48
0.0
 49
0.0
140
0.0
141
0.0
142
1.0
143
1.0
 70
 11952
 72
     0
 73
     1
 74
     0
  7

 75
     0
147
1.0
 76
     0
 77
     2
 78
   300
148
2286.722511197659
149
76.92250090747274
100
AcDbLayout
  1
Model
 70
     1
 71
     0
 10
0.0
 20
0.0
 11
12.0
 21
9.0
 12
0.0
 22
0.0
 32
0.0
 14
0.0
 24
0.0
 34
0.0
 15
0.0
 25
0.0
 35
0.0
146
0.0
 13
0.0
 23
0.0
 33
0.0
 16
1.0
 26
0.0
 36
0.0
 17
0.0
 27
1.0
 37
0.0
 76
     0
330
1E
  0
MLINESTYLE
  5
17
102
{ACAD_REACTORS
330
16
102
}
330
16
100
AcDbMlineStyle
  2
STANDARD
 70
     0
  3

 62
   256
 51
90.0
 52
90.0
 71
     2
 49
0.5
 62
   256
  6
BYLAYER
 49
-0.5
 62
   256
  6
BYLAYER
  0
ACDBPLACEHOLDER
  5
F
102
{ACAD_REACTORS
330
E
102
}
330
E
  0
DICTIONARYVAR
  5
EB
102
{ACAD_REACTORS
330
EA
102
}
330
EA
100
DictionaryVariables
280
     0
  1
1
  0
DICTIONARYVAR
  5
EC
102
{ACAD_REACTORS
330
EA
102
}
330
EA
100
DictionaryVariables
280
     0
  1

  0
ENDSEC
  0
EOF
