  0
SECTION
  2
HEADER
  9
$ACADVER
  1
AC1018
  9
$ACADMAINTVER
 70
     2
  9
$DWGCODEPAGE
  3
ANSI_1252
  9
$INSBASE
 10
0.0
 20
0.0
 30
0.0
  9
$EXTMIN
 10
-0.0064041928749248
 20
-0.0090573584946014
 30
-0.0000000000112498
  9
$EXTMAX
 10
420.0064100605654
 20
594.0090656570857
 30
0.0000000000002956
  9
$LIMMIN
 10
0.0
 20
0.0
  9
$LIMMAX
 10
419.9999999999999
 20
594.0
  9
$ORTHOMODE
 70
     0
  9
$REGENMODE
 70
     1
  9
$FILLMODE
 70
     1
  9
$QTEXTMODE
 70
     0
  9
$MIRRTEXT
 70
     1
  9
$LTSCALE
 40
20.0
  9
$ATTMODE
 70
     1
  9
$TEXTSIZE
 40
3.5
  9
$TRACEWID
 40
0.5
  9
$TEXTSTYLE
  7
STANDARD
  9
$CLAYER
  8
BEM
  9
$CELTYPE
  6
ByLayer
  9
$CECOLOR
 62
   256
  9
$CELTSCALE
 40
1.0
  9
$DISPSILH
 70
     0
  9
$DIMSCALE
 40
2.0
  9
$DIMASZ
 40
3.5
  9
$DIMEXO
 40
1.0
  9
$DIMDLI
 40
7.0
  9
$DIMRND
 40
0.0
  9
$DIMDLE
 40
0.0
  9
$DIMEXE
 40
1.0
  9
$DIMTP
 40
0.0
  9
$DIMTM
 40
0.0
  9
$DIMTXT
 40
3.5
  9
$DIMCEN
 40
1.5
  9
$DIMTSZ
 40
0.0
  9
$DIMTOL
 70
     0
  9
$DIMLIM
 70
     0
  9
$DIMTIH
 70
     0
  9
$DIMTOH
 70
     0
  9
$DIMSE1
 70
     0
  9
$DIMSE2
 70
     0
  9
$DIMTAD
 70
     1
  9
$DIMZIN
 70
     8
  9
$DIMBLK
  1

  9
$DIMASO
 70
     1
  9
$DIMSHO
 70
     0
  9
$DIMPOST
  1

  9
$DIMAPOST
  1

  9
$DIMALT
 70
     0
  9
$DIMALTD
 70
     2
  9
$DIMALTF
 40
25.4
  9
$DIMLFAC
 40
1.0
  9
$DIMTOFL
 70
     1
  9
$DIMTVP
 40
0.0
  9
$DIMTIX
 70
     0
  9
$DIMSOXD
 70
     0
  9
$DIMSAH
 70
     0
  9
$DIMBLK1
  1

  9
$DIMBLK2
  1

  9
$DIMSTYLE
  2
Standard
  9
$DIMCLRD
 70
     0
  9
$DIMCLRE
 70
     0
  9
$DIMCLRT
 70
     1
  9
$DIMTFAC
 40
0.5142857142857144
  9
$DIMGAP
 40
1.5
  9
$DIMJUST
 70
     0
  9
$DIMSD1
 70
     0
  9
$DIMSD2
 70
     0
  9
$DIMTOLJ
 70
     1
  9
$DIMTZIN
 70
     8
  9
$DIMALTZ
 70
     8
  9
$DIMALTTZ
 70
     8
  9
$DIMUPT
 70
     0
  9
$DIMDEC
 70
     2
  9
$DIMTDEC
 70
     2
  9
$DIMALTU
 70
     2
  9
$DIMALTTD
 70
     2
  9
$DIMTXSTY
  7
STANDARD
  9
$DIMAUNIT
 70
     0
  9
$DIMADEC
 70
     2
  9
$DIMALTRND
 40
0.0
  9
$DIMAZIN
 70
     2
  9
$DIMDSEP
 70
    46
  9
$DIMATFIT
 70
     3
  9
$DIMFRAC
 70
     0
  9
$DIMLDRBLK
  1

  9
$DIMLUNIT
 70
     2
  9
$DIMLWD
 70
    -2
  9
$DIMLWE
 70
    -2
  9
$DIMTMOVE
 70
     0
  9
$LUNITS
 70
     2
  9
$LUPREC
 70
     2
  9
$SKETCHINC
 40
1.0
  9
$FILLETRAD
 40
0.0
  9
$AUNITS
 70
     0
  9
$AUPREC
 70
     0
  9
$MENU
  1
ACAD
  9
$ELEVATION
 40
0.0
  9
$PELEVATION
 40
0.0
  9
$THICKNESS
 40
0.0
  9
$LIMCHECK
 70
     0
  9
$CHAMFERA
 40
0.0
  9
$CHAMFERB
 40
0.0
  9
$CHAMFERC
 40
0.0
  9
$CHAMFERD
 40
0.0
  9
$SKPOLY
 70
     0
  9
$TDCREATE
 40
2455397.823042361
  9
$TDUCREATE
 40
2455397.781375695
  9
$TDUPDATE
 40
2455532.454871018
  9
$TDUUPDATE
 40
2455532.413204352
  9
$TDINDWG
 40
0.0573310880
  9
$TDUSRTIMER
 40
0.0573310880
  9
$USRTIMER
 70
     1
  9
$ANGBASE
 50
0.0
  9
$ANGDIR
 70
     0
  9
$PDMODE
 70
     0
  9
$PDSIZE
 40
0.0
  9
$PLINEWID
 40
0.0
  9
$SPLFRAME
 70
     0
  9
$SPLINETYPE
 70
     6
  9
$SPLINESEGS
 70
     8
  9
$HANDSEED
  5
E45
  9
$SURFTAB1
 70
     6
  9
$SURFTAB2
 70
     6
  9
$SURFTYPE
 70
     6
  9
$SURFU
 70
     6
  9
$SURFV
 70
     6
  9
$UCSBASE
  2

  9
$UCSNAME
  2

  9
$UCSORG
 10
0.0
 20
0.0
 30
0.0
  9
$UCSXDIR
 10
1.0
 20
0.0
 30
0.0
  9
$UCSYDIR
 10
0.0
 20
1.0
 30
0.0
  9
$UCSORTHOREF
  2

  9
$UCSORTHOVIEW
 70
     0
  9
$UCSORGTOP
 10
0.0
 20
0.0
 30
0.0
  9
$UCSORGBOTTOM
 10
0.0
 20
0.0
 30
0.0
  9
$UCSORGLEFT
 10
0.0
 20
0.0
 30
0.0
  9
$UCSORGRIGHT
 10
0.0
 20
0.0
 30
0.0
  9
$UCSORGFRONT
 10
0.0
 20
0.0
 30
0.0
  9
$UCSORGBACK
 10
0.0
 20
0.0
 30
0.0
  9
$PUCSBASE
  2

  9
$PUCSNAME
  2

  9
$PUCSORG
 10
0.0
 20
0.0
 30
0.0
  9
$PUCSXDIR
 10
1.0
 20
0.0
 30
0.0
  9
$PUCSYDIR
 10
0.0
 20
1.0
 30
0.0
  9
$PUCSORTHOREF
  2

  9
$PUCSORTHOVIEW
 70
     0
  9
$PUCSORGTOP
 10
0.0
 20
0.0
 30
0.0
  9
$PUCSORGBOTTOM
 10
0.0
 20
0.0
 30
0.0
  9
$PUCSORGLEFT
 10
0.0
 20
0.0
 30
0.0
  9
$PUCSORGRIGHT
 10
0.0
 20
0.0
 30
0.0
  9
$PUCSORGFRONT
 10
0.0
 20
0.0
 30
0.0
  9
$PUCSORGBACK
 10
0.0
 20
0.0
 30
0.0
  9
$USERI1
 70
     0
  9
$USERI2
 70
     0
  9
$USERI3
 70
     0
  9
$USERI4
 70
     0
  9
$USERI5
 70
     0
  9
$USERR1
 40
0.0
  9
$USERR2
 40
0.0
  9
$USERR3
 40
0.0
  9
$USERR4
 40
0.0
  9
$USERR5
 40
0.0
  9
$WORLDVIEW
 70
     1
  9
$SHADEDGE
 70
     3
  9
$SHADEDIF
 70
    70
  9
$TILEMODE
 70
     1
  9
$MAXACTVP
 70
    16
  9
$PINSBASE
 10
0.0
 20
0.0
 30
0.0
  9
$PLIMCHECK
 70
     0
  9
$PEXTMIN
 10
1.000000000000000E+20
 20
1.000000000000000E+20
 30
1.000000000000000E+20
  9
$PEXTMAX
 10
-1.000000000000000E+20
 20
-1.000000000000000E+20
 30
-1.000000000000000E+20
  9
$PLIMMIN
 10
0.0
 20
0.0
  9
$PLIMMAX
 10
12.0
 20
9.0
  9
$UNITMODE
 70
     0
  9
$VISRETAIN
 70
     0
  9
$PLINEGEN
 70
     0
  9
$PSLTSCALE
 70
     0
  9
$TREEDEPTH
 70
  3020
  9
$CMLSTYLE
  2
Standard
  9
$CMLJUST
 70
     0
  9
$CMLSCALE
 40
1.0
  9
$PROXYGRAPHICS
 70
     1
  9
$MEASUREMENT
 70
     0
  9
$CELWEIGHT
370
    -1
  9
$ENDCAPS
280
     0
  9
$JOINSTYLE
280
     0
  9
$LWDISPLAY
290
     0
  9
$INSUNITS
 70
     0
  9
$HYPERLINKBASE
  1

  9
$STYLESHEET
  1
monochrome 1.ctb
  9
$XEDIT
290
     1
  9
$CEPSNTYPE
380
     0
  9
$PSTYLEMODE
290
     1
  9
$FINGERPRINTGUID
  2
{D68B0D02-A558-11D7-B632-000102183313}
  9
$VERSIONGUID
  2
{3514F628-4246-41F4-A7DF-C94BD31BAF82}
  9
$EXTNAMES
290
     1
  9
$PSVPSCALE
 40
0.0
  9
$OLESTARTUP
290
     0
  9
$SORTENTS
280
   127
  9
$INDEXCTL
280
     0
  9
$HIDETEXT
280
     0
  9
$XCLIPFRAME
290
     0
  9
$HALOGAP
280
     0
  9
$OBSCOLOR
 70
   257
  9
$OBSLTYPE
280
     0
  9
$INTERSECTIONDISPLAY
280
     0
  9
$INTERSECTIONCOLOR
 70
   257
  9
$DIMASSOC
280
     1
  9
$PROJECTNAME
  1

  0
ENDSEC
  0
SECTION
  2
CLASSES
  0
CLASS
  1
ACDBDICTIONARYWDFLT
  2
AcDbDictionaryWithDefault
  3
ObjectDBX Classes
 90
        0
 91
        1
280
     0
281
     0
  0
CLASS
  1
DICTIONARYVAR
  2
AcDbDictionaryVar
  3
ObjectDBX Classes
 90
        0
 91
        2
280
     0
281
     0
  0
ENDSEC
  0
SECTION
  2
TABLES
  0
TABLE
  2
VPORT
  5
8
330
0
100
AcDbSymbolTable
 70
     3
  0
VPORT
  5
E44
330
8
100
AcDbSymbolTableRecord
100
AcDbViewportTableRecord
  2
*Active
 70
     0
 10
0.0
 20
0.0
 11
1.0
 21
1.0
 12
210.0000029338453
 22
297.0000041492956
 13
0.0
 23
0.0
 14
1.0
 24
1.0
 15
10.0
 25
10.0
 16
0.0
 26
0.0
 36
1.0
 17
0.0
 27
0.0
 37
0.0
 40
598.8749584959168
 41
1.336927223719676
 42
50.0
 43
0.0
 44
0.0
 50
0.0
 51
0.0
 71
     0
 72
  1500
 73
     1
 74
     0
 75
     0
 76
     0
 77
     0
 78
     0
281
     0
 65
     1
110
0.0
120
0.0
130
0.0
111
1.0
121
0.0
131
0.0
112
0.0
122
1.0
132
0.0
 79
     0
146
0.0
  0
ENDTAB
  0
TABLE
  2
LTYPE
  5
5
330
0
100
AcDbSymbolTable
 70
     2
  0
LTYPE
  5
13
330
5
100
AcDbSymbolTableRecord
100
AcDbLinetypeTableRecord
  2
ByBlock
 70
     0
  3

 72
    65
 73
     0
 40
0.0
  0
LTYPE
  5
14
330
5
100
AcDbSymbolTableRecord
100
AcDbLinetypeTableRecord
  2
ByLayer
 70
     0
  3

 72
    65
 73
     0
 40
0.0
  0
LTYPE
  5
15
330
5
100
AcDbSymbolTableRecord
100
AcDbLinetypeTableRecord
  2
Continuous
 70
     0
  3
Solid line
 72
    65
 73
     0
 40
0.0
  0
LTYPE
  5
25
330
5
100
AcDbSymbolTableRecord
100
AcDbLinetypeTableRecord
  2
STRICHPUNKT
 70
     0
  3
__ . __ . __ . __ . __ . __ . __ . __ . __ . __
 72
    65
 73
     4
 40
1.0
 49
0.5
 74
     0
 49
-0.25
 74
     0
 49
0.0
 74
     0
 49
-0.25
 74
     0
  0
ENDTAB
  0
TABLE
  2
LAYER
  5
2
330
0
100
AcDbSymbolTable
 70
     9
  0
LAYER
  5
10
330
2
100
AcDbSymbolTableRecord
100
AcDbLayerTableRecord
  2
0
 70
     0
 62
     7
  6
Continuous
370
    -3
390
F
  0
LAYER
  5
2A
330
2
100
AcDbSymbolTableRecord
100
AcDbLayerTableRecord
  2
VOLL
 70
     0
 62
     1
  6
Continuous
370
    -3
390
F
  0
LAYER
  5
2B
330
2
100
AcDbSymbolTableRecord
100
AcDbLayerTableRecord
  2
HILF
 70
     0
 62
     2
  6
Continuous
370
    -3
390
F
  0
LAYER
  5
2C
330
2
100
AcDbSymbolTableRecord
100
AcDbLayerTableRecord
  2
MITTEL
 70
     0
 62
     2
  6
STRICHPUNKT
370
    -3
390
F
  0
LAYER
  5
2F
330
2
100
AcDbSymbolTableRecord
100
AcDbLayerTableRecord
  2
BEM
 70
     0
 62
     7
  6
Continuous
370
    -3
390
F
  0
LAYER
  5
30
330
2
100
AcDbSymbolTableRecord
100
AcDbLayerTableRecord
  2
STEMPEL
 70
     0
 62
     3
  6
Continuous
370
    -3
390
F
  0
LAYER
  5
31
330
2
100
AcDbSymbolTableRecord
100
AcDbLayerTableRecord
  2
TEXT
 70
     0
 62
     7
  6
Continuous
370
    -3
390
F
  0
LAYER
  5
199
330
2
100
AcDbSymbolTableRecord
100
AcDbLayerTableRecord
  2
DEFPOINTS
 70
     0
 62
     7
  6
Continuous
290
     0
370
    -3
390
F
  0
LAYER
  5
19A
330
2
100
AcDbSymbolTableRecord
100
AcDbLayerTableRecord
  2
SCHRAFF
 70
     0
 62
     7
  6
Continuous
370
    -3
390
F
  0
ENDTAB
  0
TABLE
  2
STYLE
  5
3
330
0
100
AcDbSymbolTable
 70
     2
  0
STYLE
  5
11
330
3
100
AcDbSymbolTableRecord
100
AcDbTextStyleTableRecord
  2
STANDARD
 70
     0
 40
0.0
 41
0.8
 50
0.0
 71
     0
 42
3.5
  3
simplex.shx
  4

  0
STYLE
  5
24
330
3
100
AcDbSymbolTableRecord
100
AcDbTextStyleTableRecord
  2
GREEKS
 70
     0
 40
0.0
 41
0.8
 50
0.0
 71
     0
 42
2.5
  3
SIMPLEX.shx
  4

  0
ENDTAB
  0
TABLE
  2
VIEW
  5
6
330
0
100
AcDbSymbolTable
 70
     0
  0
ENDTAB
  0
TABLE
  2
UCS
  5
7
330
0
100
AcDbSymbolTable
 70
     0
  0
ENDTAB
  0
TABLE
  2
APPID
  5
9
330
0
100
AcDbSymbolTable
 70
     1
  0
APPID
  5
12
330
9
100
AcDbSymbolTableRecord
100
AcDbRegAppTableRecord
  2
ACAD
 70
     0
  0
ENDTAB
  0
TABLE
  2
DIMSTYLE
  5
A
330
0
100
AcDbSymbolTable
 70
     1
100
AcDbDimStyleTable
 71
     1
340
9D
  0
DIMSTYLE
105
9D
102
{ACAD_REACTORS
330
B15
330
AEA
330
DF7
330
E2C
102
}
330
A
100
AcDbSymbolTableRecord
100
AcDbDimStyleTableRecord
  2
Standard
 70
     0
340
11
  0
ENDTAB
  0
TABLE
  2
BLOCK_RECORD
  5
1
330
0
100
AcDbSymbolTable
 70
     5
  0
BLOCK_RECORD
  5
1E
102
{ACAD_XDICTIONARY
360
A0
102
}
330
1
100
AcDbSymbolTableRecord
100
AcDbBlockTableRecord
  2
*Model_Space
340
21
  0
BLOCK_RECORD
  5
1A
102
{ACAD_XDICTIONARY
360
A2
102
}
330
1
100
AcDbSymbolTableRecord
100
AcDbBlockTableRecord
  2
*Paper_Space
340
1D
  0
BLOCK_RECORD
  5
22
330
1
100
AcDbSymbolTableRecord
100
AcDbBlockTableRecord
  2
LOGO
340
0
102
{BLKREFS
331
9B
102
}
  0
BLOCK_RECORD
  5
B5F
330
1
100
AcDbSymbolTableRecord
100
AcDbBlockTableRecord
  2
*D1
340
0
  0
BLOCK_RECORD
  5
B93
330
1
100
AcDbSymbolTableRecord
100
AcDbBlockTableRecord
  2
*D2
340
0
  0
BLOCK_RECORD
  5
E05
330
1
100
AcDbSymbolTableRecord
100
AcDbBlockTableRecord
  2
*D3
340
0
  0
BLOCK_RECORD
  5
E2D
330
1
100
AcDbSymbolTableRecord
100
AcDbBlockTableRecord
  2
*D4
340
0
  0
ENDTAB
  0
ENDSEC
  0
SECTION
  2
BLOCKS
  0
BLOCK
  5
35
330
1E
100
AcDbEntity
  8
0
100
AcDbBlockBegin
  2
*Model_Space
 70
     0
 10
0.0
 20
0.0
 30
0.0
  3
*Model_Space
  1

  0
ENDBLK
  5
36
330
1E
100
AcDbEntity
  8
0
100
AcDbBlockEnd
  0
BLOCK
  5
33
330
1A
100
AcDbEntity
 67
     1
  8
0
100
AcDbBlockBegin
  2
*Paper_Space
 70
     0
 10
0.0
 20
0.0
 30
0.0
  3
*Paper_Space
  1

  0
ENDBLK
  5
34
330
1A
100
AcDbEntity
 67
     1
  8
0
100
AcDbBlockEnd
  0
BLOCK
  5
37
330
22
100
AcDbEntity
  8
0
100
AcDbBlockBegin
  2
LOGO
 70
     0
 10
0.0
 20
0.0
 30
0.0
  3
LOGO
  1

  0
ARC
  5
38
330
22
100
AcDbEntity
  8
0
100
AcDbCircle
 10
11.59973089678112
 20
-9.271599258481501
 30
0.0
 40
4.5
100
AcDbArc
 50
270.0
 51
231.0575587310159
  0
LINE
  5
39
330
22
100
AcDbEntity
  8
0
100
AcDbLine
 10
3.599730896781125
 20
-4.771599258481529
 30
0.0
 11
3.599730896781153
 21
-11.77159925848133
 31
0.0
  0
LINE
  5
3A
330
22
100
AcDbEntity
  8
0
100
AcDbLine
 10
2.599730896781125
 20
-4.771599258481529
 30
0.0
 11
2.599730896781153
 21
-11.77159925848133
 31
0.0
  0
CIRCLE
  5
3B
330
22
100
AcDbEntity
  8
0
100
AcDbCircle
 10
11.59973089678112
 20
-9.271599258481501
 30
0.0
 40
3.5
  0
ARC
  5
3C
330
22
100
AcDbEntity
  8
0
100
AcDbCircle
 10
31.59973089678115
 20
-9.271599258481472
 30
0.0
 40
4.5
100
AcDbArc
 50
270.0
 51
231.0575587310182
  0
LINE
  5
3D
330
22
100
AcDbEntity
  8
0
100
AcDbLine
 10
17.59973089678112
 20
-4.771599258481472
 30
0.0
 11
17.59973089678115
 21
-13.77159925848147
 31
0.0
  0
ARC
  5
3E
330
22
100
AcDbEntity
  8
0
100
AcDbCircle
 10
22.59973089678116
 20
-7.271599258481472
 30
0.0
 40
2.5
100
AcDbArc
 50
293.1161887722295
 51
90.0
  0
CIRCLE
  5
3F
330
22
100
AcDbEntity
  8
0
100
AcDbCircle
 10
31.59973089678115
 20
-9.271599258481472
 30
0.0
 40
3.5
  0
ARC
  5
40
330
22
100
AcDbEntity
  8
0
100
AcDbCircle
 10
4.599730896781153
 20
-11.77159925848133
 30
0.0
 40
1.0
100
AcDbArc
 50
180.0
 51
270.0
  0
ARC
  5
41
330
22
100
AcDbEntity
  8
0
100
AcDbCircle
 10
4.599730896781153
 20
-11.77159925848133
 30
0.0
 40
2.0
100
AcDbArc
 50
179.9999999999992
 51
270.0
  0
LINE
  5
42
330
22
100
AcDbEntity
  8
0
100
AcDbLine
 10
11.59973089678115
 20
-13.77159925848144
 30
0.0
 11
4.599730896781153
 21
-13.77159925848147
 31
0.0
  0
LINE
  5
43
330
22
100
AcDbEntity
  8
0
100
AcDbLine
 10
8.771303772034769
 20
-12.77159925848136
 30
0.0
 11
4.599730896781153
 21
-12.77159925848133
 31
0.0
  0
LINE
  5
44
330
22
100
AcDbEntity
  8
0
100
AcDbLine
 10
31.59973089678115
 20
-13.77159925848147
 30
0.0
 11
23.6715276665056
 21
-13.77159925848144
 31
0.0
  0
LINE
  5
45
330
22
100
AcDbEntity
  8
0
100
AcDbLine
 10
23.56565672307022
 20
-9.51278021337896
 30
0.0
 11
24.4388546544846
 21
-12.77159925848144
 31
0.0
  0
LINE
  5
46
330
22
100
AcDbEntity
  8
0
100
AcDbLine
 10
22.59973089678116
 20
-9.771599258481472
 30
0.0
 11
18.59973089678112
 21
-9.771599258481472
 31
0.0
  0
LINE
  5
47
330
22
100
AcDbEntity
  8
0
100
AcDbLine
 10
18.59973089678115
 20
-13.77159925848144
 30
0.0
 11
17.59973089678115
 21
-13.77159925848144
 31
0.0
  0
LINE
  5
48
330
22
100
AcDbEntity
  8
0
100
AcDbLine
 10
18.59973089678115
 20
-9.771599258481472
 30
0.0
 11
18.59973089678115
 21
-13.77159925848144
 31
0.0
  0
LINE
  5
49
330
22
100
AcDbEntity
  8
0
100
AcDbLine
 10
22.59973089678116
 20
-9.771599258481472
 30
0.0
 11
23.67152766650562
 21
-13.77159925848147
 31
0.0
  0
ARC
  5
4A
330
22
100
AcDbEntity
  8
0
100
AcDbCircle
 10
22.59973089678116
 20
-7.271599258481472
 30
0.0
 40
2.5
100
AcDbArc
 50
270.0
 51
270.0000000000007
  0
LINE
  5
4B
330
22
100
AcDbEntity
  8
0
100
AcDbLine
 10
28.77130377203494
 20
-12.77159925848147
 30
0.0
 11
24.43885465448463
 21
-12.77159925848144
 31
0.0
  0
LINE
  5
4C
330
22
100
AcDbEntity
  8
0
100
AcDbLine
 10
3.599730896781125
 20
-4.771599258481472
 30
0.0
 11
2.599730896781125
 21
-4.771599258481472
 31
0.0
  0
LINE
  5
4D
330
22
100
AcDbEntity
  8
0
100
AcDbLine
 10
22.59973089678116
 20
-8.771599258481472
 30
0.0
 11
18.59973089678115
 21
-8.771599258481472
 31
0.0
  0
LINE
  5
4E
330
22
100
AcDbEntity
  8
0
100
AcDbLine
 10
22.59973089678116
 20
-5.771599258481472
 30
0.0
 11
18.59973089678115
 21
-5.771599258481472
 31
0.0
  0
LINE
  5
4F
330
22
100
AcDbEntity
  8
0
100
AcDbLine
 10
22.59973089678116
 20
-4.771599258481472
 30
0.0
 11
17.59973089678115
 21
-4.771599258481472
 31
0.0
  0
LINE
  5
50
330
22
100
AcDbEntity
  8
0
100
AcDbLine
 10
18.59973089678115
 20
-5.771599258481472
 30
0.0
 11
18.59973089678115
 21
-8.771599258481472
 31
0.0
  0
ARC
  5
51
330
22
100
AcDbEntity
  8
0
100
AcDbCircle
 10
22.59973089678116
 20
-7.271599258481472
 30
0.0
 40
1.5
100
AcDbArc
 50
270.0
 51
90.0
  0
ENDBLK
  5
52
330
22
100
AcDbEntity
  8
0
100
AcDbBlockEnd
  0
BLOCK
  5
B6A
330
B5F
100
AcDbEntity
  8
0
100
AcDbBlockBegin
  2
*D1
 70
     1
 10
0.0
 20
0.0
 30
0.0
  3
*D1
  1

  0
LINE
  5
D34
330
B5F
100
AcDbEntity
  8
BEM
 62
     0
370
    -2
100
AcDbLine
 10
180.4646351011039
 20
221.593225702675
 30
0.0
 11
180.4646351011039
 21
192.6201138604132
 31
0.0
  0
LINE
  5
D35
330
B5F
100
AcDbEntity
  8
BEM
 62
     0
370
    -2
100
AcDbLine
 10
269.4646351011038
 20
221.5932257026757
 30
0.0
 11
269.4646351011038
 21
192.6201138604132
 31
0.0
  0
LINE
  5
D36
330
B5F
100
AcDbEntity
  8
BEM
 62
     0
370
    -2
100
AcDbLine
 10
187.4646351011039
 20
194.6201138604132
 30
0.0
 11
262.4646351011038
 21
194.6201138604132
 31
0.0
  0
SOLID
  5
D37
330
B5F
100
AcDbEntity
  8
BEM
 62
     0
100
AcDbTrace
 10
187.4646351011039
 20
195.7867805270798
 30
0.0
 11
187.4646351011039
 21
193.4534471937465
 31
0.0
 12
180.4646351011039
 22
194.6201138604132
 32
0.0
 13
180.4646351011039
 23
194.6201138604132
 33
0.0
  0
SOLID
  5
D38
330
B5F
100
AcDbEntity
  8
BEM
 62
     0
100
AcDbTrace
 10
262.4646351011038
 20
195.7867805270798
 30
0.0
 11
262.4646351011038
 21
193.4534471937465
 31
0.0
 12
269.4646351011038
 22
194.6201138604132
 32
0.0
 13
269.4646351011038
 23
194.6201138604132
 33
0.0
  0
MTEXT
  5
D39
330
B5F
100
AcDbEntity
  8
BEM
 62
     1
100
AcDbMText
 10
224.9646351011039
 20
201.1201138604132
 30
0.0
 40
7.0
 41
0.0
 71
     5
 72
     1
  1
\A1;%%C89
 73
     1
 44
1.0
  0
POINT
  5
D3A
330
B5F
100
AcDbEntity
  8
DEFPOINTS
 62
     0
100
AcDbPoint
 10
180.4646351011039
 20
223.593225702675
 30
0.0
  0
POINT
  5
D3B
330
B5F
100
AcDbEntity
  8
DEFPOINTS
 62
     0
100
AcDbPoint
 10
269.4646351011038
 20
223.5932257026757
 30
0.0
  0
POINT
  5
D3C
330
B5F
100
AcDbEntity
  8
DEFPOINTS
 62
     0
100
AcDbPoint
 10
269.4646351011038
 20
194.6201138604132
 30
0.0
  0
ENDBLK
  5
B6B
330
B5F
100
AcDbEntity
  8
0
100
AcDbBlockEnd
  0
BLOCK
  5
B9E
330
B93
100
AcDbEntity
  8
0
100
AcDbBlockBegin
  2
*D2
 70
     1
 10
0.0
 20
0.0
 30
0.0
  3
*D2
  1

  0
LINE
  5
E23
330
B93
100
AcDbEntity
  8
BEM
 62
     0
370
    -2
100
AcDbLine
 10
158.4646351011038
 20
528.9645561701235
 30
0.0
 11
158.4646351011038
 21
541.4295190691772
 31
0.0
  0
LINE
  5
E24
330
B93
100
AcDbEntity
  8
BEM
 62
     0
370
    -2
100
AcDbLine
 10
291.4646351011038
 20
528.9645561701235
 30
0.0
 11
291.4646351011038
 21
541.4295190691772
 31
0.0
  0
LINE
  5
E25
330
B93
100
AcDbEntity
  8
BEM
 62
     0
370
    -2
100
AcDbLine
 10
165.4646351011038
 20
539.4295190691772
 30
0.0
 11
284.4646351011038
 21
539.4295190691772
 31
0.0
  0
SOLID
  5
E26
330
B93
100
AcDbEntity
  8
BEM
 62
     0
100
AcDbTrace
 10
165.4646351011038
 20
540.5961857358438
 30
0.0
 11
165.4646351011038
 21
538.2628524025106
 31
0.0
 12
158.4646351011038
 22
539.4295190691772
 32
0.0
 13
158.4646351011038
 23
539.4295190691772
 33
0.0
  0
SOLID
  5
E27
330
B93
100
AcDbEntity
  8
BEM
 62
     0
100
AcDbTrace
 10
284.4646351011038
 20
540.5961857358438
 30
0.0
 11
284.4646351011038
 21
538.2628524025106
 31
0.0
 12
291.4646351011038
 22
539.4295190691772
 32
0.0
 13
291.4646351011038
 23
539.4295190691772
 33
0.0
  0
MTEXT
  5
E28
330
B93
100
AcDbEntity
  8
BEM
 62
     1
100
AcDbMText
 10
224.9646351011038
 20
545.9295190691772
 30
0.0
 40
7.0
 41
0.0
 71
     5
 72
     1
  1
\A1;%%c133
 73
     1
 44
1.0
  0
POINT
  5
E29
330
B93
100
AcDbEntity
  8
DEFPOINTS
 62
     0
100
AcDbPoint
 10
158.4646351011038
 20
526.9645561701236
 30
0.0
  0
POINT
  5
E2A
330
B93
100
AcDbEntity
  8
DEFPOINTS
 62
     0
100
AcDbPoint
 10
291.4646351011038
 20
526.9645561701236
 30
0.0
  0
POINT
  5
E2B
330
B93
100
AcDbEntity
  8
DEFPOINTS
 62
     0
100
AcDbPoint
 10
291.4646351011038
 20
539.4295190691772
 30
0.0
  0
ENDBLK
  5
B9F
330
B93
100
AcDbEntity
  8
0
100
AcDbBlockEnd
  0
BLOCK
  5
E0F
330
E05
100
AcDbEntity
  8
0
100
AcDbBlockBegin
  2
*D3
 70
     1
 10
0.0
 20
0.0
 30
0.0
  3
*D3
  1

  0
LINE
  5
E1A
330
E05
100
AcDbEntity
  8
BEM
 62
     0
370
    -2
100
AcDbLine
 10
156.4646351011038
 20
526.9645561701236
 30
0.0
 11
123.3056627291667
 21
526.9645561701236
 31
0.0
  0
LINE
  5
E1B
330
E05
100
AcDbEntity
  8
BEM
 62
     0
370
    -2
100
AcDbLine
 10
179.5144990634149
 20
216.9645561701236
 30
0.0
 11
123.3056627291666
 21
216.9645561701236
 31
0.0
  0
LINE
  5
E1C
330
E05
100
AcDbEntity
  8
BEM
 62
     0
370
    -2
100
AcDbLine
 10
125.3056627291667
 20
519.9645561701236
 30
0.0
 11
125.3056627291667
 21
223.9645561701236
 31
0.0
  0
SOLID
  5
E1D
330
E05
100
AcDbEntity
  8
BEM
 62
     0
100
AcDbTrace
 10
124.1389960625
 20
519.9645561701236
 30
0.0
 11
126.4723293958334
 21
519.9645561701236
 31
0.0
 12
125.3056627291667
 22
526.9645561701236
 32
0.0
 13
125.3056627291667
 23
526.9645561701236
 33
0.0
  0
SOLID
  5
E1E
330
E05
100
AcDbEntity
  8
BEM
 62
     0
100
AcDbTrace
 10
124.1389960625
 20
223.9645561701236
 30
0.0
 11
126.4723293958333
 21
223.9645561701236
 31
0.0
 12
125.3056627291667
 22
216.9645561701236
 32
0.0
 13
125.3056627291667
 23
216.9645561701236
 33
0.0
  0
MTEXT
  5
E1F
330
E05
100
AcDbEntity
  8
BEM
 62
     1
100
AcDbMText
 10
118.8056627291666
 20
371.9645561701236
 30
0.0
 40
7.0
 41
0.0
 71
     5
 72
     1
  1
\A1;310
 11
0.0000000000000001
 21
1.0
 31
0.0
 73
     1
 44
1.0
  0
POINT
  5
E20
330
E05
100
AcDbEntity
  8
DEFPOINTS
 62
     0
100
AcDbPoint
 10
158.4646351011038
 20
526.9645561701236
 30
0.0
  0
POINT
  5
E21
330
E05
100
AcDbEntity
  8
DEFPOINTS
 62
     0
100
AcDbPoint
 10
181.5144990634149
 20
216.9645561701236
 30
0.0
  0
POINT
  5
E22
330
E05
100
AcDbEntity
  8
DEFPOINTS
 62
     0
100
AcDbPoint
 10
125.3056627291667
 20
216.9645561701236
 30
0.0
  0
ENDBLK
  5
E10
330
E05
100
AcDbEntity
  8
0
100
AcDbBlockEnd
  0
BLOCK
  5
E37
330
E2D
100
AcDbEntity
  8
0
100
AcDbBlockBegin
  2
*D4
 70
     1
 10
0.0
 20
0.0
 30
0.0
  3
*D4
  1

  0
LINE
  5
E2E
330
E2D
100
AcDbEntity
  8
BEM
 62
     0
370
    -2
100
AcDbLine
 10
179.5144990634149
 20
216.9645561701236
 30
0.0
 11
139.8546634388848
 21
216.9645561701236
 31
0.0
  0
LINE
  5
E2F
330
E2D
100
AcDbEntity
  8
BEM
 62
     0
370
    -2
100
AcDbLine
 10
156.4646351011038
 20
266.9645561701236
 30
0.0
 11
139.8546634388848
 21
266.9645561701236
 31
0.0
  0
LINE
  5
E30
330
E2D
100
AcDbEntity
  8
BEM
 62
     0
370
    -2
100
AcDbLine
 10
141.8546634388848
 20
223.9645561701236
 30
0.0
 11
141.8546634388848
 21
259.9645561701236
 31
0.0
  0
SOLID
  5
E31
330
E2D
100
AcDbEntity
  8
BEM
 62
     0
100
AcDbTrace
 10
140.6879967722182
 20
223.9645561701236
 30
0.0
 11
143.0213301055515
 21
223.9645561701236
 31
0.0
 12
141.8546634388848
 22
216.9645561701236
 32
0.0
 13
141.8546634388848
 23
216.9645561701236
 33
0.0
  0
SOLID
  5
E32
330
E2D
100
AcDbEntity
  8
BEM
 62
     0
100
AcDbTrace
 10
140.6879967722182
 20
259.9645561701236
 30
0.0
 11
143.0213301055515
 21
259.9645561701236
 31
0.0
 12
141.8546634388848
 22
266.9645561701236
 32
0.0
 13
141.8546634388848
 23
266.9645561701236
 33
0.0
  0
MTEXT
  5
E33
330
E2D
100
AcDbEntity
  8
BEM
 62
     1
100
AcDbMText
 10
135.3546634388848
 20
241.9645561701237
 30
0.0
 40
7.0
 41
0.0
 71
     5
 72
     1
  1
\A1;50
 11
0.0000000000000001
 21
1.0
 31
0.0
 73
     1
 44
1.0
  0
POINT
  5
E34
330
E2D
100
AcDbEntity
  8
DEFPOINTS
 62
     0
100
AcDbPoint
 10
181.5144990634149
 20
216.9645561701236
 30
0.0
  0
POINT
  5
E35
330
E2D
100
AcDbEntity
  8
DEFPOINTS
 62
     0
100
AcDbPoint
 10
158.4646351011038
 20
266.9645561701236
 30
0.0
  0
POINT
  5
E36
330
E2D
100
AcDbEntity
  8
DEFPOINTS
 62
     0
100
AcDbPoint
 10
141.8546634388848
 20
266.9645561701236
 30
0.0
  0
ENDBLK
  5
E38
330
E2D
100
AcDbEntity
  8
0
100
AcDbBlockEnd
  0
ENDSEC
  0
SECTION
  2
ENTITIES
  0
LINE
  5
57
330
1E
100
AcDbEntity
  8
STEMPEL
100
AcDbLine
 10
410.0
 20
110.0
 30
0.0
 11
39.99999999999997
 21
110.0
 31
0.0
  0
LINE
  5
58
330
1E
100
AcDbEntity
  8
STEMPEL
100
AcDbLine
 10
136.0000000000001
 20
109.9999999999999
 30
0.0
 11
136.0
 21
9.999999999999971
 31
0.0
  0
LINE
  5
59
330
1E
100
AcDbEntity
  8
STEMPEL
100
AcDbLine
 10
220.0
 20
110.0
 30
0.0
 11
220.0
 21
9.999999999999971
 31
0.0
  0
LINE
  5
5A
330
1E
100
AcDbEntity
  8
STEMPEL
100
AcDbLine
 10
332.0
 20
109.9999999999997
 30
0.0
 11
332.0
 21
40.0
 31
0.0
  0
LINE
  5
5B
330
1E
100
AcDbEntity
  8
STEMPEL
100
AcDbLine
 10
135.9999999999999
 20
29.99999999999997
 30
0.0
 11
39.99999999999997
 21
29.99999999999997
 31
0.0
  0
LINE
  5
5C
330
1E
100
AcDbEntity
  8
STEMPEL
100
AcDbLine
 10
410.0
 20
40.0
 30
0.0
 11
136.0000000000001
 21
39.99999999999997
 31
0.0
  0
LINE
  5
5D
330
1E
100
AcDbEntity
  8
STEMPEL
100
AcDbLine
 10
410.0
 20
80.0
 30
0.0
 11
136.0000000000001
 21
79.99999999999994
 31
0.0
  0
LINE
  5
5E
330
1E
100
AcDbEntity
  8
VOLL
100
AcDbLine
 10
54.00000000000009
 20
110.0
 30
0.0
 11
53.99999999999997
 21
9.999999999999971
 31
0.0
  0
LINE
  5
5F
330
1E
100
AcDbEntity
  8
VOLL
100
AcDbLine
 10
94.00000000000011
 20
109.9999999999999
 30
0.0
 11
94.0
 21
9.999999999999971
 31
0.0
  0
LINE
  5
60
330
1E
100
AcDbEntity
  8
VOLL
100
AcDbLine
 10
114.0000000000001
 20
109.9999999999999
 30
0.0
 11
114.0
 21
9.999999999999971
 31
0.0
  0
LINE
  5
61
330
1E
100
AcDbEntity
  8
VOLL
100
AcDbLine
 10
154.0000000000001
 20
79.99999999999994
 30
0.0
 11
154.0000000000001
 21
39.99999999999997
 31
0.0
  0
LINE
  5
62
330
1E
100
AcDbEntity
  8
VOLL
100
AcDbLine
 10
180.0000000000001
 20
109.9999999999998
 30
0.0
 11
180.0
 21
39.99999999999997
 31
0.0
  0
LINE
  5
63
330
1E
100
AcDbEntity
  8
HILF
100
AcDbLine
 10
40.00000000000008
 20
100.0
 30
0.0
 11
136.0000000000001
 21
100.0
 31
0.0
  0
LINE
  5
64
330
1E
100
AcDbEntity
  8
HILF
100
AcDbLine
 10
40.00000000000008
 20
90.00000000000005
 30
0.0
 11
136.0000000000001
 21
90.00000000000005
 31
0.0
  0
LINE
  5
65
330
1E
100
AcDbEntity
  8
HILF
100
AcDbLine
 10
40.00000000000008
 20
79.99999999999994
 30
0.0
 11
136.0000000000001
 21
79.99999999999994
 31
0.0
  0
LINE
  5
66
330
1E
100
AcDbEntity
  8
HILF
100
AcDbLine
 10
40.00000000000008
 20
69.99999999999994
 30
0.0
 11
136.0000000000001
 21
69.99999999999994
 31
0.0
  0
LINE
  5
67
330
1E
100
AcDbEntity
  8
HILF
100
AcDbLine
 10
40.00000000000008
 20
59.99999999999997
 30
0.0
 11
136.0000000000001
 21
59.99999999999997
 31
0.0
  0
LINE
  5
68
330
1E
100
AcDbEntity
  8
HILF
100
AcDbLine
 10
40.00000000000008
 20
49.99999999999997
 30
0.0
 11
136.0000000000001
 21
49.99999999999997
 31
0.0
  0
LINE
  5
69
330
1E
100
AcDbEntity
  8
HILF
100
AcDbLine
 10
40.00000000000008
 20
39.99999999999997
 30
0.0
 11
136.0000000000001
 21
39.99999999999997
 31
0.0
  0
LINE
  5
6A
330
1E
100
AcDbEntity
  8
HILF
100
AcDbLine
 10
136.0000000000001
 20
69.99999999999994
 30
0.0
 11
220.0
 21
69.99999999999994
 31
0.0
  0
LINE
  5
6B
330
1E
100
AcDbEntity
  8
HILF
100
AcDbLine
 10
136.0000000000001
 20
59.99999999999997
 30
0.0
 11
220.0
 21
59.99999999999997
 31
0.0
  0
LINE
  5
6C
330
1E
100
AcDbEntity
  8
HILF
100
AcDbLine
 10
136.0000000000001
 20
49.99999999999997
 30
0.0
 11
220.0
 21
49.99999999999997
 31
0.0
  0
LINE
  5
6D
330
1E
100
AcDbEntity
  8
HILF
100
AcDbLine
 10
224.7736801096948
 20
84.03758247564139
 30
0.0
 11
324.8353916556311
 21
84.03758247564139
 31
0.0
  0
LINE
  5
6E
330
1E
100
AcDbEntity
  8
HILF
100
AcDbLine
 10
224.7736801096948
 20
69.99999999999994
 30
0.0
 11
324.835391655631
 21
69.99999999999994
 31
0.0
  0
LINE
  5
6F
330
1E
100
AcDbEntity
  8
HILF
100
AcDbLine
 10
224.7736801096948
 20
59.99999999999997
 30
0.0
 11
324.835391655631
 21
59.99999999999997
 31
0.0
  0
LINE
  5
70
330
1E
100
AcDbEntity
  8
HILF
100
AcDbLine
 10
224.7736801096948
 20
49.99999999999997
 30
0.0
 11
324.835391655631
 21
49.99999999999997
 31
0.0
  0
LINE
  5
71
330
1E
100
AcDbEntity
  8
VOLL
100
AcDbLine
 10
332.0
 20
60.0
 30
0.0
 11
410.0
 21
60.0
 31
0.0
  0
LINE
  5
72
330
1E
100
AcDbEntity
  8
HILF
100
AcDbLine
 10
336.7238616296993
 20
83.77983636955827
 30
0.0
 11
404.8588839326728
 21
83.77983636955827
 31
0.0
  0
LINE
  5
73
330
1E
100
AcDbEntity
  8
HILF
100
AcDbLine
 10
223.4909699289885
 20
14.89398258028314
 30
0.0
 11
404.8588839326728
 21
14.89398258028314
 31
0.0
  0
TEXT
  5
74
330
1E
100
AcDbEntity
  8
TEXT
100
AcDbText
 10
63.86165979631819
 20
18.67381894984132
 30
0.0
 40
4.0
  1
Änderung
 41
0.8
  7
GREEKS
 72
     1
 11
74.60451693917534
 21
18.67381894984132
 31
0.0
100
AcDbText
  0
TEXT
  5
75
330
1E
100
AcDbEntity
  8
TEXT
100
AcDbText
 10
143.5163572150377
 20
102.4620895087088
 30
0.0
 40
5.0
  1
Maßstab
 41
0.8
  7
GREEKS
100
AcDbText
  0
TEXT
  5
76
330
1E
100
AcDbEntity
  8
TEXT
100
AcDbText
 10
184.2858954734051
 20
102.4184168434819
 30
0.0
 40
5.0
  1
Zul. Abw.
 41
0.8
  7
GREEKS
100
AcDbText
  0
TEXT
  5
77
330
1E
100
AcDbEntity
  8
TEXT
100
AcDbText
 10
224.877940380901
 20
102.5489328011779
 30
0.0
 40
5.0
  1
Benennung
 41
0.8
  7
GREEKS
100
AcDbText
  0
TEXT
  5
78
330
1E
100
AcDbEntity
  8
TEXT
100
AcDbText
 10
336.178754957634
 20
102.3132034537136
 30
0.0
 40
5.0
  1
Zeichnungs Nr.
 41
0.8
  7
GREEKS
100
AcDbText
  0
TEXT
  5
79
330
1E
100
AcDbEntity
  8
TEXT
100
AcDbText
 10
224.742238391136
 20
30.84560570193057
 30
0.0
 40
5.0
  1
Bauvorhaben
 41
0.8
  7
GREEKS
100
AcDbText
  0
TEXT
  5
7A
330
1E
100
AcDbEntity
  8
TEXT
100
AcDbText
 10
336.7238616296993
 20
73.1811823709997
 30
0.0
 40
5.0
  1
Ersatz für:
 41
0.8
  7
GREEKS
100
AcDbText
  0
TEXT
  5
7B
330
1E
100
AcDbEntity
  8
TEXT
100
AcDbText
 10
48.26641107045756
 20
13.65465846027192
 30
0.0
 40
4.0
  1
Index
 50
90.0
 41
0.8
  7
GREEKS
100
AcDbText
  0
TEXT
  5
7C
330
1E
100
AcDbEntity
  8
TEXT
100
AcDbText
 10
100.0934676075481
 20
18.6715626933981
 30
0.0
 40
4.0
  1
Tag
 41
0.8
  7
GREEKS
 72
     1
 11
103.8268009408814
 21
18.6715626933981
 31
0.0
100
AcDbText
  0
TEXT
  5
7D
330
1E
100
AcDbEntity
  8
TEXT
100
AcDbText
 10
119.0122744386592
 20
18.59324216966408
 30
0.0
 40
4.0
  1
Name
 41
0.8
  7
GREEKS
 72
     1
 11
125.3360839624688
 21
18.59324216966408
 31
0.0
100
AcDbText
  0
TEXT
  5
7E
330
1E
100
AcDbEntity
  8
TEXT
100
AcDbText
 10
162.3311673153651
 20
73.31880501229926
 30
0.0
 40
4.0
  1
Tag
 41
0.8
  7
GREEKS
100
AcDbText
  0
TEXT
  5
7F
330
1E
100
AcDbEntity
  8
TEXT
100
AcDbText
 10
192.4626584226295
 20
73.30961091915225
 30
0.0
 40
4.0
  1
Name
 41
0.8
  7
GREEKS
100
AcDbText
  0
TEXT
  5
80
330
1E
100
AcDbEntity
  8
TEXT
100
AcDbText
 10
137.5836127167615
 20
63.62990369617964
 30
0.0
 40
4.0
  1
Gez.
 41
0.8
  7
GREEKS
100
AcDbText
  0
TEXT
  5
81
330
1E
100
AcDbEntity
  8
TEXT
100
AcDbText
 10
137.5515086571672
 20
53.68926291428377
 30
0.0
 40
4.0
  1
Gepr.
 41
0.8
  7
GREEKS
100
AcDbText
  0
TEXT
  5
82
330
1E
100
AcDbEntity
  8
TEXT
100
AcDbText
 10
137.6006777387304
 20
43.52946389649807
 30
0.0
 40
4.0
  1
Norm.
 41
0.8
  7
GREEKS
100
AcDbText
  0
LINE
  5
83
330
1E
100
AcDbEntity
  8
STEMPEL
100
AcDbLine
 10
49.99999999999989
 20
10.0
 30
0.0
 11
410.0
 21
10.0
 31
0.0
  0
TEXT
  5
84
330
1E
100
AcDbEntity
  8
TEXT
100
AcDbText
 10
337.2400861497006
 20
52.07416177878602
 30
0.0
 40
5.0
  1
ersetzt durch:
 41
0.8
  7
GREEKS
100
AcDbText
  0
LINE
  5
85
330
1E
100
AcDbEntity
  8
STEMPEL
100
AcDbLine
 10
410.0
 20
10.0
 30
0.0
 11
39.99999999999989
 21
10.0
 31
0.0
  0
LINE
  5
86
330
1E
100
AcDbEntity
  8
STEMPEL
100
AcDbLine
 10
410.0
 20
10.0
 30
0.0
 11
410.0
 21
584.0
 31
0.0
  0
LINE
  5
87
330
1E
100
AcDbEntity
  8
STEMPEL
100
AcDbLine
 10
40.0
 20
10.0
 30
0.0
 11
39.99999999999989
 21
584.0
 31
0.0
  0
LINE
  5
88
330
1E
100
AcDbEntity
  8
STEMPEL
100
AcDbLine
 10
410.0
 20
584.0
 30
0.0
 11
39.99999999999989
 21
584.0
 31
0.0
  0
LINE
  5
89
330
1E
100
AcDbEntity
  8
HILF
100
AcDbLine
 10
0.0
 20
0.0
 30
0.0
 11
-0.0000000000001137
 21
594.0
 31
0.0
  0
LINE
  5
8A
330
1E
100
AcDbEntity
  8
HILF
100
AcDbLine
 10
419.9999999999999
 20
594.0000000000002
 30
0.0
 11
0.0
 21
594.0
 31
0.0
  0
LINE
  5
8B
330
1E
100
AcDbEntity
  8
HILF
100
AcDbLine
 10
420.0
 20
0.0
 30
0.0
 11
0.0
 21
0.0
 31
0.0
  0
LINE
  5
8C
330
1E
100
AcDbEntity
  8
HILF
100
AcDbLine
 10
31.08767135713856
 20
297.0
 30
0.0
 11
0.0000000000001137
 21
297.0
 31
0.0
  0
TEXT
  5
8D
330
1E
100
AcDbEntity
  8
TEXT
100
AcDbText
 10
138.622109822104
 20
73.14025471151666
 30
0.0
 40
4.0
  1
2007
 41
0.8
  7
GREEKS
100
AcDbText
  0
LINE
  5
8E
330
1E
100
AcDbEntity
  8
HILF
100
AcDbLine
 10
420.0
 20
-0.0000000000001137
 30
0.0
 11
419.9999999999999
 21
594.0
 31
0.0
  0
TEXT
  5
8F
330
1E
100
AcDbEntity
  8
VOLL
100
AcDbText
 10
78.07675471698113
 20
31.02594776470585
 30
0.0
 40
1.8
  1

  7
GREEKS
100
AcDbText
  0
TEXT
  5
90
330
1E
100
AcDbEntity
  8
TEXT
100
AcDbText
 10
41.85509950977674
 20
111.6719999999999
 30
0.0
 40
5.0
  1
Erstellt mit AUTOCAD 2004
 41
0.8
  7
GREEKS
100
AcDbText
  0
TEXT
  5
91
330
1E
100
AcDbEntity
  8
TEXT
100
AcDbText
 10
194.4216048581257
 20
63.0896391972351
 30
0.0
 40
4.0
  1
Koeh
 41
0.8
  7
GREEKS
 72
     1
 11
199.6787477152685
 21
63.0896391972351
 31
0.0
100
AcDbText
  0
TEXT
  5
92
330
1E
100
AcDbEntity
  8
TEXT
 62
     1
100
AcDbText
 10
346.6730794123524
 20
88.14901428913959
 30
0.0
 40
7.0
  1
58014080W
 41
0.8
  7
GREEKS
 72
     1
 11
370.1397460790191
 21
88.14901428913959
 31
0.0
100
AcDbText
  0
TEXT
  5
93
330
1E
100
AcDbEntity
  8
TEXT
 62
     1
100
AcDbText
 10
150.5006306481887
 20
88.14901428913959
 30
0.0
 40
7.0
  1
1:2
 41
0.8
  7
GREEKS
100
AcDbText
  0
TEXT
  5
94
330
1E
100
AcDbEntity
  8
TEXT
100
AcDbText
 10
160.398997108236
 20
63.10765040825732
 30
0.0
 40
4.0
  1
26.09.
 41
0.8
  7
GREEKS
 72
     1
 11
167.4085209177598
 21
63.10765040825732
 31
0.0
100
AcDbText
  0
TEXT
  5
95
330
1E
100
AcDbEntity
  8
TEXT
 62
     1
100
AcDbText
 10
226.8935731057402
 20
87.41748789253779
 30
0.0
 40
7.0
  1
Verbundrohr DN80
 41
0.8
  7
GREEKS
100
AcDbText
  0
TEXT
  5
96
330
1E
100
AcDbEntity
  8
TEXT
100
AcDbText
 10
225.1296391125315
 20
71.50334417585288
 30
0.0
 40
5.0
  1
250mm lang
 41
0.8
  7
GREEKS
100
AcDbText
  0
TEXT
  5
98
330
1E
100
AcDbEntity
  8
TEXT
100
AcDbText
 10
225.1296391125315
 20
51.64011943042158
 30
0.0
 40
5.0
  1
EDV-Art.Nr. 58014.080X
 41
0.8
  7
GREEKS
100
AcDbText
  0
TEXT
  5
99
330
1E
100
AcDbEntity
  8
TEXT
100
AcDbText
 10
224.9837501577827
 20
42.62974153022632
 30
0.0
 40
4.0
  1
58014080W.DWG
 41
0.8
  7
GREEKS
100
AcDbText
  0
TEXT
  5
9A
330
1E
100
AcDbEntity
  8
TEXT
100
AcDbText
 10
182.626132208084
 20
90.76363841023022
 30
0.0
 40
4.0
  1
DIN EN1123-2
 41
0.8
  7
GREEKS
 72
     1
 11
199.6166083985602
 21
90.76363841023022
 31
0.0
100
AcDbText
  0
INSERT
  5
9B
330
1E
100
AcDbEntity
  8
STEMPEL
100
AcDbBlockReference
  2
LOGO
 10
140.9955485457794
 20
45.02105276448322
 30
0.0
 41
2.0
 42
2.0
 43
2.0
  0
TEXT
  5
118
330
1E
100
AcDbEntity
  8
TEXT
100
AcDbText
 10
417.3022923857165
 20
10.16790107998849
 30
0.0
 40
4.0
  1
Diese Zeichnung ist urheberrechtlich geschützt und bleibt unser Eigentum. Sie darf weder ganz noch teilweise verfielfältigt und nicht an Dritte weitergegeben werden.
 50
90.0
 41
0.8
  7
GREEKS
100
AcDbText
  0
TEXT
  5
3D8
330
1E
100
AcDbEntity
  8
TEXT
 62
     1
100
AcDbText
 10
193.6033828683802
 20
152.364339848487
 30
0.0
 40
7.0
  1
Außenrohr: E195 EN10305 feuerverzinkt
 41
0.8
  7
GREEKS
100
AcDbText
  0
TEXT
  5
3D9
330
1E
100
AcDbEntity
  8
TEXT
 62
     1
100
AcDbText
 10
197.3756002392442
 20
141.011271812132
 30
0.0
 40
7.0
  1
Innenrohr: E195 EN10305 feuerverzinkt
 41
0.8
  7
GREEKS
100
AcDbText
  0
TEXT
  5
3DA
330
1E
100
AcDbEntity
  8
TEXT
 62
     1
100
AcDbText
 10
189.8811895945471
 20
117.1473825875242
 30
0.0
 40
7.0
  1
Dämmung: 2 K-PU-Schaum
 41
0.8
  7
GREEKS
100
AcDbText
  0
TEXT
  5
3DB
330
1E
100
AcDbEntity
  8
TEXT
 62
     1
100
AcDbText
 10
245.030129115258
 20
129.7422179729062
 30
0.0
 40
7.0
  1
und innenbeschichtet
 41
0.8
  7
GREEKS
100
AcDbText
  0
LINE
  5
A17
102
{ACAD_REACTORS
330
DA1
330
DB0
102
}
330
1E
100
AcDbEntity
  8
STEMPEL
100
AcDbLine
 10
161.4186263772858
 20
513.9639469971426
 30
0.0
 11
162.4535258739884
 21
512.9645561701236
 31
0.0
  0
LINE
  5
A1C
102
{ACAD_REACTORS
330
DA1
330
DB0
102
}
330
1E
100
AcDbEntity
  8
STEMPEL
100
AcDbLine
 10
160.964635101104
 20
526.9645561701236
 30
0.0
 11
161.4186263772858
 21
513.9639469971426
 31
0.0
  0
LINE
  5
A21
102
{ACAD_REACTORS
330
DA1
102
}
330
1E
100
AcDbEntity
  8
STEMPEL
100
AcDbLine
 10
160.964635101104
 20
266.9645561701236
 30
0.0
 11
161.4535684195668
 21
280.9657745160855
 31
0.0
  0
LINE
  5
A22
102
{ACAD_REACTORS
330
DA1
102
}
330
1E
100
AcDbEntity
  8
STEMPEL
100
AcDbLine
 10
161.4535684195668
 20
280.9657745160855
 30
0.0
 11
163.5233674129717
 21
282.9645561701236
 31
0.0
  0
LINE
  5
A23
102
{ACAD_REACTORS
330
D84
102
}
330
1E
100
AcDbEntity
  8
STEMPEL
100
AcDbLine
 10
158.4646351011038
 20
526.9645561701236
 30
0.0
 11
158.4646351011038
 21
264.9645561701237
 31
0.0
  0
LINE
  5
A24
102
{ACAD_REACTORS
330
D84
330
DA1
102
}
330
1E
100
AcDbEntity
  8
STEMPEL
100
AcDbLine
 10
160.9646351011038
 20
526.9645561701236
 30
0.0
 11
160.9646351011038
 21
266.9645561701236
 31
0.0
  0
LINE
  5
A25
102
{ACAD_REACTORS
330
D7B
330
DB0
102
}
330
1E
100
AcDbEntity
  8
STEMPEL
100
AcDbLine
 10
177.1992304307639
 20
526.9645561701236
 30
0.0
 11
176.1694635400023
 21
524.7562139463737
 31
0.0
  0
LINE
  5
A26
102
{ACAD_REACTORS
330
D7B
102
}
330
1E
100
AcDbEntity
  8
STEMPEL
100
AcDbLine
 10
178.9646351011038
 20
526.9645561701236
 30
0.0
 11
177.6195559992611
 21
524.0800247275887
 31
0.0
  0
ARC
  5
A27
102
{ACAD_REACTORS
330
D7B
330
DA1
102
}
330
1E
100
AcDbEntity
  8
STEMPEL
100
AcDbCircle
 10
198.8646351011037
 20
507.3327011793333
 30
0.0
 40
25.00009324312574
100
AcDbArc
 50
179.8435140456689
 51
205.2111779316807
  0
ARC
  5
A28
102
{ACAD_REACTORS
330
D7B
102
}
330
1E
100
AcDbEntity
  8
STEMPEL
100
AcDbCircle
 10
198.8646351011039
 20
507.3327011793333
 30
0.0
 40
23.40009324312573
100
AcDbArc
 50
179.8435140456689
 51
205.2111779316844
  0
LINE
  5
A29
102
{ACAD_REACTORS
330
D7B
330
DA1
330
DB0
102
}
330
1E
100
AcDbEntity
  8
STEMPEL
100
AcDbLine
 10
173.8646351011039
 20
514.3598047075526
 30
0.0
 11
173.8646351011039
 21
507.2644211311428
 31
0.0
  0
LINE
  5
A2A
102
{ACAD_REACTORS
330
D7B
102
}
330
1E
100
AcDbEntity
  8
STEMPEL
100
AcDbLine
 10
175.4646351011038
 20
514.3598047075526
 30
0.0
 11
175.4646351011038
 21
507.2644211311428
 31
0.0
  0
ARC
  5
A2E
102
{ACAD_REACTORS
330
D7B
330
DA1
102
}
330
1E
100
AcDbEntity
  8
STEMPEL
100
AcDbCircle
 10
165.3646351011038
 20
491.6244231069284
 30
0.0
 40
12.0
100
AcDbArc
 50
0.0
 51
25.12206018663239
  0
ARC
  5
A2F
102
{ACAD_REACTORS
330
D7B
102
}
330
1E
100
AcDbEntity
  8
STEMPEL
100
AcDbCircle
 10
165.3646351011038
 20
491.6244231069284
 30
0.0
 40
13.6
100
AcDbArc
 50
0.0
 51
25.12206018663607
  0
ARC
  5
A30
102
{ACAD_REACTORS
330
D7B
330
DB0
102
}
330
1E
100
AcDbEntity
  8
STEMPEL
100
AcDbCircle
 10
198.4646351011038
 20
514.3598047075526
 30
0.0
 40
24.6
100
AcDbArc
 50
155.0000000000036
 51
180.0
  0
ARC
  5
A31
102
{ACAD_REACTORS
330
D7B
102
}
330
1E
100
AcDbEntity
  8
STEMPEL
100
AcDbCircle
 10
198.4646351011038
 20
514.3598047075526
 30
0.0
 40
23.0
100
AcDbArc
 50
155.0000000000072
 51
180.0
  0
ARC
  5
A32
102
{ACAD_REACTORS
330
D7B
330
DA1
102
}
330
1E
100
AcDbEntity
  8
STEMPEL
100
AcDbCircle
 10
172.4646351011038
 20
461.657956505555
 30
0.0
 40
8.0
100
AcDbArc
 50
0.0
 51
32.3280641221617
  0
ARC
  5
A33
102
{ACAD_REACTORS
330
D7B
102
}
330
1E
100
AcDbEntity
  8
STEMPEL
100
AcDbCircle
 10
172.4646351011038
 20
461.657956505555
 30
0.0
 40
9.599999999999999
100
AcDbArc
 50
0.0
 51
32.3280641221617
  0
ARC
  5
A34
102
{ACAD_REACTORS
330
D7B
102
}
330
1E
100
AcDbEntity
  8
STEMPEL
100
AcDbCircle
 10
189.3646351011037
 20
472.3532825875405
 30
0.0
 40
10.4
100
AcDbArc
 50
180.0
 51
212.3280641221617
  0
ARC
  5
A35
102
{ACAD_REACTORS
330
D7B
330
DA1
102
}
330
1E
100
AcDbEntity
  8
STEMPEL
100
AcDbCircle
 10
189.3646351011037
 20
472.3532825875405
 30
0.0
 40
12.0
100
AcDbArc
 50
180.0
 51
212.3280641221617
  0
LINE
  5
A3E
102
{ACAD_REACTORS
330
D7B
330
DA1
102
}
330
1E
100
AcDbEntity
  8
STEMPEL
100
AcDbLine
 10
177.3646351011039
 20
491.6244231069284
 30
0.0
 11
177.3646351011039
 21
472.3532825875405
 31
0.0
  0
LINE
  5
A3F
102
{ACAD_REACTORS
330
D7B
102
}
330
1E
100
AcDbEntity
  8
STEMPEL
100
AcDbLine
 10
178.9646351011038
 20
491.6244231069284
 30
0.0
 11
178.9646351011038
 21
472.3532825875405
 31
0.0
  0
LINE
  5
A4B
330
1E
100
AcDbEntity
  8
STEMPEL
100
AcDbLine
 10
175.964635101104
 20
272.9645561701236
 30
0.0
 11
180.464635101104
 21
272.9645561701236
 31
0.0
  0
LINE
  5
A4F
102
{ACAD_REACTORS
330
D7B
330
DA1
102
}
330
1E
100
AcDbEntity
  8
STEMPEL
100
AcDbLine
 10
180.4646351011038
 20
461.657956505555
 30
0.0
 11
180.4646351011039
 21
223.593225702675
 31
0.0
  0
LINE
  5
A50
102
{ACAD_REACTORS
330
D7B
102
}
330
1E
100
AcDbEntity
  8
STEMPEL
100
AcDbLine
 10
182.0646351011039
 20
461.657956505555
 30
0.0
 11
182.0646351011039
 21
223.7191467571321
 31
0.0
  0
LINE
  5
A52
102
{ACAD_REACTORS
330
D7B
330
DB0
102
}
330
1E
100
AcDbEntity
  8
STEMPEL
100
AcDbLine
 10
272.7300397714439
 20
526.9645561701236
 30
0.0
 11
273.7598066622054
 21
524.7562139463737
 31
0.0
  0
LINE
  5
A53
102
{ACAD_REACTORS
330
D7B
102
}
330
1E
100
AcDbEntity
  8
STEMPEL
100
AcDbLine
 10
270.9646351011039
 20
526.9645561701236
 30
0.0
 11
272.3097142029467
 21
524.0800247275887
 31
0.0
  0
ARC
  5
A54
102
{ACAD_REACTORS
330
D7B
330
DA1
102
}
330
1E
100
AcDbEntity
  8
STEMPEL
100
AcDbCircle
 10
251.0646351011037
 20
507.3327011793333
 30
0.0
 40
25.00009324312574
100
AcDbArc
 50
334.7888220683156
 51
0.1564859543310781
  0
ARC
  5
A55
102
{ACAD_REACTORS
330
D7B
102
}
330
1E
100
AcDbEntity
  8
STEMPEL
100
AcDbCircle
 10
251.0646351011037
 20
507.3327011793333
 30
0.0
 40
23.40009324312573
100
AcDbArc
 50
334.7888220683156
 51
0.1564859543310781
  0
LINE
  5
A56
102
{ACAD_REACTORS
330
D7B
330
DA1
330
DB0
102
}
330
1E
100
AcDbEntity
  8
STEMPEL
100
AcDbLine
 10
276.0646351011038
 20
514.3598047075526
 30
0.0
 11
276.0646351011038
 21
507.2644211311428
 31
0.0
  0
LINE
  5
A57
102
{ACAD_REACTORS
330
D7B
102
}
330
1E
100
AcDbEntity
  8
STEMPEL
100
AcDbLine
 10
274.4646351011038
 20
514.3598047075526
 30
0.0
 11
274.4646351011038
 21
507.2644211311428
 31
0.0
  0
ARC
  5
A58
102
{ACAD_REACTORS
330
D7B
330
DA1
102
}
330
1E
100
AcDbEntity
  8
STEMPEL
100
AcDbCircle
 10
284.5646351011038
 20
491.6244231069284
 30
0.0
 40
12.0
100
AcDbArc
 50
154.8779398133639
 51
180.0
  0
ARC
  5
A59
102
{ACAD_REACTORS
330
D7B
102
}
330
1E
100
AcDbEntity
  8
STEMPEL
100
AcDbCircle
 10
284.5646351011038
 20
491.6244231069284
 30
0.0
 40
13.6
100
AcDbArc
 50
154.8779398133639
 51
180.0
  0
ARC
  5
A5A
102
{ACAD_REACTORS
330
D7B
102
}
330
1E
100
AcDbEntity
  8
STEMPEL
100
AcDbCircle
 10
251.4646351011038
 20
514.3598047075526
 30
0.0
 40
23.0
100
AcDbArc
 50
0.0
 51
24.99999999999272
  0
ARC
  5
A5B
102
{ACAD_REACTORS
330
D7B
330
DB0
102
}
330
1E
100
AcDbEntity
  8
STEMPEL
100
AcDbCircle
 10
251.4646351011038
 20
514.3598047075526
 30
0.0
 40
24.6
100
AcDbArc
 50
0.0
 51
24.99999999999272
  0
ARC
  5
A5C
102
{ACAD_REACTORS
330
D7B
330
DA1
102
}
330
1E
100
AcDbEntity
  8
STEMPEL
100
AcDbCircle
 10
260.5646351011038
 20
472.3532825875405
 30
0.0
 40
12.0
100
AcDbArc
 50
327.6719358778383
 51
0.0
  0
ARC
  5
A5D
102
{ACAD_REACTORS
330
D7B
330
DA1
102
}
330
1E
100
AcDbEntity
  8
STEMPEL
100
AcDbCircle
 10
277.4646351011038
 20
461.657956505555
 30
0.0
 40
8.0
100
AcDbArc
 50
147.6719358778383
 51
180.0
  0
ARC
  5
A5E
102
{ACAD_REACTORS
330
D7B
102
}
330
1E
100
AcDbEntity
  8
STEMPEL
100
AcDbCircle
 10
260.5646351011038
 20
472.3532825875405
 30
0.0
 40
10.4
100
AcDbArc
 50
327.6719358778383
 51
0.0
  0
POINT
  5
A5F
330
1E
100
AcDbEntity
  8
STEMPEL
100
AcDbPoint
 10
271.2866511241395
 20
466.9645561701236
 30
0.0
  0
ARC
  5
A60
102
{ACAD_REACTORS
330
D7B
102
}
330
1E
100
AcDbEntity
  8
STEMPEL
100
AcDbCircle
 10
277.4646351011038
 20
461.657956505555
 30
0.0
 40
9.599999999999999
100
AcDbArc
 50
147.6719358778383
 51
180.0
  0
LINE
  5
A61
102
{ACAD_REACTORS
330
D7B
330
DA1
102
}
330
1E
100
AcDbEntity
  8
STEMPEL
100
AcDbLine
 10
272.564635101104
 20
491.6244231069284
 30
0.0
 11
272.564635101104
 21
472.3532825875405
 31
0.0
  0
LINE
  5
A62
102
{ACAD_REACTORS
330
D7B
102
}
330
1E
100
AcDbEntity
  8
STEMPEL
100
AcDbLine
 10
270.9646351011039
 20
491.6244231069284
 30
0.0
 11
270.9646351011039
 21
472.3532825875405
 31
0.0
  0
LINE
  5
A6D
102
{ACAD_REACTORS
330
DA1
330
DB0
102
}
330
1E
100
AcDbEntity
  8
STEMPEL
100
AcDbLine
 10
288.510643824922
 20
513.9639469971427
 30
0.0
 11
287.4757443282195
 21
512.9645561701236
 31
0.0
  0
LINE
  5
A73
102
{ACAD_REACTORS
330
DA1
330
DB0
102
}
330
1E
100
AcDbEntity
  8
STEMPEL
100
AcDbLine
 10
288.9646351011039
 20
526.9645561701236
 30
0.0
 11
288.510643824922
 21
513.9639469971427
 31
0.0
  0
LINE
  5
AA1
102
{ACAD_REACTORS
330
DA1
330
DB0
102
}
330
1E
100
AcDbEntity
  8
STEMPEL
100
AcDbLine
 10
287.4757443282195
 20
512.9645561701236
 30
0.0
 11
276.0646351011037
 21
512.9645561701236
 31
0.0
  0
LINE
  5
AA5
330
1E
100
AcDbEntity
  8
STEMPEL
100
AcDbLine
 10
273.9646351011038
 20
272.9645561701236
 30
0.0
 11
269.4646351011036
 21
272.9645561701236
 31
0.0
  0
LINE
  5
AAF
102
{ACAD_REACTORS
330
DA1
102
}
330
1E
100
AcDbEntity
  8
STEMPEL
100
AcDbLine
 10
288.9646351011038
 20
266.9645561701236
 30
0.0
 11
288.475701782641
 21
280.9657745160855
 31
0.0
  0
LINE
  5
AB0
102
{ACAD_REACTORS
330
DA1
102
}
330
1E
100
AcDbEntity
  8
STEMPEL
100
AcDbLine
 10
288.475701782641
 20
280.9657745160855
 30
0.0
 11
286.4059027892358
 21
282.9645561701236
 31
0.0
  0
LINE
  5
AB8
102
{ACAD_REACTORS
330
D84
102
}
330
1E
100
AcDbEntity
  8
STEMPEL
100
AcDbLine
 10
291.4646351011038
 20
266.9645561701236
 30
0.0
 11
288.9646351011038
 21
266.9645561701236
 31
0.0
  0
LINE
  5
AB9
102
{ACAD_REACTORS
330
DA1
102
}
330
1E
100
AcDbEntity
  8
STEMPEL
100
AcDbLine
 10
286.4059027892358
 20
282.9645561701236
 30
0.0
 11
269.4646351011038
 21
282.9645561701236
 31
0.0
  0
LINE
  5
AD9
102
{ACAD_REACTORS
330
D7B
330
DA1
102
}
330
1E
100
AcDbEntity
  8
STEMPEL
100
AcDbLine
 10
269.4646351011039
 20
461.657956505555
 30
0.0
 11
269.4646351011038
 21
223.5932257026757
 31
0.0
  0
LINE
  5
ADA
102
{ACAD_REACTORS
330
D7B
102
}
330
1E
100
AcDbEntity
  8
STEMPEL
100
AcDbLine
 10
267.8646351011039
 20
461.657956505555
 30
0.0
 11
267.8646351011039
 21
223.7191467571328
 31
0.0
  0
LINE
  5
ADB
102
{ACAD_REACTORS
330
D84
102
}
330
1E
100
AcDbEntity
  8
STEMPEL
100
AcDbLine
 10
291.4646351011038
 20
526.9645561701236
 30
0.0
 11
291.4646351011038
 21
264.9645561701237
 31
0.0
  0
LINE
  5
ADC
102
{ACAD_REACTORS
330
D84
330
DA1
102
}
330
1E
100
AcDbEntity
  8
STEMPEL
100
AcDbLine
 10
288.9646351011038
 20
526.9645561701236
 30
0.0
 11
288.9646351011038
 21
266.9645561701236
 31
0.0
  0
LINE
  5
AE1
330
1E
100
AcDbEntity
  8
HILF
100
AcDbLine
 10
266.2247477672968
 20
223.5932257026749
 30
0.0
 11
183.7045224349109
 21
223.5932257026749
 31
0.0
  0
LINE
  5
AE2
330
1E
100
AcDbEntity
  8
HILF
100
AcDbLine
 10
269.590350838102
 20
494.2341761241339
 30
0.0
 11
180.3389193641057
 21
494.2341761241339
 31
0.0
  0
LINE
  5
AE3
330
1E
100
AcDbEntity
  8
HILF
100
AcDbLine
 10
268.705888075923
 20
469.0126239698425
 30
0.0
 11
181.223382126285
 21
469.0126239698425
 31
0.0
  0
LINE
  5
AE4
330
1E
100
AcDbEntity
  8
HILF
100
AcDbLine
 10
266.4882969138941
 20
463.885062250687
 30
0.0
 11
183.4409732883132
 21
463.885062250687
 31
0.0
  0
POINT
  5
AE6
330
1E
100
AcDbEntity
  8
STEMPEL
100
AcDbPoint
 10
268.4147711387927
 20
216.9645561701236
 30
0.0
  0
LINE
  5
AE7
102
{ACAD_REACTORS
330
D7B
102
}
330
1E
100
AcDbEntity
  8
STEMPEL
100
AcDbLine
 10
268.4147711387926
 20
216.9645561701236
 30
0.0
 11
181.5144990634149
 21
216.9645561701236
 31
0.0
  0
LINE
  5
AE8
330
1E
100
AcDbEntity
  8
MITTEL
100
AcDbLine
 10
224.9646351011038
 20
531.9645561701236
 30
0.0
 11
224.9646351011038
 21
211.9645561701236
 31
0.0
  0
DIMENSION
  5
AEA
330
1E
100
AcDbEntity
  8
BEM
100
AcDbDimension
  2
*D1
 10
269.4646351011038
 20
194.6201138604132
 30
0.0
 11
224.9646351011039
 21
201.1201138604132
 31
0.0
 70
    32
  1
%%C<>
 71
     5
 42
88.99999999999989
  3
Standard
100
AcDbAlignedDimension
 13
180.4646351011039
 23
223.593225702675
 33
0.0
 14
269.4646351011038
 24
223.5932257026757
 34
0.0
 50
180.0
100
AcDbRotatedDimension
1001
ACAD
1000
DSTYLE
1002
{
1070
    40
1040
2.0
1070
    41
1040
3.5
1070
    42
1040
1.0
1070
    43
1040
7.0
1070
    44
1040
1.0
1070
    73
1070
     0
1070
    74
1070
     0
1070
    77
1070
     1
1070
    78
1070
     8
1070
    79
1070
     2
1070
   140
1040
3.5
1070
   141
1040
1.5
1070
   146
1040
0.5142857142857144
1070
   147
1040
1.5
1070
   172
1070
     1
1070
   178
1070
     1
1070
   179
1070
     2
1070
   271
1070
     2
1070
   272
1070
     2
1070
   284
1070
     8
1070
   285
1070
     8
1070
   286
1070
     8
1002
}
  0
LINE
  5
AEC
102
{ACAD_REACTORS
330
D7B
102
}
330
1E
100
AcDbEntity
  8
STEMPEL
100
AcDbLine
 10
269.4646351011038
 20
223.5932257026757
 30
0.0
 11
268.4147711387926
 21
216.9645561701236
 31
0.0
  0
LINE
  5
AED
102
{ACAD_REACTORS
330
D7B
102
}
330
1E
100
AcDbEntity
  8
STEMPEL
100
AcDbLine
 10
267.8646351011039
 20
223.7191467571328
 30
0.0
 11
266.7948274718892
 21
216.9645561701236
 31
0.0
  0
LINE
  5
AEE
102
{ACAD_REACTORS
330
D7B
102
}
330
1E
100
AcDbEntity
  8
STEMPEL
100
AcDbLine
 10
180.4646351011039
 20
223.593225702675
 30
0.0
 11
181.5144990634149
 21
216.9645561701236
 31
0.0
  0
LINE
  5
AEF
102
{ACAD_REACTORS
330
D7B
102
}
330
1E
100
AcDbEntity
  8
STEMPEL
100
AcDbLine
 10
182.0646351011039
 20
223.7191467571321
 30
0.0
 11
183.1344427303186
 21
216.9645561701236
 31
0.0
  0
LINE
  5
AF8
102
{ACAD_REACTORS
330
DA1
102
}
330
1E
100
AcDbEntity
  8
STEMPEL
100
AcDbLine
 10
163.5233674129717
 20
282.9645561701236
 30
0.0
 11
180.464635101104
 21
282.9645561701236
 31
0.0
  0
LINE
  5
AF9
102
{ACAD_REACTORS
330
D84
102
}
330
1E
100
AcDbEntity
  8
STEMPEL
100
AcDbLine
 10
160.9646351011038
 20
266.9645561701236
 30
0.0
 11
158.4646351011038
 21
266.9645561701236
 31
0.0
  0
LINE
  5
B13
102
{ACAD_REACTORS
330
D7B
330
D84
330
DB0
102
}
330
1E
100
AcDbEntity
  8
STEMPEL
100
AcDbLine
 10
291.4646351011038
 20
526.9645561701236
 30
0.0
 11
158.4646351011038
 21
526.9645561701236
 31
0.0
  0
DIMENSION
  5
B15
330
1E
100
AcDbEntity
  8
BEM
100
AcDbDimension
  2
*D2
 10
291.4646351011038
 20
539.4295190691772
 30
0.0
 11
224.9646351011038
 21
545.9295190691772
 31
0.0
 70
    32
  1
%%c<>
 71
     5
 42
133.0
  3
Standard
100
AcDbAlignedDimension
 13
158.4646351011038
 23
526.9645561701236
 33
0.0
 14
291.4646351011038
 24
526.9645561701236
 34
0.0
 50
180.0
100
AcDbRotatedDimension
1001
ACAD
1000
DSTYLE
1002
{
1070
    40
1040
2.0
1070
    41
1040
3.5
1070
    42
1040
1.0
1070
    43
1040
7.0
1070
    44
1040
1.0
1070
    73
1070
     0
1070
    74
1070
     0
1070
    77
1070
     1
1070
    78
1070
     8
1070
    79
1070
     2
1070
   140
1040
3.5
1070
   141
1040
1.5
1070
   146
1040
0.5142857142857144
1070
   147
1040
1.5
1070
   172
1070
     1
1070
   178
1070
     1
1070
   179
1070
     2
1070
   271
1070
     2
1070
   272
1070
     2
1070
   284
1070
     8
1070
   285
1070
     8
1070
   286
1070
     8
1002
}
  0
LINE
  5
B40
102
{ACAD_REACTORS
330
DA1
330
DB0
102
}
330
1E
100
AcDbEntity
  8
STEMPEL
100
AcDbLine
 10
173.8646351011039
 20
512.9645561701234
 30
0.0
 11
162.4535258739884
 21
512.9645561701236
 31
0.0
  0
TEXT
  5
D0D
330
1E
100
AcDbEntity
  8
TEXT
 62
     1
100
AcDbText
 10
209.9824651316444
 20
433.3799143927053
 30
0.0
 40
7.0
  1
DN80
 50
90.0
 41
0.8
  7
GREEKS
100
AcDbText
  0
HATCH
  5
D7B
330
1E
100
AcDbEntity
  8
SCHRAFF
100
AcDbHatch
 10
0.0
 20
0.0
 30
0.0
210
0.0
220
0.0
230
1.0
  2
_USER
 70
     0
 71
     1
 91
        2
 92
        7
 72
     1
 73
     1
 93
       22
 10
269.4646351011039
 20
461.657956505555
 42
-0.1420008527982259
 10
270.7046351011038
 20
465.9360869383491
 42
0.1420008527982308
 10
272.564635101104
 20
472.3532825875405
 42
0.0
 10
272.564635101104
 20
491.6244231069284
 42
-0.1108768121411415
 10
273.7163358644177
 20
496.7541797942689
 42
0.1089723179978803
 10
276.0646351011038
 20
507.26442113118
 42
0.0
 10
276.0646351011038
 20
514.3598047075526
 42
0.1095178116832415
 10
273.7598066622054
 20
524.7562139463737
 42
0.0
 10
272.730039771444
 20
526.9645561701236
 42
0.0
 10
270.9646351011039
 20
526.9645561701236
 42
0.0
 10
272.3097142029467
 20
524.0800247275887
 42
-0.1095178116832437
 10
274.4646351011038
 20
514.3598047075524
 42
0.0
 10
274.4646351011038
 20
507.3987601452177
 42
-0.1112043308285362
 10
272.2341719326737
 20
497.3619903659668
 42
0.1093117521957913
 10
270.9646351011039
 20
491.6244231069284
 42
0.0
 10
270.9646351011039
 20
472.3532825875405
 42
-0.1420008527982278
 10
269.3526351011039
 20
466.7917130249081
 42
0.1420008527982345
 10
267.8646351011039
 20
461.6579565055549
 42
0.0
 10
267.8646351011039
 20
223.7191467571329
 42
0.0
 10
266.7948274718892
 20
216.9645561701236
 42
0.0
 10
268.4147711387927
 20
216.9645561701237
 42
0.0
 10
269.4646351011038
 20
223.5932257026758
 42
0.0
 97
       22
330
A5D
330
A5C
330
A61
330
A58
330
A54
330
A56
330
A5B
330
A52
330
B13
330
A53
330
A5A
330
A57
330
A55
330
A59
330
A62
330
A5E
330
A60
330
ADA
330
AED
330
AE7
330
AEC
330
AD9
 92
        7
 72
     1
 73
     1
 93
       22
 10
182.0646351011039
 20
461.657956505555
 42
0.1420008527982266
 10
180.5766351011038
 20
466.7917130249079
 42
-0.1420008527982334
 10
178.9646351011038
 20
472.3532825875405
 42
0.0
 10
178.9646351011038
 20
491.6244231069284
 42
0.1093117521960254
 10
177.6950982695286
 20
497.3619903659781
 42
-0.1112043308285585
 10
175.4646351011038
 20
507.3987601452324
 42
0.0
 10
175.4646351011038
 20
514.3598047075526
 42
-0.1095178116832431
 10
177.6195559992611
 20
524.0800247275887
 42
0.0
 10
178.9646351011038
 20
526.9645561701236
 42
0.0
 10
177.1992304307639
 20
526.9645561701235
 42
0.0
 10
176.1694635400023
 20
524.7562139463737
 42
0.1095178116832435
 10
173.8646351011039
 20
514.3598047075523
 42
0.0
 10
173.8646351011039
 20
507.2644211311052
 42
0.108972317996889
 10
176.21293433778
 20
496.7541797942898
 42
-0.1108768121416302
 10
177.3646351011039
 20
491.6244231069284
 42
0.0
 10
177.3646351011039
 20
472.3532825875405
 42
0.1420008527982306
 10
179.2246351011038
 20
465.9360869383491
 42
-0.142000852798229
 10
180.4646351011038
 20
461.6579565055549
 42
0.0
 10
180.4646351011039
 20
223.5932257026753
 42
0.0
 10
181.5144990634149
 20
216.9645561701236
 42
0.0
 10
183.1344427303186
 20
216.9645561701236
 42
0.0
 10
182.0646351011039
 20
223.7191467571322
 42
0.0
 97
       22
330
A33
330
A34
330
A3F
330
A2F
330
A28
330
A2A
330
A31
330
A26
330
B13
330
A25
330
A30
330
A29
330
A27
330
A2E
330
A3E
330
A35
330
A32
330
A4F
330
AEE
330
AE7
330
AEF
330
A50
 75
     0
 76
     0
 52
45.0
 41
2.0
 77
     0
 78
     1
 53
45.0
 43
0.0
 44
0.0
 45
-1.414213562373094
 46
1.414213562373095
 79
     0
 47
0.7284445147448161
 98
        2
 10
268.8725609079565
 20
423.1113852658459
 10
181.3977322849091
 20
413.6416068353524
  0
HATCH
  5
D84
330
1E
100
AcDbEntity
  8
SCHRAFF
100
AcDbHatch
 10
0.0
 20
0.0
 30
0.0
210
0.0
220
0.0
230
1.0
  2
_USER
 70
     0
 71
     1
 91
        2
 92
        7
 72
     0
 73
     1
 93
        4
 10
291.4646351011037
 20
526.9645561701236
 10
288.9646351011038
 20
526.9645561701236
 10
288.9646351011038
 20
266.9645561701236
 10
291.4646351011038
 20
266.9645561701236
 97
        4
330
B13
330
ADC
330
AB8
330
ADB
 92
        7
 72
     0
 73
     1
 93
        4
 10
160.9646351011037
 20
526.9645561701236
 10
158.4646351011038
 20
526.9645561701236
 10
158.4646351011038
 20
266.9645561701236
 10
160.9646351011038
 20
266.9645561701236
 97
        4
330
B13
330
A23
330
AF9
330
A24
 75
     0
 76
     0
 52
135.0
 41
2.0
 77
     0
 78
     1
 53
135.0
 43
0.0
 44
0.0
 45
-1.414213562373095
 46
-1.414213562373094
 79
     0
 47
0.7284445147448161
 98
        2
 10
290.7412673915542
 20
334.9695977527599
 10
160.2579823256101
 20
345.896265603152
  0
HATCH
  5
DA1
330
1E
100
AcDbEntity
  8
SCHRAFF
100
AcDbHatch
 10
0.0
 20
0.0
 30
0.0
210
0.0
220
0.0
230
1.0
  2
HONEY
 70
     0
 71
     1
 91
        2
 92
        7
 72
     1
 73
     1
 93
       14
 10
269.4646351011038
 20
282.9645561701236
 42
0.0
 10
286.4059027892359
 20
282.9645561701237
 42
0.0
 10
288.475701782641
 20
280.9657745160855
 42
0.0
 10
288.9646351011038
 20
266.9645561701239
 42
0.0
 10
288.9646351011037
 20
526.96455617012
 42
0.0
 10
288.510643824922
 20
513.9639469971427
 42
0.0
 10
287.4757443282196
 20
512.9645561701237
 42
0.0
 10
276.0646351011037
 20
512.9645561701234
 42
0.0
 10
276.0646351011038
 20
507.4009812274765
 42
-0.1111415761499489
 10
273.6833186931728
 20
496.6837662688904
 42
0.1092369723637745
 10
272.564635101104
 20
491.6244231069285
 42
0.0
 10
272.564635101104
 20
472.3532825875405
 42
-0.1420008527982276
 10
270.7046351011038
 20
465.9360869383493
 42
0.1420008527982324
 10
269.4646351011039
 20
461.6579565055549
 42
0.0
 97
       14
330
A73
330
A6D
330
AA1
330
A56
330
A54
330
A58
330
A61
330
A5C
330
A5D
330
AD9
330
AB9
330
AB0
330
AAF
330
ADC
 92
        7
 72
     1
 73
     1
 93
       14
 10
160.9646351011038
 20
266.964556170117
 42
0.0
 10
161.4535684195668
 20
280.9657745160854
 42
0.0
 10
163.5233674129717
 20
282.9645561701235
 42
0.0
 10
180.4646351011038
 20
282.9645561701236
 42
0.0
 10
180.4646351011038
 20
461.657956505555
 42
0.1420008527982293
 10
179.2246351011038
 20
465.9360869383492
 42
-0.142000852798228
 10
177.3646351011039
 20
472.3532825875405
 42
0.0
 10
177.3646351011039
 20
491.6244231069284
 42
0.1092369723636575
 10
176.2459515090372
 20
496.6837662688853
 42
-0.1111415761509914
 10
173.8646351011039
 20
507.400981227574
 42
0.0
 10
173.8646351011038
 20
512.9645561701234
 42
0.0
 10
162.4535258739884
 20
512.9645561701236
 42
0.0
 10
161.4186263772858
 20
513.9639469971427
 42
0.0
 10
160.9646351011037
 20
526.9645561701301
 42
0.0
 97
       14
330
A32
330
A35
330
A3E
330
A2E
330
A27
330
A29
330
B40
330
A17
330
A1C
330
A24
330
A21
330
A22
330
AF8
330
A4F
 75
     0
 76
     1
 52
0.0
 41
30.0
 77
     0
 78
     3
 53
0.0
 43
0.0
 44
0.0
 45
5.625
 46
3.247595249999999
 79
     2
 49
3.75
 49
-7.5
 53
120.0
 43
0.0
 44
0.0
 45
-5.624999987709673
 46
3.247595271287468
 79
     2
 49
3.75
 49
-7.5
 53
60.0
 43
0.0
 44
0.0
 45
0.0000000122903263
 46
6.495190521287468
 79
     2
 49
-7.5
 49
3.75
 47
0.7284445147448161
 98
        2
 10
277.6200445768582
 20
423.1113852658459
 10
167.5475502572576
 20
421.6544958459474
  0
HATCH
  5
DB0
330
1E
100
AcDbEntity
  8
SCHRAFF
100
AcDbHatch
 10
0.0
 20
0.0
 30
0.0
210
0.0
220
0.0
230
1.0
  2
NET
 70
     0
 71
     1
 91
        2
 92
        7
 72
     1
 73
     1
 93
        7
 10
288.9646351011038
 20
526.9645561701235
 42
0.0
 10
272.730039771444
 20
526.9645561701235
 42
0.0
 10
273.7598066622054
 20
524.7562139463737
 42
-0.1095178116832426
 10
276.0646351011038
 20
514.3598047075524
 42
0.0
 10
276.0646351011038
 20
512.9645561701236
 42
0.0
 10
287.4757443282195
 20
512.9645561701237
 42
0.0
 10
288.510643824922
 20
513.9639469971426
 42
0.0
 97
        7
330
B13
330
A52
330
A5B
330
A56
330
AA1
330
A6D
330
A73
 92
        7
 72
     1
 73
     1
 93
        7
 10
176.1694635400023
 20
524.7562139463737
 42
0.0
 10
177.1992304307639
 20
526.9645561701236
 42
0.0
 10
160.964635101104
 20
526.9645561701236
 42
0.0
 10
161.4186263772857
 20
513.9639469971427
 42
0.0
 10
162.4535258739884
 20
512.9645561701236
 42
0.0
 10
173.8646351011039
 20
512.9645561701234
 42
0.0
 10
173.8646351011039
 20
514.3598047075526
 42
-0.1095178116832412
 97
        7
330
A25
330
B13
330
A1C
330
A17
330
B40
330
A29
330
A30
 75
     0
 76
     1
 52
45.0
 41
20.0
 77
     0
 78
     2
 53
45.0
 43
0.0
 44
0.0
 45
-1.767766952966368
 46
1.767766952966368
 79
     0
 53
135.0
 43
0.0
 44
0.0
 45
-1.767766952966368
 46
-1.767766952966368
 79
     0
 47
0.7284445147448161
 98
        2
 10
281.993786411309
 20
518.5376170795778
 10
165.36068068436
 20
522.90828393985
  0
HATCH
  5
DE3
330
1E
100
AcDbEntity
  8
SCHRAFF
100
AcDbHatch
 10
0.0
 20
0.0
 30
0.0
210
0.0
220
0.0
230
1.0
  2
NET
 70
     0
 71
     0
 91
        2
 92
        7
 72
     0
 73
     1
 93
       11
 10
288.475701782641
 20
280.9657745160856
 10
286.4059027892359
 20
282.9645561701236
 10
269.4646351011038
 20
282.9645561701237
 10
269.4646351011038
 20
272.9645561701237
 10
273.9646351011038
 20
272.9645561701236
 10
277.4287367162415
 20
266.9645561701236
 10
284.464635101104
 20
266.9645561701235
 10
284.464635101104
 20
264.9645561701237
 10
291.4646351011039
 20
264.9645561701236
 10
291.4646351011039
 20
266.9645561701236
 10
288.9646351011037
 20
266.9645561701236
 97
        0
 92
        7
 72
     0
 73
     1
 93
       11
 10
180.4646351011038
 20
282.9645561701235
 10
163.5233674129717
 20
282.9645561701235
 10
161.4535684195669
 20
280.9657745160855
 10
160.9646351011041
 20
266.9645561701237
 10
158.4646351011038
 20
266.9645561701236
 10
158.4646351011038
 20
264.9645561701237
 10
165.464635101104
 20
264.9645561701237
 10
165.464635101104
 20
266.9645561701236
 10
172.5005334859663
 20
266.9645561701235
 10
175.964635101104
 20
272.9645561701236
 10
180.4646351011038
 20
272.9645561701236
 97
        0
 75
     0
 76
     1
 52
45.0
 41
20.0
 77
     0
 78
     2
 53
45.0
 43
0.0
 44
0.0
 45
-1.767766952966368
 46
1.767766952966368
 79
     0
 53
135.0
 43
0.0
 44
0.0
 45
-1.767766952966368
 46
-1.767766952966368
 79
     0
 47
0.2159429178754844
 98
        2
 10
280.5710892508137
 20
274.0505578213633
 10
166.484446123241
 20
274.2665006813097
  0
LINE
  5
DE4
330
1E
100
AcDbEntity
  8
STEMPEL
100
AcDbLine
 10
284.464635101104
 20
266.9645561701236
 30
0.0
 11
284.464635101104
 21
264.9645561701236
 31
0.0
  0
POINT
  5
DE5
330
1E
100
AcDbEntity
  8
STEMPEL
100
AcDbPoint
 10
284.464635101104
 20
264.9645561701236
 30
0.0
  0
LINE
  5
DE6
330
1E
100
AcDbEntity
  8
STEMPEL
100
AcDbLine
 10
291.4646351011039
 20
264.9645561701237
 30
0.0
 11
269.4646351011038
 21
264.9645561701237
 31
0.0
  0
LINE
  5
DE7
330
1E
100
AcDbEntity
  8
STEMPEL
100
AcDbLine
 10
284.464635101104
 20
266.9645561701236
 30
0.0
 11
269.4646351011038
 21
266.9645561701236
 31
0.0
  0
LINE
  5
DE8
330
1E
100
AcDbEntity
  8
STEMPEL
100
AcDbLine
 10
273.9646351011038
 20
272.9645561701236
 30
0.0
 11
277.4287367162415
 21
266.9645561701236
 31
0.0
  0
LINE
  5
DE9
330
1E
100
AcDbEntity
  8
STEMPEL
100
AcDbLine
 10
180.4646351011038
 20
264.9645561701236
 30
0.0
 11
158.4646351011038
 21
264.9645561701237
 31
0.0
  0
LINE
  5
DEA
330
1E
100
AcDbEntity
  8
STEMPEL
100
AcDbLine
 10
180.4646351011038
 20
266.9645561701235
 30
0.0
 11
165.464635101104
 21
266.9645561701236
 31
0.0
  0
LINE
  5
DEB
330
1E
100
AcDbEntity
  8
STEMPEL
100
AcDbLine
 10
165.464635101104
 20
266.9645561701236
 30
0.0
 11
165.464635101104
 21
264.9645561701236
 31
0.0
  0
LINE
  5
DEC
330
1E
100
AcDbEntity
  8
STEMPEL
100
AcDbLine
 10
175.964635101104
 20
272.9645561701236
 30
0.0
 11
172.5005334859663
 21
266.9645561701236
 31
0.0
  0
DIMENSION
  5
DF7
330
1E
100
AcDbEntity
  8
BEM
100
AcDbDimension
  2
*D3
 10
125.3056627291667
 20
216.9645561701236
 30
0.0
 11
118.8056627291666
 21
371.9645561701236
 31
0.0
 70
    32
 71
     5
 42
310.0
  3
Standard
100
AcDbAlignedDimension
 13
158.4646351011038
 23
526.9645561701236
 33
0.0
 14
181.5144990634149
 24
216.9645561701236
 34
0.0
 50
90.0
100
AcDbRotatedDimension
1001
ACAD
1000
DSTYLE
1002
{
1070
    40
1040
2.0
1070
    41
1040
3.5
1070
    42
1040
1.0
1070
    43
1040
7.0
1070
    44
1040
1.0
1070
    73
1070
     0
1070
    74
1070
     0
1070
    77
1070
     1
1070
    78
1070
     8
1070
    79
1070
     2
1070
   140
1040
3.5
1070
   141
1040
1.5
1070
   146
1040
0.5142857142857144
1070
   147
1040
1.5
1070
   172
1070
     1
1070
   178
1070
     1
1070
   179
1070
     2
1070
   271
1070
     2
1070
   272
1070
     2
1070
   284
1070
     8
1070
   285
1070
     8
1070
   286
1070
     8
1002
}
  0
DIMENSION
  5
E2C
330
1E
100
AcDbEntity
  8
BEM
100
AcDbDimension
  2
*D4
 10
141.8546634388848
 20
266.9645561701236
 30
0.0
 11
135.3546634388848
 21
241.9645561701237
 31
0.0
 70
    32
 71
     5
 42
50.00000000000003
  3
Standard
100
AcDbAlignedDimension
 13
181.5144990634149
 23
216.9645561701236
 33
0.0
 14
158.4646351011038
 24
266.9645561701236
 34
0.0
 50
90.0
100
AcDbRotatedDimension
1001
ACAD
1000
DSTYLE
1002
{
1070
    40
1040
2.0
1070
    41
1040
3.5
1070
    42
1040
1.0
1070
    43
1040
7.0
1070
    44
1040
1.0
1070
    73
1070
     0
1070
    74
1070
     0
1070
    77
1070
     1
1070
    78
1070
     8
1070
    79
1070
     2
1070
   140
1040
3.5
1070
   141
1040
1.5
1070
   146
1040
0.5142857142857144
1070
   147
1040
1.5
1070
   172
1070
     1
1070
   178
1070
     1
1070
   179
1070
     2
1070
   271
1070
     2
1070
   272
1070
     2
1070
   284
1070
     8
1070
   285
1070
     8
1070
   286
1070
     8
1002
}
  0
ENDSEC
  0
SECTION
  2
OBJECTS
  0
DICTIONARY
  5
C
330
0
100
AcDbDictionary
281
     1
  3
ACAD_COLOR
350
DF
  3
ACAD_GROUP
350
D
  3
ACAD_LAYOUT
350
19
  3
ACAD_MATERIAL
350
DE
  3
ACAD_MLINESTYLE
350
16
  3
ACAD_PLOTSETTINGS
350
18
  3
ACAD_PLOTSTYLENAME
350
E
  3
AcDbVariableDictionary
350
EA
  0
DICTIONARY
  5
A0
330
1E
100
AcDbDictionary
280
     1
281
     1
  3
ACAD_LAYOUTSELFREF
360
D4
  0
DICTIONARY
  5
A2
330
1A
100
AcDbDictionary
280
     1
281
     1
  3
ACAD_LAYOUTSELFREF
360
D3
  0
DICTIONARY
  5
DF
102
{ACAD_REACTORS
330
C
102
}
330
C
100
AcDbDictionary
281
     1
  0
DICTIONARY
  5
D
102
{ACAD_REACTORS
330
C
102
}
330
C
100
AcDbDictionary
281
     1
  0
DICTIONARY
  5
19
102
{ACAD_REACTORS
330
C
102
}
330
C
100
AcDbDictionary
281
     1
  3
Layout1
350
1D
  3
Model
350
21
  0
DICTIONARY
  5
DE
102
{ACAD_REACTORS
330
C
102
}
330
C
100
AcDbDictionary
281
     1
  0
DICTIONARY
  5
16
102
{ACAD_REACTORS
330
C
102
}
330
C
100
AcDbDictionary
281
     1
  3
Standard
350
17
  0
DICTIONARY
  5
18
102
{ACAD_REACTORS
330
C
102
}
330
C
100
AcDbDictionary
281
     1
  0
ACDBDICTIONARYWDFLT
  5
E
102
{ACAD_REACTORS
330
C
102
}
330
C
100
AcDbDictionary
281
     1
  3
Normal
350
F
100
AcDbDictionaryWithDefault
340
F
  0
DICTIONARY
  5
EA
102
{ACAD_REACTORS
330
C
102
}
330
C
100
AcDbDictionary
281
     1
  3
DIMASSOC
350
EB
  3
PROJECTNAME
350
EC
  0
XRECORD
  5
D4
102
{ACAD_REACTORS
330
A0
102
}
330
A0
100
AcDbXrecord
280
     1
340
1E
  0
XRECORD
  5
D3
102
{ACAD_REACTORS
330
A2
102
}
330
A2
100
AcDbXrecord
280
     1
340
1A
  0
LAYOUT
  5
1D
102
{ACAD_REACTORS
330
19
102
}
330
19
100
AcDbPlotSettings
  1

  2
\\NT_WORK01\HP LaserJet 5000 PCL 6
  4

  6

 40
0.0
 41
0.0
 42
0.0
 43
0.0
 44
0.0
 45
0.0
 46
0.0
 47
0.0
 48
0.0
 49
0.0
140
0.0
141
0.0
142
1.0
143
1.0
 70
   688
 72
     0
 73
     0
 74
     5
  7

 75
    16
147
1.0
 76
     0
 77
     2
 78
   300
148
0.0
149
0.0
100
AcDbLayout
  1
Layout1
 70
     0
 71
     1
 10
0.0
 20
0.0
 11
12.0
 21
9.0
 12
0.0
 22
0.0
 32
0.0
 14
1.000000000000000E+20
 24
1.000000000000000E+20
 34
1.000000000000000E+20
 15
-1.000000000000000E+20
 25
-1.000000000000000E+20
 35
-1.000000000000000E+20
146
0.0
 13
0.0
 23
0.0
 33
0.0
 16
1.0
 26
0.0
 36
0.0
 17
0.0
 27
1.0
 37
0.0
 76
     0
330
1A
  0
LAYOUT
  5
21
102
{ACAD_REACTORS
330
19
102
}
330
19
100
AcDbPlotSettings
  1

  2
none_device
  4
Letter_(8.50_x_11.00_Inches)
  6

 40
6.349999904632568
 41
6.349999904632568
 42
6.350006103515625
 43
6.350006103515625
 44
215.8999938964844
 45
279.3999938964844
 46
0.0
 47
0.0
 48
0.0
 49
0.0
140
0.0
141
0.0
142
1.0
143
1.0
 70
 11952
 72
     0
 73
     1
 74
     0
  7

 75
     0
147
1.0
 76
     0
 77
     2
 78
   300
148
2286.722511197659
149
76.92250090747274
100
AcDbLayout
  1
Model
 70
     1
 71
     0
 10
0.0
 20
0.0
 11
12.0
 21
9.0
 12
0.0
 22
0.0
 32
0.0
 14
0.0
 24
0.0
 34
0.0
 15
0.0
 25
0.0
 35
0.0
146
0.0
 13
0.0
 23
0.0
 33
0.0
 16
1.0
 26
0.0
 36
0.0
 17
0.0
 27
1.0
 37
0.0
 76
     0
330
1E
  0
MLINESTYLE
  5
17
102
{ACAD_REACTORS
330
16
102
}
330
16
100
AcDbMlineStyle
  2
STANDARD
 70
     0
  3

 62
   256
 51
90.0
 52
90.0
 71
     2
 49
0.5
 62
   256
  6
BYLAYER
 49
-0.5
 62
   256
  6
BYLAYER
  0
ACDBPLACEHOLDER
  5
F
102
{ACAD_REACTORS
330
E
102
}
330
E
  0
DICTIONARYVAR
  5
EB
102
{ACAD_REACTORS
330
EA
102
}
330
EA
100
DictionaryVariables
280
     0
  1
1
  0
DICTIONARYVAR
  5
EC
102
{ACAD_REACTORS
330
EA
102
}
330
EA
100
DictionaryVariables
280
     0
  1

  0
ENDSEC
  0
EOF
