  0
SECTION
  2
HEADER
  9
$ACADVER
  1
AC1018
  9
$ACADMAINTVER
 70
     2
  9
$DWGCODEPAGE
  3
ANSI_1252
  9
$INSBASE
 10
0.0
 20
0.0
 30
0.0
  9
$EXTMIN
 10
-0.0064041928749248
 20
-0.0090573584946014
 30
-0.0000000000112498
  9
$EXTMAX
 10
420.0064100605654
 20
594.0090656570857
 30
0.0000000000002956
  9
$LIMMIN
 10
0.0
 20
0.0
  9
$LIMMAX
 10
419.9999999999999
 20
594.0
  9
$ORTHOMODE
 70
     1
  9
$REGENMODE
 70
     1
  9
$FILLMODE
 70
     1
  9
$QTEXTMODE
 70
     0
  9
$MIRRTEXT
 70
     1
  9
$LTSCALE
 40
20.0
  9
$ATTMODE
 70
     1
  9
$TEXTSIZE
 40
3.5
  9
$TRACEWID
 40
0.5
  9
$TEXTSTYLE
  7
STANDARD
  9
$CLAYER
  8
SCHRAFF
  9
$CELTYPE
  6
ByLayer
  9
$CECOLOR
 62
   256
  9
$CELTSCALE
 40
1.0
  9
$DISPSILH
 70
     0
  9
$DIMSCALE
 40
2.0
  9
$DIMASZ
 40
3.5
  9
$DIMEXO
 40
1.0
  9
$DIMDLI
 40
7.0
  9
$DIMRND
 40
0.0
  9
$DIMDLE
 40
0.0
  9
$DIMEXE
 40
1.0
  9
$DIMTP
 40
0.0
  9
$DIMTM
 40
0.0
  9
$DIMTXT
 40
3.5
  9
$DIMCEN
 40
1.5
  9
$DIMTSZ
 40
0.0
  9
$DIMTOL
 70
     0
  9
$DIMLIM
 70
     0
  9
$DIMTIH
 70
     0
  9
$DIMTOH
 70
     0
  9
$DIMSE1
 70
     0
  9
$DIMSE2
 70
     0
  9
$DIMTAD
 70
     1
  9
$DIMZIN
 70
     8
  9
$DIMBLK
  1

  9
$DIMASO
 70
     1
  9
$DIMSHO
 70
     0
  9
$DIMPOST
  1

  9
$DIMAPOST
  1

  9
$DIMALT
 70
     0
  9
$DIMALTD
 70
     2
  9
$DIMALTF
 40
25.4
  9
$DIMLFAC
 40
1.0
  9
$DIMTOFL
 70
     1
  9
$DIMTVP
 40
0.0
  9
$DIMTIX
 70
     0
  9
$DIMSOXD
 70
     0
  9
$DIMSAH
 70
     0
  9
$DIMBLK1
  1

  9
$DIMBLK2
  1

  9
$DIMSTYLE
  2
Standard
  9
$DIMCLRD
 70
     0
  9
$DIMCLRE
 70
     0
  9
$DIMCLRT
 70
     1
  9
$DIMTFAC
 40
0.5142857142857144
  9
$DIMGAP
 40
1.5
  9
$DIMJUST
 70
     0
  9
$DIMSD1
 70
     0
  9
$DIMSD2
 70
     0
  9
$DIMTOLJ
 70
     1
  9
$DIMTZIN
 70
     8
  9
$DIMALTZ
 70
     8
  9
$DIMALTTZ
 70
     8
  9
$DIMUPT
 70
     0
  9
$DIMDEC
 70
     2
  9
$DIMTDEC
 70
     2
  9
$DIMALTU
 70
     2
  9
$DIMALTTD
 70
     2
  9
$DIMTXSTY
  7
STANDARD
  9
$DIMAUNIT
 70
     0
  9
$DIMADEC
 70
     2
  9
$DIMALTRND
 40
0.0
  9
$DIMAZIN
 70
     2
  9
$DIMDSEP
 70
    46
  9
$DIMATFIT
 70
     3
  9
$DIMFRAC
 70
     0
  9
$DIMLDRBLK
  1

  9
$DIMLUNIT
 70
     2
  9
$DIMLWD
 70
    -2
  9
$DIMLWE
 70
    -2
  9
$DIMTMOVE
 70
     0
  9
$LUNITS
 70
     2
  9
$LUPREC
 70
     2
  9
$SKETCHINC
 40
1.0
  9
$FILLETRAD
 40
0.0
  9
$AUNITS
 70
     0
  9
$AUPREC
 70
     0
  9
$MENU
  1
ACAD
  9
$ELEVATION
 40
0.0
  9
$PELEVATION
 40
0.0
  9
$THICKNESS
 40
0.0
  9
$LIMCHECK
 70
     0
  9
$CHAMFERA
 40
0.0
  9
$CHAMFERB
 40
0.0
  9
$CHAMFERC
 40
0.0
  9
$CHAMFERD
 40
0.0
  9
$SKPOLY
 70
     0
  9
$TDCREATE
 40
2455397.823042361
  9
$TDUCREATE
 40
2455397.781375695
  9
$TDUPDATE
 40
2455532.436912257
  9
$TDUUPDATE
 40
2455532.395245590
  9
$TDINDWG
 40
0.0790806597
  9
$TDUSRTIMER
 40
0.0790806597
  9
$USRTIMER
 70
     1
  9
$ANGBASE
 50
0.0
  9
$ANGDIR
 70
     0
  9
$PDMODE
 70
     0
  9
$PDSIZE
 40
0.0
  9
$PLINEWID
 40
0.0
  9
$SPLFRAME
 70
     0
  9
$SPLINETYPE
 70
     6
  9
$SPLINESEGS
 70
     8
  9
$HANDSEED
  5
A9E
  9
$SURFTAB1
 70
     6
  9
$SURFTAB2
 70
     6
  9
$SURFTYPE
 70
     6
  9
$SURFU
 70
     6
  9
$SURFV
 70
     6
  9
$UCSBASE
  2

  9
$UCSNAME
  2

  9
$UCSORG
 10
0.0
 20
0.0
 30
0.0
  9
$UCSXDIR
 10
1.0
 20
0.0
 30
0.0
  9
$UCSYDIR
 10
0.0
 20
1.0
 30
0.0
  9
$UCSORTHOREF
  2

  9
$UCSORTHOVIEW
 70
     0
  9
$UCSORGTOP
 10
0.0
 20
0.0
 30
0.0
  9
$UCSORGBOTTOM
 10
0.0
 20
0.0
 30
0.0
  9
$UCSORGLEFT
 10
0.0
 20
0.0
 30
0.0
  9
$UCSORGRIGHT
 10
0.0
 20
0.0
 30
0.0
  9
$UCSORGFRONT
 10
0.0
 20
0.0
 30
0.0
  9
$UCSORGBACK
 10
0.0
 20
0.0
 30
0.0
  9
$PUCSBASE
  2

  9
$PUCSNAME
  2

  9
$PUCSORG
 10
0.0
 20
0.0
 30
0.0
  9
$PUCSXDIR
 10
1.0
 20
0.0
 30
0.0
  9
$PUCSYDIR
 10
0.0
 20
1.0
 30
0.0
  9
$PUCSORTHOREF
  2

  9
$PUCSORTHOVIEW
 70
     0
  9
$PUCSORGTOP
 10
0.0
 20
0.0
 30
0.0
  9
$PUCSORGBOTTOM
 10
0.0
 20
0.0
 30
0.0
  9
$PUCSORGLEFT
 10
0.0
 20
0.0
 30
0.0
  9
$PUCSORGRIGHT
 10
0.0
 20
0.0
 30
0.0
  9
$PUCSORGFRONT
 10
0.0
 20
0.0
 30
0.0
  9
$PUCSORGBACK
 10
0.0
 20
0.0
 30
0.0
  9
$USERI1
 70
     0
  9
$USERI2
 70
     0
  9
$USERI3
 70
     0
  9
$USERI4
 70
     0
  9
$USERI5
 70
     0
  9
$USERR1
 40
0.0
  9
$USERR2
 40
0.0
  9
$USERR3
 40
0.0
  9
$USERR4
 40
0.0
  9
$USERR5
 40
0.0
  9
$WORLDVIEW
 70
     1
  9
$SHADEDGE
 70
     3
  9
$SHADEDIF
 70
    70
  9
$TILEMODE
 70
     1
  9
$MAXACTVP
 70
    16
  9
$PINSBASE
 10
0.0
 20
0.0
 30
0.0
  9
$PLIMCHECK
 70
     0
  9
$PEXTMIN
 10
1.000000000000000E+20
 20
1.000000000000000E+20
 30
1.000000000000000E+20
  9
$PEXTMAX
 10
-1.000000000000000E+20
 20
-1.000000000000000E+20
 30
-1.000000000000000E+20
  9
$PLIMMIN
 10
0.0
 20
0.0
  9
$PLIMMAX
 10
12.0
 20
9.0
  9
$UNITMODE
 70
     0
  9
$VISRETAIN
 70
     0
  9
$PLINEGEN
 70
     0
  9
$PSLTSCALE
 70
     0
  9
$TREEDEPTH
 70
  3020
  9
$CMLSTYLE
  2
Standard
  9
$CMLJUST
 70
     0
  9
$CMLSCALE
 40
1.0
  9
$PROXYGRAPHICS
 70
     1
  9
$MEASUREMENT
 70
     0
  9
$CELWEIGHT
370
    -1
  9
$ENDCAPS
280
     0
  9
$JOINSTYLE
280
     0
  9
$LWDISPLAY
290
     0
  9
$INSUNITS
 70
     0
  9
$HYPERLINKBASE
  1

  9
$STYLESHEET
  1
monochrome 1.ctb
  9
$XEDIT
290
     1
  9
$CEPSNTYPE
380
     0
  9
$PSTYLEMODE
290
     1
  9
$FINGERPRINTGUID
  2
{D68B0D02-A558-11D7-B632-000102183313}
  9
$VERSIONGUID
  2
{CC6043C0-FE66-4E67-8E78-63D350D3CB44}
  9
$EXTNAMES
290
     1
  9
$PSVPSCALE
 40
0.0
  9
$OLESTARTUP
290
     0
  9
$SORTENTS
280
   127
  9
$INDEXCTL
280
     0
  9
$HIDETEXT
280
     0
  9
$XCLIPFRAME
290
     0
  9
$HALOGAP
280
     0
  9
$OBSCOLOR
 70
   257
  9
$OBSLTYPE
280
     0
  9
$INTERSECTIONDISPLAY
280
     0
  9
$INTERSECTIONCOLOR
 70
   257
  9
$DIMASSOC
280
     1
  9
$PROJECTNAME
  1

  0
ENDSEC
  0
SECTION
  2
CLASSES
  0
CLASS
  1
ACDBDICTIONARYWDFLT
  2
AcDbDictionaryWithDefault
  3
ObjectDBX Classes
 90
        0
 91
        1
280
     0
281
     0
  0
CLASS
  1
DICTIONARYVAR
  2
AcDbDictionaryVar
  3
ObjectDBX Classes
 90
        0
 91
        2
280
     0
281
     0
  0
ENDSEC
  0
SECTION
  2
TABLES
  0
TABLE
  2
VPORT
  5
8
330
0
100
AcDbSymbolTable
 70
     3
  0
VPORT
  5
A9D
330
8
100
AcDbSymbolTableRecord
100
AcDbViewportTableRecord
  2
*Active
 70
     0
 10
0.0
 20
0.0
 11
1.0
 21
1.0
 12
210.0000029338453
 22
297.0000041492956
 13
0.0
 23
0.0
 14
1.0
 24
1.0
 15
10.0
 25
10.0
 16
0.0
 26
0.0
 36
1.0
 17
0.0
 27
0.0
 37
0.0
 40
598.8150392175905
 41
1.336927223719676
 42
50.0
 43
0.0
 44
0.0
 50
0.0
 51
0.0
 71
     0
 72
  1500
 73
     1
 74
     0
 75
     0
 76
     0
 77
     0
 78
     0
281
     0
 65
     1
110
0.0
120
0.0
130
0.0
111
1.0
121
0.0
131
0.0
112
0.0
122
1.0
132
0.0
 79
     0
146
0.0
  0
ENDTAB
  0
TABLE
  2
LTYPE
  5
5
330
0
100
AcDbSymbolTable
 70
     2
  0
LTYPE
  5
13
330
5
100
AcDbSymbolTableRecord
100
AcDbLinetypeTableRecord
  2
ByBlock
 70
     0
  3

 72
    65
 73
     0
 40
0.0
  0
LTYPE
  5
14
330
5
100
AcDbSymbolTableRecord
100
AcDbLinetypeTableRecord
  2
ByLayer
 70
     0
  3

 72
    65
 73
     0
 40
0.0
  0
LTYPE
  5
15
330
5
100
AcDbSymbolTableRecord
100
AcDbLinetypeTableRecord
  2
Continuous
 70
     0
  3
Solid line
 72
    65
 73
     0
 40
0.0
  0
LTYPE
  5
25
330
5
100
AcDbSymbolTableRecord
100
AcDbLinetypeTableRecord
  2
STRICHPUNKT
 70
     0
  3
__ . __ . __ . __ . __ . __ . __ . __ . __ . __
 72
    65
 73
     4
 40
1.0
 49
0.5
 74
     0
 49
-0.25
 74
     0
 49
0.0
 74
     0
 49
-0.25
 74
     0
  0
ENDTAB
  0
TABLE
  2
LAYER
  5
2
330
0
100
AcDbSymbolTable
 70
     9
  0
LAYER
  5
10
330
2
100
AcDbSymbolTableRecord
100
AcDbLayerTableRecord
  2
0
 70
     0
 62
     7
  6
Continuous
370
    -3
390
F
  0
LAYER
  5
2A
330
2
100
AcDbSymbolTableRecord
100
AcDbLayerTableRecord
  2
VOLL
 70
     0
 62
     1
  6
Continuous
370
    -3
390
F
  0
LAYER
  5
2B
330
2
100
AcDbSymbolTableRecord
100
AcDbLayerTableRecord
  2
HILF
 70
     0
 62
     2
  6
Continuous
370
    -3
390
F
  0
LAYER
  5
2C
330
2
100
AcDbSymbolTableRecord
100
AcDbLayerTableRecord
  2
MITTEL
 70
     0
 62
     2
  6
STRICHPUNKT
370
    -3
390
F
  0
LAYER
  5
2F
330
2
100
AcDbSymbolTableRecord
100
AcDbLayerTableRecord
  2
BEM
 70
     0
 62
     7
  6
Continuous
370
    -3
390
F
  0
LAYER
  5
30
330
2
100
AcDbSymbolTableRecord
100
AcDbLayerTableRecord
  2
STEMPEL
 70
     0
 62
     3
  6
Continuous
370
    -3
390
F
  0
LAYER
  5
31
330
2
100
AcDbSymbolTableRecord
100
AcDbLayerTableRecord
  2
TEXT
 70
     0
 62
     7
  6
Continuous
370
    -3
390
F
  0
LAYER
  5
199
330
2
100
AcDbSymbolTableRecord
100
AcDbLayerTableRecord
  2
DEFPOINTS
 70
     0
 62
     7
  6
Continuous
290
     0
370
    -3
390
F
  0
LAYER
  5
19A
330
2
100
AcDbSymbolTableRecord
100
AcDbLayerTableRecord
  2
SCHRAFF
 70
     0
 62
     7
  6
Continuous
370
    -3
390
F
  0
ENDTAB
  0
TABLE
  2
STYLE
  5
3
330
0
100
AcDbSymbolTable
 70
     2
  0
STYLE
  5
11
330
3
100
AcDbSymbolTableRecord
100
AcDbTextStyleTableRecord
  2
STANDARD
 70
     0
 40
0.0
 41
0.8
 50
0.0
 71
     0
 42
3.5
  3
simplex.shx
  4

  0
STYLE
  5
24
330
3
100
AcDbSymbolTableRecord
100
AcDbTextStyleTableRecord
  2
GREEKS
 70
     0
 40
0.0
 41
0.8
 50
0.0
 71
     0
 42
2.5
  3
SIMPLEX.shx
  4

  0
ENDTAB
  0
TABLE
  2
VIEW
  5
6
330
0
100
AcDbSymbolTable
 70
     0
  0
ENDTAB
  0
TABLE
  2
UCS
  5
7
330
0
100
AcDbSymbolTable
 70
     0
  0
ENDTAB
  0
TABLE
  2
APPID
  5
9
330
0
100
AcDbSymbolTable
 70
     1
  0
APPID
  5
12
330
9
100
AcDbSymbolTableRecord
100
AcDbRegAppTableRecord
  2
ACAD
 70
     0
  0
ENDTAB
  0
TABLE
  2
DIMSTYLE
  5
A
330
0
100
AcDbSymbolTable
 70
     1
100
AcDbDimStyleTable
 71
     1
340
9D
  0
DIMSTYLE
105
9D
102
{ACAD_REACTORS
330
77E
330
751
330
752
330
A6A
102
}
330
A
100
AcDbSymbolTableRecord
100
AcDbDimStyleTableRecord
  2
Standard
 70
     0
340
11
  0
ENDTAB
  0
TABLE
  2
BLOCK_RECORD
  5
1
330
0
100
AcDbSymbolTable
 70
     5
  0
BLOCK_RECORD
  5
1E
102
{ACAD_XDICTIONARY
360
A0
102
}
330
1
100
AcDbSymbolTableRecord
100
AcDbBlockTableRecord
  2
*Model_Space
340
21
  0
BLOCK_RECORD
  5
1A
102
{ACAD_XDICTIONARY
360
A2
102
}
330
1
100
AcDbSymbolTableRecord
100
AcDbBlockTableRecord
  2
*Paper_Space
340
1D
  0
BLOCK_RECORD
  5
22
330
1
100
AcDbSymbolTableRecord
100
AcDbBlockTableRecord
  2
LOGO
340
0
102
{BLKREFS
331
9B
102
}
  0
BLOCK_RECORD
  5
79E
330
1
100
AcDbSymbolTableRecord
100
AcDbBlockTableRecord
  2
*D1
340
0
  0
BLOCK_RECORD
  5
7B6
330
1
100
AcDbSymbolTableRecord
100
AcDbBlockTableRecord
  2
*D2
340
0
  0
BLOCK_RECORD
  5
7C2
330
1
100
AcDbSymbolTableRecord
100
AcDbBlockTableRecord
  2
*D3
340
0
  0
BLOCK_RECORD
  5
A6B
330
1
100
AcDbSymbolTableRecord
100
AcDbBlockTableRecord
  2
*D4
340
0
  0
ENDTAB
  0
ENDSEC
  0
SECTION
  2
BLOCKS
  0
BLOCK
  5
35
330
1E
100
AcDbEntity
  8
0
100
AcDbBlockBegin
  2
*Model_Space
 70
     0
 10
0.0
 20
0.0
 30
0.0
  3
*Model_Space
  1

  0
ENDBLK
  5
36
330
1E
100
AcDbEntity
  8
0
100
AcDbBlockEnd
  0
BLOCK
  5
33
330
1A
100
AcDbEntity
 67
     1
  8
0
100
AcDbBlockBegin
  2
*Paper_Space
 70
     0
 10
0.0
 20
0.0
 30
0.0
  3
*Paper_Space
  1

  0
ENDBLK
  5
34
330
1A
100
AcDbEntity
 67
     1
  8
0
100
AcDbBlockEnd
  0
BLOCK
  5
37
330
22
100
AcDbEntity
  8
0
100
AcDbBlockBegin
  2
LOGO
 70
     0
 10
0.0
 20
0.0
 30
0.0
  3
LOGO
  1

  0
ARC
  5
38
330
22
100
AcDbEntity
  8
0
100
AcDbCircle
 10
11.59973089678112
 20
-9.271599258481501
 30
0.0
 40
4.5
100
AcDbArc
 50
270.0
 51
231.0575587310159
  0
LINE
  5
39
330
22
100
AcDbEntity
  8
0
100
AcDbLine
 10
3.599730896781125
 20
-4.771599258481529
 30
0.0
 11
3.599730896781153
 21
-11.77159925848133
 31
0.0
  0
LINE
  5
3A
330
22
100
AcDbEntity
  8
0
100
AcDbLine
 10
2.599730896781125
 20
-4.771599258481529
 30
0.0
 11
2.599730896781153
 21
-11.77159925848133
 31
0.0
  0
CIRCLE
  5
3B
330
22
100
AcDbEntity
  8
0
100
AcDbCircle
 10
11.59973089678112
 20
-9.271599258481501
 30
0.0
 40
3.5
  0
ARC
  5
3C
330
22
100
AcDbEntity
  8
0
100
AcDbCircle
 10
31.59973089678115
 20
-9.271599258481472
 30
0.0
 40
4.5
100
AcDbArc
 50
270.0
 51
231.0575587310182
  0
LINE
  5
3D
330
22
100
AcDbEntity
  8
0
100
AcDbLine
 10
17.59973089678112
 20
-4.771599258481472
 30
0.0
 11
17.59973089678115
 21
-13.77159925848147
 31
0.0
  0
ARC
  5
3E
330
22
100
AcDbEntity
  8
0
100
AcDbCircle
 10
22.59973089678116
 20
-7.271599258481472
 30
0.0
 40
2.5
100
AcDbArc
 50
293.1161887722295
 51
90.0
  0
CIRCLE
  5
3F
330
22
100
AcDbEntity
  8
0
100
AcDbCircle
 10
31.59973089678115
 20
-9.271599258481472
 30
0.0
 40
3.5
  0
ARC
  5
40
330
22
100
AcDbEntity
  8
0
100
AcDbCircle
 10
4.599730896781153
 20
-11.77159925848133
 30
0.0
 40
1.0
100
AcDbArc
 50
180.0
 51
270.0
  0
ARC
  5
41
330
22
100
AcDbEntity
  8
0
100
AcDbCircle
 10
4.599730896781153
 20
-11.77159925848133
 30
0.0
 40
2.0
100
AcDbArc
 50
179.9999999999992
 51
270.0
  0
LINE
  5
42
330
22
100
AcDbEntity
  8
0
100
AcDbLine
 10
11.59973089678115
 20
-13.77159925848144
 30
0.0
 11
4.599730896781153
 21
-13.77159925848147
 31
0.0
  0
LINE
  5
43
330
22
100
AcDbEntity
  8
0
100
AcDbLine
 10
8.771303772034769
 20
-12.77159925848136
 30
0.0
 11
4.599730896781153
 21
-12.77159925848133
 31
0.0
  0
LINE
  5
44
330
22
100
AcDbEntity
  8
0
100
AcDbLine
 10
31.59973089678115
 20
-13.77159925848147
 30
0.0
 11
23.6715276665056
 21
-13.77159925848144
 31
0.0
  0
LINE
  5
45
330
22
100
AcDbEntity
  8
0
100
AcDbLine
 10
23.56565672307022
 20
-9.51278021337896
 30
0.0
 11
24.4388546544846
 21
-12.77159925848144
 31
0.0
  0
LINE
  5
46
330
22
100
AcDbEntity
  8
0
100
AcDbLine
 10
22.59973089678116
 20
-9.771599258481472
 30
0.0
 11
18.59973089678112
 21
-9.771599258481472
 31
0.0
  0
LINE
  5
47
330
22
100
AcDbEntity
  8
0
100
AcDbLine
 10
18.59973089678115
 20
-13.77159925848144
 30
0.0
 11
17.59973089678115
 21
-13.77159925848144
 31
0.0
  0
LINE
  5
48
330
22
100
AcDbEntity
  8
0
100
AcDbLine
 10
18.59973089678115
 20
-9.771599258481472
 30
0.0
 11
18.59973089678115
 21
-13.77159925848144
 31
0.0
  0
LINE
  5
49
330
22
100
AcDbEntity
  8
0
100
AcDbLine
 10
22.59973089678116
 20
-9.771599258481472
 30
0.0
 11
23.67152766650562
 21
-13.77159925848147
 31
0.0
  0
ARC
  5
4A
330
22
100
AcDbEntity
  8
0
100
AcDbCircle
 10
22.59973089678116
 20
-7.271599258481472
 30
0.0
 40
2.5
100
AcDbArc
 50
270.0
 51
270.0000000000007
  0
LINE
  5
4B
330
22
100
AcDbEntity
  8
0
100
AcDbLine
 10
28.77130377203494
 20
-12.77159925848147
 30
0.0
 11
24.43885465448463
 21
-12.77159925848144
 31
0.0
  0
LINE
  5
4C
330
22
100
AcDbEntity
  8
0
100
AcDbLine
 10
3.599730896781125
 20
-4.771599258481472
 30
0.0
 11
2.599730896781125
 21
-4.771599258481472
 31
0.0
  0
LINE
  5
4D
330
22
100
AcDbEntity
  8
0
100
AcDbLine
 10
22.59973089678116
 20
-8.771599258481472
 30
0.0
 11
18.59973089678115
 21
-8.771599258481472
 31
0.0
  0
LINE
  5
4E
330
22
100
AcDbEntity
  8
0
100
AcDbLine
 10
22.59973089678116
 20
-5.771599258481472
 30
0.0
 11
18.59973089678115
 21
-5.771599258481472
 31
0.0
  0
LINE
  5
4F
330
22
100
AcDbEntity
  8
0
100
AcDbLine
 10
22.59973089678116
 20
-4.771599258481472
 30
0.0
 11
17.59973089678115
 21
-4.771599258481472
 31
0.0
  0
LINE
  5
50
330
22
100
AcDbEntity
  8
0
100
AcDbLine
 10
18.59973089678115
 20
-5.771599258481472
 30
0.0
 11
18.59973089678115
 21
-8.771599258481472
 31
0.0
  0
ARC
  5
51
330
22
100
AcDbEntity
  8
0
100
AcDbCircle
 10
22.59973089678116
 20
-7.271599258481472
 30
0.0
 40
1.5
100
AcDbArc
 50
270.0
 51
90.0
  0
ENDBLK
  5
52
330
22
100
AcDbEntity
  8
0
100
AcDbBlockEnd
  0
BLOCK
  5
7A8
330
79E
100
AcDbEntity
  8
0
100
AcDbBlockBegin
  2
*D1
 70
     1
 10
0.0
 20
0.0
 30
0.0
  3
*D1
  1

  0
LINE
  5
A89
330
79E
100
AcDbEntity
  8
BEM
 62
     0
370
    -2
100
AcDbLine
 10
138.8499999999998
 20
525.8283740758122
 30
0.0
 11
107.3603390513423
 21
525.8283740758122
 31
0.0
  0
LINE
  5
A8A
330
79E
100
AcDbEntity
  8
BEM
 62
     0
370
    -2
100
AcDbLine
 10
157.1903597143491
 20
200.8283740758125
 30
0.0
 11
107.3603390513422
 21
200.8283740758125
 31
0.0
  0
LINE
  5
A8B
330
79E
100
AcDbEntity
  8
BEM
 62
     0
370
    -2
100
AcDbLine
 10
109.3603390513423
 20
518.8283740758122
 30
0.0
 11
109.3603390513422
 21
207.8283740758124
 31
0.0
  0
SOLID
  5
A8C
330
79E
100
AcDbEntity
  8
BEM
 62
     0
100
AcDbTrace
 10
108.1936723846756
 20
518.8283740758122
 30
0.0
 11
110.5270057180089
 21
518.8283740758122
 31
0.0
 12
109.3603390513423
 22
525.8283740758122
 32
0.0
 13
109.3603390513423
 23
525.8283740758122
 33
0.0
  0
SOLID
  5
A8D
330
79E
100
AcDbEntity
  8
BEM
 62
     0
100
AcDbTrace
 10
108.1936723846755
 20
207.8283740758124
 30
0.0
 11
110.5270057180089
 21
207.8283740758124
 31
0.0
 12
109.3603390513422
 22
200.8283740758125
 32
0.0
 13
109.3603390513422
 23
200.8283740758125
 33
0.0
  0
MTEXT
  5
A8E
330
79E
100
AcDbEntity
  8
BEM
 62
     1
100
AcDbMText
 10
102.8603390513422
 20
363.3283740758124
 30
0.0
 40
7.0
 41
0.0
 71
     5
 72
     1
  1
\A1;1075
  7
GREEKS
 11
0.0000000000000001
 21
1.0
 31
0.0
 73
     1
 44
1.0
  0
POINT
  5
A8F
330
79E
100
AcDbEntity
  8
DEFPOINTS
 62
     0
100
AcDbPoint
 10
140.8499999999998
 20
525.8283740758122
 30
0.0
  0
POINT
  5
A90
330
79E
100
AcDbEntity
  8
DEFPOINTS
 62
     0
100
AcDbPoint
 10
159.1903597143491
 20
200.8283740758125
 30
0.0
  0
POINT
  5
A91
330
79E
100
AcDbEntity
  8
DEFPOINTS
 62
     0
100
AcDbPoint
 10
109.3603390513422
 20
200.8283740758125
 30
0.0
  0
ENDBLK
  5
7A9
330
79E
100
AcDbEntity
  8
0
100
AcDbBlockEnd
  0
BLOCK
  5
7C0
330
7B6
100
AcDbEntity
  8
0
100
AcDbBlockBegin
  2
*D2
 70
     1
 10
0.0
 20
0.0
 30
0.0
  3
*D2
  1

  0
LINE
  5
900
330
7B6
100
AcDbEntity
  8
BEM
 62
     0
370
    -2
100
AcDbLine
 10
158.4999999999999
 20
206.7192217185427
 30
0.0
 11
158.4999999999999
 21
176.5342263511459
 31
0.0
  0
LINE
  5
901
330
7B6
100
AcDbEntity
  8
BEM
 62
     0
370
    -2
100
AcDbLine
 10
291.5
 20
206.8283740758125
 30
0.0
 11
291.5
 21
176.5342263511459
 31
0.0
  0
LINE
  5
902
330
7B6
100
AcDbEntity
  8
BEM
 62
     0
370
    -2
100
AcDbLine
 10
165.4999999999999
 20
178.5342263511459
 30
0.0
 11
284.4999999999999
 21
178.5342263511459
 31
0.0
  0
SOLID
  5
903
330
7B6
100
AcDbEntity
  8
BEM
 62
     0
100
AcDbTrace
 10
165.4999999999999
 20
179.7008930178125
 30
0.0
 11
165.4999999999999
 21
177.3675596844792
 31
0.0
 12
158.4999999999999
 22
178.5342263511459
 32
0.0
 13
158.4999999999999
 23
178.5342263511459
 33
0.0
  0
SOLID
  5
904
330
7B6
100
AcDbEntity
  8
BEM
 62
     0
100
AcDbTrace
 10
284.4999999999999
 20
179.7008930178125
 30
0.0
 11
284.4999999999999
 21
177.3675596844792
 31
0.0
 12
291.5
 22
178.5342263511459
 32
0.0
 13
291.5
 23
178.5342263511459
 33
0.0
  0
MTEXT
  5
905
330
7B6
100
AcDbEntity
  8
BEM
 62
     1
100
AcDbMText
 10
225.0
 20
185.0342263511459
 30
0.0
 40
7.0
 41
0.0
 71
     5
 72
     1
  1
\A1;%%c133
  7
GREEKS
 73
     1
 44
1.0
  0
POINT
  5
906
330
7B6
100
AcDbEntity
  8
DEFPOINTS
 62
     0
100
AcDbPoint
 10
158.4999999999999
 20
208.7192217185427
 30
0.0
  0
POINT
  5
907
330
7B6
100
AcDbEntity
  8
DEFPOINTS
 62
     0
100
AcDbPoint
 10
291.5
 20
208.8283740758125
 30
0.0
  0
POINT
  5
908
330
7B6
100
AcDbEntity
  8
DEFPOINTS
 62
     0
100
AcDbPoint
 10
291.5
 20
178.5342263511459
 30
0.0
  0
ENDBLK
  5
7C1
330
7B6
100
AcDbEntity
  8
0
100
AcDbBlockEnd
  0
BLOCK
  5
7CC
330
7C2
100
AcDbEntity
  8
0
100
AcDbBlockBegin
  2
*D3
 70
     1
 10
0.0
 20
0.0
 30
0.0
  3
*D3
  1

  0
LINE
  5
A4F
330
7C2
100
AcDbEntity
  8
BEM
 62
     0
370
    -2
100
AcDbLine
 10
140.8499999999999
 20
527.8283740758125
 30
0.0
 11
140.8499999999999
 21
540.745851974649
 31
0.0
  0
LINE
  5
A50
330
7C2
100
AcDbEntity
  8
BEM
 62
     0
370
    -2
100
AcDbLine
 10
309.15
 20
527.8283740758123
 30
0.0
 11
309.15
 21
540.745851974649
 31
0.0
  0
LINE
  5
A51
330
7C2
100
AcDbEntity
  8
BEM
 62
     0
370
    -2
100
AcDbLine
 10
147.8499999999999
 20
538.7458519746489
 30
0.0
 11
302.15
 21
538.7458519746489
 31
0.0
  0
SOLID
  5
A52
330
7C2
100
AcDbEntity
  8
BEM
 62
     0
100
AcDbTrace
 10
147.8499999999999
 20
539.9125186413156
 30
0.0
 11
147.8499999999999
 21
537.5791853079824
 31
0.0
 12
140.8499999999999
 22
538.7458519746489
 32
0.0
 13
140.8499999999999
 23
538.7458519746489
 33
0.0
  0
SOLID
  5
A53
330
7C2
100
AcDbEntity
  8
BEM
 62
     0
100
AcDbTrace
 10
302.15
 20
539.9125186413156
 30
0.0
 11
302.15
 21
537.5791853079824
 31
0.0
 12
309.15
 22
538.7458519746489
 32
0.0
 13
309.15
 23
538.7458519746489
 33
0.0
  0
MTEXT
  5
A54
330
7C2
100
AcDbEntity
  8
BEM
 62
     1
100
AcDbMText
 10
225.0
 20
545.245851974649
 30
0.0
 40
7.0
 41
0.0
 71
     5
 72
     1
  1
\A1;%%c168.3
  7
GREEKS
 73
     1
 44
1.0
  0
POINT
  5
A55
330
7C2
100
AcDbEntity
  8
DEFPOINTS
 62
     0
100
AcDbPoint
 10
140.8499999999999
 20
525.8283740758124
 30
0.0
  0
POINT
  5
A56
330
7C2
100
AcDbEntity
  8
DEFPOINTS
 62
     0
100
AcDbPoint
 10
309.15
 20
525.8283740758123
 30
0.0
  0
POINT
  5
A57
330
7C2
100
AcDbEntity
  8
DEFPOINTS
 62
     0
100
AcDbPoint
 10
309.15
 20
538.7458519746489
 30
0.0
  0
ENDBLK
  5
7CD
330
7C2
100
AcDbEntity
  8
0
100
AcDbBlockEnd
  0
BLOCK
  5
A75
330
A6B
100
AcDbEntity
  8
0
100
AcDbBlockBegin
  2
*D4
 70
     1
 10
0.0
 20
0.0
 30
0.0
  3
*D4
  1

  0
LINE
  5
A80
330
A6B
100
AcDbEntity
  8
BEM
 62
     0
370
    -2
100
AcDbLine
 10
157.1903597143491
 20
200.8283740758125
 30
0.0
 11
123.6751254057167
 21
200.8283740758125
 31
0.0
  0
LINE
  5
A81
330
A6B
100
AcDbEntity
  8
BEM
 62
     0
370
    -2
100
AcDbLine
 10
138.85
 20
260.8283740758125
 30
0.0
 11
123.6751254057167
 21
260.8283740758125
 31
0.0
  0
LINE
  5
A82
330
A6B
100
AcDbEntity
  8
BEM
 62
     0
370
    -2
100
AcDbLine
 10
125.6751254057167
 20
207.8283740758125
 30
0.0
 11
125.6751254057167
 21
253.8283740758125
 31
0.0
  0
SOLID
  5
A83
330
A6B
100
AcDbEntity
  8
BEM
 62
     0
100
AcDbTrace
 10
124.50845873905
 20
207.8283740758125
 30
0.0
 11
126.8417920723833
 21
207.8283740758125
 31
0.0
 12
125.6751254057167
 22
200.8283740758125
 32
0.0
 13
125.6751254057167
 23
200.8283740758125
 33
0.0
  0
SOLID
  5
A84
330
A6B
100
AcDbEntity
  8
BEM
 62
     0
100
AcDbTrace
 10
124.50845873905
 20
253.8283740758125
 30
0.0
 11
126.8417920723833
 21
253.8283740758125
 31
0.0
 12
125.6751254057167
 22
260.8283740758125
 32
0.0
 13
125.6751254057167
 23
260.8283740758125
 33
0.0
  0
MTEXT
  5
A85
330
A6B
100
AcDbEntity
  8
BEM
 62
     1
100
AcDbMText
 10
119.1751254057166
 20
230.8283740758125
 30
0.0
 40
7.0
 41
0.0
 71
     5
 72
     1
  1
\A1;60
 11
0.0000000000000001
 21
1.0
 31
0.0
 73
     1
 44
1.0
  0
POINT
  5
A86
330
A6B
100
AcDbEntity
  8
DEFPOINTS
 62
     0
100
AcDbPoint
 10
159.1903597143491
 20
200.8283740758125
 30
0.0
  0
POINT
  5
A87
330
A6B
100
AcDbEntity
  8
DEFPOINTS
 62
     0
100
AcDbPoint
 10
140.85
 20
260.8283740758125
 30
0.0
  0
POINT
  5
A88
330
A6B
100
AcDbEntity
  8
DEFPOINTS
 62
     0
100
AcDbPoint
 10
125.6751254057167
 20
260.8283740758125
 30
0.0
  0
ENDBLK
  5
A76
330
A6B
100
AcDbEntity
  8
0
100
AcDbBlockEnd
  0
ENDSEC
  0
SECTION
  2
ENTITIES
  0
LINE
  5
57
330
1E
100
AcDbEntity
  8
STEMPEL
100
AcDbLine
 10
410.0
 20
110.0
 30
0.0
 11
39.99999999999997
 21
110.0
 31
0.0
  0
LINE
  5
58
330
1E
100
AcDbEntity
  8
STEMPEL
100
AcDbLine
 10
136.0000000000001
 20
109.9999999999999
 30
0.0
 11
136.0
 21
9.999999999999971
 31
0.0
  0
LINE
  5
59
330
1E
100
AcDbEntity
  8
STEMPEL
100
AcDbLine
 10
220.0
 20
110.0
 30
0.0
 11
220.0
 21
9.999999999999971
 31
0.0
  0
LINE
  5
5A
330
1E
100
AcDbEntity
  8
STEMPEL
100
AcDbLine
 10
332.0
 20
109.9999999999997
 30
0.0
 11
332.0
 21
40.0
 31
0.0
  0
LINE
  5
5B
330
1E
100
AcDbEntity
  8
STEMPEL
100
AcDbLine
 10
135.9999999999999
 20
29.99999999999997
 30
0.0
 11
39.99999999999997
 21
29.99999999999997
 31
0.0
  0
LINE
  5
5C
330
1E
100
AcDbEntity
  8
STEMPEL
100
AcDbLine
 10
410.0
 20
40.0
 30
0.0
 11
136.0000000000001
 21
39.99999999999997
 31
0.0
  0
LINE
  5
5D
330
1E
100
AcDbEntity
  8
STEMPEL
100
AcDbLine
 10
410.0
 20
80.0
 30
0.0
 11
136.0000000000001
 21
79.99999999999994
 31
0.0
  0
LINE
  5
5E
330
1E
100
AcDbEntity
  8
VOLL
100
AcDbLine
 10
54.00000000000009
 20
110.0
 30
0.0
 11
53.99999999999997
 21
9.999999999999971
 31
0.0
  0
LINE
  5
5F
330
1E
100
AcDbEntity
  8
VOLL
100
AcDbLine
 10
94.00000000000011
 20
109.9999999999999
 30
0.0
 11
94.0
 21
9.999999999999971
 31
0.0
  0
LINE
  5
60
330
1E
100
AcDbEntity
  8
VOLL
100
AcDbLine
 10
114.0000000000001
 20
109.9999999999999
 30
0.0
 11
114.0
 21
9.999999999999971
 31
0.0
  0
LINE
  5
61
330
1E
100
AcDbEntity
  8
VOLL
100
AcDbLine
 10
154.0000000000001
 20
79.99999999999994
 30
0.0
 11
154.0000000000001
 21
39.99999999999997
 31
0.0
  0
LINE
  5
62
330
1E
100
AcDbEntity
  8
VOLL
100
AcDbLine
 10
180.0000000000001
 20
109.9999999999998
 30
0.0
 11
180.0
 21
39.99999999999997
 31
0.0
  0
LINE
  5
63
330
1E
100
AcDbEntity
  8
HILF
100
AcDbLine
 10
40.00000000000008
 20
100.0
 30
0.0
 11
136.0000000000001
 21
100.0
 31
0.0
  0
LINE
  5
64
330
1E
100
AcDbEntity
  8
HILF
100
AcDbLine
 10
40.00000000000008
 20
90.00000000000005
 30
0.0
 11
136.0000000000001
 21
90.00000000000005
 31
0.0
  0
LINE
  5
65
330
1E
100
AcDbEntity
  8
HILF
100
AcDbLine
 10
40.00000000000008
 20
79.99999999999994
 30
0.0
 11
136.0000000000001
 21
79.99999999999994
 31
0.0
  0
LINE
  5
66
330
1E
100
AcDbEntity
  8
HILF
100
AcDbLine
 10
40.00000000000008
 20
69.99999999999994
 30
0.0
 11
136.0000000000001
 21
69.99999999999994
 31
0.0
  0
LINE
  5
67
330
1E
100
AcDbEntity
  8
HILF
100
AcDbLine
 10
40.00000000000008
 20
59.99999999999997
 30
0.0
 11
136.0000000000001
 21
59.99999999999997
 31
0.0
  0
LINE
  5
68
330
1E
100
AcDbEntity
  8
HILF
100
AcDbLine
 10
40.00000000000008
 20
49.99999999999997
 30
0.0
 11
136.0000000000001
 21
49.99999999999997
 31
0.0
  0
LINE
  5
69
330
1E
100
AcDbEntity
  8
HILF
100
AcDbLine
 10
40.00000000000008
 20
39.99999999999997
 30
0.0
 11
136.0000000000001
 21
39.99999999999997
 31
0.0
  0
LINE
  5
6A
330
1E
100
AcDbEntity
  8
HILF
100
AcDbLine
 10
136.0000000000001
 20
69.99999999999994
 30
0.0
 11
220.0
 21
69.99999999999994
 31
0.0
  0
LINE
  5
6B
330
1E
100
AcDbEntity
  8
HILF
100
AcDbLine
 10
136.0000000000001
 20
59.99999999999997
 30
0.0
 11
220.0
 21
59.99999999999997
 31
0.0
  0
LINE
  5
6C
330
1E
100
AcDbEntity
  8
HILF
100
AcDbLine
 10
136.0000000000001
 20
49.99999999999997
 30
0.0
 11
220.0
 21
49.99999999999997
 31
0.0
  0
LINE
  5
6D
330
1E
100
AcDbEntity
  8
HILF
100
AcDbLine
 10
224.7736801096948
 20
84.03758247564139
 30
0.0
 11
324.8353916556311
 21
84.03758247564139
 31
0.0
  0
LINE
  5
6E
330
1E
100
AcDbEntity
  8
HILF
100
AcDbLine
 10
224.7736801096948
 20
69.99999999999994
 30
0.0
 11
324.835391655631
 21
69.99999999999994
 31
0.0
  0
LINE
  5
6F
330
1E
100
AcDbEntity
  8
HILF
100
AcDbLine
 10
224.7736801096948
 20
59.99999999999997
 30
0.0
 11
324.835391655631
 21
59.99999999999997
 31
0.0
  0
LINE
  5
70
330
1E
100
AcDbEntity
  8
HILF
100
AcDbLine
 10
224.7736801096948
 20
49.99999999999997
 30
0.0
 11
324.835391655631
 21
49.99999999999997
 31
0.0
  0
LINE
  5
71
330
1E
100
AcDbEntity
  8
VOLL
100
AcDbLine
 10
332.0
 20
60.0
 30
0.0
 11
410.0
 21
60.0
 31
0.0
  0
LINE
  5
72
330
1E
100
AcDbEntity
  8
HILF
100
AcDbLine
 10
336.7238616296993
 20
83.77983636955827
 30
0.0
 11
404.8588839326728
 21
83.77983636955827
 31
0.0
  0
LINE
  5
73
330
1E
100
AcDbEntity
  8
HILF
100
AcDbLine
 10
223.4909699289885
 20
14.89398258028314
 30
0.0
 11
404.8588839326728
 21
14.89398258028314
 31
0.0
  0
TEXT
  5
74
330
1E
100
AcDbEntity
  8
TEXT
100
AcDbText
 10
63.86165979631819
 20
18.67381894984132
 30
0.0
 40
4.0
  1
Änderung
 41
0.8
  7
GREEKS
 72
     1
 11
74.60451693917534
 21
18.67381894984132
 31
0.0
100
AcDbText
  0
TEXT
  5
75
330
1E
100
AcDbEntity
  8
TEXT
100
AcDbText
 10
143.5163572150377
 20
102.4620895087088
 30
0.0
 40
5.0
  1
Maßstab
 41
0.8
  7
GREEKS
100
AcDbText
  0
TEXT
  5
76
330
1E
100
AcDbEntity
  8
TEXT
100
AcDbText
 10
184.2858954734051
 20
102.4184168434819
 30
0.0
 40
5.0
  1
Zul. Abw.
 41
0.8
  7
GREEKS
100
AcDbText
  0
TEXT
  5
77
330
1E
100
AcDbEntity
  8
TEXT
100
AcDbText
 10
224.877940380901
 20
102.5489328011779
 30
0.0
 40
5.0
  1
Benennung
 41
0.8
  7
GREEKS
100
AcDbText
  0
TEXT
  5
78
330
1E
100
AcDbEntity
  8
TEXT
100
AcDbText
 10
336.178754957634
 20
102.3132034537136
 30
0.0
 40
5.0
  1
Zeichnungs Nr.
 41
0.8
  7
GREEKS
100
AcDbText
  0
TEXT
  5
79
330
1E
100
AcDbEntity
  8
TEXT
100
AcDbText
 10
224.742238391136
 20
30.84560570193057
 30
0.0
 40
5.0
  1
Bauvorhaben
 41
0.8
  7
GREEKS
100
AcDbText
  0
TEXT
  5
7A
330
1E
100
AcDbEntity
  8
TEXT
100
AcDbText
 10
336.7238616296993
 20
73.1811823709997
 30
0.0
 40
5.0
  1
Ersatz für:
 41
0.8
  7
GREEKS
100
AcDbText
  0
TEXT
  5
7B
330
1E
100
AcDbEntity
  8
TEXT
100
AcDbText
 10
48.26641107045756
 20
13.65465846027192
 30
0.0
 40
4.0
  1
Index
 50
90.0
 41
0.8
  7
GREEKS
100
AcDbText
  0
TEXT
  5
7C
330
1E
100
AcDbEntity
  8
TEXT
100
AcDbText
 10
100.0934676075481
 20
18.6715626933981
 30
0.0
 40
4.0
  1
Tag
 41
0.8
  7
GREEKS
 72
     1
 11
103.8268009408814
 21
18.6715626933981
 31
0.0
100
AcDbText
  0
TEXT
  5
7D
330
1E
100
AcDbEntity
  8
TEXT
100
AcDbText
 10
119.0122744386592
 20
18.59324216966408
 30
0.0
 40
4.0
  1
Name
 41
0.8
  7
GREEKS
 72
     1
 11
125.3360839624688
 21
18.59324216966408
 31
0.0
100
AcDbText
  0
TEXT
  5
7E
330
1E
100
AcDbEntity
  8
TEXT
100
AcDbText
 10
162.3311673153651
 20
73.31880501229926
 30
0.0
 40
4.0
  1
Tag
 41
0.8
  7
GREEKS
100
AcDbText
  0
TEXT
  5
7F
330
1E
100
AcDbEntity
  8
TEXT
100
AcDbText
 10
192.4626584226295
 20
73.30961091915225
 30
0.0
 40
4.0
  1
Name
 41
0.8
  7
GREEKS
100
AcDbText
  0
TEXT
  5
80
330
1E
100
AcDbEntity
  8
TEXT
100
AcDbText
 10
137.5836127167615
 20
63.62990369617964
 30
0.0
 40
4.0
  1
Gez.
 41
0.8
  7
GREEKS
100
AcDbText
  0
TEXT
  5
81
330
1E
100
AcDbEntity
  8
TEXT
100
AcDbText
 10
137.5515086571672
 20
53.68926291428377
 30
0.0
 40
4.0
  1
Gepr.
 41
0.8
  7
GREEKS
100
AcDbText
  0
TEXT
  5
82
330
1E
100
AcDbEntity
  8
TEXT
100
AcDbText
 10
137.6006777387304
 20
43.52946389649807
 30
0.0
 40
4.0
  1
Norm.
 41
0.8
  7
GREEKS
100
AcDbText
  0
LINE
  5
83
330
1E
100
AcDbEntity
  8
STEMPEL
100
AcDbLine
 10
49.99999999999989
 20
10.0
 30
0.0
 11
410.0
 21
10.0
 31
0.0
  0
TEXT
  5
84
330
1E
100
AcDbEntity
  8
TEXT
100
AcDbText
 10
337.2400861497006
 20
52.07416177878602
 30
0.0
 40
5.0
  1
ersetzt durch:
 41
0.8
  7
GREEKS
100
AcDbText
  0
LINE
  5
85
330
1E
100
AcDbEntity
  8
STEMPEL
100
AcDbLine
 10
410.0
 20
10.0
 30
0.0
 11
39.99999999999989
 21
10.0
 31
0.0
  0
LINE
  5
86
330
1E
100
AcDbEntity
  8
STEMPEL
100
AcDbLine
 10
410.0
 20
10.0
 30
0.0
 11
410.0
 21
584.0
 31
0.0
  0
LINE
  5
87
330
1E
100
AcDbEntity
  8
STEMPEL
100
AcDbLine
 10
40.0
 20
10.0
 30
0.0
 11
39.99999999999989
 21
584.0
 31
0.0
  0
LINE
  5
88
330
1E
100
AcDbEntity
  8
STEMPEL
100
AcDbLine
 10
410.0
 20
584.0
 30
0.0
 11
39.99999999999989
 21
584.0
 31
0.0
  0
LINE
  5
89
330
1E
100
AcDbEntity
  8
HILF
100
AcDbLine
 10
0.0
 20
0.0
 30
0.0
 11
-0.0000000000001137
 21
594.0
 31
0.0
  0
LINE
  5
8A
330
1E
100
AcDbEntity
  8
HILF
100
AcDbLine
 10
419.9999999999999
 20
594.0000000000002
 30
0.0
 11
0.0
 21
594.0
 31
0.0
  0
LINE
  5
8B
330
1E
100
AcDbEntity
  8
HILF
100
AcDbLine
 10
420.0
 20
0.0
 30
0.0
 11
0.0
 21
0.0
 31
0.0
  0
LINE
  5
8C
330
1E
100
AcDbEntity
  8
HILF
100
AcDbLine
 10
31.08767135713856
 20
297.0
 30
0.0
 11
0.0000000000001137
 21
297.0
 31
0.0
  0
TEXT
  5
8D
330
1E
100
AcDbEntity
  8
TEXT
100
AcDbText
 10
138.622109822104
 20
73.14025471151666
 30
0.0
 40
4.0
  1
2007
 41
0.8
  7
GREEKS
100
AcDbText
  0
LINE
  5
8E
330
1E
100
AcDbEntity
  8
HILF
100
AcDbLine
 10
420.0
 20
-0.0000000000001137
 30
0.0
 11
419.9999999999999
 21
594.0
 31
0.0
  0
TEXT
  5
8F
330
1E
100
AcDbEntity
  8
VOLL
100
AcDbText
 10
78.07675471698113
 20
31.02594776470585
 30
0.0
 40
1.8
  1

  7
GREEKS
100
AcDbText
  0
TEXT
  5
90
330
1E
100
AcDbEntity
  8
TEXT
100
AcDbText
 10
41.85509950977674
 20
111.6719999999999
 30
0.0
 40
5.0
  1
Erstellt mit AUTOCAD 2004
 41
0.8
  7
GREEKS
100
AcDbText
  0
TEXT
  5
91
330
1E
100
AcDbEntity
  8
TEXT
100
AcDbText
 10
194.4216048581257
 20
63.0896391972351
 30
0.0
 40
4.0
  1
Koeh
 41
0.8
  7
GREEKS
 72
     1
 11
199.6787477152685
 21
63.0896391972351
 31
0.0
100
AcDbText
  0
TEXT
  5
92
330
1E
100
AcDbEntity
  8
TEXT
 62
     1
100
AcDbText
 10
347.2064127456858
 20
88.14901428913959
 30
0.0
 40
7.0
  1
58012125W
 41
0.8
  7
GREEKS
 72
     1
 11
370.1397460790191
 21
88.14901428913959
 31
0.0
100
AcDbText
  0
TEXT
  5
93
330
1E
100
AcDbEntity
  8
TEXT
 62
     1
100
AcDbText
 10
150.5006306481887
 20
88.14901428913959
 30
0.0
 40
7.0
  1
1:2
 41
0.8
  7
GREEKS
100
AcDbText
  0
TEXT
  5
94
330
1E
100
AcDbEntity
  8
TEXT
100
AcDbText
 10
160.398997108236
 20
63.10765040825732
 30
0.0
 40
4.0
  1
26.09.
 41
0.8
  7
GREEKS
 72
     1
 11
167.4085209177598
 21
63.10765040825732
 31
0.0
100
AcDbText
  0
TEXT
  5
95
330
1E
100
AcDbEntity
  8
TEXT
 62
     1
100
AcDbText
 10
226.8935731057402
 20
87.41748789253779
 30
0.0
 40
7.0
  1
Verbundrohr DN125
 41
0.8
  7
GREEKS
100
AcDbText
  0
TEXT
  5
96
330
1E
100
AcDbEntity
  8
TEXT
100
AcDbText
 10
225.1296391125315
 20
71.50334417585288
 30
0.0
 40
5.0
  1
1000mm lang
 41
0.8
  7
GREEKS
100
AcDbText
  0
TEXT
  5
98
330
1E
100
AcDbEntity
  8
TEXT
100
AcDbText
 10
225.1296391125315
 20
51.64011943042158
 30
0.0
 40
5.0
  1
EDV-Art.Nr. 58012.125X
 41
0.8
  7
GREEKS
100
AcDbText
  0
TEXT
  5
99
330
1E
100
AcDbEntity
  8
TEXT
100
AcDbText
 10
224.9837501577827
 20
42.62974153022632
 30
0.0
 40
4.0
  1
58012125W.DWG
 41
0.8
  7
GREEKS
100
AcDbText
  0
TEXT
  5
9A
330
1E
100
AcDbEntity
  8
TEXT
100
AcDbText
 10
182.626132208084
 20
90.76363841023022
 30
0.0
 40
4.0
  1
DIN EN1123-2
 41
0.8
  7
GREEKS
 72
     1
 11
199.6166083985602
 21
90.76363841023022
 31
0.0
100
AcDbText
  0
INSERT
  5
9B
330
1E
100
AcDbEntity
  8
STEMPEL
100
AcDbBlockReference
  2
LOGO
 10
140.9955485457794
 20
45.02105276448322
 30
0.0
 41
2.0
 42
2.0
 43
2.0
  0
TEXT
  5
118
330
1E
100
AcDbEntity
  8
TEXT
100
AcDbText
 10
417.3022923857165
 20
10.16790107998849
 30
0.0
 40
4.0
  1
Diese Zeichnung ist urheberrechtlich geschützt und bleibt unser Eigentum. Sie darf weder ganz noch teilweise verfielfältigt und nicht an Dritte weitergegeben werden.
 50
90.0
 41
0.8
  7
GREEKS
100
AcDbText
  0
TEXT
  5
3D8
330
1E
100
AcDbEntity
  8
TEXT
 62
     1
100
AcDbText
 10
193.6033828683802
 20
152.364339848487
 30
0.0
 40
7.0
  1
Außenrohr: P235 TR1 EN10217-1 feuerverzinkt
 41
0.8
  7
GREEKS
100
AcDbText
  0
TEXT
  5
3D9
330
1E
100
AcDbEntity
  8
TEXT
 62
     1
100
AcDbText
 10
197.3756002392442
 20
141.011271812132
 30
0.0
 40
7.0
  1
Innenrohr: E195 EN10305 feuerverzinkt
 41
0.8
  7
GREEKS
100
AcDbText
  0
TEXT
  5
3DA
330
1E
100
AcDbEntity
  8
TEXT
 62
     1
100
AcDbText
 10
189.8811895945471
 20
117.1473825875242
 30
0.0
 40
7.0
  1
Dämmung: 2 K-PU-Schaum
 41
0.8
  7
GREEKS
100
AcDbText
  0
TEXT
  5
3DB
330
1E
100
AcDbEntity
  8
TEXT
 62
     1
100
AcDbText
 10
245.030129115258
 20
129.7422179729062
 30
0.0
 40
7.0
  1
und innenbeschichtet
 41
0.8
  7
GREEKS
100
AcDbText
  0
TEXT
  5
478
330
1E
100
AcDbEntity
  8
TEXT
 62
     1
100
AcDbText
 10
215.8910492387708
 20
488.7180660398955
 30
0.0
 40
7.0
  1
DN125
 50
90.0
 41
0.8
  7
GREEKS
100
AcDbText
  0
DIMENSION
  5
751
330
1E
100
AcDbEntity
  8
BEM
100
AcDbDimension
  2
*D2
 10
291.5
 20
178.5342263511459
 30
0.0
 11
225.0
 21
185.0342263511459
 31
0.0
 70
    32
  1
%%c<>
 71
     5
 42
133.0
  3
Standard
100
AcDbAlignedDimension
 13
158.4999999999999
 23
208.7192217185427
 33
0.0
 14
291.5
 24
208.8283740758125
 34
0.0
100
AcDbRotatedDimension
1001
ACAD
1000
DSTYLE
1002
{
1070
    40
1040
2.0
1070
    41
1040
3.5
1070
    42
1040
1.0
1070
    43
1040
7.0
1070
    44
1040
1.0
1070
    73
1070
     0
1070
    74
1070
     0
1070
    77
1070
     1
1070
    78
1070
     8
1070
    79
1070
     2
1070
   140
1040
3.5
1070
   141
1040
1.5
1070
   146
1040
0.5142857142857144
1070
   147
1040
1.5
1070
   172
1070
     1
1070
   178
1070
     1
1070
   179
1070
     2
1070
   271
1070
     2
1070
   272
1070
     2
1070
   284
1070
     8
1070
   285
1070
     8
1070
   286
1070
     8
1070
   289
1070
     0
1070
   340
1005
24
1002
}
  0
DIMENSION
  5
752
330
1E
100
AcDbEntity
  8
BEM
100
AcDbDimension
  2
*D3
 10
309.15
 20
538.7458519746489
 30
0.0
 11
225.0
 21
545.245851974649
 31
0.0
 70
    32
  1
%%c<>
 71
     5
 42
168.3
  3
Standard
100
AcDbAlignedDimension
 13
140.8499999999999
 23
525.8283740758124
 33
0.0
 14
309.15
 24
525.8283740758123
 34
0.0
100
AcDbRotatedDimension
1001
ACAD
1000
DSTYLE
1002
{
1070
    40
1040
2.0
1070
    41
1040
3.5
1070
    42
1040
1.0
1070
    43
1040
7.0
1070
    44
1040
1.0
1070
    73
1070
     0
1070
    74
1070
     0
1070
    77
1070
     1
1070
    78
1070
     8
1070
    79
1070
     2
1070
   140
1040
3.5
1070
   141
1040
1.5
1070
   146
1040
0.5142857142857144
1070
   147
1040
1.5
1070
   172
1070
     1
1070
   178
1070
     1
1070
   179
1070
     2
1070
   271
1070
     2
1070
   272
1070
     2
1070
   284
1070
     8
1070
   285
1070
     8
1070
   286
1070
     8
1070
   289
1070
     0
1070
   340
1005
24
1002
}
  0
HATCH
  5
755
330
1E
100
AcDbEntity
  8
SCHRAFF
100
AcDbHatch
 10
0.0
 20
0.0
 30
0.0
210
0.0
220
0.0
230
1.0
  2
NET
 70
     0
 71
     1
 91
        2
 92
        7
 72
     1
 73
     1
 93
        6
 10
143.7499999999999
 20
509.8283740758124
 42
0.0
 10
148.9999999999999
 20
509.8283740758124
 42
0.0
 10
148.9999999999999
 20
512.2259966313483
 42
-0.1095178116832434
 10
151.8107663889005
 20
524.9045444835694
 42
0.0
 10
152.2415552025937
 20
525.8283740758124
 42
0.0
 10
143.7499999999999
 20
525.8283740758124
 42
0.0
 97
        6
330
77C
330
75B
330
75F
330
776
330
777
330
77B
 92
        7
 72
     1
 73
     1
 93
        6
 10
306.2500000000001
 20
525.8283740758123
 42
0.0
 10
297.7584447974063
 20
525.8283740758123
 42
0.0
 10
298.1892336110994
 20
524.9045444835694
 42
-0.1095178116832424
 10
300.9999999999999
 20
512.2259966313484
 42
0.0
 10
300.9999999999999
 20
509.8283740758124
 42
0.0
 10
306.2500000000001
 20
509.8283740758124
 42
0.0
 97
        6
330
75B
330
79D
330
79A
330
797
330
799
330
780
 75
     0
 76
     1
 52
45.0
 41
20.0
 77
     0
 78
     2
 53
45.0
 43
-341.4139031912507
 44
7.818025266364429
 45
-1.767766952966368
 46
1.767766952966368
 79
     0
 53
135.0
 43
-341.4139031912507
 44
7.818025266364429
 45
-1.767766952966368
 46
-1.767766952966368
 79
     0
 47
0.615751914332355
 98
        2
 10
145.4903158871104
 20
520.0300157369151
 10
303.8428452517275
 20
521.8772708167604
  0
LINE
  5
759
330
1E
100
AcDbEntity
  8
HILF
100
AcDbLine
 10
286.4904504061417
 20
208.8283740758125
 30
0.0
 11
163.5095495938584
 21
208.8283740758126
 31
0.0
  0
LINE
  5
75A
102
{ACAD_REACTORS
330
99E
102
}
330
1E
100
AcDbEntity
  8
STEMPEL
100
AcDbLine
 10
290.809640285651
 20
200.8283740758125
 30
0.0
 11
159.1903597143491
 21
200.8283740758125
 31
0.0
  0
LINE
  5
75B
102
{ACAD_REACTORS
330
755
330
99E
330
9B6
102
}
330
1E
100
AcDbEntity
  8
STEMPEL
100
AcDbLine
 10
309.15
 20
525.8283740758123
 30
0.0
 11
140.8499999999999
 21
525.8283740758124
 31
0.0
  0
LINE
  5
75C
330
1E
100
AcDbEntity
  8
HILF
100
AcDbLine
 10
158.8193412181045
 20
454.6655826373129
 30
0.0
 11
291.1806587818956
 21
454.6655826373129
 31
0.0
  0
LINE
  5
75D
330
1E
100
AcDbEntity
  8
HILF
100
AcDbLine
 10
162.5106783255792
 20
447.0634634799824
 30
0.0
 11
287.4893216744205
 21
447.0634634799824
 31
0.0
  0
LINE
  5
75E
330
1E
100
AcDbEntity
  8
HILF
100
AcDbLine
 10
157.5501559488182
 20
477.3050494753458
 30
0.0
 11
292.4498440511815
 21
477.3050494753458
 31
0.0
  0
LINE
  5
75F
102
{ACAD_REACTORS
330
755
330
9B6
330
9E2
102
}
330
1E
100
AcDbEntity
  8
STEMPEL
100
AcDbLine
 10
143.7499999999999
 20
525.8283740758124
 30
0.0
 11
143.75
 21
393.6290836318584
 31
0.0
  0
LINE
  5
760
102
{ACAD_REACTORS
330
9B6
102
}
330
1E
100
AcDbEntity
  8
STEMPEL
100
AcDbLine
 10
140.8499999999999
 20
525.8283740758124
 30
0.0
 11
140.85
 21
393.3283740758124
 31
0.0
  0
LINE
  5
761
102
{ACAD_REACTORS
330
99E
330
9E2
102
}
330
1E
100
AcDbEntity
  8
STEMPEL
100
AcDbLine
 10
158.4999999999998
 20
443.3283740758124
 30
0.0
 11
158.4999999999998
 21
395.064791355748
 31
0.0
  0
LINE
  5
762
102
{ACAD_REACTORS
330
99E
102
}
330
1E
100
AcDbEntity
  8
STEMPEL
100
AcDbLine
 10
160.9999999999999
 20
443.3283740758124
 30
0.0
 11
160.9999999999999
 21
395.2408093263446
 31
0.0
  0
LINE
  5
764
102
{ACAD_REACTORS
330
9E2
102
}
330
1E
100
AcDbEntity
  8
STEMPEL
100
AcDbLine
 10
143.7500000000001
 20
274.7283740758125
 30
0.0
 11
145.8500000000001
 21
276.8283740758126
 31
0.0
  0
LINE
  5
765
102
{ACAD_REACTORS
330
9B6
102
}
330
1E
100
AcDbEntity
  8
STEMPEL
100
AcDbLine
 10
143.75
 20
260.8283740758125
 30
0.0
 11
140.8499999999998
 21
260.8283740758125
 31
0.0
  0
LINE
  5
766
102
{ACAD_REACTORS
330
99E
102
}
330
1E
100
AcDbEntity
  8
STEMPEL
100
AcDbLine
 10
158.4999999999999
 20
208.7192217185427
 30
0.0
 11
159.1903597143491
 21
200.8283740758125
 31
0.0
  0
LINE
  5
767
102
{ACAD_REACTORS
330
99E
102
}
330
1E
100
AcDbEntity
  8
STEMPEL
100
AcDbLine
 10
161.0
 20
208.8283740758117
 30
0.0
 11
161.6999093082073
 21
200.8283740758125
 31
0.0
  0
LINE
  5
768
330
1E
100
AcDbEntity
  8
STEMPEL
100
AcDbLine
 10
158.5000000000003
 20
266.8283740758126
 30
0.0
 11
151.1435935394491
 21
266.8283740758126
 31
0.0
  0
LINE
  5
769
102
{ACAD_REACTORS
330
9E2
102
}
330
1E
100
AcDbEntity
  8
STEMPEL
100
AcDbLine
 10
158.5000000000003
 20
276.8283740758126
 30
0.0
 11
145.8500000000001
 21
276.8283740758126
 31
0.0
  0
ARC
  5
76B
102
{ACAD_REACTORS
330
99E
330
9E2
102
}
330
1E
100
AcDbEntity
  8
STEMPEL
100
AcDbCircle
 10
178.9999999999999
 20
493.1193740758125
 30
0.0
 40
29.99973625969209
100
AcDbArc
 50
180.0
 51
205.0071583365496
  0
ARC
  5
76C
102
{ACAD_REACTORS
330
99E
102
}
330
1E
100
AcDbEntity
  8
STEMPEL
100
AcDbCircle
 10
178.9999999999999
 20
493.1193740758125
 30
0.0
 40
27.5
100
AcDbArc
 50
180.0
 51
204.8431689300336
  0
ARC
  5
76D
102
{ACAD_REACTORS
330
99E
102
}
330
1E
100
AcDbEntity
  8
STEMPEL
100
AcDbCircle
 10
148.4999999999998
 20
443.3283740758124
 30
0.0
 40
12.5
100
AcDbArc
 50
0.0
 51
34.77194403194904
  0
LINE
  5
76E
102
{ACAD_REACTORS
330
99E
330
9E2
102
}
330
1E
100
AcDbEntity
  8
STEMPEL
100
AcDbLine
 10
153.4999999999999
 20
472.8283740758124
 30
0.0
 11
153.4999999999999
 21
459.2970934984837
 31
0.0
  0
LINE
  5
76F
102
{ACAD_REACTORS
330
99E
102
}
330
1E
100
AcDbEntity
  8
STEMPEL
100
AcDbLine
 10
155.9999999999999
 20
472.8283740758124
 30
0.0
 11
155.9999999999999
 21
459.2970934984837
 31
0.0
  0
ARC
  5
770
102
{ACAD_REACTORS
330
99E
330
9E2
102
}
330
1E
100
AcDbEntity
  8
STEMPEL
100
AcDbCircle
 10
171.4999999999999
 20
459.2970934984836
 30
0.0
 40
18.0
100
AcDbArc
 50
180.0
 51
214.7719440319491
  0
ARC
  5
771
102
{ACAD_REACTORS
330
99E
102
}
330
1E
100
AcDbEntity
  8
STEMPEL
100
AcDbCircle
 10
171.4999999999999
 20
459.2970934984837
 30
0.0
 40
15.5
100
AcDbArc
 50
180.0
 51
214.7719440319491
  0
ARC
  5
772
102
{ACAD_REACTORS
330
99E
330
9E2
102
}
330
1E
100
AcDbEntity
  8
STEMPEL
100
AcDbCircle
 10
148.4999999999998
 20
443.3283740758124
 30
0.0
 40
10.0
100
AcDbArc
 50
0.0
 51
34.77194403194904
  0
ARC
  5
773
102
{ACAD_REACTORS
330
99E
330
9E2
102
}
330
1E
100
AcDbEntity
  8
STEMPEL
100
AcDbCircle
 10
135.4999999999999
 20
472.8283740758124
 30
0.0
 40
18.0
100
AcDbArc
 50
0.0
 51
25.00715833654961
  0
ARC
  5
774
102
{ACAD_REACTORS
330
99E
102
}
330
1E
100
AcDbEntity
  8
STEMPEL
100
AcDbCircle
 10
135.4999999999999
 20
472.8283740758124
 30
0.0
 40
20.5
100
AcDbArc
 50
0.0
 51
25.22714436590881
  0
LINE
  5
776
102
{ACAD_REACTORS
330
755
330
9E2
102
}
330
1E
100
AcDbEntity
  8
STEMPEL
100
AcDbLine
 10
148.9999999999999
 20
509.8283740758124
 30
0.0
 11
143.7499999999999
 21
509.8283740758124
 31
0.0
  0
LINE
  5
777
102
{ACAD_REACTORS
330
755
330
99E
330
9E2
102
}
330
1E
100
AcDbEntity
  8
STEMPEL
100
AcDbLine
 10
148.9999999999999
 20
512.2259966313483
 30
0.0
 11
148.9999999999999
 21
493.1193740758125
 31
0.0
  0
LINE
  5
778
102
{ACAD_REACTORS
330
99E
102
}
330
1E
100
AcDbEntity
  8
STEMPEL
100
AcDbLine
 10
151.4999999999999
 20
512.2259966313483
 30
0.0
 11
151.4999999999999
 21
493.1193740758125
 31
0.0
  0
LINE
  5
779
102
{ACAD_REACTORS
330
99E
330
9E2
102
}
330
1E
100
AcDbEntity
  8
STEMPEL
100
AcDbLine
 10
149.0002637403078
 20
493.1193740758125
 30
0.0
 11
148.9999999999999
 21
493.1193740758125
 31
0.0
  0
ARC
  5
77A
102
{ACAD_REACTORS
330
99E
102
}
330
1E
100
AcDbEntity
  8
STEMPEL
100
AcDbCircle
 10
178.9999999999999
 20
512.2259966313483
 30
0.0
 40
27.5
100
AcDbArc
 50
155.0000000000079
 51
180.0
  0
ARC
  5
77B
102
{ACAD_REACTORS
330
755
330
99E
102
}
330
1E
100
AcDbEntity
  8
STEMPEL
100
AcDbCircle
 10
178.9999999999999
 20
512.2259966313483
 30
0.0
 40
30.0
100
AcDbArc
 50
155.0000000000079
 51
180.0
  0
LINE
  5
77C
102
{ACAD_REACTORS
330
755
330
99E
102
}
330
1E
100
AcDbEntity
  8
STEMPEL
100
AcDbLine
 10
152.2415552025937
 20
525.8283740758124
 30
0.0
 11
151.8107663889005
 21
524.9045444835694
 31
0.0
  0
LINE
  5
77D
102
{ACAD_REACTORS
330
99E
102
}
330
1E
100
AcDbEntity
  8
STEMPEL
100
AcDbLine
 10
154.9999999999999
 20
525.8283740758124
 30
0.0
 11
154.076535856492
 21
523.8479988292174
 31
0.0
  0
DIMENSION
  5
77E
330
1E
100
AcDbEntity
  8
BEM
100
AcDbDimension
  2
*D1
 10
109.3603390513422
 20
200.8283740758125
 30
0.0
 11
102.8603390513422
 21
363.3283740758124
 31
0.0
 70
    32
  1
1075
 71
     5
 42
324.9999999999998
  3
Standard
100
AcDbAlignedDimension
 13
140.8499999999998
 23
525.8283740758122
 33
0.0
 14
159.1903597143491
 24
200.8283740758125
 34
0.0
 50
90.0
100
AcDbRotatedDimension
1001
ACAD
1000
DSTYLE
1002
{
1070
    40
1040
2.0
1070
    41
1040
3.5
1070
    42
1040
1.0
1070
    43
1040
7.0
1070
    44
1040
1.0
1070
    73
1070
     0
1070
    74
1070
     0
1070
    77
1070
     1
1070
    78
1070
     8
1070
    79
1070
     2
1070
   140
1040
3.5
1070
   141
1040
1.5
1070
   146
1040
0.5142857142857144
1070
   147
1040
1.5
1070
   172
1070
     1
1070
   178
1070
     1
1070
   179
1070
     2
1070
   271
1070
     2
1070
   272
1070
     2
1070
   284
1070
     8
1070
   285
1070
     8
1070
   286
1070
     8
1070
   289
1070
     0
1070
   340
1005
24
1002
}
  0
LINE
  5
780
102
{ACAD_REACTORS
330
755
330
9B6
330
9E2
102
}
330
1E
100
AcDbEntity
  8
STEMPEL
100
AcDbLine
 10
306.25
 20
525.8283740758123
 30
0.0
 11
306.2500000000001
 21
393.0276645197663
 31
0.0
  0
LINE
  5
781
102
{ACAD_REACTORS
330
9B6
102
}
330
1E
100
AcDbEntity
  8
STEMPEL
100
AcDbLine
 10
309.15
 20
525.8283740758123
 30
0.0
 11
309.1500000000001
 21
393.3283740758124
 31
0.0
  0
LINE
  5
782
102
{ACAD_REACTORS
330
99E
102
}
330
1E
100
AcDbEntity
  8
STEMPEL
100
AcDbLine
 10
289.0
 20
443.3283740758124
 30
0.0
 11
289.0
 21
391.4159388252802
 31
0.0
  0
LINE
  5
783
102
{ACAD_REACTORS
330
99E
330
9E2
102
}
330
1E
100
AcDbEntity
  8
STEMPEL
100
AcDbLine
 10
291.5
 20
443.3283740758124
 30
0.0
 11
291.5
 21
391.5919567958767
 31
0.0
  0
LINE
  5
784
330
1E
100
AcDbEntity
  8
MITTEL
100
AcDbLine
 10
225.0
 20
530.8283740758124
 30
0.0
 11
225.0
 21
195.8283740758124
 31
0.0
  0
LINE
  5
785
102
{ACAD_REACTORS
330
99E
102
}
330
1E
100
AcDbEntity
  8
STEMPEL
100
AcDbLine
 10
289.0000000000002
 20
208.8283740758117
 30
0.0
 11
288.3000906917928
 21
200.8283740758125
 31
0.0
  0
LINE
  5
786
102
{ACAD_REACTORS
330
99E
102
}
330
1E
100
AcDbEntity
  8
STEMPEL
100
AcDbLine
 10
291.5000000000002
 20
208.7192217185427
 30
0.0
 11
290.809640285651
 21
200.8283740758125
 31
0.0
  0
LINE
  5
787
102
{ACAD_REACTORS
330
9B6
102
}
330
1E
100
AcDbEntity
  8
STEMPEL
100
AcDbLine
 10
309.1499999999998
 20
260.8283740758123
 30
0.0
 11
306.2500000000002
 21
260.8283740758123
 31
0.0
  0
LINE
  5
788
330
1E
100
AcDbEntity
  8
STEMPEL
100
AcDbLine
 10
298.8564064605511
 20
266.8283740758126
 30
0.0
 11
291.5
 21
266.8283740758126
 31
0.0
  0
LINE
  5
789
102
{ACAD_REACTORS
330
9E2
102
}
330
1E
100
AcDbEntity
  8
STEMPEL
100
AcDbLine
 10
304.15
 20
276.8283740758126
 30
0.0
 11
291.5
 21
276.8283740758126
 31
0.0
  0
LINE
  5
78B
102
{ACAD_REACTORS
330
9E2
102
}
330
1E
100
AcDbEntity
  8
STEMPEL
100
AcDbLine
 10
306.15
 20
274.8283740758126
 30
0.0
 11
304.15
 21
276.8283740758126
 31
0.0
  0
ARC
  5
78C
102
{ACAD_REACTORS
330
99E
102
}
330
1E
100
AcDbEntity
  8
STEMPEL
100
AcDbCircle
 10
270.9999999999999
 20
493.1193740758124
 30
0.0
 40
27.5
100
AcDbArc
 50
335.1568310699664
 51
0.0
  0
ARC
  5
78D
102
{ACAD_REACTORS
330
99E
330
9E2
102
}
330
1E
100
AcDbEntity
  8
STEMPEL
100
AcDbCircle
 10
270.9999999999999
 20
493.1193740758124
 30
0.0
 40
29.99973625969209
100
AcDbArc
 50
334.9928416634577
 51
0.0
  0
ARC
  5
78E
102
{ACAD_REACTORS
330
99E
330
9E2
102
}
330
1E
100
AcDbEntity
  8
STEMPEL
100
AcDbCircle
 10
301.5
 20
443.3283740758124
 30
0.0
 40
10.0
100
AcDbArc
 50
145.2280559680509
 51
180.0
  0
ARC
  5
78F
102
{ACAD_REACTORS
330
99E
102
}
330
1E
100
AcDbEntity
  8
STEMPEL
100
AcDbCircle
 10
278.5
 20
459.2970934984836
 30
0.0
 40
15.5
100
AcDbArc
 50
325.228055968051
 51
0.0
  0
ARC
  5
790
102
{ACAD_REACTORS
330
99E
102
}
330
1E
100
AcDbEntity
  8
STEMPEL
100
AcDbCircle
 10
301.5
 20
443.3283740758124
 30
0.0
 40
12.5
100
AcDbArc
 50
145.2280559680509
 51
180.0
  0
LINE
  5
791
102
{ACAD_REACTORS
330
99E
102
}
330
1E
100
AcDbEntity
  8
STEMPEL
100
AcDbLine
 10
293.9999999999999
 20
472.8283740758124
 30
0.0
 11
293.9999999999999
 21
459.2970934984836
 31
0.0
  0
LINE
  5
792
102
{ACAD_REACTORS
330
99E
330
9E2
102
}
330
1E
100
AcDbEntity
  8
STEMPEL
100
AcDbLine
 10
296.4999999999999
 20
472.8283740758124
 30
0.0
 11
296.4999999999999
 21
459.2970934984836
 31
0.0
  0
ARC
  5
793
102
{ACAD_REACTORS
330
99E
330
9E2
102
}
330
1E
100
AcDbEntity
  8
STEMPEL
100
AcDbCircle
 10
278.5
 20
459.2970934984836
 30
0.0
 40
18.0
100
AcDbArc
 50
325.228055968051
 51
0.0
  0
ARC
  5
794
102
{ACAD_REACTORS
330
99E
330
9E2
102
}
330
1E
100
AcDbEntity
  8
STEMPEL
100
AcDbCircle
 10
314.5
 20
472.8283740758124
 30
0.0
 40
18.0
100
AcDbArc
 50
154.9928416634576
 51
180.0
  0
ARC
  5
795
102
{ACAD_REACTORS
330
99E
102
}
330
1E
100
AcDbEntity
  8
STEMPEL
100
AcDbCircle
 10
314.5
 20
472.8283740758124
 30
0.0
 40
20.5
100
AcDbArc
 50
154.7728556340985
 51
180.0
  0
LINE
  5
796
102
{ACAD_REACTORS
330
99E
102
}
330
1E
100
AcDbEntity
  8
STEMPEL
100
AcDbLine
 10
298.4999999999999
 20
512.2259966313481
 30
0.0
 11
298.4999999999999
 21
493.1193740758124
 31
0.0
  0
LINE
  5
797
102
{ACAD_REACTORS
330
755
330
99E
330
9E2
102
}
330
1E
100
AcDbEntity
  8
STEMPEL
100
AcDbLine
 10
300.9999999999999
 20
512.2259966313481
 30
0.0
 11
300.9999999999999
 21
493.1193740758124
 31
0.0
  0
LINE
  5
798
102
{ACAD_REACTORS
330
99E
330
9E2
102
}
330
1E
100
AcDbEntity
  8
STEMPEL
100
AcDbLine
 10
300.999736259692
 20
493.1193740758124
 30
0.0
 11
300.9999999999999
 21
493.1193740758124
 31
0.0
  0
LINE
  5
799
102
{ACAD_REACTORS
330
755
330
9E2
102
}
330
1E
100
AcDbEntity
  8
STEMPEL
100
AcDbLine
 10
306.25
 20
509.8283740758124
 30
0.0
 11
300.9999999999999
 21
509.8283740758124
 31
0.0
  0
ARC
  5
79A
102
{ACAD_REACTORS
330
755
330
99E
102
}
330
1E
100
AcDbEntity
  8
STEMPEL
100
AcDbCircle
 10
270.9999999999999
 20
512.2259966313481
 30
0.0
 40
30.0
100
AcDbArc
 50
0.0
 51
24.99999999999207
  0
ARC
  5
79B
102
{ACAD_REACTORS
330
99E
102
}
330
1E
100
AcDbEntity
  8
STEMPEL
100
AcDbCircle
 10
270.9999999999999
 20
512.2259966313481
 30
0.0
 40
27.5
100
AcDbArc
 50
0.0
 51
24.99999999999207
  0
LINE
  5
79C
102
{ACAD_REACTORS
330
99E
102
}
330
1E
100
AcDbEntity
  8
STEMPEL
100
AcDbLine
 10
294.9999999999999
 20
525.8283740758124
 30
0.0
 11
295.9234641435078
 21
523.8479988292174
 31
0.0
  0
LINE
  5
79D
102
{ACAD_REACTORS
330
755
330
99E
102
}
330
1E
100
AcDbEntity
  8
STEMPEL
100
AcDbLine
 10
297.7584447974062
 20
525.8283740758124
 30
0.0
 11
298.1892336110994
 21
524.9045444835694
 31
0.0
  0
POLYLINE
  5
929
102
{ACAD_REACTORS
330
99E
330
9B6
330
9E2
102
}
330
1E
100
AcDbEntity
  8
HILF
100
AcDb2dPolyline
 66
     1
 10
0.0
 20
0.0
 30
0.0
 70
     4
 75
     6
  0
VERTEX
  5
92A
330
929
100
AcDbEntity
  8
HILF
100
AcDbVertex
100
AcDb2dVertex
 10
140.85
 20
393.3283740758124
 30
0.0
 70
    16
  0
VERTEX
  5
930
330
929
100
AcDbEntity
  8
HILF
100
AcDbVertex
100
AcDb2dVertex
 10
140.85
 20
393.3283740758124
 30
0.0
 70
     8
  0
VERTEX
  5
931
330
929
100
AcDbEntity
  8
HILF
100
AcDbVertex
100
AcDb2dVertex
 10
155.6830810546875
 20
394.8664600133124
 30
0.0
 70
     8
  0
VERTEX
  5
932
330
929
100
AcDbEntity
  8
HILF
100
AcDbVertex
100
AcDb2dVertex
 10
168.7904296875
 20
395.7893115758123
 30
0.0
 70
     8
  0
VERTEX
  5
933
330
929
100
AcDbEntity
  8
HILF
100
AcDbVertex
100
AcDb2dVertex
 10
180.4185791015625
 20
396.1848193883123
 30
0.0
 70
     8
  0
VERTEX
  5
934
330
929
100
AcDbEntity
  8
HILF
100
AcDbVertex
100
AcDb2dVertex
 10
190.8140625
 20
396.1408740758123
 30
0.0
 70
     8
  0
VERTEX
  5
935
330
929
100
AcDbEntity
  8
HILF
100
AcDbVertex
100
AcDb2dVertex
 10
200.2234130859376
 20
395.7453662633122
 30
0.0
 70
     8
  0
VERTEX
  5
936
330
929
100
AcDbEntity
  8
HILF
100
AcDbVertex
100
AcDb2dVertex
 10
208.8931640625001
 20
395.0861865758122
 30
0.0
 70
     8
  0
VERTEX
  5
937
330
929
100
AcDbEntity
  8
HILF
100
AcDbVertex
100
AcDb2dVertex
 10
217.0698486328126
 20
394.2512256383122
 30
0.0
 70
     8
  0
VERTEX
  5
938
330
929
100
AcDbEntity
  8
HILF
100
AcDbVertex
100
AcDb2dVertex
 10
225.0
 20
393.3283740758124
 30
0.0
 70
     8
  0
VERTEX
  5
939
330
929
100
AcDbEntity
  8
HILF
100
AcDbVertex
100
AcDb2dVertex
 10
232.9301513671875
 20
392.4055225133124
 30
0.0
 70
     8
  0
VERTEX
  5
93A
330
929
100
AcDbEntity
  8
HILF
100
AcDbVertex
100
AcDb2dVertex
 10
241.1068359375
 20
391.5705615758124
 30
0.0
 70
     8
  0
VERTEX
  5
93B
330
929
100
AcDbEntity
  8
HILF
100
AcDbVertex
100
AcDb2dVertex
 10
249.7765869140625
 20
390.9113818883124
 30
0.0
 70
     8
  0
VERTEX
  5
93C
330
929
100
AcDbEntity
  8
HILF
100
AcDbVertex
100
AcDb2dVertex
 10
259.1859375
 20
390.5158740758123
 30
0.0
 70
     8
  0
VERTEX
  5
93D
330
929
100
AcDbEntity
  8
HILF
100
AcDbVertex
100
AcDb2dVertex
 10
269.5814208984375
 20
390.4719287633124
 30
0.0
 70
     8
  0
VERTEX
  5
93E
330
929
100
AcDbEntity
  8
HILF
100
AcDbVertex
100
AcDb2dVertex
 10
281.2095703125
 20
390.8674365758124
 30
0.0
 70
     8
  0
VERTEX
  5
93F
330
929
100
AcDbEntity
  8
HILF
100
AcDbVertex
100
AcDb2dVertex
 10
294.3169189453125
 20
391.7902881383124
 30
0.0
 70
     8
  0
VERTEX
  5
940
330
929
100
AcDbEntity
  8
HILF
100
AcDbVertex
100
AcDb2dVertex
 10
309.15
 20
393.3283740758124
 30
0.0
 70
     8
  0
VERTEX
  5
92B
330
929
100
AcDbEntity
  8
HILF
100
AcDbVertex
100
AcDb2dVertex
 10
182.925
 20
398.3283740758123
 30
0.0
 70
    16
  0
VERTEX
  5
92C
330
929
100
AcDbEntity
  8
HILF
100
AcDbVertex
100
AcDb2dVertex
 10
225.0
 20
393.3283740758124
 30
0.0
 70
    16
  0
VERTEX
  5
92D
330
929
100
AcDbEntity
  8
HILF
100
AcDbVertex
100
AcDb2dVertex
 10
267.075
 20
388.3283740758124
 30
0.0
 70
    16
  0
VERTEX
  5
92E
330
929
100
AcDbEntity
  8
HILF
100
AcDbVertex
100
AcDb2dVertex
 10
309.15
 20
393.3283740758124
 30
0.0
 70
    16
  0
SEQEND
  5
92F
330
929
100
AcDbEntity
  8
HILF
  0
POLYLINE
  5
941
102
{ACAD_REACTORS
330
99E
330
9B6
330
9E2
102
}
330
1E
100
AcDbEntity
  8
HILF
100
AcDb2dPolyline
 66
     1
 10
0.0
 20
0.0
 30
0.0
 70
     4
 75
     6
  0
VERTEX
  5
942
330
941
100
AcDbEntity
  8
HILF
100
AcDbVertex
100
AcDb2dVertex
 10
140.85
 20
388.3283740758124
 30
0.0
 70
    16
  0
VERTEX
  5
943
330
941
100
AcDbEntity
  8
HILF
100
AcDbVertex
100
AcDb2dVertex
 10
140.85
 20
388.3283740758124
 30
0.0
 70
     8
  0
VERTEX
  5
944
330
941
100
AcDbEntity
  8
HILF
100
AcDbVertex
100
AcDb2dVertex
 10
155.6830810546875
 20
389.8664600133124
 30
0.0
 70
     8
  0
VERTEX
  5
945
330
941
100
AcDbEntity
  8
HILF
100
AcDbVertex
100
AcDb2dVertex
 10
168.7904296875
 20
390.7893115758124
 30
0.0
 70
     8
  0
VERTEX
  5
946
330
941
100
AcDbEntity
  8
HILF
100
AcDbVertex
100
AcDb2dVertex
 10
180.4185791015625
 20
391.1848193883123
 30
0.0
 70
     8
  0
VERTEX
  5
947
330
941
100
AcDbEntity
  8
HILF
100
AcDbVertex
100
AcDb2dVertex
 10
190.8140625
 20
391.1408740758123
 30
0.0
 70
     8
  0
VERTEX
  5
948
330
941
100
AcDbEntity
  8
HILF
100
AcDbVertex
100
AcDb2dVertex
 10
200.2234130859376
 20
390.7453662633122
 30
0.0
 70
     8
  0
VERTEX
  5
949
330
941
100
AcDbEntity
  8
HILF
100
AcDbVertex
100
AcDb2dVertex
 10
208.8931640625001
 20
390.0861865758122
 30
0.0
 70
     8
  0
VERTEX
  5
94A
330
941
100
AcDbEntity
  8
HILF
100
AcDbVertex
100
AcDb2dVertex
 10
217.0698486328126
 20
389.2512256383122
 30
0.0
 70
     8
  0
VERTEX
  5
94B
330
941
100
AcDbEntity
  8
HILF
100
AcDbVertex
100
AcDb2dVertex
 10
225.0
 20
388.3283740758124
 30
0.0
 70
     8
  0
VERTEX
  5
94C
330
941
100
AcDbEntity
  8
HILF
100
AcDbVertex
100
AcDb2dVertex
 10
232.9301513671875
 20
387.4055225133123
 30
0.0
 70
     8
  0
VERTEX
  5
94D
330
941
100
AcDbEntity
  8
HILF
100
AcDbVertex
100
AcDb2dVertex
 10
241.1068359375
 20
386.5705615758124
 30
0.0
 70
     8
  0
VERTEX
  5
94E
330
941
100
AcDbEntity
  8
HILF
100
AcDbVertex
100
AcDb2dVertex
 10
249.7765869140625
 20
385.9113818883124
 30
0.0
 70
     8
  0
VERTEX
  5
94F
330
941
100
AcDbEntity
  8
HILF
100
AcDbVertex
100
AcDb2dVertex
 10
259.1859375
 20
385.5158740758124
 30
0.0
 70
     8
  0
VERTEX
  5
950
330
941
100
AcDbEntity
  8
HILF
100
AcDbVertex
100
AcDb2dVertex
 10
269.5814208984375
 20
385.4719287633124
 30
0.0
 70
     8
  0
VERTEX
  5
951
330
941
100
AcDbEntity
  8
HILF
100
AcDbVertex
100
AcDb2dVertex
 10
281.2095703125
 20
385.8674365758123
 30
0.0
 70
     8
  0
VERTEX
  5
952
330
941
100
AcDbEntity
  8
HILF
100
AcDbVertex
100
AcDb2dVertex
 10
294.3169189453125
 20
386.7902881383124
 30
0.0
 70
     8
  0
VERTEX
  5
953
330
941
100
AcDbEntity
  8
HILF
100
AcDbVertex
100
AcDb2dVertex
 10
309.15
 20
388.3283740758124
 30
0.0
 70
     8
  0
VERTEX
  5
954
330
941
100
AcDbEntity
  8
HILF
100
AcDbVertex
100
AcDb2dVertex
 10
182.925
 20
393.3283740758124
 30
0.0
 70
    16
  0
VERTEX
  5
955
330
941
100
AcDbEntity
  8
HILF
100
AcDbVertex
100
AcDb2dVertex
 10
225.0
 20
388.3283740758124
 30
0.0
 70
    16
  0
VERTEX
  5
956
330
941
100
AcDbEntity
  8
HILF
100
AcDbVertex
100
AcDb2dVertex
 10
267.075
 20
383.3283740758123
 30
0.0
 70
    16
  0
VERTEX
  5
957
330
941
100
AcDbEntity
  8
HILF
100
AcDbVertex
100
AcDb2dVertex
 10
309.15
 20
388.3283740758124
 30
0.0
 70
    16
  0
SEQEND
  5
958
330
941
100
AcDbEntity
  8
HILF
  0
LINE
  5
959
102
{ACAD_REACTORS
330
9B6
330
9E2
102
}
330
1E
100
AcDbEntity
  8
STEMPEL
100
AcDbLine
 10
306.2500000000001
 20
388.0276645197663
 30
0.0
 11
306.2500000000002
 21
260.8283740758123
 31
0.0
  0
LINE
  5
95A
102
{ACAD_REACTORS
330
9B6
102
}
330
1E
100
AcDbEntity
  8
STEMPEL
100
AcDbLine
 10
309.1500000000001
 20
388.3283740758124
 30
0.0
 11
309.1500000000001
 21
258.8283740758115
 31
0.0
  0
LINE
  5
95B
102
{ACAD_REACTORS
330
99E
330
9E2
102
}
330
1E
100
AcDbEntity
  8
STEMPEL
100
AcDbLine
 10
291.5
 20
386.5919567958767
 30
0.0
 11
291.5
 21
208.8283740758125
 31
0.0
  0
LINE
  5
95C
102
{ACAD_REACTORS
330
99E
102
}
330
1E
100
AcDbEntity
  8
STEMPEL
100
AcDbLine
 10
289.0
 20
386.4159388252801
 30
0.0
 11
289.0
 21
208.8283740758125
 31
0.0
  0
LINE
  5
95D
102
{ACAD_REACTORS
330
99E
102
}
330
1E
100
AcDbEntity
  8
STEMPEL
100
AcDbLine
 10
160.9999999999999
 20
390.2408093263446
 30
0.0
 11
161.0
 21
208.8283740758117
 31
0.0
  0
LINE
  5
95E
102
{ACAD_REACTORS
330
99E
330
9E2
102
}
330
1E
100
AcDbEntity
  8
STEMPEL
100
AcDbLine
 10
158.4999999999998
 20
390.0647913557479
 30
0.0
 11
158.4999999999999
 21
208.7192217185427
 31
0.0
  0
LINE
  5
95F
102
{ACAD_REACTORS
330
9B6
330
9E2
102
}
330
1E
100
AcDbEntity
  8
STEMPEL
100
AcDbLine
 10
143.75
 20
388.6290836318584
 30
0.0
 11
143.75
 21
260.8283740758124
 31
0.0
  0
LINE
  5
960
102
{ACAD_REACTORS
330
9B6
102
}
330
1E
100
AcDbEntity
  8
STEMPEL
100
AcDbLine
 10
140.85
 20
388.3283740758124
 30
0.0
 11
140.85
 21
258.8283740758125
 31
0.0
  0
HATCH
  5
99E
330
1E
100
AcDbEntity
  8
SCHRAFF
100
AcDbHatch
 10
0.0
 20
0.0
 30
0.0
210
0.0
220
0.0
230
1.0
  2
_USER
 70
     0
 71
     1
 91
        4
 92
        7
 72
     1
 73
     1
 93
       21
 10
291.5
 20
443.3283740758124
 42
-0.1528962216020417
 10
293.2857142857143
 20
449.0314881553379
 42
0.1528962216020372
 10
296.4999999999999
 20
459.2970934984836
 42
0.0
 10
296.4999999999999
 20
472.8283740758124
 42
-0.1095494205537222
 10
298.1874103690109
 20
480.4375408850595
 42
0.109549420553793
 10
300.9997362596921
 20
493.1193740758124
 42
0.0
 10
300.9999999999999
 20
493.1193740758124
 42
0.0
 10
300.9999999999999
 20
512.2259966313481
 42
0.1095178116832443
 10
298.1892336110994
 20
524.9045444835694
 42
0.0
 10
297.7584447974063
 20
525.8283740758123
 42
0.0
 10
295.0000000000001
 20
525.8283740758123
 42
0.0
 10
295.9234641435078
 20
523.8479988292174
 42
-0.1095178116832421
 10
298.4999999999999
 20
512.2259966313481
 42
0.0
 10
298.4999999999999
 20
493.1193740758124
 42
-0.1102736034492357
 10
295.8886370172942
 20
481.4229751675425
 42
0.108578132785216
 10
293.9999999999999
 20
472.8283740758124
 42
0.0
 10
293.9999999999999
 20
459.2970934984836
 42
-0.1528962216020408
 10
291.2321428571427
 20
450.457266675219
 42
0.1528962216020375
 10
289.0
 20
443.3283740758123
 42
0.0
 10
289.0
 20
391.4159388252802
 42
0.0
 10
291.5
 20
391.5919567958767
 42
0.0
 97
       21
330
78E
330
793
330
792
330
794
330
78D
330
798
330
797
330
79A
330
79D
330
75B
330
79C
330
79B
330
796
330
78C
330
795
330
791
330
78F
330
790
330
782
330
929
330
783
 92
        7
 72
     1
 73
     1
 93
       21
 10
160.9999999999999
 20
443.3283740758124
 42
0.1528962216020379
 10
158.7678571428571
 20
450.4572666752192
 42
-0.1528962216020404
 10
155.9999999999999
 20
459.2970934984837
 42
0.0
 10
155.9999999999999
 20
472.8283740758124
 42
0.1085781327853976
 10
154.1113629826995
 20
481.422975167556
 42
-0.1102736034491007
 10
151.4999999999999
 20
493.1193740758125
 42
0.0
 10
151.4999999999999
 20
512.2259966313483
 42
-0.1095178116832411
 10
154.076535856492
 20
523.8479988292174
 42
0.0
 10
154.9999999999999
 20
525.8283740758124
 42
0.0
 10
152.2415552025937
 20
525.8283740758124
 42
0.0
 10
151.8107663889005
 20
524.9045444835694
 42
0.1095178116832425
 10
148.9999999999999
 20
512.2259966313484
 42
0.0
 10
148.9999999999999
 20
493.1193740758125
 42
0.0
 10
149.0002637403078
 20
493.1193740758125
 42
0.1095494205537671
 10
151.8125896309877
 20
480.4375408850623
 42
-0.1095494205537674
 10
153.4999999999999
 20
472.8283740758124
 42
0.0
 10
153.4999999999999
 20
459.2970934984837
 42
0.152896221602039
 10
156.7142857142856
 20
449.0314881553379
 42
-0.1528962216020382
 10
158.4999999999998
 20
443.3283740758125
 42
0.0
 10
158.4999999999998
 20
395.0647913557479
 42
0.0
 10
160.9999999999999
 20
395.2408093263446
 42
0.0
 97
       21
330
76D
330
771
330
76F
330
774
330
76C
330
778
330
77A
330
77D
330
75B
330
77C
330
77B
330
777
330
779
330
76B
330
773
330
76E
330
770
330
772
330
761
330
929
330
762
 92
        7
 72
     0
 73
     1
 93
        6
 10
160.9999999999999
 20
390.2408093263446
 10
158.4999999999998
 20
390.064791355748
 10
158.4999999999999
 20
208.7192217185428
 10
159.1903597143492
 20
200.8283740758125
 10
161.6999093082073
 20
200.8283740758126
 10
161.0
 20
208.8283740758118
 97
        6
330
941
330
95E
330
766
330
75A
330
767
330
95D
 92
        7
 72
     0
 73
     1
 93
        6
 10
291.5
 20
386.5919567958768
 10
289.0
 20
386.4159388252801
 10
289.0
 20
208.8283740758092
 10
288.3000906917928
 20
200.8283740758125
 10
290.809640285651
 20
200.8283740758125
 10
291.5
 20
208.7192217185407
 97
        6
330
941
330
95C
330
785
330
75A
330
786
330
95B
 75
     0
 76
     0
 52
45.0
 41
2.0
 77
     0
 78
     1
 53
45.0
 43
0.0
 44
0.0
 45
-1.414213562373094
 46
1.414213562373095
 79
     0
 47
0.682046774531869
 98
        4
 10
290.3187504531884
 20
420.9678085336224
 10
159.9561860488666
 20
414.8293885168629
 10
159.9561860488666
 20
381.4090955392908
 10
290.3187504531884
 20
353.4451785533045
  0
HATCH
  5
9B6
330
1E
100
AcDbEntity
  8
SCHRAFF
100
AcDbHatch
 10
0.0
 20
0.0
 30
0.0
210
0.0
220
0.0
230
1.0
  2
_USER
 70
     0
 71
     1
 91
        4
 92
        7
 72
     0
 73
     1
 93
        4
 10
309.15
 20
525.8283740758123
 10
306.25
 20
525.8283740758123
 10
306.2500000000002
 20
393.0276645197664
 10
309.1500000000001
 20
393.3283740758124
 97
        4
330
75B
330
780
330
929
330
781
 92
        7
 72
     0
 73
     1
 93
        4
 10
306.2500000000002
 20
260.8283740758123
 10
309.15
 20
260.8283740758123
 10
309.1500000000002
 20
388.3283740758124
 10
306.25
 20
388.0276645197664
 97
        4
330
941
330
959
330
787
330
95A
 92
        7
 72
     0
 73
     1
 93
        4
 10
140.85
 20
393.3283740758124
 10
143.7499999999999
 20
393.6290836318584
 10
143.7499999999999
 20
525.8283740758124
 10
140.8499999999999
 20
525.8283740758123
 97
        4
330
75B
330
760
330
929
330
75F
 92
        7
 72
     0
 73
     1
 93
        4
 10
140.85
 20
260.8283740758125
 10
143.75
 20
260.8283740758125
 10
143.75
 20
388.6290836318583
 10
140.85
 20
388.3283740758123
 97
        4
330
941
330
960
330
765
330
95F
 75
     0
 76
     0
 52
135.0
 41
2.0
 77
     0
 78
     1
 53
135.0
 43
0.0
 44
0.0
 45
-1.414213562373095
 46
-1.414213562373094
 79
     0
 47
0.682046774531869
 98
        4
 10
308.0644403553033
 20
450.977867391093
 10
307.3819142342463
 20
367.7681604583077
 10
142.2104961467517
 20
414.8293885168629
 10
142.2104961467517
 20
382.0911423633111
  0
HATCH
  5
9E2
330
1E
100
AcDbEntity
  8
SCHRAFF
100
AcDbHatch
 10
0.0
 20
0.0
 30
0.0
210
0.0
220
0.0
230
1.0
  2
HONEY
 70
     0
 71
     1
 91
        4
 92
        7
 72
     1
 73
     1
 93
       12
 10
306.25
 20
509.8283740758124
 42
0.0
 10
300.9999999999999
 20
509.8283740758123
 42
0.0
 10
300.9999999999999
 20
493.1193740758124
 42
0.0
 10
300.999736259692
 20
493.1193740758124
 42
-0.1095494205537216
 10
298.1874103690144
 20
480.4375408850671
 42
0.1095494205538402
 10
296.4999999999999
 20
472.8283740758124
 42
0.0
 10
296.4999999999999
 20
459.2970934984836
 42
-0.1528962216020418
 10
293.2857142857141
 20
449.0314881553376
 42
0.1528962216020379
 10
291.5
 20
443.3283740758122
 42
0.0
 10
291.5000000000001
 20
391.5919567958768
 42
0.0
 10
294.3169189453112
 20
391.7902881383125
 42
0.0
 10
306.2500000000002
 20
393.0276645197663
 42
0.0
 97
       11
330
799
330
797
330
798
330
78D
330
794
330
792
330
793
330
78E
330
783
330
929
330
780
 92
        7
 72
     0
 73
     1
 93
        6
 10
291.5
 20
276.8283740758126
 10
304.15
 20
276.8283740758126
 10
306.2500000000002
 20
274.7283740758125
 10
306.2500000000001
 20
388.0276645197664
 10
294.3169189453135
 20
386.7902881383125
 10
291.5
 20
386.5919567958767
 97
        5
330
941
330
95B
330
789
330
78B
330
959
 92
        7
 72
     0
 73
     1
 93
        6
 10
143.75
 20
274.7283740758124
 10
145.8500000000001
 20
276.8283740758126
 10
158.4999999999999
 20
276.8283740758126
 10
158.4999999999998
 20
390.0647913557479
 10
155.6830810546862
 20
389.8664600133121
 10
143.75
 20
388.6290836318583
 97
        5
330
941
330
95F
330
764
330
769
330
95E
 92
        7
 72
     1
 73
     1
 93
       12
 10
143.75
 20
393.6290836318584
 42
0.0
 10
155.6830810546887
 20
394.8664600133124
 42
0.0
 10
158.4999999999998
 20
395.0647913557479
 42
0.0
 10
158.4999999999998
 20
443.3283740758124
 42
0.1528962216020382
 10
156.7142857142856
 20
449.0314881553378
 42
-0.1528962216020397
 10
153.4999999999999
 20
459.2970934984837
 42
0.0
 10
153.4999999999999
 20
472.8283740758124
 42
0.1095494205537666
 10
151.8125896309877
 20
480.4375408850623
 42
-0.1095494205537671
 10
149.0002637403078
 20
493.1193740758125
 42
0.0
 10
148.9999999999999
 20
493.1193740758125
 42
0.0
 10
148.9999999999999
 20
509.8283740758124
 42
0.0
 10
143.7499999999999
 20
509.8283740758124
 42
0.0
 97
       11
330
772
330
770
330
76E
330
773
330
76B
330
779
330
777
330
776
330
75F
330
929
330
761
 75
     0
 76
     1
 52
0.0
 41
30.0
 77
     0
 78
     3
 53
0.0
 43
0.0
 44
0.0
 45
5.625
 46
3.247595249999999
 79
     2
 49
3.75
 49
-7.5
 53
120.0
 43
0.0
 44
0.0
 45
-5.624999987709673
 46
3.247595271287468
 79
     2
 49
3.75
 49
-7.5
 53
60.0
 43
0.0
 44
0.0
 45
0.0000000122903263
 46
6.495190521287468
 79
     2
 49
-7.5
 49
3.75
 47
0.682046774531869
 98
        4
 10
299.874121525303
 20
438.0189791341304
 10
297.8265431621312
 20
332.3017284080979
 10
146.9881816828092
 20
349.3528976091825
 10
149.7182888556945
 20
408.0089202766599
  0
LINE
  5
A3F
330
1E
100
AcDbEntity
  8
STEMPEL
100
AcDbLine
 10
301.0000000000001
 20
258.8283740758115
 30
0.0
 11
298.8564064605508
 21
266.8283740758126
 31
0.0
  0
LINE
  5
A40
330
1E
100
AcDbEntity
  8
STEMPEL
100
AcDbLine
 10
309.1499999999999
 20
258.8283740758115
 30
0.0
 11
291.4999999999997
 21
258.8283740758115
 31
0.0
  0
HATCH
  5
A41
330
1E
100
AcDbEntity
  8
SCHRAFF
100
AcDbHatch
 10
0.0
 20
0.0
 30
0.0
210
0.0
220
0.0
230
1.0
  2
NET
 70
     0
 71
     0
 91
        2
 92
        7
 72
     0
 73
     1
 93
        9
 10
298.8564064605508
 20
266.8283740758127
 10
301.0000000000002
 20
258.8283740758115
 10
309.1499999999999
 20
258.8283740758114
 10
309.1499999999998
 20
260.8283740758124
 10
306.2499999999998
 20
260.8283740758123
 10
306.2499999999998
 20
274.7283740758127
 10
304.1499999999997
 20
276.8283740758125
 10
291.4999999999997
 20
276.8283740758126
 10
291.4999999999998
 20
266.8283740758127
 97
        0
 92
        7
 72
     0
 73
     1
 93
        9
 10
151.1435935394489
 20
266.8283740758126
 10
158.4999999999996
 20
266.8283740758126
 10
158.4999999999996
 20
276.8283740758126
 10
145.8499999999999
 20
276.8283740758125
 10
143.7499999999997
 20
274.7283740758124
 10
143.7499999999997
 20
260.8283740758125
 10
140.8499999999997
 20
260.8283740758125
 10
140.8499999999997
 20
258.8283740758125
 10
148.9999999999998
 20
258.8283740758125
 97
        0
 75
     0
 76
     1
 52
45.0
 41
20.0
 77
     0
 78
     2
 53
45.0
 43
-0.0000000000002558
 44
-52.7572363758145
 45
-1.767766952966368
 46
1.767766952966368
 79
     0
 53
135.0
 43
-0.0000000000002558
 44
-52.7572363758145
 45
-1.767766952966368
 46
-1.767766952966368
 79
     0
 47
0.2115359210124944
 98
        2
 10
301.1597635353135
 20
269.2216317646041
 10
149.820336894588
 20
270.9139192465495
  0
LINE
  5
A42
330
1E
100
AcDbEntity
  8
STEMPEL
100
AcDbLine
 10
148.9999999999998
 20
258.8283740758125
 30
0.0
 11
151.1435935394489
 21
266.8283740758126
 31
0.0
  0
LINE
  5
A43
330
1E
100
AcDbEntity
  8
STEMPEL
100
AcDbLine
 10
158.4999999999996
 20
258.8283740758124
 30
0.0
 11
140.8499999999998
 21
258.8283740758125
 31
0.0
  0
DIMENSION
  5
A6A
330
1E
100
AcDbEntity
  8
BEM
100
AcDbDimension
  2
*D4
 10
125.6751254057167
 20
260.8283740758125
 30
0.0
 11
119.1751254057166
 21
230.8283740758125
 31
0.0
 70
    32
 71
     5
 42
59.99999999999997
  3
Standard
100
AcDbAlignedDimension
 13
159.1903597143491
 23
200.8283740758125
 33
0.0
 14
140.85
 24
260.8283740758125
 34
0.0
 50
90.0
100
AcDbRotatedDimension
1001
ACAD
1000
DSTYLE
1002
{
1070
    40
1040
2.0
1070
    41
1040
3.5
1070
    42
1040
1.0
1070
    43
1040
7.0
1070
    44
1040
1.0
1070
    73
1070
     0
1070
    74
1070
     0
1070
    77
1070
     1
1070
    78
1070
     8
1070
    79
1070
     2
1070
   140
1040
3.5
1070
   141
1040
1.5
1070
   146
1040
0.5142857142857144
1070
   147
1040
1.5
1070
   172
1070
     1
1070
   178
1070
     1
1070
   179
1070
     2
1070
   271
1070
     2
1070
   272
1070
     2
1070
   284
1070
     8
1070
   285
1070
     8
1070
   286
1070
     8
1002
}
  0
ENDSEC
  0
SECTION
  2
OBJECTS
  0
DICTIONARY
  5
C
330
0
100
AcDbDictionary
281
     1
  3
ACAD_COLOR
350
DF
  3
ACAD_GROUP
350
D
  3
ACAD_LAYOUT
350
19
  3
ACAD_MATERIAL
350
DE
  3
ACAD_MLINESTYLE
350
16
  3
ACAD_PLOTSETTINGS
350
18
  3
ACAD_PLOTSTYLENAME
350
E
  3
AcDbVariableDictionary
350
EA
  0
DICTIONARY
  5
A0
330
1E
100
AcDbDictionary
280
     1
281
     1
  3
ACAD_LAYOUTSELFREF
360
D4
  0
DICTIONARY
  5
A2
330
1A
100
AcDbDictionary
280
     1
281
     1
  3
ACAD_LAYOUTSELFREF
360
D3
  0
DICTIONARY
  5
DF
102
{ACAD_REACTORS
330
C
102
}
330
C
100
AcDbDictionary
281
     1
  0
DICTIONARY
  5
D
102
{ACAD_REACTORS
330
C
102
}
330
C
100
AcDbDictionary
281
     1
  0
DICTIONARY
  5
19
102
{ACAD_REACTORS
330
C
102
}
330
C
100
AcDbDictionary
281
     1
  3
Layout1
350
1D
  3
Model
350
21
  0
DICTIONARY
  5
DE
102
{ACAD_REACTORS
330
C
102
}
330
C
100
AcDbDictionary
281
     1
  0
DICTIONARY
  5
16
102
{ACAD_REACTORS
330
C
102
}
330
C
100
AcDbDictionary
281
     1
  3
Standard
350
17
  0
DICTIONARY
  5
18
102
{ACAD_REACTORS
330
C
102
}
330
C
100
AcDbDictionary
281
     1
  0
ACDBDICTIONARYWDFLT
  5
E
102
{ACAD_REACTORS
330
C
102
}
330
C
100
AcDbDictionary
281
     1
  3
Normal
350
F
100
AcDbDictionaryWithDefault
340
F
  0
DICTIONARY
  5
EA
102
{ACAD_REACTORS
330
C
102
}
330
C
100
AcDbDictionary
281
     1
  3
DIMASSOC
350
EB
  3
PROJECTNAME
350
EC
  0
XRECORD
  5
D4
102
{ACAD_REACTORS
330
A0
102
}
330
A0
100
AcDbXrecord
280
     1
340
1E
  0
XRECORD
  5
D3
102
{ACAD_REACTORS
330
A2
102
}
330
A2
100
AcDbXrecord
280
     1
340
1A
  0
LAYOUT
  5
1D
102
{ACAD_REACTORS
330
19
102
}
330
19
100
AcDbPlotSettings
  1

  2
\\NT_WORK01\HP LaserJet 5000 PCL 6
  4

  6

 40
0.0
 41
0.0
 42
0.0
 43
0.0
 44
0.0
 45
0.0
 46
0.0
 47
0.0
 48
0.0
 49
0.0
140
0.0
141
0.0
142
1.0
143
1.0
 70
   688
 72
     0
 73
     0
 74
     5
  7

 75
    16
147
1.0
 76
     0
 77
     2
 78
   300
148
0.0
149
0.0
100
AcDbLayout
  1
Layout1
 70
     0
 71
     1
 10
0.0
 20
0.0
 11
12.0
 21
9.0
 12
0.0
 22
0.0
 32
0.0
 14
1.000000000000000E+20
 24
1.000000000000000E+20
 34
1.000000000000000E+20
 15
-1.000000000000000E+20
 25
-1.000000000000000E+20
 35
-1.000000000000000E+20
146
0.0
 13
0.0
 23
0.0
 33
0.0
 16
1.0
 26
0.0
 36
0.0
 17
0.0
 27
1.0
 37
0.0
 76
     0
330
1A
  0
LAYOUT
  5
21
102
{ACAD_REACTORS
330
19
102
}
330
19
100
AcDbPlotSettings
  1

  2
none_device
  4
Letter_(8.50_x_11.00_Inches)
  6

 40
6.349999904632568
 41
6.349999904632568
 42
6.350006103515625
 43
6.350006103515625
 44
215.8999938964844
 45
279.3999938964844
 46
0.0
 47
0.0
 48
0.0
 49
0.0
140
0.0
141
0.0
142
1.0
143
1.0
 70
 11952
 72
     0
 73
     1
 74
     0
  7

 75
     0
147
1.0
 76
     0
 77
     2
 78
   300
148
2286.722511197659
149
76.92250090747274
100
AcDbLayout
  1
Model
 70
     1
 71
     0
 10
0.0
 20
0.0
 11
12.0
 21
9.0
 12
0.0
 22
0.0
 32
0.0
 14
0.0
 24
0.0
 34
0.0
 15
0.0
 25
0.0
 35
0.0
146
0.0
 13
0.0
 23
0.0
 33
0.0
 16
1.0
 26
0.0
 36
0.0
 17
0.0
 27
1.0
 37
0.0
 76
     0
330
1E
  0
MLINESTYLE
  5
17
102
{ACAD_REACTORS
330
16
102
}
330
16
100
AcDbMlineStyle
  2
STANDARD
 70
     0
  3

 62
   256
 51
90.0
 52
90.0
 71
     2
 49
0.5
 62
   256
  6
BYLAYER
 49
-0.5
 62
   256
  6
BYLAYER
  0
ACDBPLACEHOLDER
  5
F
102
{ACAD_REACTORS
330
E
102
}
330
E
  0
DICTIONARYVAR
  5
EB
102
{ACAD_REACTORS
330
EA
102
}
330
EA
100
DictionaryVariables
280
     0
  1
1
  0
DICTIONARYVAR
  5
EC
102
{ACAD_REACTORS
330
EA
102
}
330
EA
100
DictionaryVariables
280
     0
  1

  0
ENDSEC
  0
EOF
