  0
SECTION
  2
HEADER
  9
$ACADVER
  1
AC1018
  9
$ACADMAINTVER
 70
     2
  9
$DWGCODEPAGE
  3
ANSI_1252
  9
$INSBASE
 10
0.0
 20
0.0
 30
0.0
  9
$EXTMIN
 10
-0.0064041928749248
 20
-0.0090573584946014
 30
-0.0000000000112498
  9
$EXTMAX
 10
420.0064100605654
 20
594.0090656570857
 30
0.0000000000002956
  9
$LIMMIN
 10
0.0
 20
0.0
  9
$LIMMAX
 10
419.9999999999999
 20
594.0
  9
$ORTHOMODE
 70
     1
  9
$REGENMODE
 70
     1
  9
$FILLMODE
 70
     1
  9
$QTEXTMODE
 70
     0
  9
$MIRRTEXT
 70
     1
  9
$LTSCALE
 40
20.0
  9
$ATTMODE
 70
     1
  9
$TEXTSIZE
 40
3.5
  9
$TRACEWID
 40
0.5
  9
$TEXTSTYLE
  7
STANDARD
  9
$CLAYER
  8
SCHRAFF
  9
$CELTYPE
  6
ByLayer
  9
$CECOLOR
 62
   256
  9
$CELTSCALE
 40
1.0
  9
$DISPSILH
 70
     0
  9
$DIMSCALE
 40
2.0
  9
$DIMASZ
 40
3.5
  9
$DIMEXO
 40
1.0
  9
$DIMDLI
 40
7.0
  9
$DIMRND
 40
0.0
  9
$DIMDLE
 40
0.0
  9
$DIMEXE
 40
1.0
  9
$DIMTP
 40
0.0
  9
$DIMTM
 40
0.0
  9
$DIMTXT
 40
3.5
  9
$DIMCEN
 40
1.5
  9
$DIMTSZ
 40
0.0
  9
$DIMTOL
 70
     0
  9
$DIMLIM
 70
     0
  9
$DIMTIH
 70
     0
  9
$DIMTOH
 70
     0
  9
$DIMSE1
 70
     0
  9
$DIMSE2
 70
     0
  9
$DIMTAD
 70
     1
  9
$DIMZIN
 70
     8
  9
$DIMBLK
  1

  9
$DIMASO
 70
     1
  9
$DIMSHO
 70
     0
  9
$DIMPOST
  1

  9
$DIMAPOST
  1

  9
$DIMALT
 70
     0
  9
$DIMALTD
 70
     2
  9
$DIMALTF
 40
25.4
  9
$DIMLFAC
 40
1.0
  9
$DIMTOFL
 70
     1
  9
$DIMTVP
 40
0.0
  9
$DIMTIX
 70
     0
  9
$DIMSOXD
 70
     0
  9
$DIMSAH
 70
     0
  9
$DIMBLK1
  1

  9
$DIMBLK2
  1

  9
$DIMSTYLE
  2
Standard
  9
$DIMCLRD
 70
     0
  9
$DIMCLRE
 70
     0
  9
$DIMCLRT
 70
     1
  9
$DIMTFAC
 40
0.5142857142857144
  9
$DIMGAP
 40
1.5
  9
$DIMJUST
 70
     0
  9
$DIMSD1
 70
     0
  9
$DIMSD2
 70
     0
  9
$DIMTOLJ
 70
     1
  9
$DIMTZIN
 70
     8
  9
$DIMALTZ
 70
     8
  9
$DIMALTTZ
 70
     8
  9
$DIMUPT
 70
     0
  9
$DIMDEC
 70
     2
  9
$DIMTDEC
 70
     2
  9
$DIMALTU
 70
     2
  9
$DIMALTTD
 70
     2
  9
$DIMTXSTY
  7
STANDARD
  9
$DIMAUNIT
 70
     0
  9
$DIMADEC
 70
     2
  9
$DIMALTRND
 40
0.0
  9
$DIMAZIN
 70
     2
  9
$DIMDSEP
 70
    46
  9
$DIMATFIT
 70
     3
  9
$DIMFRAC
 70
     0
  9
$DIMLDRBLK
  1

  9
$DIMLUNIT
 70
     2
  9
$DIMLWD
 70
    -2
  9
$DIMLWE
 70
    -2
  9
$DIMTMOVE
 70
     0
  9
$LUNITS
 70
     2
  9
$LUPREC
 70
     2
  9
$SKETCHINC
 40
1.0
  9
$FILLETRAD
 40
0.0
  9
$AUNITS
 70
     0
  9
$AUPREC
 70
     0
  9
$MENU
  1
ACAD
  9
$ELEVATION
 40
0.0
  9
$PELEVATION
 40
0.0
  9
$THICKNESS
 40
0.0
  9
$LIMCHECK
 70
     0
  9
$CHAMFERA
 40
0.0
  9
$CHAMFERB
 40
0.0
  9
$CHAMFERC
 40
0.0
  9
$CHAMFERD
 40
0.0
  9
$SKPOLY
 70
     0
  9
$TDCREATE
 40
2455397.823042361
  9
$TDUCREATE
 40
2455397.781375695
  9
$TDUPDATE
 40
2455532.429587199
  9
$TDUUPDATE
 40
2455532.387920532
  9
$TDINDWG
 40
0.0556526042
  9
$TDUSRTIMER
 40
0.0556526042
  9
$USRTIMER
 70
     1
  9
$ANGBASE
 50
0.0
  9
$ANGDIR
 70
     0
  9
$PDMODE
 70
     0
  9
$PDSIZE
 40
0.0
  9
$PLINEWID
 40
0.0
  9
$SPLFRAME
 70
     0
  9
$SPLINETYPE
 70
     6
  9
$SPLINESEGS
 70
     8
  9
$HANDSEED
  5
7B8
  9
$SURFTAB1
 70
     6
  9
$SURFTAB2
 70
     6
  9
$SURFTYPE
 70
     6
  9
$SURFU
 70
     6
  9
$SURFV
 70
     6
  9
$UCSBASE
  2

  9
$UCSNAME
  2

  9
$UCSORG
 10
0.0
 20
0.0
 30
0.0
  9
$UCSXDIR
 10
1.0
 20
0.0
 30
0.0
  9
$UCSYDIR
 10
0.0
 20
1.0
 30
0.0
  9
$UCSORTHOREF
  2

  9
$UCSORTHOVIEW
 70
     0
  9
$UCSORGTOP
 10
0.0
 20
0.0
 30
0.0
  9
$UCSORGBOTTOM
 10
0.0
 20
0.0
 30
0.0
  9
$UCSORGLEFT
 10
0.0
 20
0.0
 30
0.0
  9
$UCSORGRIGHT
 10
0.0
 20
0.0
 30
0.0
  9
$UCSORGFRONT
 10
0.0
 20
0.0
 30
0.0
  9
$UCSORGBACK
 10
0.0
 20
0.0
 30
0.0
  9
$PUCSBASE
  2

  9
$PUCSNAME
  2

  9
$PUCSORG
 10
0.0
 20
0.0
 30
0.0
  9
$PUCSXDIR
 10
1.0
 20
0.0
 30
0.0
  9
$PUCSYDIR
 10
0.0
 20
1.0
 30
0.0
  9
$PUCSORTHOREF
  2

  9
$PUCSORTHOVIEW
 70
     0
  9
$PUCSORGTOP
 10
0.0
 20
0.0
 30
0.0
  9
$PUCSORGBOTTOM
 10
0.0
 20
0.0
 30
0.0
  9
$PUCSORGLEFT
 10
0.0
 20
0.0
 30
0.0
  9
$PUCSORGRIGHT
 10
0.0
 20
0.0
 30
0.0
  9
$PUCSORGFRONT
 10
0.0
 20
0.0
 30
0.0
  9
$PUCSORGBACK
 10
0.0
 20
0.0
 30
0.0
  9
$USERI1
 70
     0
  9
$USERI2
 70
     0
  9
$USERI3
 70
     0
  9
$USERI4
 70
     0
  9
$USERI5
 70
     0
  9
$USERR1
 40
0.0
  9
$USERR2
 40
0.0
  9
$USERR3
 40
0.0
  9
$USERR4
 40
0.0
  9
$USERR5
 40
0.0
  9
$WORLDVIEW
 70
     1
  9
$SHADEDGE
 70
     3
  9
$SHADEDIF
 70
    70
  9
$TILEMODE
 70
     1
  9
$MAXACTVP
 70
    16
  9
$PINSBASE
 10
0.0
 20
0.0
 30
0.0
  9
$PLIMCHECK
 70
     0
  9
$PEXTMIN
 10
1.000000000000000E+20
 20
1.000000000000000E+20
 30
1.000000000000000E+20
  9
$PEXTMAX
 10
-1.000000000000000E+20
 20
-1.000000000000000E+20
 30
-1.000000000000000E+20
  9
$PLIMMIN
 10
0.0
 20
0.0
  9
$PLIMMAX
 10
12.0
 20
9.0
  9
$UNITMODE
 70
     0
  9
$VISRETAIN
 70
     0
  9
$PLINEGEN
 70
     0
  9
$PSLTSCALE
 70
     0
  9
$TREEDEPTH
 70
  3020
  9
$CMLSTYLE
  2
Standard
  9
$CMLJUST
 70
     0
  9
$CMLSCALE
 40
1.0
  9
$PROXYGRAPHICS
 70
     1
  9
$MEASUREMENT
 70
     0
  9
$CELWEIGHT
370
    -1
  9
$ENDCAPS
280
     0
  9
$JOINSTYLE
280
     0
  9
$LWDISPLAY
290
     0
  9
$INSUNITS
 70
     0
  9
$HYPERLINKBASE
  1

  9
$STYLESHEET
  1
monochrome 1.ctb
  9
$XEDIT
290
     1
  9
$CEPSNTYPE
380
     0
  9
$PSTYLEMODE
290
     1
  9
$FINGERPRINTGUID
  2
{D68B0D02-A558-11D7-B632-000102183313}
  9
$VERSIONGUID
  2
{8734BABD-69C0-4274-B210-450A087EDBA0}
  9
$EXTNAMES
290
     1
  9
$PSVPSCALE
 40
0.0
  9
$OLESTARTUP
290
     0
  9
$SORTENTS
280
   127
  9
$INDEXCTL
280
     0
  9
$HIDETEXT
280
     0
  9
$XCLIPFRAME
290
     0
  9
$HALOGAP
280
     0
  9
$OBSCOLOR
 70
   257
  9
$OBSLTYPE
280
     0
  9
$INTERSECTIONDISPLAY
280
     0
  9
$INTERSECTIONCOLOR
 70
   257
  9
$DIMASSOC
280
     1
  9
$PROJECTNAME
  1

  0
ENDSEC
  0
SECTION
  2
CLASSES
  0
CLASS
  1
ACDBDICTIONARYWDFLT
  2
AcDbDictionaryWithDefault
  3
ObjectDBX Classes
 90
        0
 91
        1
280
     0
281
     0
  0
CLASS
  1
DICTIONARYVAR
  2
AcDbDictionaryVar
  3
ObjectDBX Classes
 90
        0
 91
        2
280
     0
281
     0
  0
ENDSEC
  0
SECTION
  2
TABLES
  0
TABLE
  2
VPORT
  5
8
330
0
100
AcDbSymbolTable
 70
     2
  0
VPORT
  5
7B7
330
8
100
AcDbSymbolTableRecord
100
AcDbViewportTableRecord
  2
*Active
 70
     0
 10
0.0
 20
0.0
 11
1.0
 21
1.0
 12
210.0000029338453
 22
297.0000041492956
 13
0.0
 23
0.0
 14
1.0
 24
1.0
 15
10.0
 25
10.0
 16
0.0
 26
0.0
 36
1.0
 17
0.0
 27
0.0
 37
0.0
 40
598.8150392175905
 41
1.336927223719676
 42
50.0
 43
0.0
 44
0.0
 50
0.0
 51
0.0
 71
     0
 72
  1500
 73
     1
 74
     0
 75
     0
 76
     0
 77
     0
 78
     0
281
     0
 65
     1
110
0.0
120
0.0
130
0.0
111
1.0
121
0.0
131
0.0
112
0.0
122
1.0
132
0.0
 79
     0
146
0.0
  0
ENDTAB
  0
TABLE
  2
LTYPE
  5
5
330
0
100
AcDbSymbolTable
 70
     2
  0
LTYPE
  5
13
330
5
100
AcDbSymbolTableRecord
100
AcDbLinetypeTableRecord
  2
ByBlock
 70
     0
  3

 72
    65
 73
     0
 40
0.0
  0
LTYPE
  5
14
330
5
100
AcDbSymbolTableRecord
100
AcDbLinetypeTableRecord
  2
ByLayer
 70
     0
  3

 72
    65
 73
     0
 40
0.0
  0
LTYPE
  5
15
330
5
100
AcDbSymbolTableRecord
100
AcDbLinetypeTableRecord
  2
Continuous
 70
     0
  3
Solid line
 72
    65
 73
     0
 40
0.0
  0
LTYPE
  5
25
330
5
100
AcDbSymbolTableRecord
100
AcDbLinetypeTableRecord
  2
STRICHPUNKT
 70
     0
  3
__ . __ . __ . __ . __ . __ . __ . __ . __ . __
 72
    65
 73
     4
 40
1.0
 49
0.5
 74
     0
 49
-0.25
 74
     0
 49
0.0
 74
     0
 49
-0.25
 74
     0
  0
ENDTAB
  0
TABLE
  2
LAYER
  5
2
330
0
100
AcDbSymbolTable
 70
     9
  0
LAYER
  5
10
330
2
100
AcDbSymbolTableRecord
100
AcDbLayerTableRecord
  2
0
 70
     0
 62
     7
  6
Continuous
370
    -3
390
F
  0
LAYER
  5
2A
330
2
100
AcDbSymbolTableRecord
100
AcDbLayerTableRecord
  2
VOLL
 70
     0
 62
     1
  6
Continuous
370
    -3
390
F
  0
LAYER
  5
2B
330
2
100
AcDbSymbolTableRecord
100
AcDbLayerTableRecord
  2
HILF
 70
     0
 62
     2
  6
Continuous
370
    -3
390
F
  0
LAYER
  5
2C
330
2
100
AcDbSymbolTableRecord
100
AcDbLayerTableRecord
  2
MITTEL
 70
     0
 62
     2
  6
STRICHPUNKT
370
    -3
390
F
  0
LAYER
  5
2F
330
2
100
AcDbSymbolTableRecord
100
AcDbLayerTableRecord
  2
BEM
 70
     0
 62
     7
  6
Continuous
370
    -3
390
F
  0
LAYER
  5
30
330
2
100
AcDbSymbolTableRecord
100
AcDbLayerTableRecord
  2
STEMPEL
 70
     0
 62
     3
  6
Continuous
370
    -3
390
F
  0
LAYER
  5
31
330
2
100
AcDbSymbolTableRecord
100
AcDbLayerTableRecord
  2
TEXT
 70
     0
 62
     7
  6
Continuous
370
    -3
390
F
  0
LAYER
  5
199
330
2
100
AcDbSymbolTableRecord
100
AcDbLayerTableRecord
  2
DEFPOINTS
 70
     0
 62
     7
  6
Continuous
290
     0
370
    -3
390
F
  0
LAYER
  5
19A
330
2
100
AcDbSymbolTableRecord
100
AcDbLayerTableRecord
  2
SCHRAFF
 70
     0
 62
     7
  6
Continuous
370
    -3
390
F
  0
ENDTAB
  0
TABLE
  2
STYLE
  5
3
330
0
100
AcDbSymbolTable
 70
     2
  0
STYLE
  5
11
330
3
100
AcDbSymbolTableRecord
100
AcDbTextStyleTableRecord
  2
STANDARD
 70
     0
 40
0.0
 41
0.8
 50
0.0
 71
     0
 42
3.5
  3
simplex.shx
  4

  0
STYLE
  5
24
330
3
100
AcDbSymbolTableRecord
100
AcDbTextStyleTableRecord
  2
GREEKS
 70
     0
 40
0.0
 41
0.8
 50
0.0
 71
     0
 42
2.5
  3
SIMPLEX.shx
  4

  0
ENDTAB
  0
TABLE
  2
VIEW
  5
6
330
0
100
AcDbSymbolTable
 70
     0
  0
ENDTAB
  0
TABLE
  2
UCS
  5
7
330
0
100
AcDbSymbolTable
 70
     0
  0
ENDTAB
  0
TABLE
  2
APPID
  5
9
330
0
100
AcDbSymbolTable
 70
     1
  0
APPID
  5
12
330
9
100
AcDbSymbolTableRecord
100
AcDbRegAppTableRecord
  2
ACAD
 70
     0
  0
ENDTAB
  0
TABLE
  2
DIMSTYLE
  5
A
330
0
100
AcDbSymbolTable
 70
     1
100
AcDbDimStyleTable
 71
     1
340
9D
  0
DIMSTYLE
105
9D
102
{ACAD_REACTORS
330
545
330
547
330
571
330
78E
102
}
330
A
100
AcDbSymbolTableRecord
100
AcDbDimStyleTableRecord
  2
Standard
 70
     0
340
11
  0
ENDTAB
  0
TABLE
  2
BLOCK_RECORD
  5
1
330
0
100
AcDbSymbolTable
 70
     5
  0
BLOCK_RECORD
  5
1E
102
{ACAD_XDICTIONARY
360
A0
102
}
330
1
100
AcDbSymbolTableRecord
100
AcDbBlockTableRecord
  2
*Model_Space
340
21
  0
BLOCK_RECORD
  5
1A
102
{ACAD_XDICTIONARY
360
A2
102
}
330
1
100
AcDbSymbolTableRecord
100
AcDbBlockTableRecord
  2
*Paper_Space
340
1D
  0
BLOCK_RECORD
  5
22
330
1
100
AcDbSymbolTableRecord
100
AcDbBlockTableRecord
  2
LOGO
340
0
102
{BLKREFS
331
9B
102
}
  0
BLOCK_RECORD
  5
590
330
1
100
AcDbSymbolTableRecord
100
AcDbBlockTableRecord
  2
*D1
340
0
  0
BLOCK_RECORD
  5
5A8
330
1
100
AcDbSymbolTableRecord
100
AcDbBlockTableRecord
  2
*D2
340
0
  0
BLOCK_RECORD
  5
5CE
330
1
100
AcDbSymbolTableRecord
100
AcDbBlockTableRecord
  2
*D3
340
0
  0
BLOCK_RECORD
  5
78F
330
1
100
AcDbSymbolTableRecord
100
AcDbBlockTableRecord
  2
*D4
340
0
  0
ENDTAB
  0
ENDSEC
  0
SECTION
  2
BLOCKS
  0
BLOCK
  5
35
330
1E
100
AcDbEntity
  8
0
100
AcDbBlockBegin
  2
*Model_Space
 70
     0
 10
0.0
 20
0.0
 30
0.0
  3
*Model_Space
  1

  0
ENDBLK
  5
36
330
1E
100
AcDbEntity
  8
0
100
AcDbBlockEnd
  0
BLOCK
  5
33
330
1A
100
AcDbEntity
 67
     1
  8
0
100
AcDbBlockBegin
  2
*Paper_Space
 70
     0
 10
0.0
 20
0.0
 30
0.0
  3
*Paper_Space
  1

  0
ENDBLK
  5
34
330
1A
100
AcDbEntity
 67
     1
  8
0
100
AcDbBlockEnd
  0
BLOCK
  5
37
330
22
100
AcDbEntity
  8
0
100
AcDbBlockBegin
  2
LOGO
 70
     0
 10
0.0
 20
0.0
 30
0.0
  3
LOGO
  1

  0
ARC
  5
38
330
22
100
AcDbEntity
  8
0
100
AcDbCircle
 10
11.59973089678112
 20
-9.271599258481501
 30
0.0
 40
4.5
100
AcDbArc
 50
270.0
 51
231.0575587310159
  0
LINE
  5
39
330
22
100
AcDbEntity
  8
0
100
AcDbLine
 10
3.599730896781125
 20
-4.771599258481529
 30
0.0
 11
3.599730896781153
 21
-11.77159925848133
 31
0.0
  0
LINE
  5
3A
330
22
100
AcDbEntity
  8
0
100
AcDbLine
 10
2.599730896781125
 20
-4.771599258481529
 30
0.0
 11
2.599730896781153
 21
-11.77159925848133
 31
0.0
  0
CIRCLE
  5
3B
330
22
100
AcDbEntity
  8
0
100
AcDbCircle
 10
11.59973089678112
 20
-9.271599258481501
 30
0.0
 40
3.5
  0
ARC
  5
3C
330
22
100
AcDbEntity
  8
0
100
AcDbCircle
 10
31.59973089678115
 20
-9.271599258481472
 30
0.0
 40
4.5
100
AcDbArc
 50
270.0
 51
231.0575587310182
  0
LINE
  5
3D
330
22
100
AcDbEntity
  8
0
100
AcDbLine
 10
17.59973089678112
 20
-4.771599258481472
 30
0.0
 11
17.59973089678115
 21
-13.77159925848147
 31
0.0
  0
ARC
  5
3E
330
22
100
AcDbEntity
  8
0
100
AcDbCircle
 10
22.59973089678116
 20
-7.271599258481472
 30
0.0
 40
2.5
100
AcDbArc
 50
293.1161887722295
 51
90.0
  0
CIRCLE
  5
3F
330
22
100
AcDbEntity
  8
0
100
AcDbCircle
 10
31.59973089678115
 20
-9.271599258481472
 30
0.0
 40
3.5
  0
ARC
  5
40
330
22
100
AcDbEntity
  8
0
100
AcDbCircle
 10
4.599730896781153
 20
-11.77159925848133
 30
0.0
 40
1.0
100
AcDbArc
 50
180.0
 51
270.0
  0
ARC
  5
41
330
22
100
AcDbEntity
  8
0
100
AcDbCircle
 10
4.599730896781153
 20
-11.77159925848133
 30
0.0
 40
2.0
100
AcDbArc
 50
179.9999999999992
 51
270.0
  0
LINE
  5
42
330
22
100
AcDbEntity
  8
0
100
AcDbLine
 10
11.59973089678115
 20
-13.77159925848144
 30
0.0
 11
4.599730896781153
 21
-13.77159925848147
 31
0.0
  0
LINE
  5
43
330
22
100
AcDbEntity
  8
0
100
AcDbLine
 10
8.771303772034769
 20
-12.77159925848136
 30
0.0
 11
4.599730896781153
 21
-12.77159925848133
 31
0.0
  0
LINE
  5
44
330
22
100
AcDbEntity
  8
0
100
AcDbLine
 10
31.59973089678115
 20
-13.77159925848147
 30
0.0
 11
23.6715276665056
 21
-13.77159925848144
 31
0.0
  0
LINE
  5
45
330
22
100
AcDbEntity
  8
0
100
AcDbLine
 10
23.56565672307022
 20
-9.51278021337896
 30
0.0
 11
24.4388546544846
 21
-12.77159925848144
 31
0.0
  0
LINE
  5
46
330
22
100
AcDbEntity
  8
0
100
AcDbLine
 10
22.59973089678116
 20
-9.771599258481472
 30
0.0
 11
18.59973089678112
 21
-9.771599258481472
 31
0.0
  0
LINE
  5
47
330
22
100
AcDbEntity
  8
0
100
AcDbLine
 10
18.59973089678115
 20
-13.77159925848144
 30
0.0
 11
17.59973089678115
 21
-13.77159925848144
 31
0.0
  0
LINE
  5
48
330
22
100
AcDbEntity
  8
0
100
AcDbLine
 10
18.59973089678115
 20
-9.771599258481472
 30
0.0
 11
18.59973089678115
 21
-13.77159925848144
 31
0.0
  0
LINE
  5
49
330
22
100
AcDbEntity
  8
0
100
AcDbLine
 10
22.59973089678116
 20
-9.771599258481472
 30
0.0
 11
23.67152766650562
 21
-13.77159925848147
 31
0.0
  0
ARC
  5
4A
330
22
100
AcDbEntity
  8
0
100
AcDbCircle
 10
22.59973089678116
 20
-7.271599258481472
 30
0.0
 40
2.5
100
AcDbArc
 50
270.0
 51
270.0000000000007
  0
LINE
  5
4B
330
22
100
AcDbEntity
  8
0
100
AcDbLine
 10
28.77130377203494
 20
-12.77159925848147
 30
0.0
 11
24.43885465448463
 21
-12.77159925848144
 31
0.0
  0
LINE
  5
4C
330
22
100
AcDbEntity
  8
0
100
AcDbLine
 10
3.599730896781125
 20
-4.771599258481472
 30
0.0
 11
2.599730896781125
 21
-4.771599258481472
 31
0.0
  0
LINE
  5
4D
330
22
100
AcDbEntity
  8
0
100
AcDbLine
 10
22.59973089678116
 20
-8.771599258481472
 30
0.0
 11
18.59973089678115
 21
-8.771599258481472
 31
0.0
  0
LINE
  5
4E
330
22
100
AcDbEntity
  8
0
100
AcDbLine
 10
22.59973089678116
 20
-5.771599258481472
 30
0.0
 11
18.59973089678115
 21
-5.771599258481472
 31
0.0
  0
LINE
  5
4F
330
22
100
AcDbEntity
  8
0
100
AcDbLine
 10
22.59973089678116
 20
-4.771599258481472
 30
0.0
 11
17.59973089678115
 21
-4.771599258481472
 31
0.0
  0
LINE
  5
50
330
22
100
AcDbEntity
  8
0
100
AcDbLine
 10
18.59973089678115
 20
-5.771599258481472
 30
0.0
 11
18.59973089678115
 21
-8.771599258481472
 31
0.0
  0
ARC
  5
51
330
22
100
AcDbEntity
  8
0
100
AcDbCircle
 10
22.59973089678116
 20
-7.271599258481472
 30
0.0
 40
1.5
100
AcDbArc
 50
270.0
 51
90.0
  0
ENDBLK
  5
52
330
22
100
AcDbEntity
  8
0
100
AcDbBlockEnd
  0
BLOCK
  5
59A
330
590
100
AcDbEntity
  8
0
100
AcDbBlockBegin
  2
*D1
 70
     1
 10
0.0
 20
0.0
 30
0.0
  3
*D1
  1

  0
LINE
  5
5E6
330
590
100
AcDbEntity
  8
BEM
 62
     0
370
    -2
100
AcDbLine
 10
204.0
 20
226.0703902624699
 30
0.0
 11
204.0
 21
200.7754578850551
 31
0.0
  0
LINE
  5
5E7
330
590
100
AcDbEntity
  8
BEM
 62
     0
370
    -2
100
AcDbLine
 10
245.9999999999999
 20
226.0703902624688
 30
0.0
 11
245.9999999999999
 21
200.7754578850551
 31
0.0
  0
LINE
  5
5E8
330
590
100
AcDbEntity
  8
BEM
 62
     0
370
    -2
100
AcDbLine
 10
210.9999999999999
 20
202.7754578850551
 30
0.0
 11
239.0
 21
202.7754578850551
 31
0.0
  0
SOLID
  5
5E9
330
590
100
AcDbEntity
  8
BEM
 62
     0
100
AcDbTrace
 10
210.9999999999999
 20
203.9421245517218
 30
0.0
 11
210.9999999999999
 21
201.6087912183885
 31
0.0
 12
204.0
 22
202.7754578850551
 32
0.0
 13
204.0
 23
202.7754578850551
 33
0.0
  0
SOLID
  5
5EA
330
590
100
AcDbEntity
  8
BEM
 62
     0
100
AcDbTrace
 10
239.0
 20
203.9421245517218
 30
0.0
 11
239.0
 21
201.6087912183885
 31
0.0
 12
245.9999999999999
 22
202.7754578850551
 32
0.0
 13
245.9999999999999
 23
202.7754578850551
 33
0.0
  0
MTEXT
  5
5EB
330
590
100
AcDbEntity
  8
BEM
 62
     1
100
AcDbMText
 10
225.0
 20
209.2754578850551
 30
0.0
 40
7.0
 41
0.0
 71
     5
 72
     1
  1
\A1;%%c42
  7
GREEKS
 73
     1
 44
1.0
  0
POINT
  5
5EC
330
590
100
AcDbEntity
  8
DEFPOINTS
 62
     0
100
AcDbPoint
 10
204.0
 20
228.0703902624699
 30
0.0
  0
POINT
  5
5ED
330
590
100
AcDbEntity
  8
DEFPOINTS
 62
     0
100
AcDbPoint
 10
245.9999999999999
 20
228.0703902624688
 30
0.0
  0
POINT
  5
5EE
330
590
100
AcDbEntity
  8
DEFPOINTS
 62
     0
100
AcDbPoint
 10
245.9999999999999
 20
202.7754578850551
 30
0.0
  0
ENDBLK
  5
59B
330
590
100
AcDbEntity
  8
0
100
AcDbBlockEnd
  0
BLOCK
  5
5B2
330
5A8
100
AcDbEntity
  8
0
100
AcDbBlockBegin
  2
*D2
 70
     1
 10
0.0
 20
0.0
 30
0.0
  3
*D2
  1

  0
LINE
  5
773
330
5A8
100
AcDbEntity
  8
BEM
 62
     0
370
    -2
100
AcDbLine
 10
180.4999999999998
 20
505.1358816768312
 30
0.0
 11
180.4999999999998
 21
516.9184812758653
 31
0.0
  0
LINE
  5
774
330
5A8
100
AcDbEntity
  8
BEM
 62
     0
370
    -2
100
AcDbLine
 10
269.4999999999999
 20
505.1358816768312
 30
0.0
 11
269.4999999999999
 21
516.9184812758653
 31
0.0
  0
LINE
  5
775
330
5A8
100
AcDbEntity
  8
BEM
 62
     0
370
    -2
100
AcDbLine
 10
187.4999999999998
 20
514.9184812758654
 30
0.0
 11
262.5
 21
514.9184812758654
 31
0.0
  0
SOLID
  5
776
330
5A8
100
AcDbEntity
  8
BEM
 62
     0
100
AcDbTrace
 10
187.4999999999998
 20
516.0851479425319
 30
0.0
 11
187.4999999999998
 21
513.7518146091987
 31
0.0
 12
180.4999999999998
 22
514.9184812758654
 32
0.0
 13
180.4999999999998
 23
514.9184812758654
 33
0.0
  0
SOLID
  5
777
330
5A8
100
AcDbEntity
  8
BEM
 62
     0
100
AcDbTrace
 10
262.5
 20
516.0851479425319
 30
0.0
 11
262.5
 21
513.7518146091987
 31
0.0
 12
269.4999999999999
 22
514.9184812758654
 32
0.0
 13
269.4999999999999
 23
514.9184812758654
 33
0.0
  0
MTEXT
  5
778
330
5A8
100
AcDbEntity
  8
BEM
 62
     1
100
AcDbMText
 10
224.9999999999999
 20
521.4184812758653
 30
0.0
 40
7.0
 41
0.0
 71
     5
 72
     1
  1
\A1;%%c89
  7
GREEKS
 73
     1
 44
1.0
  0
POINT
  5
779
330
5A8
100
AcDbEntity
  8
DEFPOINTS
 62
     0
100
AcDbPoint
 10
180.4999999999998
 20
503.1358816768311
 30
0.0
  0
POINT
  5
77A
330
5A8
100
AcDbEntity
  8
DEFPOINTS
 62
     0
100
AcDbPoint
 10
269.4999999999999
 20
503.1358816768312
 30
0.0
  0
POINT
  5
77B
330
5A8
100
AcDbEntity
  8
DEFPOINTS
 62
     0
100
AcDbPoint
 10
269.4999999999999
 20
514.9184812758654
 30
0.0
  0
ENDBLK
  5
5B3
330
5A8
100
AcDbEntity
  8
0
100
AcDbBlockEnd
  0
BLOCK
  5
5D8
330
5CE
100
AcDbEntity
  8
0
100
AcDbBlockBegin
  2
*D3
 70
     1
 10
0.0
 20
0.0
 30
0.0
  3
*D3
  1

  0
LINE
  5
7A4
330
5CE
100
AcDbEntity
  8
BEM
 62
     0
370
    -2
100
AcDbLine
 10
178.4999999999999
 20
503.1358816768312
 30
0.0
 11
147.2946655716792
 21
503.1358816768312
 31
0.0
  0
LINE
  5
7A5
330
5CE
100
AcDbEntity
  8
BEM
 62
     0
370
    -2
100
AcDbLine
 10
202.4317135613145
 20
223.1358816768312
 30
0.0
 11
147.2946655716792
 21
223.1358816768313
 31
0.0
  0
LINE
  5
7A6
330
5CE
100
AcDbEntity
  8
BEM
 62
     0
370
    -2
100
AcDbLine
 10
149.2946655716792
 20
496.1358816768313
 30
0.0
 11
149.2946655716792
 21
230.1358816768312
 31
0.0
  0
SOLID
  5
7A7
330
5CE
100
AcDbEntity
  8
BEM
 62
     0
100
AcDbTrace
 10
148.1279989050126
 20
496.1358816768313
 30
0.0
 11
150.4613322383459
 21
496.1358816768313
 31
0.0
 12
149.2946655716792
 22
503.1358816768312
 32
0.0
 13
149.2946655716792
 23
503.1358816768312
 33
0.0
  0
SOLID
  5
7A8
330
5CE
100
AcDbEntity
  8
BEM
 62
     0
100
AcDbTrace
 10
148.1279989050125
 20
230.1358816768312
 30
0.0
 11
150.4613322383459
 21
230.1358816768312
 31
0.0
 12
149.2946655716792
 22
223.1358816768313
 32
0.0
 13
149.2946655716792
 23
223.1358816768313
 33
0.0
  0
MTEXT
  5
7A9
330
5CE
100
AcDbEntity
  8
BEM
 62
     1
100
AcDbMText
 10
142.7946655716792
 20
363.1358816768313
 30
0.0
 40
7.0
 41
0.0
 71
     5
 72
     1
  1
\A1;1030
  7
GREEKS
 11
0.0000000000000001
 21
1.0
 31
0.0
 73
     1
 44
1.0
  0
POINT
  5
7AA
330
5CE
100
AcDbEntity
  8
DEFPOINTS
 62
     0
100
AcDbPoint
 10
180.4999999999999
 20
503.1358816768312
 30
0.0
  0
POINT
  5
7AB
330
5CE
100
AcDbEntity
  8
DEFPOINTS
 62
     0
100
AcDbPoint
 10
204.4317135613144
 20
223.1358816768312
 30
0.0
  0
POINT
  5
7AC
330
5CE
100
AcDbEntity
  8
DEFPOINTS
 62
     0
100
AcDbPoint
 10
149.2946655716792
 20
223.1358816768313
 30
0.0
  0
ENDBLK
  5
5D9
330
5CE
100
AcDbEntity
  8
0
100
AcDbBlockEnd
  0
BLOCK
  5
799
330
78F
100
AcDbEntity
  8
0
100
AcDbBlockBegin
  2
*D4
 70
     1
 10
0.0
 20
0.0
 30
0.0
  3
*D4
  1

  0
LINE
  5
79B
330
78F
100
AcDbEntity
  8
SCHRAFF
 62
     0
370
    -2
100
AcDbLine
 10
202.4317135613147
 20
223.1358816768312
 30
0.0
 11
162.6986079883651
 21
223.1358816768312
 31
0.0
  0
LINE
  5
79C
330
78F
100
AcDbEntity
  8
SCHRAFF
 62
     0
370
    -2
100
AcDbLine
 10
178.4999999999999
 20
248.1358816768312
 30
0.0
 11
162.6986079883651
 21
248.1358816768312
 31
0.0
  0
LINE
  5
79D
330
78F
100
AcDbEntity
  8
SCHRAFF
 62
     0
370
    -2
100
AcDbLine
 10
164.6986079883651
 20
230.1358816768312
 30
0.0
 11
164.6986079883651
 21
241.1358816768311
 31
0.0
  0
SOLID
  5
79E
330
78F
100
AcDbEntity
  8
SCHRAFF
 62
     0
100
AcDbTrace
 10
163.5319413216985
 20
230.1358816768312
 30
0.0
 11
165.8652746550318
 21
230.1358816768312
 31
0.0
 12
164.6986079883651
 22
223.1358816768312
 32
0.0
 13
164.6986079883651
 23
223.1358816768312
 33
0.0
  0
SOLID
  5
79F
330
78F
100
AcDbEntity
  8
SCHRAFF
 62
     0
100
AcDbTrace
 10
163.5319413216985
 20
241.1358816768311
 30
0.0
 11
165.8652746550318
 21
241.1358816768311
 31
0.0
 12
164.6986079883651
 22
248.1358816768312
 32
0.0
 13
164.6986079883651
 23
248.1358816768312
 33
0.0
  0
MTEXT
  5
7A0
330
78F
100
AcDbEntity
  8
SCHRAFF
 62
     1
100
AcDbMText
 10
158.1986079883651
 20
235.6358816768312
 30
0.0
 40
7.0
 41
0.0
 71
     5
 72
     1
  1
\A1;25
 11
0.0000000000000001
 21
1.0
 31
0.0
 73
     1
 44
1.0
  0
POINT
  5
7A1
330
78F
100
AcDbEntity
  8
DEFPOINTS
 62
     0
100
AcDbPoint
 10
204.4317135613147
 20
223.1358816768312
 30
0.0
  0
POINT
  5
7A2
330
78F
100
AcDbEntity
  8
DEFPOINTS
 62
     0
100
AcDbPoint
 10
180.4999999999999
 20
248.1358816768312
 30
0.0
  0
POINT
  5
7A3
330
78F
100
AcDbEntity
  8
DEFPOINTS
 62
     0
100
AcDbPoint
 10
164.6986079883651
 20
248.1358816768312
 30
0.0
  0
ENDBLK
  5
79A
330
78F
100
AcDbEntity
  8
0
100
AcDbBlockEnd
  0
ENDSEC
  0
SECTION
  2
ENTITIES
  0
LINE
  5
57
330
1E
100
AcDbEntity
  8
STEMPEL
100
AcDbLine
 10
410.0
 20
110.0
 30
0.0
 11
39.99999999999997
 21
110.0
 31
0.0
  0
LINE
  5
58
330
1E
100
AcDbEntity
  8
STEMPEL
100
AcDbLine
 10
136.0000000000001
 20
109.9999999999999
 30
0.0
 11
136.0
 21
9.999999999999971
 31
0.0
  0
LINE
  5
59
330
1E
100
AcDbEntity
  8
STEMPEL
100
AcDbLine
 10
220.0
 20
110.0
 30
0.0
 11
220.0
 21
9.999999999999971
 31
0.0
  0
LINE
  5
5A
330
1E
100
AcDbEntity
  8
STEMPEL
100
AcDbLine
 10
332.0
 20
109.9999999999997
 30
0.0
 11
332.0
 21
40.0
 31
0.0
  0
LINE
  5
5B
330
1E
100
AcDbEntity
  8
STEMPEL
100
AcDbLine
 10
135.9999999999999
 20
29.99999999999997
 30
0.0
 11
39.99999999999997
 21
29.99999999999997
 31
0.0
  0
LINE
  5
5C
330
1E
100
AcDbEntity
  8
STEMPEL
100
AcDbLine
 10
410.0
 20
40.0
 30
0.0
 11
136.0000000000001
 21
39.99999999999997
 31
0.0
  0
LINE
  5
5D
330
1E
100
AcDbEntity
  8
STEMPEL
100
AcDbLine
 10
410.0
 20
80.0
 30
0.0
 11
136.0000000000001
 21
79.99999999999994
 31
0.0
  0
LINE
  5
5E
330
1E
100
AcDbEntity
  8
VOLL
100
AcDbLine
 10
54.00000000000009
 20
110.0
 30
0.0
 11
53.99999999999997
 21
9.999999999999971
 31
0.0
  0
LINE
  5
5F
330
1E
100
AcDbEntity
  8
VOLL
100
AcDbLine
 10
94.00000000000011
 20
109.9999999999999
 30
0.0
 11
94.0
 21
9.999999999999971
 31
0.0
  0
LINE
  5
60
330
1E
100
AcDbEntity
  8
VOLL
100
AcDbLine
 10
114.0000000000001
 20
109.9999999999999
 30
0.0
 11
114.0
 21
9.999999999999971
 31
0.0
  0
LINE
  5
61
330
1E
100
AcDbEntity
  8
VOLL
100
AcDbLine
 10
154.0000000000001
 20
79.99999999999994
 30
0.0
 11
154.0000000000001
 21
39.99999999999997
 31
0.0
  0
LINE
  5
62
330
1E
100
AcDbEntity
  8
VOLL
100
AcDbLine
 10
180.0000000000001
 20
109.9999999999998
 30
0.0
 11
180.0
 21
39.99999999999997
 31
0.0
  0
LINE
  5
63
330
1E
100
AcDbEntity
  8
HILF
100
AcDbLine
 10
40.00000000000008
 20
100.0
 30
0.0
 11
136.0000000000001
 21
100.0
 31
0.0
  0
LINE
  5
64
330
1E
100
AcDbEntity
  8
HILF
100
AcDbLine
 10
40.00000000000008
 20
90.00000000000005
 30
0.0
 11
136.0000000000001
 21
90.00000000000005
 31
0.0
  0
LINE
  5
65
330
1E
100
AcDbEntity
  8
HILF
100
AcDbLine
 10
40.00000000000008
 20
79.99999999999994
 30
0.0
 11
136.0000000000001
 21
79.99999999999994
 31
0.0
  0
LINE
  5
66
330
1E
100
AcDbEntity
  8
HILF
100
AcDbLine
 10
40.00000000000008
 20
69.99999999999994
 30
0.0
 11
136.0000000000001
 21
69.99999999999994
 31
0.0
  0
LINE
  5
67
330
1E
100
AcDbEntity
  8
HILF
100
AcDbLine
 10
40.00000000000008
 20
59.99999999999997
 30
0.0
 11
136.0000000000001
 21
59.99999999999997
 31
0.0
  0
LINE
  5
68
330
1E
100
AcDbEntity
  8
HILF
100
AcDbLine
 10
40.00000000000008
 20
49.99999999999997
 30
0.0
 11
136.0000000000001
 21
49.99999999999997
 31
0.0
  0
LINE
  5
69
330
1E
100
AcDbEntity
  8
HILF
100
AcDbLine
 10
40.00000000000008
 20
39.99999999999997
 30
0.0
 11
136.0000000000001
 21
39.99999999999997
 31
0.0
  0
LINE
  5
6A
330
1E
100
AcDbEntity
  8
HILF
100
AcDbLine
 10
136.0000000000001
 20
69.99999999999994
 30
0.0
 11
220.0
 21
69.99999999999994
 31
0.0
  0
LINE
  5
6B
330
1E
100
AcDbEntity
  8
HILF
100
AcDbLine
 10
136.0000000000001
 20
59.99999999999997
 30
0.0
 11
220.0
 21
59.99999999999997
 31
0.0
  0
LINE
  5
6C
330
1E
100
AcDbEntity
  8
HILF
100
AcDbLine
 10
136.0000000000001
 20
49.99999999999997
 30
0.0
 11
220.0
 21
49.99999999999997
 31
0.0
  0
LINE
  5
6D
330
1E
100
AcDbEntity
  8
HILF
100
AcDbLine
 10
224.7736801096948
 20
84.03758247564139
 30
0.0
 11
324.8353916556311
 21
84.03758247564139
 31
0.0
  0
LINE
  5
6E
330
1E
100
AcDbEntity
  8
HILF
100
AcDbLine
 10
224.7736801096948
 20
69.99999999999994
 30
0.0
 11
324.835391655631
 21
69.99999999999994
 31
0.0
  0
LINE
  5
6F
330
1E
100
AcDbEntity
  8
HILF
100
AcDbLine
 10
224.7736801096948
 20
59.99999999999997
 30
0.0
 11
324.835391655631
 21
59.99999999999997
 31
0.0
  0
LINE
  5
70
330
1E
100
AcDbEntity
  8
HILF
100
AcDbLine
 10
224.7736801096948
 20
49.99999999999997
 30
0.0
 11
324.835391655631
 21
49.99999999999997
 31
0.0
  0
LINE
  5
71
330
1E
100
AcDbEntity
  8
VOLL
100
AcDbLine
 10
332.0
 20
60.0
 30
0.0
 11
410.0
 21
60.0
 31
0.0
  0
LINE
  5
72
330
1E
100
AcDbEntity
  8
HILF
100
AcDbLine
 10
336.7238616296993
 20
83.77983636955827
 30
0.0
 11
404.8588839326728
 21
83.77983636955827
 31
0.0
  0
LINE
  5
73
330
1E
100
AcDbEntity
  8
HILF
100
AcDbLine
 10
223.4909699289885
 20
14.89398258028314
 30
0.0
 11
404.8588839326728
 21
14.89398258028314
 31
0.0
  0
TEXT
  5
74
330
1E
100
AcDbEntity
  8
TEXT
100
AcDbText
 10
63.86165979631819
 20
18.67381894984132
 30
0.0
 40
4.0
  1
Änderung
 41
0.8
  7
GREEKS
 72
     1
 11
74.60451693917534
 21
18.67381894984132
 31
0.0
100
AcDbText
  0
TEXT
  5
75
330
1E
100
AcDbEntity
  8
TEXT
100
AcDbText
 10
143.5163572150377
 20
102.4620895087088
 30
0.0
 40
5.0
  1
Maßstab
 41
0.8
  7
GREEKS
100
AcDbText
  0
TEXT
  5
76
330
1E
100
AcDbEntity
  8
TEXT
100
AcDbText
 10
184.2858954734051
 20
102.4184168434819
 30
0.0
 40
5.0
  1
Zul. Abw.
 41
0.8
  7
GREEKS
100
AcDbText
  0
TEXT
  5
77
330
1E
100
AcDbEntity
  8
TEXT
100
AcDbText
 10
224.877940380901
 20
102.5489328011779
 30
0.0
 40
5.0
  1
Benennung
 41
0.8
  7
GREEKS
100
AcDbText
  0
TEXT
  5
78
330
1E
100
AcDbEntity
  8
TEXT
100
AcDbText
 10
336.178754957634
 20
102.3132034537136
 30
0.0
 40
5.0
  1
Zeichnungs Nr.
 41
0.8
  7
GREEKS
100
AcDbText
  0
TEXT
  5
79
330
1E
100
AcDbEntity
  8
TEXT
100
AcDbText
 10
224.742238391136
 20
30.84560570193057
 30
0.0
 40
5.0
  1
Bauvorhaben
 41
0.8
  7
GREEKS
100
AcDbText
  0
TEXT
  5
7A
330
1E
100
AcDbEntity
  8
TEXT
100
AcDbText
 10
336.7238616296993
 20
73.1811823709997
 30
0.0
 40
5.0
  1
Ersatz für:
 41
0.8
  7
GREEKS
100
AcDbText
  0
TEXT
  5
7B
330
1E
100
AcDbEntity
  8
TEXT
100
AcDbText
 10
48.26641107045756
 20
13.65465846027192
 30
0.0
 40
4.0
  1
Index
 50
90.0
 41
0.8
  7
GREEKS
100
AcDbText
  0
TEXT
  5
7C
330
1E
100
AcDbEntity
  8
TEXT
100
AcDbText
 10
100.0934676075481
 20
18.6715626933981
 30
0.0
 40
4.0
  1
Tag
 41
0.8
  7
GREEKS
 72
     1
 11
103.8268009408814
 21
18.6715626933981
 31
0.0
100
AcDbText
  0
TEXT
  5
7D
330
1E
100
AcDbEntity
  8
TEXT
100
AcDbText
 10
119.0122744386592
 20
18.59324216966408
 30
0.0
 40
4.0
  1
Name
 41
0.8
  7
GREEKS
 72
     1
 11
125.3360839624688
 21
18.59324216966408
 31
0.0
100
AcDbText
  0
TEXT
  5
7E
330
1E
100
AcDbEntity
  8
TEXT
100
AcDbText
 10
162.3311673153651
 20
73.31880501229926
 30
0.0
 40
4.0
  1
Tag
 41
0.8
  7
GREEKS
100
AcDbText
  0
TEXT
  5
7F
330
1E
100
AcDbEntity
  8
TEXT
100
AcDbText
 10
192.4626584226295
 20
73.30961091915225
 30
0.0
 40
4.0
  1
Name
 41
0.8
  7
GREEKS
100
AcDbText
  0
TEXT
  5
80
330
1E
100
AcDbEntity
  8
TEXT
100
AcDbText
 10
137.5836127167615
 20
63.62990369617964
 30
0.0
 40
4.0
  1
Gez.
 41
0.8
  7
GREEKS
100
AcDbText
  0
TEXT
  5
81
330
1E
100
AcDbEntity
  8
TEXT
100
AcDbText
 10
137.5515086571672
 20
53.68926291428377
 30
0.0
 40
4.0
  1
Gepr.
 41
0.8
  7
GREEKS
100
AcDbText
  0
TEXT
  5
82
330
1E
100
AcDbEntity
  8
TEXT
100
AcDbText
 10
137.6006777387304
 20
43.52946389649807
 30
0.0
 40
4.0
  1
Norm.
 41
0.8
  7
GREEKS
100
AcDbText
  0
LINE
  5
83
330
1E
100
AcDbEntity
  8
STEMPEL
100
AcDbLine
 10
49.99999999999989
 20
10.0
 30
0.0
 11
410.0
 21
10.0
 31
0.0
  0
TEXT
  5
84
330
1E
100
AcDbEntity
  8
TEXT
100
AcDbText
 10
337.2400861497006
 20
52.07416177878602
 30
0.0
 40
5.0
  1
ersetzt durch:
 41
0.8
  7
GREEKS
100
AcDbText
  0
LINE
  5
85
330
1E
100
AcDbEntity
  8
STEMPEL
100
AcDbLine
 10
410.0
 20
10.0
 30
0.0
 11
39.99999999999989
 21
10.0
 31
0.0
  0
LINE
  5
86
330
1E
100
AcDbEntity
  8
STEMPEL
100
AcDbLine
 10
410.0
 20
10.0
 30
0.0
 11
410.0
 21
584.0
 31
0.0
  0
LINE
  5
87
330
1E
100
AcDbEntity
  8
STEMPEL
100
AcDbLine
 10
40.0
 20
10.0
 30
0.0
 11
39.99999999999989
 21
584.0
 31
0.0
  0
LINE
  5
88
330
1E
100
AcDbEntity
  8
STEMPEL
100
AcDbLine
 10
410.0
 20
584.0
 30
0.0
 11
39.99999999999989
 21
584.0
 31
0.0
  0
LINE
  5
89
330
1E
100
AcDbEntity
  8
HILF
100
AcDbLine
 10
0.0
 20
0.0
 30
0.0
 11
-0.0000000000001137
 21
594.0
 31
0.0
  0
LINE
  5
8A
330
1E
100
AcDbEntity
  8
HILF
100
AcDbLine
 10
419.9999999999999
 20
594.0000000000002
 30
0.0
 11
0.0
 21
594.0
 31
0.0
  0
LINE
  5
8B
330
1E
100
AcDbEntity
  8
HILF
100
AcDbLine
 10
420.0
 20
0.0
 30
0.0
 11
0.0
 21
0.0
 31
0.0
  0
LINE
  5
8C
330
1E
100
AcDbEntity
  8
HILF
100
AcDbLine
 10
31.08767135713856
 20
297.0
 30
0.0
 11
0.0000000000001137
 21
297.0
 31
0.0
  0
TEXT
  5
8D
330
1E
100
AcDbEntity
  8
TEXT
100
AcDbText
 10
138.622109822104
 20
73.14025471151666
 30
0.0
 40
4.0
  1
2007
 41
0.8
  7
GREEKS
100
AcDbText
  0
LINE
  5
8E
330
1E
100
AcDbEntity
  8
HILF
100
AcDbLine
 10
420.0
 20
-0.0000000000001137
 30
0.0
 11
419.9999999999999
 21
594.0
 31
0.0
  0
TEXT
  5
8F
330
1E
100
AcDbEntity
  8
VOLL
100
AcDbText
 10
78.07675471698113
 20
31.02594776470585
 30
0.0
 40
1.8
  1

  7
GREEKS
100
AcDbText
  0
TEXT
  5
90
330
1E
100
AcDbEntity
  8
TEXT
100
AcDbText
 10
41.85509950977674
 20
111.6719999999999
 30
0.0
 40
5.0
  1
Erstellt mit AUTOCAD 2004
 41
0.8
  7
GREEKS
100
AcDbText
  0
TEXT
  5
91
330
1E
100
AcDbEntity
  8
TEXT
100
AcDbText
 10
194.4216048581257
 20
63.0896391972351
 30
0.0
 40
4.0
  1
Koeh
 41
0.8
  7
GREEKS
 72
     1
 11
199.6787477152685
 21
63.0896391972351
 31
0.0
100
AcDbText
  0
TEXT
  5
92
330
1E
100
AcDbEntity
  8
TEXT
 62
     1
100
AcDbText
 10
346.6730794123524
 20
88.14901428913959
 30
0.0
 40
7.0
  1
58012040W
 41
0.8
  7
GREEKS
 72
     1
 11
370.1397460790191
 21
88.14901428913959
 31
0.0
100
AcDbText
  0
TEXT
  5
93
330
1E
100
AcDbEntity
  8
TEXT
 62
     1
100
AcDbText
 10
150.5006306481887
 20
88.14901428913959
 30
0.0
 40
7.0
  1
1:2
 41
0.8
  7
GREEKS
100
AcDbText
  0
TEXT
  5
94
330
1E
100
AcDbEntity
  8
TEXT
100
AcDbText
 10
160.398997108236
 20
63.10765040825732
 30
0.0
 40
4.0
  1
26.09.
 41
0.8
  7
GREEKS
 72
     1
 11
167.4085209177598
 21
63.10765040825732
 31
0.0
100
AcDbText
  0
TEXT
  5
95
330
1E
100
AcDbEntity
  8
TEXT
 62
     1
100
AcDbText
 10
226.8935731057402
 20
87.41748789253779
 30
0.0
 40
7.0
  1
Verbundrohr DN40
 41
0.8
  7
GREEKS
100
AcDbText
  0
TEXT
  5
96
330
1E
100
AcDbEntity
  8
TEXT
100
AcDbText
 10
225.1296391125315
 20
71.50334417585288
 30
0.0
 40
5.0
  1
1000mm lang
 41
0.8
  7
GREEKS
100
AcDbText
  0
TEXT
  5
98
330
1E
100
AcDbEntity
  8
TEXT
100
AcDbText
 10
225.1296391125315
 20
51.64011943042158
 30
0.0
 40
5.0
  1
EDV-Art.Nr. 58012.040X
 41
0.8
  7
GREEKS
100
AcDbText
  0
TEXT
  5
99
330
1E
100
AcDbEntity
  8
TEXT
100
AcDbText
 10
224.9837501577827
 20
42.62974153022632
 30
0.0
 40
4.0
  1
58012040W.DWG
 41
0.8
  7
GREEKS
100
AcDbText
  0
TEXT
  5
9A
330
1E
100
AcDbEntity
  8
TEXT
100
AcDbText
 10
182.626132208084
 20
90.76363841023022
 30
0.0
 40
4.0
  1
DIN EN1123-2
 41
0.8
  7
GREEKS
 72
     1
 11
199.6166083985602
 21
90.76363841023022
 31
0.0
100
AcDbText
  0
INSERT
  5
9B
330
1E
100
AcDbEntity
  8
STEMPEL
100
AcDbBlockReference
  2
LOGO
 10
140.9955485457794
 20
45.02105276448322
 30
0.0
 41
2.0
 42
2.0
 43
2.0
  0
TEXT
  5
118
330
1E
100
AcDbEntity
  8
TEXT
100
AcDbText
 10
417.3022923857165
 20
10.16790107998849
 30
0.0
 40
4.0
  1
Diese Zeichnung ist urheberrechtlich geschützt und bleibt unser Eigentum. Sie darf weder ganz noch teilweise verfielfältigt und nicht an Dritte weitergegeben werden.
 50
90.0
 41
0.8
  7
GREEKS
100
AcDbText
  0
TEXT
  5
3D8
330
1E
100
AcDbEntity
  8
TEXT
 62
     1
100
AcDbText
 10
193.6033828683802
 20
152.364339848487
 30
0.0
 40
7.0
  1
Außenrohr: E195 EN10305 feuerverzinkt
 41
0.8
  7
GREEKS
100
AcDbText
  0
TEXT
  5
3D9
330
1E
100
AcDbEntity
  8
TEXT
 62
     1
100
AcDbText
 10
197.3756002392442
 20
141.011271812132
 30
0.0
 40
7.0
  1
Innenrohr: E195 EN10305 feuerverzinkt
 41
0.8
  7
GREEKS
100
AcDbText
  0
TEXT
  5
3DA
330
1E
100
AcDbEntity
  8
TEXT
 62
     1
100
AcDbText
 10
189.8811895945471
 20
117.1473825875242
 30
0.0
 40
7.0
  1
Dämmung: 2 K-PU-Schaum
 41
0.8
  7
GREEKS
100
AcDbText
  0
TEXT
  5
3DB
330
1E
100
AcDbEntity
  8
TEXT
 62
     1
100
AcDbText
 10
245.030129115258
 20
129.7422179729062
 30
0.0
 40
7.0
  1
und innenbeschichtet
 41
0.8
  7
GREEKS
100
AcDbText
  0
TEXT
  5
478
330
1E
100
AcDbEntity
  8
TEXT
 62
     1
100
AcDbText
 10
218.868147951383
 20
440.875855269093
 30
0.0
 40
7.0
  1
DN40
 50
90.0
 41
0.8
  7
GREEKS
100
AcDbText
  0
DIMENSION
  5
545
330
1E
100
AcDbEntity
  8
BEM
100
AcDbDimension
  2
*D1
 10
245.9999999999999
 20
202.7754578850551
 30
0.0
 11
225.0
 21
209.2754578850551
 31
0.0
 70
    32
  1
%%c<>
 71
     5
 42
42.0
  3
Standard
100
AcDbAlignedDimension
 13
204.0
 23
228.0703902624699
 33
0.0
 14
245.9999999999999
 24
228.0703902624688
 34
0.0
100
AcDbRotatedDimension
1001
ACAD
1000
DSTYLE
1002
{
1070
    40
1040
2.0
1070
    41
1040
3.5
1070
    42
1040
1.0
1070
    43
1040
7.0
1070
    44
1040
1.0
1070
    73
1070
     0
1070
    74
1070
     0
1070
    77
1070
     1
1070
    78
1070
     8
1070
    79
1070
     2
1070
   140
1040
3.5
1070
   141
1040
1.5
1070
   146
1040
0.5142857142857144
1070
   147
1040
1.5
1070
   172
1070
     1
1070
   178
1070
     1
1070
   179
1070
     2
1070
   271
1070
     2
1070
   272
1070
     2
1070
   284
1070
     8
1070
   285
1070
     8
1070
   286
1070
     8
1070
   289
1070
     0
1070
   340
1005
24
1002
}
  0
DIMENSION
  5
547
330
1E
100
AcDbEntity
  8
BEM
100
AcDbDimension
  2
*D2
 10
269.4999999999999
 20
514.9184812758654
 30
0.0
 11
224.9999999999999
 21
521.4184812758653
 31
0.0
 70
    32
  1
%%c<>
 71
     5
 42
89.00000000000011
  3
Standard
100
AcDbAlignedDimension
 13
180.4999999999998
 23
503.1358816768311
 33
0.0
 14
269.4999999999999
 24
503.1358816768312
 34
0.0
100
AcDbRotatedDimension
1001
ACAD
1000
DSTYLE
1002
{
1070
    40
1040
2.0
1070
    41
1040
3.5
1070
    42
1040
1.0
1070
    43
1040
7.0
1070
    44
1040
1.0
1070
    73
1070
     0
1070
    74
1070
     0
1070
    77
1070
     1
1070
    78
1070
     8
1070
    79
1070
     2
1070
   140
1040
3.5
1070
   141
1040
1.5
1070
   146
1040
0.5142857142857144
1070
   147
1040
1.5
1070
   172
1070
     1
1070
   178
1070
     1
1070
   179
1070
     2
1070
   271
1070
     2
1070
   272
1070
     2
1070
   284
1070
     8
1070
   285
1070
     8
1070
   286
1070
     8
1070
   289
1070
     0
1070
   340
1005
24
1002
}
  0
HATCH
  5
54B
330
1E
100
AcDbEntity
  8
SCHRAFF
100
AcDbHatch
 10
0.0
 20
0.0
 30
0.0
210
0.0
220
0.0
230
1.0
  2
NET
 70
     0
 71
     1
 91
        2
 92
        7
 72
     1
 73
     1
 93
        7
 10
199.6407174431024
 20
489.1358816768311
 42
-0.0296659389587109
 10
199.5001551837346
 20
491.5028816768311
 42
0.0
 10
199.5000000000001
 20
491.5028816768311
 42
0.0
 10
199.4999999999999
 20
496.5937013564225
 42
-0.1022785704675312
 10
200.8523969996814
 20
503.1358816768311
 42
0.0
 10
182.0999999999998
 20
503.1358816768312
 42
0.0
 10
182.0999999999999
 20
489.1358816768311
 42
0.0
 97
        7
330
56F
330
551
330
555
330
567
330
56E
330
56D
330
56B
 92
        7
 72
     1
 73
     1
 93
        7
 10
267.8999999999999
 20
489.1358816768312
 42
0.0
 10
267.8999999999999
 20
503.1358816768313
 42
0.0
 10
249.1476030003184
 20
503.1358816768312
 42
-0.1022785704675304
 10
250.4999999999999
 20
496.5937013564227
 42
0.0
 10
250.5
 20
491.5028816768312
 42
0.0
 10
250.4998448162652
 20
491.5028816768311
 42
-0.0296659389587102
 10
250.3592825568975
 20
489.1358816768311
 42
0.0
 97
        7
330
551
330
58E
330
587
330
589
330
58B
330
586
330
573
 75
     0
 76
     1
 52
45.0
 41
20.0
 77
     0
 78
     2
 53
45.0
 43
-346.2309721046156
 44
0.0
 45
-1.767766952966368
 46
1.767766952966368
 79
     0
 53
135.0
 43
-346.2309721046156
 44
0.0
 45
-1.767766952966368
 46
-1.767766952966368
 79
     0
 47
0.6514476771304384
 98
        2
 10
192.6641732494807
 20
495.0981024373843
 10
259.1556265741659
 20
495.0981024373843
  0
LINE
  5
54F
330
1E
100
AcDbEntity
  8
HILF
100
AcDbLine
 10
207.005729756315
 20
228.1358816768312
 30
0.0
 11
242.994270243685
 21
228.1358816768312
 31
0.0
  0
LINE
  5
550
102
{ACAD_REACTORS
330
6BC
102
}
330
1E
100
AcDbEntity
  8
STEMPEL
100
AcDbLine
 10
204.4317135613147
 20
223.1358816768312
 30
0.0
 11
245.5682864386854
 21
223.1358816768312
 31
0.0
  0
LINE
  5
551
102
{ACAD_REACTORS
330
54B
330
6BC
330
6D4
102
}
330
1E
100
AcDbEntity
  8
STEMPEL
100
AcDbLine
 10
269.4999999999999
 20
503.1358816768312
 30
0.0
 11
180.4999999999998
 21
503.1358816768311
 31
0.0
  0
LINE
  5
552
330
1E
100
AcDbEntity
  8
HILF
100
AcDbLine
 10
203.8722210573761
 20
483.9541019742771
 30
0.0
 11
246.1277789426239
 21
483.9541019742771
 31
0.0
  0
LINE
  5
553
330
1E
100
AcDbEntity
  8
HILF
100
AcDbLine
 10
204.501803134715
 20
475.3551242056204
 30
0.0
 11
245.498196865285
 21
475.3551242056204
 31
0.0
  0
LINE
  5
554
330
1E
100
AcDbEntity
  8
HILF
100
AcDbLine
 10
206.7021010394041
 20
470.926724638098
 30
0.0
 11
243.2978989605958
 21
470.926724638098
 31
0.0
  0
LINE
  5
555
102
{ACAD_REACTORS
330
54B
330
6D4
330
702
102
}
330
1E
100
AcDbEntity
  8
STEMPEL
100
AcDbLine
 10
182.0999999999998
 20
503.135881676831
 30
0.0
 11
182.0999999999999
 21
393.9851797279619
 31
0.0
  0
LINE
  5
556
102
{ACAD_REACTORS
330
6D4
102
}
330
1E
100
AcDbEntity
  8
STEMPEL
100
AcDbLine
 10
180.4999999999998
 20
503.135881676831
 30
0.0
 11
180.4999999999999
 21
393.7969385751093
 31
0.0
  0
LINE
  5
557
102
{ACAD_REACTORS
330
6BC
102
}
330
1E
100
AcDbEntity
  8
STEMPEL
100
AcDbLine
 10
205.4999999999999
 20
468.6303280042388
 30
0.0
 11
205.5
 21
395.4912584223358
 31
0.0
  0
LINE
  5
558
102
{ACAD_REACTORS
330
6BC
330
702
102
}
330
1E
100
AcDbEntity
  8
STEMPEL
100
AcDbLine
 10
204.0
 20
468.6303280042388
 30
0.0
 11
203.9999999999999
 21
395.498452986443
 31
0.0
  0
LINE
  5
55A
102
{ACAD_REACTORS
330
6D4
102
}
330
1E
100
AcDbEntity
  8
STEMPEL
100
AcDbLine
 10
182.1
 20
248.1358816768312
 30
0.0
 11
180.5000000000001
 21
248.1358816768312
 31
0.0
  0
LINE
  5
55B
102
{ACAD_REACTORS
330
6BC
102
}
330
1E
100
AcDbEntity
  8
STEMPEL
100
AcDbLine
 10
204.0
 20
228.0703902624699
 30
0.0
 11
204.4317135613147
 21
223.1358816768312
 31
0.0
  0
LINE
  5
55C
102
{ACAD_REACTORS
330
6BC
102
}
330
1E
100
AcDbEntity
  8
STEMPEL
100
AcDbLine
 10
205.4999999999999
 20
228.1358816768312
 30
0.0
 11
205.9374433176296
 21
223.1358816768311
 31
0.0
  0
LINE
  5
55D
102
{ACAD_REACTORS
330
702
102
}
330
1E
100
AcDbEntity
  8
STEMPEL
100
AcDbLine
 10
182.0999999999999
 20
264.1358816768311
 30
0.0
 11
203.9999999999998
 21
264.1358816768311
 31
0.0
  0
LINE
  5
55E
330
1E
100
AcDbEntity
  8
STEMPEL
100
AcDbLine
 10
200.4999999999999
 20
254.1358816768312
 30
0.0
 11
203.9999999999998
 21
254.1358816768312
 31
0.0
  0
ARC
  5
55F
102
{ACAD_REACTORS
330
6BC
102
}
330
1E
100
AcDbEntity
  8
STEMPEL
100
AcDbCircle
 10
190.9999999999999
 20
482.135881676831
 30
0.0
 40
11.5
100
AcDbArc
 50
0.0
 51
18.19397059838281
  0
ARC
  5
560
102
{ACAD_REACTORS
330
6BC
330
702
102
}
330
1E
100
AcDbEntity
  8
STEMPEL
100
AcDbCircle
 10
190.9999999999999
 20
482.135881676831
 30
0.0
 40
10.0
100
AcDbArc
 50
0.0
 51
18.19397059838281
  0
ARC
  5
561
102
{ACAD_REACTORS
330
6BC
330
702
102
}
330
1E
100
AcDbEntity
  8
STEMPEL
100
AcDbCircle
 10
210.9999999999999
 20
477.9577070573274
 30
0.0
 40
10.0
100
AcDbArc
 50
180.0
 51
215.6590876961402
  0
LINE
  5
562
102
{ACAD_REACTORS
330
6BC
330
702
102
}
330
1E
100
AcDbEntity
  8
STEMPEL
100
AcDbLine
 10
200.9999999999999
 20
482.135881676831
 30
0.0
 11
200.9999999999999
 21
477.9577070573274
 31
0.0
  0
ARC
  5
563
102
{ACAD_REACTORS
330
6BC
330
702
102
}
330
1E
100
AcDbEntity
  8
STEMPEL
100
AcDbCircle
 10
197.9999999999999
 20
468.6303280042388
 30
0.0
 40
6.0
100
AcDbArc
 50
0.0
 51
35.65908769614022
  0
ARC
  5
564
102
{ACAD_REACTORS
330
6BC
102
}
330
1E
100
AcDbEntity
  8
STEMPEL
100
AcDbCircle
 10
197.9999999999999
 20
468.6303280042388
 30
0.0
 40
7.5
100
AcDbArc
 50
0.0
 51
35.65908769614022
  0
LINE
  5
565
102
{ACAD_REACTORS
330
6BC
102
}
330
1E
100
AcDbEntity
  8
STEMPEL
100
AcDbLine
 10
202.4999999999999
 20
482.135881676831
 30
0.0
 11
202.4999999999999
 21
477.9577070573274
 31
0.0
  0
ARC
  5
566
102
{ACAD_REACTORS
330
6BC
102
}
330
1E
100
AcDbEntity
  8
STEMPEL
100
AcDbCircle
 10
210.9999999999999
 20
477.9577070573274
 30
0.0
 40
8.5
100
AcDbArc
 50
180.0
 51
215.6590876961402
  0
LINE
  5
567
102
{ACAD_REACTORS
330
54B
330
702
102
}
330
1E
100
AcDbEntity
  8
STEMPEL
100
AcDbLine
 10
199.6407174431024
 20
489.1358816768311
 30
0.0
 11
182.0999999999997
 21
489.1358816768311
 31
0.0
  0
ARC
  5
568
102
{ACAD_REACTORS
330
6BC
102
}
330
1E
100
AcDbEntity
  8
STEMPEL
100
AcDbCircle
 10
216.0
 20
496.5937013564227
 30
0.0
 40
15.0
100
AcDbArc
 50
155.0000000000079
 51
180.0
  0
ARC
  5
569
102
{ACAD_REACTORS
330
6BC
102
}
330
1E
100
AcDbEntity
  8
STEMPEL
100
AcDbCircle
 10
219.4999999999999
 20
491.5028816768311
 30
0.0
 40
18.49984481626528
100
AcDbArc
 50
180.0
 51
198.1939705983828
  0
LINE
  5
56A
102
{ACAD_REACTORS
330
6BC
102
}
330
1E
100
AcDbEntity
  8
STEMPEL
100
AcDbLine
 10
200.9999999999999
 20
496.5937013564227
 30
0.0
 11
200.9999999999999
 21
491.5028816768311
 31
0.0
  0
LINE
  5
56B
102
{ACAD_REACTORS
330
54B
330
6BC
102
}
330
1E
100
AcDbEntity
  8
STEMPEL
100
AcDbLine
 10
199.4999999999999
 20
496.5937013564225
 30
0.0
 11
199.5
 21
491.5028816768311
 31
0.0
  0
LINE
  5
56C
102
{ACAD_REACTORS
330
6BC
102
}
330
1E
100
AcDbEntity
  8
STEMPEL
100
AcDbLine
 10
201.0001551837346
 20
491.5028816768311
 30
0.0
 11
201.0000000000001
 21
491.5028816768311
 31
0.0
  0
LINE
  5
56D
102
{ACAD_REACTORS
330
54B
330
6BC
102
}
330
1E
100
AcDbEntity
  8
STEMPEL
100
AcDbLine
 10
199.5001551837346
 20
491.5028816768311
 30
0.0
 11
199.4999999999999
 21
491.5028816768311
 31
0.0
  0
ARC
  5
56E
102
{ACAD_REACTORS
330
54B
330
6BC
330
702
102
}
330
1E
100
AcDbEntity
  8
STEMPEL
100
AcDbCircle
 10
219.4999999999999
 20
491.5028816768311
 30
0.0
 40
19.99984481626531
100
AcDbArc
 50
180.0
 51
198.1939705983828
  0
ARC
  5
56F
102
{ACAD_REACTORS
330
54B
330
6BC
102
}
330
1E
100
AcDbEntity
  8
STEMPEL
100
AcDbCircle
 10
216.0
 20
496.5937013564227
 30
0.0
 40
16.5
100
AcDbArc
 50
156.6407054553644
 51
180.0
  0
LINE
  5
570
102
{ACAD_REACTORS
330
6BC
102
}
330
1E
100
AcDbEntity
  8
STEMPEL
100
AcDbLine
 10
202.4999999999999
 20
503.1358816768311
 30
0.0
 11
202.4053831944503
 21
502.9329752825331
 31
0.0
  0
DIMENSION
  5
571
330
1E
100
AcDbEntity
  8
BEM
100
AcDbDimension
  2
*D3
 10
149.2946655716792
 20
223.1358816768313
 30
0.0
 11
142.7946655716792
 21
363.1358816768313
 31
0.0
 70
    32
  1
1030
 71
     5
 42
280.0000000000001
  3
Standard
100
AcDbAlignedDimension
 13
180.4999999999999
 23
503.1358816768312
 33
0.0
 14
204.4317135613144
 24
223.1358816768312
 34
0.0
 50
90.0
100
AcDbRotatedDimension
1001
ACAD
1000
DSTYLE
1002
{
1070
    40
1040
2.0
1070
    41
1040
3.5
1070
    42
1040
1.0
1070
    43
1040
7.0
1070
    44
1040
1.0
1070
    73
1070
     0
1070
    74
1070
     0
1070
    77
1070
     1
1070
    78
1070
     8
1070
    79
1070
     2
1070
   140
1040
3.5
1070
   141
1040
1.5
1070
   146
1040
0.5142857142857144
1070
   147
1040
1.5
1070
   172
1070
     1
1070
   178
1070
     1
1070
   179
1070
     2
1070
   271
1070
     2
1070
   272
1070
     2
1070
   284
1070
     8
1070
   285
1070
     8
1070
   286
1070
     8
1070
   289
1070
     0
1070
   340
1005
24
1002
}
  0
LINE
  5
573
102
{ACAD_REACTORS
330
54B
330
6D4
330
702
102
}
330
1E
100
AcDbEntity
  8
STEMPEL
100
AcDbLine
 10
267.8999999999999
 20
503.1358816768312
 30
0.0
 11
267.8999999999998
 21
393.6086974222567
 31
0.0
  0
LINE
  5
574
102
{ACAD_REACTORS
330
6D4
102
}
330
1E
100
AcDbEntity
  8
STEMPEL
100
AcDbLine
 10
269.4999999999999
 20
503.1358816768312
 30
0.0
 11
269.4999999999999
 21
393.7969385751093
 31
0.0
  0
LINE
  5
575
330
1E
100
AcDbEntity
  8
MITTEL
100
AcDbLine
 10
225.0
 20
508.1358816768311
 30
0.0
 11
225.0
 21
218.1358816768311
 31
0.0
  0
LINE
  5
576
102
{ACAD_REACTORS
330
6BC
330
702
102
}
330
1E
100
AcDbEntity
  8
STEMPEL
100
AcDbLine
 10
245.9999999999999
 20
468.6303280042388
 30
0.0
 11
245.9999999999999
 21
392.0954241637758
 31
0.0
  0
LINE
  5
577
102
{ACAD_REACTORS
330
6BC
102
}
330
1E
100
AcDbEntity
  8
STEMPEL
100
AcDbLine
 10
244.4999999999999
 20
468.6303280042388
 30
0.0
 11
244.4999999999998
 21
392.1026187278829
 31
0.0
  0
LINE
  5
579
102
{ACAD_REACTORS
330
6D4
102
}
330
1E
100
AcDbEntity
  8
STEMPEL
100
AcDbLine
 10
269.5000000000003
 20
248.1358816768313
 30
0.0
 11
267.8999999999998
 21
248.1358816768313
 31
0.0
  0
LINE
  5
57A
102
{ACAD_REACTORS
330
6BC
102
}
330
1E
100
AcDbEntity
  8
STEMPEL
100
AcDbLine
 10
244.4999999999997
 20
228.1358816768301
 30
0.0
 11
244.0625566823702
 21
223.1358816768311
 31
0.0
  0
LINE
  5
57B
102
{ACAD_REACTORS
330
6BC
102
}
330
1E
100
AcDbEntity
  8
STEMPEL
100
AcDbLine
 10
245.9999999999999
 20
228.0703902624688
 30
0.0
 11
245.5682864386854
 21
223.1358816768312
 31
0.0
  0
LINE
  5
57C
102
{ACAD_REACTORS
330
702
102
}
330
1E
100
AcDbEntity
  8
STEMPEL
100
AcDbLine
 10
246.0
 20
264.1358816768311
 30
0.0
 11
267.8999999999998
 21
264.1358816768311
 31
0.0
  0
LINE
  5
57D
330
1E
100
AcDbEntity
  8
STEMPEL
100
AcDbLine
 10
246.0
 20
254.1358816768312
 30
0.0
 11
249.5
 21
254.1358816768312
 31
0.0
  0
ARC
  5
57E
102
{ACAD_REACTORS
330
6BC
330
702
102
}
330
1E
100
AcDbEntity
  8
STEMPEL
100
AcDbCircle
 10
258.9999999999999
 20
482.135881676831
 30
0.0
 40
10.0
100
AcDbArc
 50
161.8060294016172
 51
180.0
  0
ARC
  5
57F
102
{ACAD_REACTORS
330
6BC
102
}
330
1E
100
AcDbEntity
  8
STEMPEL
100
AcDbCircle
 10
258.9999999999999
 20
482.135881676831
 30
0.0
 40
11.5
100
AcDbArc
 50
161.8060294016172
 51
180.0
  0
ARC
  5
580
102
{ACAD_REACTORS
330
6BC
102
}
330
1E
100
AcDbEntity
  8
STEMPEL
100
AcDbCircle
 10
252.0
 20
468.6303280042388
 30
0.0
 40
7.5
100
AcDbArc
 50
144.3409123038598
 51
180.0
  0
ARC
  5
581
102
{ACAD_REACTORS
330
6BC
330
702
102
}
330
1E
100
AcDbEntity
  8
STEMPEL
100
AcDbCircle
 10
252.0
 20
468.6303280042388
 30
0.0
 40
6.0
100
AcDbArc
 50
144.3409123038598
 51
180.0
  0
ARC
  5
582
102
{ACAD_REACTORS
330
6BC
102
}
330
1E
100
AcDbEntity
  8
STEMPEL
100
AcDbCircle
 10
239.0
 20
477.9577070573274
 30
0.0
 40
8.5
100
AcDbArc
 50
324.3409123038598
 51
0.0
  0
LINE
  5
583
102
{ACAD_REACTORS
330
6BC
102
}
330
1E
100
AcDbEntity
  8
STEMPEL
100
AcDbLine
 10
247.5
 20
482.135881676831
 30
0.0
 11
247.5
 21
477.9577070573274
 31
0.0
  0
LINE
  5
584
102
{ACAD_REACTORS
330
6BC
330
702
102
}
330
1E
100
AcDbEntity
  8
STEMPEL
100
AcDbLine
 10
248.9999999999999
 20
482.135881676831
 30
0.0
 11
248.9999999999999
 21
477.9577070573274
 31
0.0
  0
ARC
  5
585
102
{ACAD_REACTORS
330
6BC
330
702
102
}
330
1E
100
AcDbEntity
  8
STEMPEL
100
AcDbCircle
 10
239.0
 20
477.9577070573274
 30
0.0
 40
10.0
100
AcDbArc
 50
324.3409123038598
 51
0.0
  0
LINE
  5
586
102
{ACAD_REACTORS
330
54B
330
702
102
}
330
1E
100
AcDbEntity
  8
STEMPEL
100
AcDbLine
 10
267.8999999999998
 20
489.1358816768311
 30
0.0
 11
250.3592825568974
 21
489.1358816768311
 31
0.0
  0
LINE
  5
587
102
{ACAD_REACTORS
330
54B
330
6BC
102
}
330
1E
100
AcDbEntity
  8
STEMPEL
100
AcDbLine
 10
250.4999999999999
 20
496.5937013564224
 30
0.0
 11
250.4999999999999
 21
491.5028816768311
 31
0.0
  0
LINE
  5
588
102
{ACAD_REACTORS
330
6BC
102
}
330
1E
100
AcDbEntity
  8
STEMPEL
100
AcDbLine
 10
248.9999999999999
 20
496.5937013564226
 30
0.0
 11
248.9999999999999
 21
491.5028816768311
 31
0.0
  0
LINE
  5
589
102
{ACAD_REACTORS
330
54B
330
6BC
102
}
330
1E
100
AcDbEntity
  8
STEMPEL
100
AcDbLine
 10
250.4998448162652
 20
491.5028816768311
 30
0.0
 11
250.4999999999999
 21
491.5028816768311
 31
0.0
  0
LINE
  5
58A
102
{ACAD_REACTORS
330
6BC
102
}
330
1E
100
AcDbEntity
  8
STEMPEL
100
AcDbLine
 10
248.9998448162652
 20
491.5028816768311
 30
0.0
 11
248.9999999999999
 21
491.5028816768311
 31
0.0
  0
ARC
  5
58B
102
{ACAD_REACTORS
330
54B
330
6BC
330
702
102
}
330
1E
100
AcDbEntity
  8
STEMPEL
100
AcDbCircle
 10
230.4999999999999
 20
491.5028816768311
 30
0.0
 40
19.99984481626531
100
AcDbArc
 50
341.8060294016172
 51
0.0
  0
ARC
  5
58C
102
{ACAD_REACTORS
330
6BC
102
}
330
1E
100
AcDbEntity
  8
STEMPEL
100
AcDbCircle
 10
230.4999999999999
 20
491.5028816768311
 30
0.0
 40
18.49984481626528
100
AcDbArc
 50
341.8060294016172
 51
0.0
  0
LINE
  5
58D
102
{ACAD_REACTORS
330
6BC
102
}
330
1E
100
AcDbEntity
  8
STEMPEL
100
AcDbLine
 10
247.5
 20
503.1358816768311
 30
0.0
 11
247.5946168055497
 21
502.9329752825331
 31
0.0
  0
ARC
  5
58E
102
{ACAD_REACTORS
330
54B
330
6BC
102
}
330
1E
100
AcDbEntity
  8
STEMPEL
100
AcDbCircle
 10
233.9999999999999
 20
496.5937013564227
 30
0.0
 40
16.5
100
AcDbArc
 50
0.0
 51
23.35929454463556
  0
ARC
  5
58F
102
{ACAD_REACTORS
330
6BC
102
}
330
1E
100
AcDbEntity
  8
STEMPEL
100
AcDbCircle
 10
233.9999999999999
 20
496.5937013564227
 30
0.0
 40
15.0
100
AcDbArc
 50
0.0
 51
24.99999999999207
  0
POLYLINE
  5
63C
102
{ACAD_REACTORS
330
6BC
330
6D4
330
702
102
}
330
1E
100
AcDbEntity
  8
HILF
100
AcDb2dPolyline
 66
     1
 10
0.0
 20
0.0
 30
0.0
 70
     4
 75
     6
  0
VERTEX
  5
63D
330
63C
100
AcDbEntity
  8
HILF
100
AcDbVertex
100
AcDb2dVertex
 10
180.4999999999998
 20
393.7969385751093
 30
0.0
 70
    16
  0
VERTEX
  5
643
330
63C
100
AcDbEntity
  8
HILF
100
AcDbVertex
100
AcDb2dVertex
 10
180.4999999999998
 20
393.7969385751093
 30
0.0
 70
     8
  0
VERTEX
  5
645
330
63C
100
AcDbEntity
  8
HILF
100
AcDbVertex
100
AcDb2dVertex
 10
188.3439941406248
 20
394.7197901376093
 30
0.0
 70
     8
  0
VERTEX
  5
646
330
63C
100
AcDbEntity
  8
HILF
100
AcDbVertex
100
AcDb2dVertex
 10
195.2753906249999
 20
395.2735010751093
 30
0.0
 70
     8
  0
VERTEX
  5
647
330
63C
100
AcDbEntity
  8
HILF
100
AcDbVertex
100
AcDb2dVertex
 10
201.4245605468749
 20
395.5108057626093
 30
0.0
 70
     8
  0
VERTEX
  5
648
330
63C
100
AcDbEntity
  8
HILF
100
AcDbVertex
100
AcDb2dVertex
 10
206.9218749999999
 20
395.4844385751093
 30
0.0
 70
     8
  0
VERTEX
  5
649
330
63C
100
AcDbEntity
  8
HILF
100
AcDbVertex
100
AcDb2dVertex
 10
211.8977050781248
 20
395.2471338876094
 30
0.0
 70
     8
  0
VERTEX
  5
64A
330
63C
100
AcDbEntity
  8
HILF
100
AcDbVertex
100
AcDb2dVertex
 10
216.4824218749998
 20
394.8516260751093
 30
0.0
 70
     8
  0
VERTEX
  5
64B
330
63C
100
AcDbEntity
  8
HILF
100
AcDbVertex
100
AcDb2dVertex
 10
220.8063964843748
 20
394.3506495126093
 30
0.0
 70
     8
  0
VERTEX
  5
64C
330
63C
100
AcDbEntity
  8
HILF
100
AcDbVertex
100
AcDb2dVertex
 10
224.9999999999999
 20
393.7969385751094
 30
0.0
 70
     8
  0
VERTEX
  5
64D
330
63C
100
AcDbEntity
  8
HILF
100
AcDbVertex
100
AcDb2dVertex
 10
229.1936035156249
 20
393.2432276376094
 30
0.0
 70
     8
  0
VERTEX
  5
64E
330
63C
100
AcDbEntity
  8
HILF
100
AcDbVertex
100
AcDb2dVertex
 10
233.5175781249999
 20
392.7422510751094
 30
0.0
 70
     8
  0
VERTEX
  5
64F
330
63C
100
AcDbEntity
  8
HILF
100
AcDbVertex
100
AcDb2dVertex
 10
238.1022949218749
 20
392.3467432626094
 30
0.0
 70
     8
  0
VERTEX
  5
650
330
63C
100
AcDbEntity
  8
HILF
100
AcDbVertex
100
AcDb2dVertex
 10
243.0781249999999
 20
392.1094385751094
 30
0.0
 70
     8
  0
VERTEX
  5
651
330
63C
100
AcDbEntity
  8
HILF
100
AcDbVertex
100
AcDb2dVertex
 10
248.5754394531249
 20
392.0830713876094
 30
0.0
 70
     8
  0
VERTEX
  5
652
330
63C
100
AcDbEntity
  8
HILF
100
AcDbVertex
100
AcDb2dVertex
 10
254.7246093749999
 20
392.3203760751095
 30
0.0
 70
     8
  0
VERTEX
  5
653
330
63C
100
AcDbEntity
  8
HILF
100
AcDbVertex
100
AcDb2dVertex
 10
261.6560058593749
 20
392.8740870126095
 30
0.0
 70
     8
  0
VERTEX
  5
654
330
63C
100
AcDbEntity
  8
HILF
100
AcDbVertex
100
AcDb2dVertex
 10
269.4999999999999
 20
393.7969385751094
 30
0.0
 70
     8
  0
VERTEX
  5
63E
330
63C
100
AcDbEntity
  8
HILF
100
AcDbVertex
100
AcDb2dVertex
 10
202.7499999999999
 20
396.7969385751093
 30
0.0
 70
    16
  0
VERTEX
  5
63F
330
63C
100
AcDbEntity
  8
HILF
100
AcDbVertex
100
AcDb2dVertex
 10
224.9999999999999
 20
393.7969385751094
 30
0.0
 70
    16
  0
VERTEX
  5
640
330
63C
100
AcDbEntity
  8
HILF
100
AcDbVertex
100
AcDb2dVertex
 10
247.2499999999999
 20
390.7969385751094
 30
0.0
 70
    16
  0
VERTEX
  5
641
330
63C
100
AcDbEntity
  8
HILF
100
AcDbVertex
100
AcDb2dVertex
 10
269.4999999999999
 20
393.7969385751094
 30
0.0
 70
    16
  0
SEQEND
  5
642
330
63C
100
AcDbEntity
  8
HILF
  0
POLYLINE
  5
655
102
{ACAD_REACTORS
330
6BC
330
6D4
330
702
102
}
330
1E
100
AcDbEntity
  8
HILF
100
AcDb2dPolyline
 66
     1
 10
0.0
 20
0.0
 30
0.0
 70
     4
 75
     6
  0
VERTEX
  5
656
330
655
100
AcDbEntity
  8
HILF
100
AcDbVertex
100
AcDb2dVertex
 10
180.4999999999998
 20
388.7969385751093
 30
0.0
 70
    16
  0
VERTEX
  5
657
330
655
100
AcDbEntity
  8
HILF
100
AcDbVertex
100
AcDb2dVertex
 10
180.4999999999998
 20
388.7969385751093
 30
0.0
 70
     8
  0
VERTEX
  5
658
330
655
100
AcDbEntity
  8
HILF
100
AcDbVertex
100
AcDb2dVertex
 10
188.3439941406248
 20
389.7197901376093
 30
0.0
 70
     8
  0
VERTEX
  5
659
330
655
100
AcDbEntity
  8
HILF
100
AcDbVertex
100
AcDb2dVertex
 10
195.2753906249999
 20
390.2735010751093
 30
0.0
 70
     8
  0
VERTEX
  5
65A
330
655
100
AcDbEntity
  8
HILF
100
AcDbVertex
100
AcDb2dVertex
 10
201.4245605468749
 20
390.5108057626094
 30
0.0
 70
     8
  0
VERTEX
  5
65B
330
655
100
AcDbEntity
  8
HILF
100
AcDbVertex
100
AcDb2dVertex
 10
206.9218749999999
 20
390.4844385751093
 30
0.0
 70
     8
  0
VERTEX
  5
65C
330
655
100
AcDbEntity
  8
HILF
100
AcDbVertex
100
AcDb2dVertex
 10
211.8977050781248
 20
390.2471338876093
 30
0.0
 70
     8
  0
VERTEX
  5
65D
330
655
100
AcDbEntity
  8
HILF
100
AcDbVertex
100
AcDb2dVertex
 10
216.4824218749998
 20
389.8516260751092
 30
0.0
 70
     8
  0
VERTEX
  5
65E
330
655
100
AcDbEntity
  8
HILF
100
AcDbVertex
100
AcDb2dVertex
 10
220.8063964843748
 20
389.3506495126093
 30
0.0
 70
     8
  0
VERTEX
  5
65F
330
655
100
AcDbEntity
  8
HILF
100
AcDbVertex
100
AcDb2dVertex
 10
224.9999999999999
 20
388.7969385751094
 30
0.0
 70
     8
  0
VERTEX
  5
660
330
655
100
AcDbEntity
  8
HILF
100
AcDbVertex
100
AcDb2dVertex
 10
229.1936035156249
 20
388.2432276376094
 30
0.0
 70
     8
  0
VERTEX
  5
661
330
655
100
AcDbEntity
  8
HILF
100
AcDbVertex
100
AcDb2dVertex
 10
233.5175781249999
 20
387.7422510751094
 30
0.0
 70
     8
  0
VERTEX
  5
662
330
655
100
AcDbEntity
  8
HILF
100
AcDbVertex
100
AcDb2dVertex
 10
238.1022949218749
 20
387.3467432626094
 30
0.0
 70
     8
  0
VERTEX
  5
663
330
655
100
AcDbEntity
  8
HILF
100
AcDbVertex
100
AcDb2dVertex
 10
243.0781249999999
 20
387.1094385751094
 30
0.0
 70
     8
  0
VERTEX
  5
664
330
655
100
AcDbEntity
  8
HILF
100
AcDbVertex
100
AcDb2dVertex
 10
248.5754394531249
 20
387.0830713876094
 30
0.0
 70
     8
  0
VERTEX
  5
665
330
655
100
AcDbEntity
  8
HILF
100
AcDbVertex
100
AcDb2dVertex
 10
254.7246093749999
 20
387.3203760751094
 30
0.0
 70
     8
  0
VERTEX
  5
666
330
655
100
AcDbEntity
  8
HILF
100
AcDbVertex
100
AcDb2dVertex
 10
261.6560058593749
 20
387.8740870126094
 30
0.0
 70
     8
  0
VERTEX
  5
667
330
655
100
AcDbEntity
  8
HILF
100
AcDbVertex
100
AcDb2dVertex
 10
269.4999999999999
 20
388.7969385751095
 30
0.0
 70
     8
  0
VERTEX
  5
668
330
655
100
AcDbEntity
  8
HILF
100
AcDbVertex
100
AcDb2dVertex
 10
202.7499999999999
 20
391.7969385751093
 30
0.0
 70
    16
  0
VERTEX
  5
669
330
655
100
AcDbEntity
  8
HILF
100
AcDbVertex
100
AcDb2dVertex
 10
224.9999999999999
 20
388.7969385751094
 30
0.0
 70
    16
  0
VERTEX
  5
66A
330
655
100
AcDbEntity
  8
HILF
100
AcDbVertex
100
AcDb2dVertex
 10
247.2499999999999
 20
385.7969385751094
 30
0.0
 70
    16
  0
VERTEX
  5
66B
330
655
100
AcDbEntity
  8
HILF
100
AcDbVertex
100
AcDb2dVertex
 10
269.4999999999999
 20
388.7969385751094
 30
0.0
 70
    16
  0
SEQEND
  5
66C
330
655
100
AcDbEntity
  8
HILF
  0
LINE
  5
66D
102
{ACAD_REACTORS
330
6BC
102
}
330
1E
100
AcDbEntity
  8
STEMPEL
100
AcDbLine
 10
205.5
 20
390.4912584223359
 30
0.0
 11
205.4999999999999
 21
228.1358816768312
 31
0.0
  0
LINE
  5
66E
102
{ACAD_REACTORS
330
6BC
330
702
102
}
330
1E
100
AcDbEntity
  8
STEMPEL
100
AcDbLine
 10
203.9999999999999
 20
390.4984529864429
 30
0.0
 11
204.0
 21
228.0703902624699
 31
0.0
  0
LINE
  5
66F
102
{ACAD_REACTORS
330
6D4
330
702
102
}
330
1E
100
AcDbEntity
  8
STEMPEL
100
AcDbLine
 10
182.0999999999999
 20
388.9851797279618
 30
0.0
 11
182.0999999999999
 21
248.1358816768312
 31
0.0
  0
LINE
  5
670
102
{ACAD_REACTORS
330
6D4
102
}
330
1E
100
AcDbEntity
  8
STEMPEL
100
AcDbLine
 10
180.4999999999999
 20
388.7969385751093
 30
0.0
 11
180.4999999999999
 21
246.1358816768311
 31
0.0
  0
LINE
  5
671
102
{ACAD_REACTORS
330
6BC
102
}
330
1E
100
AcDbEntity
  8
STEMPEL
100
AcDbLine
 10
244.4999999999998
 20
387.1026187278829
 30
0.0
 11
244.4999999999997
 21
228.1358816768301
 31
0.0
  0
LINE
  5
672
102
{ACAD_REACTORS
330
6BC
330
702
102
}
330
1E
100
AcDbEntity
  8
STEMPEL
100
AcDbLine
 10
245.9999999999999
 20
387.0954241637758
 30
0.0
 11
245.9999999999999
 21
228.0703902624688
 31
0.0
  0
LINE
  5
673
102
{ACAD_REACTORS
330
6D4
330
702
102
}
330
1E
100
AcDbEntity
  8
STEMPEL
100
AcDbLine
 10
267.8999999999998
 20
388.6086974222568
 30
0.0
 11
267.8999999999998
 21
248.1358816768313
 31
0.0
  0
LINE
  5
674
102
{ACAD_REACTORS
330
6D4
102
}
330
1E
100
AcDbEntity
  8
STEMPEL
100
AcDbLine
 10
269.4999999999999
 20
388.7969385751093
 30
0.0
 11
269.4999999999998
 21
246.1358816768313
 31
0.0
  0
HATCH
  5
6BC
330
1E
100
AcDbEntity
  8
SCHRAFF
100
AcDbHatch
 10
0.0
 20
0.0
 30
0.0
210
0.0
220
0.0
230
1.0
  2
_USER
 70
     0
 71
     1
 91
        4
 92
        7
 72
     1
 73
     1
 93
       21
 10
245.9999999999999
 20
468.6303280042388
 42
-0.1568599726813071
 10
247.1250000000001
 20
472.1280951491472
 42
0.1568599726812926
 10
248.9999999999999
 20
477.9577070573274
 42
0.0
 10
248.9999999999999
 20
482.135881676831
 42
-0.0795533624514929
 10
249.4999508582297
 20
485.2582311614259
 42
0.0795533624515043
 10
250.4998448162652
 20
491.5028816768311
 42
0.0
 10
250.4999999999999
 20
491.5028816768311
 42
0.0
 10
250.4999999999999
 20
496.5937013564224
 42
0.1022785704675339
 10
249.1476030003184
 20
503.1358816768312
 42
0.0
 10
247.4999999999998
 20
503.1358816768311
 42
0.0
 10
247.5946168055497
 20
502.9329752825331
 42
-0.1095178116832403
 10
248.9999999999999
 20
496.5937013564227
 42
0.0
 10
248.9999999999999
 20
491.5028816768312
 42
0.0
 10
248.9998448162652
 20
491.5028816768311
 42
-0.079553362451493
 10
248.0749434869644
 20
485.726583584116
 42
0.07955336245151
 10
247.5
 20
482.1358816768312
 42
0.0
 10
247.5
 20
477.9577070573274
 42
-0.1568599726813056
 10
245.9062499999998
 20
473.0025369353739
 42
0.1568599726812856
 10
244.4999999999999
 20
468.6303280042388
 42
0.0
 10
244.4999999999998
 20
392.1026187278829
 42
0.0
 10
245.9999999999999
 20
392.0954241637758
 42
0.0
 97
       21
330
581
330
585
330
584
330
57E
330
58B
330
589
330
587
330
58E
330
551
330
58D
330
58F
330
588
330
58A
330
58C
330
57F
330
583
330
582
330
580
330
577
330
63C
330
576
 92
        7
 72
     1
 73
     1
 93
       21
 10
205.4999999999999
 20
468.6303280042388
 42
0.1568599726812986
 10
204.09375
 20
473.0025369353741
 42
-0.1568599726812976
 10
202.4999999999999
 20
477.9577070573274
 42
0.0
 10
202.4999999999999
 20
482.135881676831
 42
0.0795533624514995
 10
201.9250565130357
 20
485.7265835841154
 42
-0.079553362451501
 10
201.0001551837347
 20
491.5028816768311
 42
0.0
 10
200.9999999999999
 20
491.5028816768311
 42
0.0
 10
200.9999999999999
 20
496.5937013564227
 42
-0.1095178116832417
 10
202.4053831944503
 20
502.9329752825331
 42
0.0
 10
202.5
 20
503.1358816768312
 42
0.0
 10
200.8523969996814
 20
503.1358816768312
 42
0.1022785704675346
 10
199.4999999999999
 20
496.5937013564223
 42
0.0
 10
199.5000000000001
 20
491.5028816768311
 42
0.0
 10
199.5001551837346
 20
491.5028816768311
 42
0.0795533624515005
 10
200.5000491417701
 20
485.2582311614262
 42
-0.0795533624515006
 10
200.9999999999999
 20
482.135881676831
 42
0.0
 10
200.9999999999999
 20
477.9577070573274
 42
0.1568599726812984
 10
202.8749999999999
 20
472.128095149147
 42
-0.1568599726813024
 10
204.0
 20
468.6303280042387
 42
0.0
 10
203.9999999999999
 20
395.498452986443
 42
0.0
 10
205.4999999999999
 20
395.4912584223359
 42
0.0
 97
       21
330
564
330
566
330
565
330
55F
330
569
330
56C
330
56A
330
568
330
570
330
551
330
56F
330
56B
330
56D
330
56E
330
560
330
562
330
561
330
563
330
558
330
63C
330
557
 92
        7
 72
     0
 73
     1
 93
        6
 10
245.9999999999999
 20
387.0954241637758
 10
244.4999999999998
 20
387.1026187278829
 10
244.4999999999997
 20
228.13588167683
 10
244.0625566823702
 20
223.1358816768313
 10
245.5682864386855
 20
223.1358816768313
 10
245.9999999999999
 20
228.0703902624688
 97
        6
330
655
330
671
330
57A
330
550
330
57B
330
672
 92
        7
 72
     0
 73
     1
 93
        6
 10
205.5
 20
390.4912584223359
 10
204.0
 20
390.498452986443
 10
204.0
 20
228.0703902624698
 10
204.4317135613146
 20
223.1358816768312
 10
205.9374433176295
 20
223.1358816768312
 10
205.5
 20
228.1358816768313
 97
        6
330
655
330
66E
330
55B
330
550
330
55C
330
66D
 75
     0
 76
     0
 52
45.0
 41
2.0
 77
     0
 78
     1
 53
45.0
 43
0.0
 44
0.0
 45
-1.414213562373094
 46
1.414213562373095
 79
     0
 47
0.5977396426931289
 98
        4
 10
245.3245142947235
 20
430.233472751167
 10
204.6496296527471
 20
427.8425140236739
 10
245.3245142947235
 20
358.5047151248359
 10
204.6496296527471
 20
358.5047151248359
  0
HATCH
  5
6D4
330
1E
100
AcDbEntity
  8
SCHRAFF
100
AcDbHatch
 10
0.0
 20
0.0
 30
0.0
210
0.0
220
0.0
230
1.0
  2
_USER
 70
     0
 71
     1
 91
        4
 92
        7
 72
     0
 73
     1
 93
        4
 10
269.4999999999999
 20
503.1358816768313
 10
267.8999999999998
 20
503.1358816768312
 10
267.8999999999998
 20
393.6086974222569
 10
269.4999999999998
 20
393.7969385751094
 97
        4
330
551
330
573
330
63C
330
574
 92
        7
 72
     0
 73
     1
 93
        4
 10
182.0999999999999
 20
503.1358816768312
 10
180.4999999999998
 20
503.1358816768311
 10
180.4999999999999
 20
393.7969385751093
 10
182.0999999999999
 20
393.9851797279619
 97
        4
330
551
330
556
330
63C
330
555
 92
        7
 72
     0
 73
     1
 93
        4
 10
269.4999999999999
 20
388.7969385751094
 10
267.8999999999998
 20
388.6086974222568
 10
267.8999999999998
 20
248.1358816768313
 10
269.4999999999998
 20
248.1358816768313
 97
        4
330
655
330
673
330
579
330
674
 92
        7
 72
     0
 73
     1
 93
        4
 10
182.0999999999999
 20
388.9851797279619
 10
180.4999999999998
 20
388.7969385751093
 10
180.4999999999999
 20
248.1358816768311
 10
182.1
 20
248.1358816768311
 97
        4
330
655
330
670
330
55A
330
66F
 75
     0
 76
     0
 52
135.0
 41
2.0
 77
     0
 78
     1
 53
135.0
 43
0.0
 44
0.0
 45
-1.414213562373095
 46
-1.414213562373094
 79
     0
 47
0.5977396426931289
 98
        4
 10
268.6527583805045
 20
448.1656625076216
 10
181.3213855669655
 20
445.7747037801286
 10
268.6527583805045
 20
352.527319005847
 10
181.3213855669655
 20
357.3092364608331
  0
HATCH
  5
702
330
1E
100
AcDbEntity
  8
SCHRAFF
100
AcDbHatch
 10
0.0
 20
0.0
 30
0.0
210
0.0
220
0.0
230
1.0
  2
HONEY
 70
     0
 71
     1
 91
        4
 92
        7
 72
     1
 73
     1
 93
       12
 10
267.8999999999998
 20
489.1358816768312
 42
0.0
 10
250.3592825568975
 20
489.1358816768311
 42
-0.0497699651211701
 10
249.4999508582299
 20
485.2582311614268
 42
0.0795533624515155
 10
248.9999999999999
 20
482.135881676831
 42
0.0
 10
248.9999999999999
 20
477.9577070573274
 42
-0.1568599726813056
 10
247.1249999999998
 20
472.1280951491467
 42
0.1568599726812806
 10
245.9999999999999
 20
468.6303280042388
 42
0.0
 10
246.0
 20
392.0954241637758
 42
0.0
 10
248.5754394531249
 20
392.0830713876094
 42
0.0
 10
254.7246093749988
 20
392.3203760751095
 42
0.0
 10
261.6560058593738
 20
392.8740870126094
 42
0.0
 10
267.8999999999998
 20
393.6086974222569
 42
0.0
 97
        9
330
586
330
58B
330
57E
330
584
330
585
330
581
330
576
330
63C
330
573
 92
        7
 72
     1
 73
     1
 93
       12
 10
204.0
 20
468.6303280042388
 42
0.1568599726812976
 10
202.8749999999999
 20
472.128095149147
 42
-0.1568599726812984
 10
200.9999999999999
 20
477.9577070573274
 42
0.0
 10
200.9999999999999
 20
482.135881676831
 42
0.0795533624515006
 10
200.5000491417701
 20
485.2582311614262
 42
-0.0497699651211768
 10
199.6407174431024
 20
489.1358816768311
 42
0.0
 10
182.0999999999998
 20
489.1358816768311
 42
0.0
 10
182.0999999999999
 20
393.9851797279619
 42
0.0
 10
188.3439941406254
 20
394.7197901376093
 42
0.0
 10
195.2753906250012
 20
395.2735010751093
 42
0.0
 10
201.4245605468754
 20
395.5108057626094
 42
0.0
 10
203.9999999999999
 20
395.498452986443
 42
0.0
 97
        9
330
563
330
561
330
562
330
560
330
56E
330
567
330
555
330
63C
330
558
 92
        7
 72
     0
 73
     1
 93
        7
 10
267.8999999999998
 20
388.6086974222568
 10
261.6560058593758
 20
387.8740870126095
 10
254.7246093750013
 20
387.3203760751095
 10
248.5754394531261
 20
387.0830713876094
 10
245.9999999999999
 20
387.0954241637757
 10
245.9999999999999
 20
264.1358816768311
 10
267.8999999999998
 20
264.1358816768311
 97
        4
330
655
330
672
330
57C
330
673
 92
        7
 72
     0
 73
     1
 93
        7
 10
204.0
 20
390.4984529864429
 10
201.4245605468751
 20
390.5108057626094
 10
195.2753906250012
 20
390.2735010751093
 10
188.3439941406269
 20
389.7197901376096
 10
182.0999999999999
 20
388.9851797279619
 10
182.0999999999999
 20
264.1358816768311
 10
204.0
 20
264.1358816768311
 97
        4
330
655
330
66F
330
55D
330
66E
 75
     0
 76
     1
 52
0.0
 41
25.0
 77
     0
 78
     3
 53
0.0
 43
0.0
 44
0.0
 45
4.6875
 46
2.706329374999999
 79
     2
 49
3.125
 49
-6.25
 53
120.0
 43
0.0
 44
0.0
 45
-4.687499989758061
 46
2.706329392739557
 79
     2
 49
3.125
 49
-6.25
 53
60.0
 43
0.0
 44
0.0
 45
0.0000000102419385
 46
5.412658767739556
 79
     2
 49
-6.25
 49
3.125
 47
0.5977396426931289
 98
        4
 10
250.1097965806366
 20
439.7973076611394
 10
192.6864279711326
 20
437.4063489336463
 10
254.2969169003236
 20
355.5160170653414
 10
193.8827465260265
 20
349.5386209463525
  0
HATCH
  5
759
330
1E
100
AcDbEntity
  8
SCHRAFF
100
AcDbHatch
 10
0.0
 20
0.0
 30
0.0
210
0.0
220
0.0
230
1.0
  2
NET
 70
     0
 71
     0
 91
        2
 92
        7
 72
     0
 73
     1
 93
       10
 10
267.8999999999998
 20
264.1358816768311
 10
245.9999999999999
 20
264.1358816768311
 10
245.9999999999999
 20
254.1358816768312
 10
249.4999999999999
 20
254.1358816768312
 10
252.9641016151376
 20
248.1358816768311
 10
263.4999999999999
 20
248.1358816768311
 10
263.4999999999999
 20
246.1358816768313
 10
269.4999999999998
 20
246.1358816768313
 10
269.4999999999998
 20
248.1358816768313
 10
267.8999999999998
 20
248.1358816768313
 97
        0
 92
        7
 72
     0
 73
     1
 93
       10
 10
204.0
 20
264.135881676831
 10
182.0999999999999
 20
264.1358816768311
 10
182.0999999999999
 20
248.1358816768312
 10
180.4999999999999
 20
248.1358816768312
 10
180.4999999999999
 20
246.1358816768311
 10
186.5
 20
246.1358816768311
 10
186.4999999999999
 20
248.1358816768312
 10
197.0358983848621
 20
248.1358816768312
 10
200.5
 20
254.1358816768312
 10
204.0
 20
254.1358816768311
 97
        0
 75
     0
 76
     1
 52
45.0
 41
20.0
 77
     0
 78
     2
 53
45.0
 43
0.0
 44
0.0
 45
-1.767766952966368
 46
1.767766952966368
 79
     0
 53
135.0
 43
0.0
 44
0.0
 45
-1.767766952966368
 46
-1.767766952966368
 79
     0
 47
0.1322099502765182
 98
        2
 10
261.3725019144267
 20
254.2741522459926
 10
197.6088617931309
 20
257.1827718576958
  0
LINE
  5
75A
330
1E
100
AcDbEntity
  8
STEMPEL
100
AcDbLine
 10
269.4999999999998
 20
246.1358816768313
 30
0.0
 11
246.0
 21
246.1358816768312
 31
0.0
  0
POINT
  5
75B
330
1E
100
AcDbEntity
  8
STEMPEL
100
AcDbPoint
 10
263.4999999999999
 20
246.1358816768312
 30
0.0
  0
POINT
  5
75C
330
1E
100
AcDbEntity
  8
STEMPEL
100
AcDbPoint
 10
252.9641016151376
 20
248.1358816768312
 30
0.0
  0
LINE
  5
75D
330
1E
100
AcDbEntity
  8
STEMPEL
100
AcDbLine
 10
263.4999999999999
 20
248.1358816768312
 30
0.0
 11
245.9999999999999
 21
248.1358816768311
 31
0.0
  0
LINE
  5
75E
330
1E
100
AcDbEntity
  8
STEMPEL
100
AcDbLine
 10
263.4999999999999
 20
246.1358816768312
 30
0.0
 11
263.4999999999999
 21
248.1358816768312
 31
0.0
  0
LINE
  5
75F
330
1E
100
AcDbEntity
  8
STEMPEL
100
AcDbLine
 10
249.5
 20
254.1358816768312
 30
0.0
 11
252.9641016151376
 21
248.1358816768312
 31
0.0
  0
LINE
  5
760
330
1E
100
AcDbEntity
  8
STEMPEL
100
AcDbLine
 10
204.0
 20
248.1358816768312
 30
0.0
 11
186.4999999999999
 21
248.1358816768312
 31
0.0
  0
LINE
  5
761
330
1E
100
AcDbEntity
  8
STEMPEL
100
AcDbLine
 10
204.0
 20
246.1358816768312
 30
0.0
 11
180.4999999999999
 21
246.1358816768312
 31
0.0
  0
POINT
  5
762
330
1E
100
AcDbEntity
  8
STEMPEL
100
AcDbPoint
 10
187.9999999999999
 20
248.1358816768312
 30
0.0
  0
POINT
  5
763
330
1E
100
AcDbEntity
  8
STEMPEL
100
AcDbPoint
 10
187.9999999999999
 20
248.1358816768312
 30
0.0
  0
POINT
  5
764
330
1E
100
AcDbEntity
  8
STEMPEL
100
AcDbPoint
 10
187.9999999999999
 20
248.1358816768312
 30
0.0
  0
POINT
  5
765
330
1E
100
AcDbEntity
  8
STEMPEL
100
AcDbPoint
 10
191.9999999999999
 20
248.1358816768312
 30
0.0
  0
POINT
  5
766
330
1E
100
AcDbEntity
  8
STEMPEL
100
AcDbPoint
 10
186.4999999999999
 20
246.1358816768312
 30
0.0
  0
LINE
  5
767
330
1E
100
AcDbEntity
  8
STEMPEL
100
AcDbLine
 10
186.4999999999999
 20
246.1358816768312
 30
0.0
 11
186.4999999999999
 21
248.1358816768312
 31
0.0
  0
LINE
  5
768
330
1E
100
AcDbEntity
  8
STEMPEL
100
AcDbLine
 10
200.4999999999999
 20
254.1358816768312
 30
0.0
 11
197.0358983848621
 21
248.1358816768312
 31
0.0
  0
DIMENSION
  5
78E
330
1E
100
AcDbEntity
  8
SCHRAFF
100
AcDbDimension
  2
*D4
 10
164.6986079883651
 20
248.1358816768312
 30
0.0
 11
158.1986079883651
 21
235.6358816768312
 31
0.0
 70
    32
 71
     5
 42
24.99999999999997
  3
Standard
100
AcDbAlignedDimension
 13
204.4317135613147
 23
223.1358816768312
 33
0.0
 14
180.4999999999999
 24
248.1358816768312
 34
0.0
 50
90.0
100
AcDbRotatedDimension
1001
ACAD
1000
DSTYLE
1002
{
1070
    40
1040
2.0
1070
    41
1040
3.5
1070
    42
1040
1.0
1070
    43
1040
7.0
1070
    44
1040
1.0
1070
    73
1070
     0
1070
    74
1070
     0
1070
    77
1070
     1
1070
    78
1070
     8
1070
    79
1070
     2
1070
   140
1040
3.5
1070
   141
1040
1.5
1070
   146
1040
0.5142857142857144
1070
   147
1040
1.5
1070
   172
1070
     1
1070
   178
1070
     1
1070
   179
1070
     2
1070
   271
1070
     2
1070
   272
1070
     2
1070
   284
1070
     8
1070
   285
1070
     8
1070
   286
1070
     8
1002
}
  0
ENDSEC
  0
SECTION
  2
OBJECTS
  0
DICTIONARY
  5
C
330
0
100
AcDbDictionary
281
     1
  3
ACAD_COLOR
350
DF
  3
ACAD_GROUP
350
D
  3
ACAD_LAYOUT
350
19
  3
ACAD_MATERIAL
350
DE
  3
ACAD_MLINESTYLE
350
16
  3
ACAD_PLOTSETTINGS
350
18
  3
ACAD_PLOTSTYLENAME
350
E
  3
AcDbVariableDictionary
350
EA
  0
DICTIONARY
  5
A0
330
1E
100
AcDbDictionary
280
     1
281
     1
  3
ACAD_LAYOUTSELFREF
360
D4
  0
DICTIONARY
  5
A2
330
1A
100
AcDbDictionary
280
     1
281
     1
  3
ACAD_LAYOUTSELFREF
360
D3
  0
DICTIONARY
  5
DF
102
{ACAD_REACTORS
330
C
102
}
330
C
100
AcDbDictionary
281
     1
  0
DICTIONARY
  5
D
102
{ACAD_REACTORS
330
C
102
}
330
C
100
AcDbDictionary
281
     1
  0
DICTIONARY
  5
19
102
{ACAD_REACTORS
330
C
102
}
330
C
100
AcDbDictionary
281
     1
  3
Layout1
350
1D
  3
Model
350
21
  0
DICTIONARY
  5
DE
102
{ACAD_REACTORS
330
C
102
}
330
C
100
AcDbDictionary
281
     1
  0
DICTIONARY
  5
16
102
{ACAD_REACTORS
330
C
102
}
330
C
100
AcDbDictionary
281
     1
  3
Standard
350
17
  0
DICTIONARY
  5
18
102
{ACAD_REACTORS
330
C
102
}
330
C
100
AcDbDictionary
281
     1
  0
ACDBDICTIONARYWDFLT
  5
E
102
{ACAD_REACTORS
330
C
102
}
330
C
100
AcDbDictionary
281
     1
  3
Normal
350
F
100
AcDbDictionaryWithDefault
340
F
  0
DICTIONARY
  5
EA
102
{ACAD_REACTORS
330
C
102
}
330
C
100
AcDbDictionary
281
     1
  3
DIMASSOC
350
EB
  3
PROJECTNAME
350
EC
  0
XRECORD
  5
D4
102
{ACAD_REACTORS
330
A0
102
}
330
A0
100
AcDbXrecord
280
     1
340
1E
  0
XRECORD
  5
D3
102
{ACAD_REACTORS
330
A2
102
}
330
A2
100
AcDbXrecord
280
     1
340
1A
  0
LAYOUT
  5
1D
102
{ACAD_REACTORS
330
19
102
}
330
19
100
AcDbPlotSettings
  1

  2
\\NT_WORK01\HP LaserJet 5000 PCL 6
  4

  6

 40
0.0
 41
0.0
 42
0.0
 43
0.0
 44
0.0
 45
0.0
 46
0.0
 47
0.0
 48
0.0
 49
0.0
140
0.0
141
0.0
142
1.0
143
1.0
 70
   688
 72
     0
 73
     0
 74
     5
  7

 75
    16
147
1.0
 76
     0
 77
     2
 78
   300
148
0.0
149
0.0
100
AcDbLayout
  1
Layout1
 70
     0
 71
     1
 10
0.0
 20
0.0
 11
12.0
 21
9.0
 12
0.0
 22
0.0
 32
0.0
 14
1.000000000000000E+20
 24
1.000000000000000E+20
 34
1.000000000000000E+20
 15
-1.000000000000000E+20
 25
-1.000000000000000E+20
 35
-1.000000000000000E+20
146
0.0
 13
0.0
 23
0.0
 33
0.0
 16
1.0
 26
0.0
 36
0.0
 17
0.0
 27
1.0
 37
0.0
 76
     0
330
1A
  0
LAYOUT
  5
21
102
{ACAD_REACTORS
330
19
102
}
330
19
100
AcDbPlotSettings
  1

  2
none_device
  4
Letter_(8.50_x_11.00_Inches)
  6

 40
6.349999904632568
 41
6.349999904632568
 42
6.350006103515625
 43
6.350006103515625
 44
215.8999938964844
 45
279.3999938964844
 46
0.0
 47
0.0
 48
0.0
 49
0.0
140
0.0
141
0.0
142
1.0
143
1.0
 70
 11952
 72
     0
 73
     1
 74
     0
  7

 75
     0
147
1.0
 76
     0
 77
     2
 78
   300
148
2286.722511197659
149
76.92250090747274
100
AcDbLayout
  1
Model
 70
     1
 71
     0
 10
0.0
 20
0.0
 11
12.0
 21
9.0
 12
0.0
 22
0.0
 32
0.0
 14
0.0
 24
0.0
 34
0.0
 15
0.0
 25
0.0
 35
0.0
146
0.0
 13
0.0
 23
0.0
 33
0.0
 16
1.0
 26
0.0
 36
0.0
 17
0.0
 27
1.0
 37
0.0
 76
     0
330
1E
  0
MLINESTYLE
  5
17
102
{ACAD_REACTORS
330
16
102
}
330
16
100
AcDbMlineStyle
  2
STANDARD
 70
     0
  3

 62
   256
 51
90.0
 52
90.0
 71
     2
 49
0.5
 62
   256
  6
BYLAYER
 49
-0.5
 62
   256
  6
BYLAYER
  0
ACDBPLACEHOLDER
  5
F
102
{ACAD_REACTORS
330
E
102
}
330
E
  0
DICTIONARYVAR
  5
EB
102
{ACAD_REACTORS
330
EA
102
}
330
EA
100
DictionaryVariables
280
     0
  1
1
  0
DICTIONARYVAR
  5
EC
102
{ACAD_REACTORS
330
EA
102
}
330
EA
100
DictionaryVariables
280
     0
  1

  0
ENDSEC
  0
EOF
