  0
SECTION
  2
HEADER
  9
$ACADVER
  1
AC1018
  9
$ACADMAINTVER
 70
     2
  9
$DWGCODEPAGE
  3
ANSI_1252
  9
$INSBASE
 10
0.0
 20
0.0
 30
0.0
  9
$EXTMIN
 10
-0.0256208784119281
 20
-0.0362352423260291
 30
-0.0000000000000053
  9
$EXTMAX
 10
420.0256433713739
 20
594.0362670537999
 30
0.0000000000000099
  9
$LIMMIN
 10
0.0
 20
0.0
  9
$LIMMAX
 10
419.9999999999999
 20
594.0
  9
$ORTHOMODE
 70
     0
  9
$REGENMODE
 70
     1
  9
$FILLMODE
 70
     1
  9
$QTEXTMODE
 70
     0
  9
$MIRRTEXT
 70
     1
  9
$LTSCALE
 40
20.0
  9
$ATTMODE
 70
     1
  9
$TEXTSIZE
 40
3.5
  9
$TRACEWID
 40
0.5
  9
$TEXTSTYLE
  7
STANDARD
  9
$CLAYER
  8
BEM
  9
$CELTYPE
  6
ByLayer
  9
$CECOLOR
 62
   256
  9
$CELTSCALE
 40
1.0
  9
$DISPSILH
 70
     0
  9
$DIMSCALE
 40
2.0
  9
$DIMASZ
 40
3.5
  9
$DIMEXO
 40
1.0
  9
$DIMDLI
 40
7.0
  9
$DIMRND
 40
0.0
  9
$DIMDLE
 40
0.0
  9
$DIMEXE
 40
1.0
  9
$DIMTP
 40
0.0
  9
$DIMTM
 40
0.0
  9
$DIMTXT
 40
3.5
  9
$DIMCEN
 40
1.5
  9
$DIMTSZ
 40
0.0
  9
$DIMTOL
 70
     0
  9
$DIMLIM
 70
     0
  9
$DIMTIH
 70
     0
  9
$DIMTOH
 70
     0
  9
$DIMSE1
 70
     0
  9
$DIMSE2
 70
     0
  9
$DIMTAD
 70
     1
  9
$DIMZIN
 70
     8
  9
$DIMBLK
  1

  9
$DIMASO
 70
     1
  9
$DIMSHO
 70
     0
  9
$DIMPOST
  1

  9
$DIMAPOST
  1

  9
$DIMALT
 70
     0
  9
$DIMALTD
 70
     2
  9
$DIMALTF
 40
25.4
  9
$DIMLFAC
 40
1.0
  9
$DIMTOFL
 70
     1
  9
$DIMTVP
 40
0.0
  9
$DIMTIX
 70
     0
  9
$DIMSOXD
 70
     0
  9
$DIMSAH
 70
     0
  9
$DIMBLK1
  1

  9
$DIMBLK2
  1

  9
$DIMSTYLE
  2
Standard
  9
$DIMCLRD
 70
     0
  9
$DIMCLRE
 70
     0
  9
$DIMCLRT
 70
     1
  9
$DIMTFAC
 40
0.5
  9
$DIMGAP
 40
1.5
  9
$DIMJUST
 70
     0
  9
$DIMSD1
 70
     0
  9
$DIMSD2
 70
     0
  9
$DIMTOLJ
 70
     1
  9
$DIMTZIN
 70
     8
  9
$DIMALTZ
 70
     8
  9
$DIMALTTZ
 70
     8
  9
$DIMUPT
 70
     0
  9
$DIMDEC
 70
     2
  9
$DIMTDEC
 70
     2
  9
$DIMALTU
 70
     2
  9
$DIMALTTD
 70
     2
  9
$DIMTXSTY
  7
STANDARD
  9
$DIMAUNIT
 70
     0
  9
$DIMADEC
 70
     2
  9
$DIMALTRND
 40
0.0
  9
$DIMAZIN
 70
     2
  9
$DIMDSEP
 70
    46
  9
$DIMATFIT
 70
     3
  9
$DIMFRAC
 70
     0
  9
$DIMLDRBLK
  1

  9
$DIMLUNIT
 70
     2
  9
$DIMLWD
 70
    -2
  9
$DIMLWE
 70
    -2
  9
$DIMTMOVE
 70
     0
  9
$LUNITS
 70
     2
  9
$LUPREC
 70
     2
  9
$SKETCHINC
 40
1.0
  9
$FILLETRAD
 40
0.0
  9
$AUNITS
 70
     0
  9
$AUPREC
 70
     0
  9
$MENU
  1
ACAD
  9
$ELEVATION
 40
0.0
  9
$PELEVATION
 40
0.0
  9
$THICKNESS
 40
0.0
  9
$LIMCHECK
 70
     0
  9
$CHAMFERA
 40
0.0
  9
$CHAMFERB
 40
0.0
  9
$CHAMFERC
 40
0.0
  9
$CHAMFERD
 40
0.0
  9
$SKPOLY
 70
     0
  9
$TDCREATE
 40
2455397.823042361
  9
$TDUCREATE
 40
2455397.781375695
  9
$TDUPDATE
 40
2455531.612895984
  9
$TDUUPDATE
 40
2455531.571229317
  9
$TDINDWG
 40
0.0866107292
  9
$TDUSRTIMER
 40
0.0866107292
  9
$USRTIMER
 70
     1
  9
$ANGBASE
 50
0.0
  9
$ANGDIR
 70
     0
  9
$PDMODE
 70
     0
  9
$PDSIZE
 40
0.0
  9
$PLINEWID
 40
0.0
  9
$SPLFRAME
 70
     0
  9
$SPLINETYPE
 70
     6
  9
$SPLINESEGS
 70
     8
  9
$HANDSEED
  5
CE2
  9
$SURFTAB1
 70
     6
  9
$SURFTAB2
 70
     6
  9
$SURFTYPE
 70
     6
  9
$SURFU
 70
     6
  9
$SURFV
 70
     6
  9
$UCSBASE
  2

  9
$UCSNAME
  2

  9
$UCSORG
 10
0.0
 20
0.0
 30
0.0
  9
$UCSXDIR
 10
1.0
 20
0.0
 30
0.0
  9
$UCSYDIR
 10
0.0
 20
1.0
 30
0.0
  9
$UCSORTHOREF
  2

  9
$UCSORTHOVIEW
 70
     0
  9
$UCSORGTOP
 10
0.0
 20
0.0
 30
0.0
  9
$UCSORGBOTTOM
 10
0.0
 20
0.0
 30
0.0
  9
$UCSORGLEFT
 10
0.0
 20
0.0
 30
0.0
  9
$UCSORGRIGHT
 10
0.0
 20
0.0
 30
0.0
  9
$UCSORGFRONT
 10
0.0
 20
0.0
 30
0.0
  9
$UCSORGBACK
 10
0.0
 20
0.0
 30
0.0
  9
$PUCSBASE
  2

  9
$PUCSNAME
  2

  9
$PUCSORG
 10
0.0
 20
0.0
 30
0.0
  9
$PUCSXDIR
 10
1.0
 20
0.0
 30
0.0
  9
$PUCSYDIR
 10
0.0
 20
1.0
 30
0.0
  9
$PUCSORTHOREF
  2

  9
$PUCSORTHOVIEW
 70
     0
  9
$PUCSORGTOP
 10
0.0
 20
0.0
 30
0.0
  9
$PUCSORGBOTTOM
 10
0.0
 20
0.0
 30
0.0
  9
$PUCSORGLEFT
 10
0.0
 20
0.0
 30
0.0
  9
$PUCSORGRIGHT
 10
0.0
 20
0.0
 30
0.0
  9
$PUCSORGFRONT
 10
0.0
 20
0.0
 30
0.0
  9
$PUCSORGBACK
 10
0.0
 20
0.0
 30
0.0
  9
$USERI1
 70
     0
  9
$USERI2
 70
     0
  9
$USERI3
 70
     0
  9
$USERI4
 70
     0
  9
$USERI5
 70
     0
  9
$USERR1
 40
0.0
  9
$USERR2
 40
0.0
  9
$USERR3
 40
0.0
  9
$USERR4
 40
0.0
  9
$USERR5
 40
0.0
  9
$WORLDVIEW
 70
     1
  9
$SHADEDGE
 70
     3
  9
$SHADEDIF
 70
    70
  9
$TILEMODE
 70
     1
  9
$MAXACTVP
 70
    16
  9
$PINSBASE
 10
0.0
 20
0.0
 30
0.0
  9
$PLIMCHECK
 70
     0
  9
$PEXTMIN
 10
1.000000000000000E+20
 20
1.000000000000000E+20
 30
1.000000000000000E+20
  9
$PEXTMAX
 10
-1.000000000000000E+20
 20
-1.000000000000000E+20
 30
-1.000000000000000E+20
  9
$PLIMMIN
 10
0.0
 20
0.0
  9
$PLIMMAX
 10
12.0
 20
9.0
  9
$UNITMODE
 70
     0
  9
$VISRETAIN
 70
     0
  9
$PLINEGEN
 70
     0
  9
$PSLTSCALE
 70
     0
  9
$TREEDEPTH
 70
  3020
  9
$CMLSTYLE
  2
Standard
  9
$CMLJUST
 70
     0
  9
$CMLSCALE
 40
1.0
  9
$PROXYGRAPHICS
 70
     1
  9
$MEASUREMENT
 70
     0
  9
$CELWEIGHT
370
    -1
  9
$ENDCAPS
280
     0
  9
$JOINSTYLE
280
     0
  9
$LWDISPLAY
290
     0
  9
$INSUNITS
 70
     0
  9
$HYPERLINKBASE
  1

  9
$STYLESHEET
  1
monochrome 1.ctb
  9
$XEDIT
290
     1
  9
$CEPSNTYPE
380
     0
  9
$PSTYLEMODE
290
     1
  9
$FINGERPRINTGUID
  2
{D68B0D02-A558-11D7-B632-000102183313}
  9
$VERSIONGUID
  2
{03939D18-94EB-4B07-90A5-1C128EAED380}
  9
$EXTNAMES
290
     1
  9
$PSVPSCALE
 40
0.0
  9
$OLESTARTUP
290
     0
  9
$SORTENTS
280
   127
  9
$INDEXCTL
280
     0
  9
$HIDETEXT
280
     0
  9
$XCLIPFRAME
290
     0
  9
$HALOGAP
280
     0
  9
$OBSCOLOR
 70
   257
  9
$OBSLTYPE
280
     0
  9
$INTERSECTIONDISPLAY
280
     0
  9
$INTERSECTIONCOLOR
 70
   257
  9
$DIMASSOC
280
     1
  9
$PROJECTNAME
  1

  0
ENDSEC
  0
SECTION
  2
CLASSES
  0
CLASS
  1
ACDBDICTIONARYWDFLT
  2
AcDbDictionaryWithDefault
  3
ObjectDBX Classes
 90
        0
 91
        1
280
     0
281
     0
  0
CLASS
  1
DICTIONARYVAR
  2
AcDbDictionaryVar
  3
ObjectDBX Classes
 90
        0
 91
        2
280
     0
281
     0
  0
ENDSEC
  0
SECTION
  2
TABLES
  0
TABLE
  2
VPORT
  5
8
330
0
100
AcDbSymbolTable
 70
     2
  0
VPORT
  5
CE1
330
8
100
AcDbSymbolTableRecord
100
AcDbViewportTableRecord
  2
*Active
 70
     0
 10
0.0
 20
0.0
 11
1.0
 21
1.0
 12
210.000011246481
 22
297.000015905737
 13
0.0
 23
0.0
 14
1.0
 24
1.0
 15
10.0
 25
10.0
 16
0.0
 26
0.0
 36
1.0
 17
0.0
 27
0.0
 37
0.0
 40
598.8698576309534
 41
1.336927223719676
 42
50.0
 43
0.0
 44
0.0
 50
0.0
 51
0.0
 71
     0
 72
  1500
 73
     1
 74
     0
 75
     0
 76
     0
 77
     0
 78
     0
281
     0
 65
     1
110
0.0
120
0.0
130
0.0
111
1.0
121
0.0
131
0.0
112
0.0
122
1.0
132
0.0
 79
     0
146
0.0
  0
ENDTAB
  0
TABLE
  2
LTYPE
  5
5
330
0
100
AcDbSymbolTable
 70
     2
  0
LTYPE
  5
13
330
5
100
AcDbSymbolTableRecord
100
AcDbLinetypeTableRecord
  2
ByBlock
 70
     0
  3

 72
    65
 73
     0
 40
0.0
  0
LTYPE
  5
14
330
5
100
AcDbSymbolTableRecord
100
AcDbLinetypeTableRecord
  2
ByLayer
 70
     0
  3

 72
    65
 73
     0
 40
0.0
  0
LTYPE
  5
15
330
5
100
AcDbSymbolTableRecord
100
AcDbLinetypeTableRecord
  2
Continuous
 70
     0
  3
Solid line
 72
    65
 73
     0
 40
0.0
  0
LTYPE
  5
25
330
5
100
AcDbSymbolTableRecord
100
AcDbLinetypeTableRecord
  2
STRICHPUNKT
 70
     0
  3
__ . __ . __ . __ . __ . __ . __ . __ . __ . __
 72
    65
 73
     4
 40
1.0
 49
0.5
 74
     0
 49
-0.25
 74
     0
 49
0.0
 74
     0
 49
-0.25
 74
     0
  0
ENDTAB
  0
TABLE
  2
LAYER
  5
2
330
0
100
AcDbSymbolTable
 70
     9
  0
LAYER
  5
10
330
2
100
AcDbSymbolTableRecord
100
AcDbLayerTableRecord
  2
0
 70
     0
 62
     7
  6
Continuous
370
    -3
390
F
  0
LAYER
  5
2A
330
2
100
AcDbSymbolTableRecord
100
AcDbLayerTableRecord
  2
VOLL
 70
     0
 62
     1
  6
Continuous
370
    -3
390
F
  0
LAYER
  5
2B
330
2
100
AcDbSymbolTableRecord
100
AcDbLayerTableRecord
  2
HILF
 70
     0
 62
     2
  6
Continuous
370
    -3
390
F
  0
LAYER
  5
2C
330
2
100
AcDbSymbolTableRecord
100
AcDbLayerTableRecord
  2
MITTEL
 70
     0
 62
     2
  6
STRICHPUNKT
370
    -3
390
F
  0
LAYER
  5
2F
330
2
100
AcDbSymbolTableRecord
100
AcDbLayerTableRecord
  2
BEM
 70
     0
 62
     7
  6
Continuous
370
    -3
390
F
  0
LAYER
  5
30
330
2
100
AcDbSymbolTableRecord
100
AcDbLayerTableRecord
  2
STEMPEL
 70
     0
 62
     3
  6
Continuous
370
    -3
390
F
  0
LAYER
  5
31
330
2
100
AcDbSymbolTableRecord
100
AcDbLayerTableRecord
  2
TEXT
 70
     0
 62
     7
  6
Continuous
370
    -3
390
F
  0
LAYER
  5
390
330
2
100
AcDbSymbolTableRecord
100
AcDbLayerTableRecord
  2
DEFPOINTS
 70
     0
 62
     7
  6
Continuous
290
     0
370
    -3
390
F
  0
LAYER
  5
391
330
2
100
AcDbSymbolTableRecord
100
AcDbLayerTableRecord
  2
SCHRAFF
 70
     0
 62
     7
  6
Continuous
370
    -3
390
F
  0
ENDTAB
  0
TABLE
  2
STYLE
  5
3
330
0
100
AcDbSymbolTable
 70
     2
  0
STYLE
  5
11
330
3
100
AcDbSymbolTableRecord
100
AcDbTextStyleTableRecord
  2
STANDARD
 70
     0
 40
0.0
 41
0.8
 50
0.0
 71
     0
 42
3.5
  3
simplex.shx
  4

  0
STYLE
  5
24
330
3
100
AcDbSymbolTableRecord
100
AcDbTextStyleTableRecord
  2
GREEKS
 70
     0
 40
0.0
 41
0.8
 50
0.0
 71
     0
 42
2.5
  3
SIMPLEX.shx
  4

  0
ENDTAB
  0
TABLE
  2
VIEW
  5
6
330
0
100
AcDbSymbolTable
 70
     0
  0
ENDTAB
  0
TABLE
  2
UCS
  5
7
330
0
100
AcDbSymbolTable
 70
     0
  0
ENDTAB
  0
TABLE
  2
APPID
  5
9
330
0
100
AcDbSymbolTable
 70
     1
  0
APPID
  5
12
330
9
100
AcDbSymbolTableRecord
100
AcDbRegAppTableRecord
  2
ACAD
 70
     0
  0
ENDTAB
  0
TABLE
  2
DIMSTYLE
  5
A
330
0
100
AcDbSymbolTable
 70
     1
100
AcDbDimStyleTable
 71
     1
340
9D
  0
DIMSTYLE
105
9D
102
{ACAD_REACTORS
330
6F2
330
71D
330
72A
330
83C
330
8EF
330
CC5
102
}
330
A
100
AcDbSymbolTableRecord
100
AcDbDimStyleTableRecord
  2
Standard
 70
     0
340
11
  0
ENDTAB
  0
TABLE
  2
BLOCK_RECORD
  5
1
330
0
100
AcDbSymbolTable
 70
     7
  0
BLOCK_RECORD
  5
1E
102
{ACAD_XDICTIONARY
360
A0
102
}
330
1
100
AcDbSymbolTableRecord
100
AcDbBlockTableRecord
  2
*Model_Space
340
21
  0
BLOCK_RECORD
  5
1A
102
{ACAD_XDICTIONARY
360
A2
102
}
330
1
100
AcDbSymbolTableRecord
100
AcDbBlockTableRecord
  2
*Paper_Space
340
1D
  0
BLOCK_RECORD
  5
22
330
1
100
AcDbSymbolTableRecord
100
AcDbBlockTableRecord
  2
LOGO
340
0
102
{BLKREFS
331
9B
102
}
  0
BLOCK_RECORD
  5
6F3
330
1
100
AcDbSymbolTableRecord
100
AcDbBlockTableRecord
  2
*D1
340
0
  0
BLOCK_RECORD
  5
71E
330
1
100
AcDbSymbolTableRecord
100
AcDbBlockTableRecord
  2
*D2
340
0
  0
BLOCK_RECORD
  5
72B
330
1
100
AcDbSymbolTableRecord
100
AcDbBlockTableRecord
  2
*D3
340
0
  0
BLOCK_RECORD
  5
83D
330
1
100
AcDbSymbolTableRecord
100
AcDbBlockTableRecord
  2
*D4
340
0
  0
BLOCK_RECORD
  5
8F0
330
1
100
AcDbSymbolTableRecord
100
AcDbBlockTableRecord
  2
*D5
340
0
  0
BLOCK_RECORD
  5
CC6
330
1
100
AcDbSymbolTableRecord
100
AcDbBlockTableRecord
  2
*D6
340
0
  0
ENDTAB
  0
ENDSEC
  0
SECTION
  2
BLOCKS
  0
BLOCK
  5
35
330
1E
100
AcDbEntity
  8
0
100
AcDbBlockBegin
  2
*Model_Space
 70
     0
 10
0.0
 20
0.0
 30
0.0
  3
*Model_Space
  1

  0
ENDBLK
  5
36
330
1E
100
AcDbEntity
  8
0
100
AcDbBlockEnd
  0
BLOCK
  5
33
330
1A
100
AcDbEntity
 67
     1
  8
0
100
AcDbBlockBegin
  2
*Paper_Space
 70
     0
 10
0.0
 20
0.0
 30
0.0
  3
*Paper_Space
  1

  0
ENDBLK
  5
34
330
1A
100
AcDbEntity
 67
     1
  8
0
100
AcDbBlockEnd
  0
BLOCK
  5
37
330
22
100
AcDbEntity
  8
0
100
AcDbBlockBegin
  2
LOGO
 70
     0
 10
0.0
 20
0.0
 30
0.0
  3
LOGO
  1

  0
ARC
  5
38
330
22
100
AcDbEntity
  8
0
100
AcDbCircle
 10
11.59973089678112
 20
-9.271599258481501
 30
0.0
 40
4.5
100
AcDbArc
 50
270.0
 51
231.0575587310159
  0
LINE
  5
39
330
22
100
AcDbEntity
  8
0
100
AcDbLine
 10
3.599730896781125
 20
-4.771599258481529
 30
0.0
 11
3.599730896781153
 21
-11.77159925848133
 31
0.0
  0
LINE
  5
3A
330
22
100
AcDbEntity
  8
0
100
AcDbLine
 10
2.599730896781125
 20
-4.771599258481529
 30
0.0
 11
2.599730896781153
 21
-11.77159925848133
 31
0.0
  0
CIRCLE
  5
3B
330
22
100
AcDbEntity
  8
0
100
AcDbCircle
 10
11.59973089678112
 20
-9.271599258481501
 30
0.0
 40
3.5
  0
ARC
  5
3C
330
22
100
AcDbEntity
  8
0
100
AcDbCircle
 10
31.59973089678115
 20
-9.271599258481472
 30
0.0
 40
4.5
100
AcDbArc
 50
270.0
 51
231.0575587310182
  0
LINE
  5
3D
330
22
100
AcDbEntity
  8
0
100
AcDbLine
 10
17.59973089678112
 20
-4.771599258481472
 30
0.0
 11
17.59973089678115
 21
-13.77159925848147
 31
0.0
  0
ARC
  5
3E
330
22
100
AcDbEntity
  8
0
100
AcDbCircle
 10
22.59973089678116
 20
-7.271599258481472
 30
0.0
 40
2.5
100
AcDbArc
 50
293.1161887722295
 51
90.0
  0
CIRCLE
  5
3F
330
22
100
AcDbEntity
  8
0
100
AcDbCircle
 10
31.59973089678115
 20
-9.271599258481472
 30
0.0
 40
3.5
  0
ARC
  5
40
330
22
100
AcDbEntity
  8
0
100
AcDbCircle
 10
4.599730896781153
 20
-11.77159925848133
 30
0.0
 40
1.0
100
AcDbArc
 50
180.0
 51
270.0
  0
ARC
  5
41
330
22
100
AcDbEntity
  8
0
100
AcDbCircle
 10
4.599730896781153
 20
-11.77159925848133
 30
0.0
 40
2.0
100
AcDbArc
 50
179.9999999999992
 51
270.0
  0
LINE
  5
42
330
22
100
AcDbEntity
  8
0
100
AcDbLine
 10
11.59973089678115
 20
-13.77159925848144
 30
0.0
 11
4.599730896781153
 21
-13.77159925848147
 31
0.0
  0
LINE
  5
43
330
22
100
AcDbEntity
  8
0
100
AcDbLine
 10
8.771303772034769
 20
-12.77159925848136
 30
0.0
 11
4.599730896781153
 21
-12.77159925848133
 31
0.0
  0
LINE
  5
44
330
22
100
AcDbEntity
  8
0
100
AcDbLine
 10
31.59973089678115
 20
-13.77159925848147
 30
0.0
 11
23.6715276665056
 21
-13.77159925848144
 31
0.0
  0
LINE
  5
45
330
22
100
AcDbEntity
  8
0
100
AcDbLine
 10
23.56565672307022
 20
-9.51278021337896
 30
0.0
 11
24.4388546544846
 21
-12.77159925848144
 31
0.0
  0
LINE
  5
46
330
22
100
AcDbEntity
  8
0
100
AcDbLine
 10
22.59973089678116
 20
-9.771599258481472
 30
0.0
 11
18.59973089678112
 21
-9.771599258481472
 31
0.0
  0
LINE
  5
47
330
22
100
AcDbEntity
  8
0
100
AcDbLine
 10
18.59973089678115
 20
-13.77159925848144
 30
0.0
 11
17.59973089678115
 21
-13.77159925848144
 31
0.0
  0
LINE
  5
48
330
22
100
AcDbEntity
  8
0
100
AcDbLine
 10
18.59973089678115
 20
-9.771599258481472
 30
0.0
 11
18.59973089678115
 21
-13.77159925848144
 31
0.0
  0
LINE
  5
49
330
22
100
AcDbEntity
  8
0
100
AcDbLine
 10
22.59973089678116
 20
-9.771599258481472
 30
0.0
 11
23.67152766650562
 21
-13.77159925848147
 31
0.0
  0
ARC
  5
4A
330
22
100
AcDbEntity
  8
0
100
AcDbCircle
 10
22.59973089678116
 20
-7.271599258481472
 30
0.0
 40
2.5
100
AcDbArc
 50
270.0
 51
270.0000000000007
  0
LINE
  5
4B
330
22
100
AcDbEntity
  8
0
100
AcDbLine
 10
28.77130377203494
 20
-12.77159925848147
 30
0.0
 11
24.43885465448463
 21
-12.77159925848144
 31
0.0
  0
LINE
  5
4C
330
22
100
AcDbEntity
  8
0
100
AcDbLine
 10
3.599730896781125
 20
-4.771599258481472
 30
0.0
 11
2.599730896781125
 21
-4.771599258481472
 31
0.0
  0
LINE
  5
4D
330
22
100
AcDbEntity
  8
0
100
AcDbLine
 10
22.59973089678116
 20
-8.771599258481472
 30
0.0
 11
18.59973089678115
 21
-8.771599258481472
 31
0.0
  0
LINE
  5
4E
330
22
100
AcDbEntity
  8
0
100
AcDbLine
 10
22.59973089678116
 20
-5.771599258481472
 30
0.0
 11
18.59973089678115
 21
-5.771599258481472
 31
0.0
  0
LINE
  5
4F
330
22
100
AcDbEntity
  8
0
100
AcDbLine
 10
22.59973089678116
 20
-4.771599258481472
 30
0.0
 11
17.59973089678115
 21
-4.771599258481472
 31
0.0
  0
LINE
  5
50
330
22
100
AcDbEntity
  8
0
100
AcDbLine
 10
18.59973089678115
 20
-5.771599258481472
 30
0.0
 11
18.59973089678115
 21
-8.771599258481472
 31
0.0
  0
ARC
  5
51
330
22
100
AcDbEntity
  8
0
100
AcDbCircle
 10
22.59973089678116
 20
-7.271599258481472
 30
0.0
 40
1.5
100
AcDbArc
 50
270.0
 51
90.0
  0
ENDBLK
  5
52
330
22
100
AcDbEntity
  8
0
100
AcDbBlockEnd
  0
BLOCK
  5
6FD
330
6F3
100
AcDbEntity
  8
0
100
AcDbBlockBegin
  2
*D1
 70
     1
 10
0.0
 20
0.0
 30
0.0
  3
*D1
  1

  0
LINE
  5
CB4
330
6F3
100
AcDbEntity
  8
BEM
 62
     0
370
    -2
100
AcDbLine
 10
165.8247885687411
 20
227.9198206086114
 30
0.0
 11
165.8247885687411
 21
207.4955088842173
 31
0.0
  0
LINE
  5
CB5
330
6F3
100
AcDbEntity
  8
BEM
 62
     0
370
    -2
100
AcDbLine
 10
235.8247885687402
 20
227.9198206086113
 30
0.0
 11
235.8247885687402
 21
207.4955088842173
 31
0.0
  0
LINE
  5
CB6
330
6F3
100
AcDbEntity
  8
BEM
 62
     0
370
    -2
100
AcDbLine
 10
172.8247885687411
 20
209.4955088842172
 30
0.0
 11
228.8247885687402
 21
209.4955088842172
 31
0.0
  0
SOLID
  5
CB7
330
6F3
100
AcDbEntity
  8
BEM
 62
     0
100
AcDbTrace
 10
172.8247885687411
 20
210.6621755508839
 30
0.0
 11
172.8247885687411
 21
208.3288422175506
 31
0.0
 12
165.8247885687411
 22
209.4955088842172
 32
0.0
 13
165.8247885687411
 23
209.4955088842172
 33
0.0
  0
SOLID
  5
CB8
330
6F3
100
AcDbEntity
  8
BEM
 62
     0
100
AcDbTrace
 10
228.8247885687402
 20
210.6621755508839
 30
0.0
 11
228.8247885687402
 21
208.3288422175506
 31
0.0
 12
235.8247885687402
 22
209.4955088842172
 32
0.0
 13
235.8247885687402
 23
209.4955088842172
 33
0.0
  0
MTEXT
  5
CB9
330
6F3
100
AcDbEntity
  8
BEM
 62
     1
100
AcDbMText
 10
203.4243983837439
 20
215.9955088842173
 30
0.0
 40
7.0
 41
0.0
 71
     5
 72
     1
  1
\A1;70
 73
     1
 44
1.0
  0
POINT
  5
CBA
330
6F3
100
AcDbEntity
  8
DEFPOINTS
 62
     0
100
AcDbPoint
 10
165.8247885687411
 20
229.9198206086114
 30
0.0
  0
POINT
  5
CBB
330
6F3
100
AcDbEntity
  8
DEFPOINTS
 62
     0
100
AcDbPoint
 10
235.8247885687402
 20
229.9198206086113
 30
0.0
  0
POINT
  5
CBC
330
6F3
100
AcDbEntity
  8
DEFPOINTS
 62
     0
100
AcDbPoint
 10
235.8247885687402
 20
209.4955088842172
 30
0.0
  0
ENDBLK
  5
6FE
330
6F3
100
AcDbEntity
  8
0
100
AcDbBlockEnd
  0
BLOCK
  5
728
330
71E
100
AcDbEntity
  8
0
100
AcDbBlockBegin
  2
*D2
 70
     1
 10
0.0
 20
0.0
 30
0.0
  3
*D2
  1

  0
LINE
  5
CAB
330
71E
100
AcDbEntity
  8
BEM
 62
     0
370
    -2
100
AcDbLine
 10
160.8247885687411
 20
449.9235695686902
 30
0.0
 11
144.5690767528564
 21
449.9235695686902
 31
0.0
  0
LINE
  5
CAC
330
71E
100
AcDbEntity
  8
BEM
 62
     0
370
    -2
100
AcDbLine
 10
161.0355468519507
 20
394.9235695686904
 30
0.0
 11
144.5690767528564
 21
394.9235695686904
 31
0.0
  0
LINE
  5
CAD
330
71E
100
AcDbEntity
  8
BEM
 62
     0
370
    -2
100
AcDbLine
 10
146.5690767528564
 20
442.9235695686903
 30
0.0
 11
146.5690767528564
 21
401.9235695686904
 31
0.0
  0
SOLID
  5
CAE
330
71E
100
AcDbEntity
  8
BEM
 62
     0
100
AcDbTrace
 10
145.4024100861897
 20
442.9235695686903
 30
0.0
 11
147.735743419523
 21
442.9235695686903
 31
0.0
 12
146.5690767528564
 22
449.9235695686902
 32
0.0
 13
146.5690767528564
 23
449.9235695686902
 33
0.0
  0
SOLID
  5
CAF
330
71E
100
AcDbEntity
  8
BEM
 62
     0
100
AcDbTrace
 10
145.4024100861897
 20
401.9235695686904
 30
0.0
 11
147.735743419523
 21
401.9235695686904
 31
0.0
 12
146.5690767528564
 22
394.9235695686904
 32
0.0
 13
146.5690767528564
 23
394.9235695686904
 33
0.0
  0
MTEXT
  5
CB0
330
71E
100
AcDbEntity
  8
BEM
 62
     1
100
AcDbMText
 10
140.0690767528563
 20
422.4235695686903
 30
0.0
 40
7.0
 41
0.0
 71
     5
 72
     1
  1
\A1;55
 11
0.0000000000000001
 21
1.0
 31
0.0
 73
     1
 44
1.0
  0
POINT
  5
CB1
330
71E
100
AcDbEntity
  8
DEFPOINTS
 62
     0
100
AcDbPoint
 10
162.8247885687411
 20
449.9235695686902
 30
0.0
  0
POINT
  5
CB2
330
71E
100
AcDbEntity
  8
DEFPOINTS
 62
     0
100
AcDbPoint
 10
163.0355468519507
 20
394.9235695686904
 30
0.0
  0
POINT
  5
CB3
330
71E
100
AcDbEntity
  8
DEFPOINTS
 62
     0
100
AcDbPoint
 10
146.5690767528564
 20
394.9235695686904
 30
0.0
  0
ENDBLK
  5
729
330
71E
100
AcDbEntity
  8
0
100
AcDbBlockEnd
  0
BLOCK
  5
735
330
72B
100
AcDbEntity
  8
0
100
AcDbBlockBegin
  2
*D3
 70
     1
 10
0.0
 20
0.0
 30
0.0
  3
*D3
  1

  0
LINE
  5
CA2
330
72B
100
AcDbEntity
  8
BEM
 62
     0
370
    -2
100
AcDbLine
 10
160.8247885687411
 20
449.9235695686902
 30
0.0
 11
127.9780508702041
 21
449.9235695686903
 31
0.0
  0
LINE
  5
CA3
330
72B
100
AcDbEntity
  8
BEM
 62
     0
370
    -2
100
AcDbLine
 10
163.8247885687411
 20
229.9198206086113
 30
0.0
 11
127.9780508702041
 21
229.9198206086113
 31
0.0
  0
LINE
  5
CA4
330
72B
100
AcDbEntity
  8
BEM
 62
     0
370
    -2
100
AcDbLine
 10
129.9780508702041
 20
442.9235695686903
 30
0.0
 11
129.9780508702041
 21
236.9198206086113
 31
0.0
  0
SOLID
  5
CA5
330
72B
100
AcDbEntity
  8
BEM
 62
     0
100
AcDbTrace
 10
128.8113842035375
 20
442.9235695686903
 30
0.0
 11
131.1447175368708
 21
442.9235695686903
 31
0.0
 12
129.9780508702041
 22
449.9235695686902
 32
0.0
 13
129.9780508702041
 23
449.9235695686902
 33
0.0
  0
SOLID
  5
CA6
330
72B
100
AcDbEntity
  8
BEM
 62
     0
100
AcDbTrace
 10
128.8113842035374
 20
236.9198206086113
 30
0.0
 11
131.1447175368707
 21
236.9198206086113
 31
0.0
 12
129.9780508702041
 22
229.9198206086113
 32
0.0
 13
129.9780508702041
 23
229.9198206086113
 33
0.0
  0
MTEXT
  5
CA7
330
72B
100
AcDbEntity
  8
BEM
 62
     1
100
AcDbMText
 10
123.478050870204
 20
339.9216950886508
 30
0.0
 40
7.0
 41
0.0
 71
     5
 72
     1
  1
\A1;220
 11
0.0000000000000001
 21
1.0
 31
0.0
 73
     1
 44
1.0
  0
POINT
  5
CA8
330
72B
100
AcDbEntity
  8
DEFPOINTS
 62
     0
100
AcDbPoint
 10
162.8247885687411
 20
449.9235695686902
 30
0.0
  0
POINT
  5
CA9
330
72B
100
AcDbEntity
  8
DEFPOINTS
 62
     0
100
AcDbPoint
 10
165.8247885687411
 20
229.9198206086113
 30
0.0
  0
POINT
  5
CAA
330
72B
100
AcDbEntity
  8
DEFPOINTS
 62
     0
100
AcDbPoint
 10
129.9780508702041
 20
229.9198206086113
 30
0.0
  0
ENDBLK
  5
736
330
72B
100
AcDbEntity
  8
0
100
AcDbBlockEnd
  0
BLOCK
  5
847
330
83D
100
AcDbEntity
  8
0
100
AcDbBlockBegin
  2
*D4
 70
     1
 10
0.0
 20
0.0
 30
0.0
  3
*D4
  1

  0
LINE
  5
C85
330
83D
100
AcDbEntity
  8
BEM
 62
     0
370
    -2
100
AcDbLine
 10
163.8247885687411
 20
229.9198206086113
 30
0.0
 11
144.5690767528562
 21
229.9198206086113
 31
0.0
  0
LINE
  5
C86
330
83D
100
AcDbEntity
  8
BEM
 62
     0
370
    -2
100
AcDbLine
 10
198.824788568741
 20
329.9198206086114
 30
0.0
 11
144.5690767528563
 21
329.9198206086114
 31
0.0
  0
LINE
  5
C87
330
83D
100
AcDbEntity
  8
BEM
 62
     0
370
    -2
100
AcDbLine
 10
146.5690767528562
 20
236.9198206086113
 30
0.0
 11
146.5690767528563
 21
322.9198206086114
 31
0.0
  0
SOLID
  5
C88
330
83D
100
AcDbEntity
  8
BEM
 62
     0
100
AcDbTrace
 10
145.4024100861896
 20
236.9198206086113
 30
0.0
 11
147.7357434195229
 21
236.9198206086113
 31
0.0
 12
146.5690767528562
 22
229.9198206086113
 32
0.0
 13
146.5690767528562
 23
229.9198206086113
 33
0.0
  0
SOLID
  5
C89
330
83D
100
AcDbEntity
  8
BEM
 62
     0
100
AcDbTrace
 10
145.4024100861896
 20
322.9198206086114
 30
0.0
 11
147.7357434195229
 21
322.9198206086114
 31
0.0
 12
146.5690767528563
 22
329.9198206086114
 32
0.0
 13
146.5690767528563
 23
329.9198206086114
 33
0.0
  0
MTEXT
  5
C8A
330
83D
100
AcDbEntity
  8
BEM
 62
     1
100
AcDbMText
 10
140.0690767528562
 20
279.9198206086114
 30
0.0
 40
7.0
 41
0.0
 71
     5
 72
     1
  1
\A1;100
 11
0.0000000000000001
 21
1.0
 31
0.0
 73
     1
 44
1.0
  0
POINT
  5
C8B
330
83D
100
AcDbEntity
  8
DEFPOINTS
 62
     0
100
AcDbPoint
 10
165.8247885687411
 20
229.9198206086113
 30
0.0
  0
POINT
  5
C8C
330
83D
100
AcDbEntity
  8
DEFPOINTS
 62
     0
100
AcDbPoint
 10
200.824788568741
 20
329.9198206086114
 30
0.0
  0
POINT
  5
C8D
330
83D
100
AcDbEntity
  8
DEFPOINTS
 62
     0
100
AcDbPoint
 10
146.5690767528563
 20
329.9198206086114
 30
0.0
  0
ENDBLK
  5
848
330
83D
100
AcDbEntity
  8
0
100
AcDbBlockEnd
  0
BLOCK
  5
8FA
330
8F0
100
AcDbEntity
  8
0
100
AcDbBlockBegin
  2
*D5
 70
     1
 10
0.0
 20
0.0
 30
0.0
  3
*D5
  1

  0
LINE
  5
CD4
330
8F0
100
AcDbEntity
  8
BEM
 62
     0
370
    -2
100
AcDbLine
 10
317.8530170725587
 20
294.2302962737743
 30
0.0
 11
318.7894469486695
 21
276.3621498092307
 31
0.0
  0
LINE
  5
CD5
330
8F0
100
AcDbEntity
  8
BEM
 62
     0
370
    -2
100
AcDbLine
 10
200.9294604812269
 20
327.9225615391021
 30
0.0
 11
203.9470504518936
 21
270.3435148412921
 31
0.0
  0
LINE
  5
CD6
330
8F0
100
AcDbEntity
  8
BEM
 62
     0
370
    -2
100
AcDbLine
 10
311.6943682929016
 20
277.9930571850392
 30
0.0
 11
210.8327852826898
 21
272.7071256045018
 31
0.0
  0
SOLID
  5
CD7
330
8F0
100
AcDbEntity
  8
BEM
 62
     0
100
AcDbTrace
 10
311.6333096772848
 20
279.1581249755862
 30
0.0
 11
311.7554269085184
 21
276.8279893944922
 31
0.0
 12
318.6847750361837
 22
278.3594088787398
 32
0.0
 13
318.6847750361837
 23
278.3594088787398
 33
0.0
  0
SOLID
  5
CD8
330
8F0
100
AcDbEntity
  8
BEM
 62
     0
100
AcDbTrace
 10
210.771726667073
 20
273.8721933950488
 30
0.0
 11
210.8938438983066
 21
271.5420578139548
 31
0.0
 12
203.8423785394078
 22
272.3407739108012
 32
0.0
 13
203.8423785394078
 23
272.3407739108012
 33
0.0
  0
MTEXT
  5
CD9
330
8F0
100
AcDbEntity
  8
BEM
 62
     1
100
AcDbMText
 10
260.9233930722166
 20
281.8411833706752
 30
0.0
 40
7.0
 41
0.0
 71
     5
 72
     1
  1
\A1;115
 11
0.9986295347545739
 21
0.0523359562429444
 31
0.0
 73
     1
 44
1.0
  0
POINT
  5
CDA
330
8F0
100
AcDbEntity
  8
DEFPOINTS
 62
     0
100
AcDbPoint
 10
317.7483451600728
 20
296.2275553432834
 30
0.0
  0
POINT
  5
CDB
330
8F0
100
AcDbEntity
  8
DEFPOINTS
 62
     0
100
AcDbPoint
 10
200.824788568741
 20
329.9198206086113
 30
0.0
  0
POINT
  5
CDC
330
8F0
100
AcDbEntity
  8
DEFPOINTS
 62
     0
100
AcDbPoint
 10
203.8423785394078
 20
272.3407739108012
 30
0.0
  0
ENDBLK
  5
8FB
330
8F0
100
AcDbEntity
  8
0
100
AcDbBlockEnd
  0
BLOCK
  5
CD2
330
CC6
100
AcDbEntity
  8
0
100
AcDbBlockBegin
  2
*D6
 70
     1
 10
0.0
 20
0.0
 30
0.0
  3
*D6
  1

  0
LINE
  5
CC7
330
CC6
100
AcDbEntity
  8
BEM
 62
     0
370
    -2
100
AcDbLine
 10
322.657591808799
 20
336.3048072702504
 30
0.0
 11
341.1881026593752
 21
337.2759501929092
 31
0.0
  0
LINE
  5
CC8
330
CC6
100
AcDbEntity
  8
BEM
 62
     0
370
    -2
100
AcDbLine
 10
200.8247885687412
 20
456.9235695686902
 30
0.0
 11
200.8247885687413
 21
470.4757617315928
 31
0.0
  0
ARC
  5
CC9
330
CC6
100
AcDbEntity
  8
BEM
 62
     0
370
    -2
100
AcDbCircle
 10
200.824788568741
 20
329.9198206086114
 30
0.0
 40
138.5559411229814
100
AcDbArc
 50
5.894954335015475
 51
87.10504566498428
  0
SOLID
  5
CCA
330
CC6
100
AcDbEntity
  8
BEM
 62
     0
100
AcDbTrace
 10
339.811180887426
 20
344.2406695376935
 30
0.0
 11
337.4848735987135
 21
344.0597307554281
 31
0.0
 12
339.1908435898661
 22
337.1712782804234
 32
0.0
 13
339.1908435898661
 23
337.1712782804234
 33
0.0
  0
SOLID
  5
CCB
330
CC6
100
AcDbEntity
  8
BEM
 62
     0
100
AcDbTrace
 10
207.7930842298429
 20
467.1326434603364
 30
0.0
 11
207.8520255253259
 21
469.4652322299508
 31
0.0
 12
200.8247885687413
 22
468.4757617315929
 32
0.0
 13
200.8247885687413
 23
468.4757617315929
 33
0.0
  0
MTEXT
  5
CCC
330
CC6
100
AcDbEntity
  8
BEM
 62
     1
100
AcDbMText
 10
300.6747093723093
 20
435.1396826622893
 30
0.0
 40
7.0
 41
0.0
 71
     5
 72
     1
  1
\A1;87°
 11
0.7253743710122862
 21
-0.6883545756937555
 31
0.0
 73
     1
 44
1.0
  0
POINT
  5
CCD
330
CC6
100
AcDbEntity
  8
DEFPOINTS
 62
     0
100
AcDbPoint
 10
318.3268906492474
 20
403.3432829836407
 30
0.0
  0
POINT
  5
CCE
330
CC6
100
AcDbEntity
  8
DEFPOINTS
 62
     0
100
AcDbPoint
 10
200.8247885687412
 20
454.9235695686902
 30
0.0
  0
POINT
  5
CCF
330
CC6
100
AcDbEntity
  8
DEFPOINTS
 62
     0
100
AcDbPoint
 10
320.6603327392898
 20
336.2001353577645
 30
0.0
  0
POINT
  5
CD0
330
CC6
100
AcDbEntity
  8
DEFPOINTS
 62
     0
100
AcDbPoint
 10
226.8751064026317
 20
331.285059915903
 30
0.0
  0
POINT
  5
CD1
330
CC6
100
AcDbEntity
  8
DEFPOINTS
 62
     0
100
AcDbPoint
 10
200.8247885687408
 20
224.9198206086113
 30
0.0
  0
ENDBLK
  5
CD3
330
CC6
100
AcDbEntity
  8
0
100
AcDbBlockEnd
  0
ENDSEC
  0
SECTION
  2
ENTITIES
  0
LINE
  5
57
330
1E
100
AcDbEntity
  8
STEMPEL
100
AcDbLine
 10
410.0
 20
110.0
 30
0.0
 11
39.99999999999997
 21
110.0
 31
0.0
  0
LINE
  5
58
330
1E
100
AcDbEntity
  8
STEMPEL
100
AcDbLine
 10
136.0000000000001
 20
109.9999999999999
 30
0.0
 11
136.0
 21
9.999999999999971
 31
0.0
  0
LINE
  5
59
330
1E
100
AcDbEntity
  8
STEMPEL
100
AcDbLine
 10
220.0
 20
110.0
 30
0.0
 11
220.0
 21
9.999999999999971
 31
0.0
  0
LINE
  5
5A
330
1E
100
AcDbEntity
  8
STEMPEL
100
AcDbLine
 10
332.0
 20
109.9999999999997
 30
0.0
 11
332.0
 21
40.0
 31
0.0
  0
LINE
  5
5B
330
1E
100
AcDbEntity
  8
STEMPEL
100
AcDbLine
 10
135.9999999999999
 20
29.99999999999997
 30
0.0
 11
39.99999999999997
 21
29.99999999999997
 31
0.0
  0
LINE
  5
5C
330
1E
100
AcDbEntity
  8
STEMPEL
100
AcDbLine
 10
410.0
 20
40.0
 30
0.0
 11
136.0000000000001
 21
39.99999999999997
 31
0.0
  0
LINE
  5
5D
330
1E
100
AcDbEntity
  8
STEMPEL
100
AcDbLine
 10
410.0
 20
80.0
 30
0.0
 11
136.0000000000001
 21
79.99999999999994
 31
0.0
  0
LINE
  5
5E
330
1E
100
AcDbEntity
  8
VOLL
100
AcDbLine
 10
54.00000000000009
 20
110.0
 30
0.0
 11
53.99999999999997
 21
9.999999999999971
 31
0.0
  0
LINE
  5
5F
330
1E
100
AcDbEntity
  8
VOLL
100
AcDbLine
 10
94.00000000000011
 20
109.9999999999999
 30
0.0
 11
94.0
 21
9.999999999999971
 31
0.0
  0
LINE
  5
60
330
1E
100
AcDbEntity
  8
VOLL
100
AcDbLine
 10
114.0000000000001
 20
109.9999999999999
 30
0.0
 11
114.0
 21
9.999999999999971
 31
0.0
  0
LINE
  5
61
330
1E
100
AcDbEntity
  8
VOLL
100
AcDbLine
 10
154.0000000000001
 20
79.99999999999994
 30
0.0
 11
154.0000000000001
 21
39.99999999999997
 31
0.0
  0
LINE
  5
62
330
1E
100
AcDbEntity
  8
VOLL
100
AcDbLine
 10
180.0000000000001
 20
109.9999999999998
 30
0.0
 11
180.0
 21
39.99999999999997
 31
0.0
  0
LINE
  5
63
330
1E
100
AcDbEntity
  8
HILF
100
AcDbLine
 10
40.00000000000008
 20
100.0
 30
0.0
 11
136.0000000000001
 21
100.0
 31
0.0
  0
LINE
  5
64
330
1E
100
AcDbEntity
  8
HILF
100
AcDbLine
 10
40.00000000000008
 20
90.00000000000005
 30
0.0
 11
136.0000000000001
 21
90.00000000000005
 31
0.0
  0
LINE
  5
65
330
1E
100
AcDbEntity
  8
HILF
100
AcDbLine
 10
40.00000000000008
 20
79.99999999999994
 30
0.0
 11
136.0000000000001
 21
79.99999999999994
 31
0.0
  0
LINE
  5
66
330
1E
100
AcDbEntity
  8
HILF
100
AcDbLine
 10
40.00000000000008
 20
69.99999999999994
 30
0.0
 11
136.0000000000001
 21
69.99999999999994
 31
0.0
  0
LINE
  5
67
330
1E
100
AcDbEntity
  8
HILF
100
AcDbLine
 10
40.00000000000008
 20
59.99999999999997
 30
0.0
 11
136.0000000000001
 21
59.99999999999997
 31
0.0
  0
LINE
  5
68
330
1E
100
AcDbEntity
  8
HILF
100
AcDbLine
 10
40.00000000000008
 20
49.99999999999997
 30
0.0
 11
136.0000000000001
 21
49.99999999999997
 31
0.0
  0
LINE
  5
69
330
1E
100
AcDbEntity
  8
HILF
100
AcDbLine
 10
40.00000000000008
 20
39.99999999999997
 30
0.0
 11
136.0000000000001
 21
39.99999999999997
 31
0.0
  0
LINE
  5
6A
330
1E
100
AcDbEntity
  8
HILF
100
AcDbLine
 10
136.0000000000001
 20
69.99999999999994
 30
0.0
 11
220.0
 21
69.99999999999994
 31
0.0
  0
LINE
  5
6B
330
1E
100
AcDbEntity
  8
HILF
100
AcDbLine
 10
136.0000000000001
 20
59.99999999999997
 30
0.0
 11
220.0
 21
59.99999999999997
 31
0.0
  0
LINE
  5
6C
330
1E
100
AcDbEntity
  8
HILF
100
AcDbLine
 10
136.0000000000001
 20
49.99999999999997
 30
0.0
 11
220.0
 21
49.99999999999997
 31
0.0
  0
LINE
  5
6D
330
1E
100
AcDbEntity
  8
HILF
100
AcDbLine
 10
224.7736801096948
 20
84.03758247564139
 30
0.0
 11
324.8353916556311
 21
84.03758247564139
 31
0.0
  0
LINE
  5
6E
330
1E
100
AcDbEntity
  8
HILF
100
AcDbLine
 10
224.7736801096948
 20
69.99999999999994
 30
0.0
 11
324.835391655631
 21
69.99999999999994
 31
0.0
  0
LINE
  5
6F
330
1E
100
AcDbEntity
  8
HILF
100
AcDbLine
 10
224.7736801096948
 20
59.99999999999997
 30
0.0
 11
324.835391655631
 21
59.99999999999997
 31
0.0
  0
LINE
  5
70
330
1E
100
AcDbEntity
  8
HILF
100
AcDbLine
 10
224.7736801096948
 20
49.99999999999997
 30
0.0
 11
324.835391655631
 21
49.99999999999997
 31
0.0
  0
LINE
  5
71
330
1E
100
AcDbEntity
  8
VOLL
100
AcDbLine
 10
332.0
 20
60.0
 30
0.0
 11
410.0
 21
60.0
 31
0.0
  0
LINE
  5
72
330
1E
100
AcDbEntity
  8
HILF
100
AcDbLine
 10
336.7238616296993
 20
83.77983636955827
 30
0.0
 11
404.8588839326728
 21
83.77983636955827
 31
0.0
  0
LINE
  5
73
330
1E
100
AcDbEntity
  8
HILF
100
AcDbLine
 10
223.4909699289885
 20
14.89398258028314
 30
0.0
 11
404.8588839326728
 21
14.89398258028314
 31
0.0
  0
TEXT
  5
74
330
1E
100
AcDbEntity
  8
TEXT
100
AcDbText
 10
63.86165979631819
 20
18.67381894984132
 30
0.0
 40
4.0
  1
Änderung
 41
0.8
  7
GREEKS
 72
     1
 11
74.60451693917534
 21
18.67381894984132
 31
0.0
100
AcDbText
  0
TEXT
  5
75
330
1E
100
AcDbEntity
  8
TEXT
100
AcDbText
 10
143.5163572150377
 20
102.4620895087088
 30
0.0
 40
5.0
  1
Maßstab
 41
0.8
  7
GREEKS
100
AcDbText
  0
TEXT
  5
76
330
1E
100
AcDbEntity
  8
TEXT
100
AcDbText
 10
184.2858954734051
 20
102.4184168434819
 30
0.0
 40
5.0
  1
Zul. Abw.
 41
0.8
  7
GREEKS
100
AcDbText
  0
TEXT
  5
77
330
1E
100
AcDbEntity
  8
TEXT
100
AcDbText
 10
224.877940380901
 20
102.5489328011779
 30
0.0
 40
5.0
  1
Benennung
 41
0.8
  7
GREEKS
100
AcDbText
  0
TEXT
  5
78
330
1E
100
AcDbEntity
  8
TEXT
100
AcDbText
 10
336.178754957634
 20
102.3132034537136
 30
0.0
 40
5.0
  1
Zeichnungs Nr.
 41
0.8
  7
GREEKS
100
AcDbText
  0
TEXT
  5
79
330
1E
100
AcDbEntity
  8
TEXT
100
AcDbText
 10
224.742238391136
 20
30.84560570193057
 30
0.0
 40
5.0
  1
Bauvorhaben
 41
0.8
  7
GREEKS
100
AcDbText
  0
TEXT
  5
7A
330
1E
100
AcDbEntity
  8
TEXT
100
AcDbText
 10
336.7238616296993
 20
73.1811823709997
 30
0.0
 40
5.0
  1
Ersatz für:
 41
0.8
  7
GREEKS
100
AcDbText
  0
TEXT
  5
7B
330
1E
100
AcDbEntity
  8
TEXT
100
AcDbText
 10
48.26641107045756
 20
13.65465846027192
 30
0.0
 40
4.0
  1
Index
 50
90.0
 41
0.8
  7
GREEKS
100
AcDbText
  0
TEXT
  5
7C
330
1E
100
AcDbEntity
  8
TEXT
100
AcDbText
 10
100.0934676075481
 20
18.6715626933981
 30
0.0
 40
4.0
  1
Tag
 41
0.8
  7
GREEKS
 72
     1
 11
103.8268009408814
 21
18.6715626933981
 31
0.0
100
AcDbText
  0
TEXT
  5
7D
330
1E
100
AcDbEntity
  8
TEXT
100
AcDbText
 10
119.0122744386592
 20
18.59324216966408
 30
0.0
 40
4.0
  1
Name
 41
0.8
  7
GREEKS
 72
     1
 11
125.3360839624688
 21
18.59324216966408
 31
0.0
100
AcDbText
  0
TEXT
  5
7E
330
1E
100
AcDbEntity
  8
TEXT
100
AcDbText
 10
162.3311673153651
 20
73.31880501229926
 30
0.0
 40
4.0
  1
Tag
 41
0.8
  7
GREEKS
100
AcDbText
  0
TEXT
  5
7F
330
1E
100
AcDbEntity
  8
TEXT
100
AcDbText
 10
192.4626584226295
 20
73.30961091915225
 30
0.0
 40
4.0
  1
Name
 41
0.8
  7
GREEKS
100
AcDbText
  0
TEXT
  5
80
330
1E
100
AcDbEntity
  8
TEXT
100
AcDbText
 10
137.5836127167615
 20
63.62990369617964
 30
0.0
 40
4.0
  1
Gez.
 41
0.8
  7
GREEKS
100
AcDbText
  0
TEXT
  5
81
330
1E
100
AcDbEntity
  8
TEXT
100
AcDbText
 10
137.5515086571672
 20
53.68926291428377
 30
0.0
 40
4.0
  1
Gepr.
 41
0.8
  7
GREEKS
100
AcDbText
  0
TEXT
  5
82
330
1E
100
AcDbEntity
  8
TEXT
100
AcDbText
 10
137.6006777387304
 20
43.52946389649807
 30
0.0
 40
4.0
  1
Norm.
 41
0.8
  7
GREEKS
100
AcDbText
  0
LINE
  5
83
330
1E
100
AcDbEntity
  8
STEMPEL
100
AcDbLine
 10
49.99999999999989
 20
10.0
 30
0.0
 11
410.0
 21
10.0
 31
0.0
  0
TEXT
  5
84
330
1E
100
AcDbEntity
  8
TEXT
100
AcDbText
 10
337.2400861497006
 20
52.07416177878602
 30
0.0
 40
5.0
  1
ersetzt durch:
 41
0.8
  7
GREEKS
100
AcDbText
  0
LINE
  5
85
330
1E
100
AcDbEntity
  8
STEMPEL
100
AcDbLine
 10
410.0
 20
10.0
 30
0.0
 11
39.99999999999989
 21
10.0
 31
0.0
  0
LINE
  5
86
330
1E
100
AcDbEntity
  8
STEMPEL
100
AcDbLine
 10
410.0
 20
10.0
 30
0.0
 11
410.0
 21
584.0
 31
0.0
  0
LINE
  5
87
330
1E
100
AcDbEntity
  8
STEMPEL
100
AcDbLine
 10
40.0
 20
10.0
 30
0.0
 11
39.99999999999989
 21
584.0
 31
0.0
  0
LINE
  5
88
330
1E
100
AcDbEntity
  8
STEMPEL
100
AcDbLine
 10
410.0
 20
584.0
 30
0.0
 11
39.99999999999989
 21
584.0
 31
0.0
  0
LINE
  5
89
330
1E
100
AcDbEntity
  8
HILF
100
AcDbLine
 10
0.0
 20
0.0
 30
0.0
 11
-0.0000000000001137
 21
594.0
 31
0.0
  0
LINE
  5
8A
330
1E
100
AcDbEntity
  8
HILF
100
AcDbLine
 10
419.9999999999999
 20
594.0000000000002
 30
0.0
 11
0.0
 21
594.0
 31
0.0
  0
LINE
  5
8B
330
1E
100
AcDbEntity
  8
HILF
100
AcDbLine
 10
420.0
 20
0.0
 30
0.0
 11
0.0
 21
0.0
 31
0.0
  0
LINE
  5
8C
330
1E
100
AcDbEntity
  8
HILF
100
AcDbLine
 10
31.08767135713856
 20
297.0
 30
0.0
 11
0.0000000000001137
 21
297.0
 31
0.0
  0
TEXT
  5
8D
330
1E
100
AcDbEntity
  8
TEXT
100
AcDbText
 10
138.622109822104
 20
73.14025471151666
 30
0.0
 40
4.0
  1
2009
 41
0.8
  7
GREEKS
100
AcDbText
  0
LINE
  5
8E
330
1E
100
AcDbEntity
  8
HILF
100
AcDbLine
 10
420.0
 20
-0.0000000000001137
 30
0.0
 11
419.9999999999999
 21
594.0
 31
0.0
  0
TEXT
  5
8F
330
1E
100
AcDbEntity
  8
VOLL
100
AcDbText
 10
78.07675471698113
 20
31.02594776470585
 30
0.0
 40
1.8
  1

  7
GREEKS
100
AcDbText
  0
TEXT
  5
90
330
1E
100
AcDbEntity
  8
TEXT
100
AcDbText
 10
41.85509950977674
 20
111.6719999999999
 30
0.0
 40
5.0
  1
Erstellt mit AUTOCAD 2004
 41
0.8
  7
GREEKS
100
AcDbText
  0
TEXT
  5
91
330
1E
100
AcDbEntity
  8
TEXT
100
AcDbText
 10
194.4216048581257
 20
63.0896391972351
 30
0.0
 40
4.0
  1
Koeh
 41
0.8
  7
GREEKS
 72
     1
 11
199.6787477152685
 21
63.0896391972351
 31
0.0
100
AcDbText
  0
TEXT
  5
92
330
1E
100
AcDbEntity
  8
TEXT
 62
     1
100
AcDbText
 10
346.0818850786881
 20
88.14901428913959
 30
0.0
 40
7.0
  1
55694CC0W
 41
0.8
  7
GREEKS
 72
     1
 11
370.3485517453547
 21
88.14901428913959
 31
0.0
100
AcDbText
  0
TEXT
  5
93
330
1E
100
AcDbEntity
  8
TEXT
 62
     1
100
AcDbText
 10
150.5006306481887
 20
88.14901428913959
 30
0.0
 40
7.0
  1
1:2
 41
0.8
  7
GREEKS
100
AcDbText
  0
TEXT
  5
94
330
1E
100
AcDbEntity
  8
TEXT
100
AcDbText
 10
161.0085209177598
 20
63.10765040825732
 30
0.0
 40
4.0
  1
05.11.
 41
0.8
  7
GREEKS
 72
     1
 11
167.4085209177598
 21
63.10765040825732
 31
0.0
100
AcDbText
  0
TEXT
  5
95
330
1E
100
AcDbEntity
  8
TEXT
 62
     1
100
AcDbText
 10
225.3047845892622
 20
87.41748789253779
 30
0.0
 40
7.0
  1
Abzweig quadratisch DN70
 41
0.7
  7
GREEKS
100
AcDbText
  0
TEXT
  5
96
330
1E
100
AcDbEntity
  8
TEXT
100
AcDbText
 10
225.1296391125315
 20
71.50334417585288
 30
0.0
 40
5.0
  1
mit LX-Muffe DN70 87°
 41
0.8
  7
GREEKS
100
AcDbText
  0
TEXT
  5
98
330
1E
100
AcDbEntity
  8
TEXT
100
AcDbText
 10
225.1296391125315
 20
51.64011943042158
 30
0.0
 40
5.0
  1
EDV-Art.Nr. 55694.CC0X
 41
0.8
  7
GREEKS
100
AcDbText
  0
TEXT
  5
99
330
1E
100
AcDbEntity
  8
TEXT
100
AcDbText
 10
224.9837501577827
 20
42.62974153022632
 30
0.0
 40
4.0
  1
55694CC0W.DWG
 41
0.8
  7
GREEKS
100
AcDbText
  0
TEXT
  5
9A
330
1E
100
AcDbEntity
  8
TEXT
100
AcDbText
 10
182.626132208084
 20
90.76363841023022
 30
0.0
 40
4.0
  1
DIN EN1123-2
 41
0.8
  7
GREEKS
 72
     1
 11
199.6166083985602
 21
90.76363841023022
 31
0.0
100
AcDbText
  0
INSERT
  5
9B
330
1E
100
AcDbEntity
  8
STEMPEL
100
AcDbBlockReference
  2
LOGO
 10
140.9955485457794
 20
45.02105276448322
 30
0.0
 41
2.0
 42
2.0
 43
2.0
  0
TEXT
  5
118
330
1E
100
AcDbEntity
  8
BEM
100
AcDbText
 10
417.3022923857165
 20
10.16790107998849
 30
0.0
 40
4.0
  1
Diese Zeichnung ist urheberrechtlich geschützt und bleibt unser Eigentum. Sie darf weder ganz noch teilweise verfielfältigt und nicht an Dritte weitergegeben werden.
 50
90.0
 41
0.8
  7
GREEKS
100
AcDbText
  0
LINE
  5
6C5
330
1E
100
AcDbEntity
  8
HILF
100
AcDbLine
 10
165.1897029733135
 20
394.2800442254455
 30
0.0
 11
236.4598741641687
 21
394.2800442254454
 31
0.0
  0
LINE
  5
6C6
330
1E
100
AcDbEntity
  8
HILF
100
AcDbLine
 10
167.4309127034881
 20
387.595903172253
 30
0.0
 11
234.2186644339941
 21
387.595903172253
 31
0.0
  0
ARC
  5
6C7
330
1E
100
AcDbEntity
  8
STEMPEL
100
AcDbCircle
 10
250.8247885687411
 20
383.9576836597204
 30
0.0
 40
15.0
100
AcDbArc
 50
155.2847529943027
 51
179.9999999999999
  0
ARC
  5
6CA
330
1E
100
AcDbEntity
  8
STEMPEL
100
AcDbCircle
 10
221.0747885687411
 20
397.6507475973497
 30
0.0
 40
17.75
100
AcDbArc
 50
335.2847529943065
 51
0.0
  0
LINE
  5
6CB
330
1E
100
AcDbEntity
  8
STEMPEL
100
AcDbLine
 10
238.8247885687411
 20
449.9235695686902
 30
0.0
 11
238.8247885687412
 21
397.6507475973497
 31
0.0
  0
ARC
  5
6CD
330
1E
100
AcDbEntity
  8
STEMPEL
100
AcDbCircle
 10
150.8247885687411
 20
383.9576836597205
 30
0.0
 40
15.0
100
AcDbArc
 50
0.0
 51
24.71524700569411
  0
ARC
  5
6CF
330
1E
100
AcDbEntity
  8
STEMPEL
100
AcDbCircle
 10
180.574788568741
 20
397.6507475973498
 30
0.0
 40
17.75
100
AcDbArc
 50
179.9999999999999
 51
204.7152470056898
  0
LINE
  5
6D1
330
1E
100
AcDbEntity
  8
STEMPEL
100
AcDbLine
 10
162.8247885687411
 20
449.9235695686902
 30
0.0
 11
162.824788568741
 21
397.6507475973497
 31
0.0
  0
LINE
  5
6D3
330
1E
100
AcDbEntity
  8
STEMPEL
100
AcDbLine
 10
162.8247885687411
 20
449.9235695686902
 30
0.0
 11
238.8247885687411
 21
449.9235695686902
 31
0.0
  0
LINE
  5
6D7
102
{ACAD_REACTORS
330
954
102
}
330
1E
100
AcDbEntity
  8
STEMPEL
100
AcDbLine
 10
235.8247885687411
 20
383.9576836597205
 30
0.0
 11
235.8247885687402
 21
229.9198206086114
 31
0.0
  0
LINE
  5
6D8
330
1E
100
AcDbEntity
  8
STEMPEL
100
AcDbLine
 10
165.8247885687411
 20
383.9576836597205
 30
0.0
 11
165.8247885687412
 21
229.9198206086113
 31
0.0
  0
LINE
  5
6DA
330
1E
100
AcDbEntity
  8
MITTEL
100
AcDbLine
 10
200.8247885687411
 20
454.9235695686902
 30
0.0
 11
200.8247885687409
 21
224.9198206086113
 31
0.0
  0
LINE
  5
6EE
330
1E
100
AcDbEntity
  8
STEMPEL
100
AcDbLine
 10
235.8247885687402
 20
229.9198206086113
 30
0.0
 11
165.8247885687411
 21
229.9198206086113
 31
0.0
  0
DIMENSION
  5
6F2
330
1E
100
AcDbEntity
  8
BEM
100
AcDbDimension
  2
*D1
 10
235.8247885687402
 20
209.4955088842172
 30
0.0
 11
203.4243983837439
 21
209.4955088842172
 31
0.0
 70
   160
 71
     5
 42
69.99999999999906
  3
Standard
100
AcDbAlignedDimension
 13
165.8247885687411
 23
229.9198206086114
 33
0.0
 14
235.8247885687402
 24
229.9198206086113
 34
0.0
100
AcDbRotatedDimension
1001
ACAD
1000
DSTYLE
1002
{
1070
    40
1040
2.0
1070
    41
1040
3.5
1070
    42
1040
1.0
1070
    43
1040
7.0
1070
    44
1040
1.0
1070
    73
1070
     0
1070
    74
1070
     0
1070
    77
1070
     1
1070
    78
1070
     8
1070
    79
1070
     2
1070
   140
1040
3.5
1070
   141
1040
1.5
1070
   146
1040
0.5
1070
   147
1040
1.5
1070
   172
1070
     1
1070
   178
1070
     1
1070
   179
1070
     2
1070
   271
1070
     2
1070
   272
1070
     2
1070
   284
1070
     8
1070
   285
1070
     8
1070
   286
1070
     8
1002
}
  0
LWPOLYLINE
  5
700
330
1E
100
AcDbEntity
  8
BEM
 62
     1
100
AcDbPolyline
 90
        4
 70
     1
 43
0.0
 10
189.8650647145803
 20
219.5933655875213
 10
189.8650647145803
 20
212.5933655875213
 10
196.8650647145803
 20
212.5933655875213
 10
196.8650647145803
 20
219.5933655875213
  0
DIMENSION
  5
71D
330
1E
100
AcDbEntity
  8
BEM
100
AcDbDimension
  2
*D2
 10
146.5690767528564
 20
394.9235695686904
 30
0.0
 11
140.0690767528563
 21
422.4235695686903
 31
0.0
 70
    32
 71
     5
 42
54.99999999999983
  3
Standard
100
AcDbAlignedDimension
 13
162.8247885687411
 23
449.9235695686902
 33
0.0
 14
163.0355468519507
 24
394.9235695686904
 34
0.0
 50
90.0
100
AcDbRotatedDimension
1001
ACAD
1000
DSTYLE
1002
{
1070
    40
1040
2.0
1070
    41
1040
3.5
1070
    42
1040
1.0
1070
    43
1040
7.0
1070
    44
1040
1.0
1070
    73
1070
     0
1070
    74
1070
     0
1070
    77
1070
     1
1070
    78
1070
     8
1070
    79
1070
     2
1070
   140
1040
3.5
1070
   141
1040
1.5
1070
   146
1040
0.5
1070
   147
1040
1.5
1070
   172
1070
     1
1070
   178
1070
     1
1070
   179
1070
     2
1070
   271
1070
     2
1070
   272
1070
     2
1070
   284
1070
     8
1070
   285
1070
     8
1070
   286
1070
     8
1002
}
  0
DIMENSION
  5
72A
330
1E
100
AcDbEntity
  8
BEM
100
AcDbDimension
  2
*D3
 10
129.9780508702041
 20
229.9198206086113
 30
0.0
 11
123.478050870204
 21
339.9216950886508
 31
0.0
 70
    32
 71
     5
 42
220.003748960079
  3
Standard
100
AcDbAlignedDimension
 13
162.8247885687411
 23
449.9235695686902
 33
0.0
 14
165.8247885687411
 24
229.9198206086113
 34
0.0
 50
90.0
100
AcDbRotatedDimension
1001
ACAD
1000
DSTYLE
1002
{
1070
    40
1040
2.0
1070
    41
1040
3.5
1070
    42
1040
1.0
1070
    43
1040
7.0
1070
    44
1040
1.0
1070
    73
1070
     0
1070
    74
1070
     0
1070
    77
1070
     1
1070
    78
1070
     8
1070
    79
1070
     2
1070
   140
1040
3.5
1070
   141
1040
1.5
1070
   146
1040
0.5
1070
   147
1040
1.5
1070
   172
1070
     1
1070
   178
1070
     1
1070
   179
1070
     2
1070
   271
1070
     2
1070
   272
1070
     2
1070
   284
1070
     8
1070
   285
1070
     8
1070
   286
1070
     8
1002
}
  0
TEXT
  5
7C7
330
1E
100
AcDbEntity
  8
TEXT
 62
     1
100
AcDbText
 10
230.9245397576281
 20
129.0783465745483
 30
0.0
 40
7.0
  1
feuerverzinkt und innen beschichtet
 41
0.8
  7
GREEKS
100
AcDbText
  0
TEXT
  5
7C8
330
1E
100
AcDbEntity
  8
TEXT
 62
     1
100
AcDbText
 10
182.9748223202302
 20
139.8004583895517
 30
0.0
 40
7.0
  1
Werkstoff: S235 JRH, E195 EN10305 
 41
0.8
  7
GREEKS
100
AcDbText
  0
TEXT
  5
7D4
330
1E
100
AcDbEntity
  8
TEXT
 62
     1
100
AcDbText
 10
192.7992164423086
 20
340.8883167019267
 30
0.0
 40
7.0
  1
DN70
 50
89.99999999999994
 41
0.8
  7
GREEKS
100
AcDbText
  0
DIMENSION
  5
83C
330
1E
100
AcDbEntity
  8
BEM
100
AcDbDimension
  2
*D4
 10
146.5690767528563
 20
329.9198206086114
 30
0.0
 11
140.0690767528562
 21
279.9198206086114
 31
0.0
 70
    32
 71
     5
 42
100.0000000000001
  3
Standard
100
AcDbAlignedDimension
 13
165.8247885687411
 23
229.9198206086113
 33
0.0
 14
200.824788568741
 24
329.9198206086114
 34
0.0
 50
90.0
100
AcDbRotatedDimension
1001
ACAD
1000
DSTYLE
1002
{
1070
    40
1040
2.0
1070
    41
1040
3.5
1070
    42
1040
1.0
1070
    43
1040
7.0
1070
    44
1040
1.0
1070
    73
1070
     0
1070
    74
1070
     0
1070
    77
1070
     1
1070
    78
1070
     8
1070
    79
1070
     2
1070
   140
1040
3.5
1070
   141
1040
1.5
1070
   146
1040
0.5
1070
   147
1040
1.5
1070
   172
1070
     1
1070
   178
1070
     1
1070
   179
1070
     2
1070
   271
1070
     2
1070
   272
1070
     2
1070
   284
1070
     8
1070
   285
1070
     8
1070
   286
1070
     8
1002
}
  0
TEXT
  5
879
330
1E
100
AcDbEntity
  8
VOLL
100
AcDbText
 10
366.6967681602972
 20
359.5372558102732
 30
0.0
 40
1.8
  1

  7
GREEKS
100
AcDbText
  0
LINE
  5
87B
330
1E
100
AcDbEntity
  8
STEMPEL
100
AcDbLine
 10
317.6559514027488
 20
297.9905332558759
 30
0.0
 11
317.7483451600729
 21
296.2275553432835
 31
0.0
  0
LINE
  5
87E
330
1E
100
AcDbEntity
  8
STEMPEL
100
AcDbLine
 10
307.3360633477618
 20
293.3440642218729
 30
0.0
 11
300.1965036528574
 21
292.9698957532044
 31
0.0
  0
ARC
  5
880
330
1E
100
AcDbEntity
  8
STEMPEL
100
AcDbCircle
 10
306.0276644416882
 20
318.3098025907372
 30
0.0
 40
25.0
100
AcDbArc
 50
273.0
 51
297.9581963123065
  0
ARC
  5
882
330
1E
100
AcDbEntity
  8
STEMPEL
100
AcDbCircle
 10
304.2377747381796
 20
352.4629326793437
 30
0.0
 40
25.0
100
AcDbArc
 50
68.04180368768609
 51
92.99999999999995
  0
LINE
  5
884
330
1E
100
AcDbEntity
  8
STEMPEL
100
AcDbLine
 10
317.7483451600729
 20
296.2275553432834
 30
0.0
 11
313.5860249709612
 21
375.649355809816
 31
0.0
  0
ARC
  5
886
330
1E
100
AcDbEntity
  8
STEMPEL
100
AcDbCircle
 10
287.410204830261
 20
282.7867569396824
 30
0.0
 40
12.0
100
AcDbArc
 50
71.81684560696716
 51
92.99999999999995
  0
LINE
  5
887
330
1E
100
AcDbEntity
  8
STEMPEL
100
AcDbLine
 10
286.7821733553458
 20
294.7703113567373
 30
0.0
 11
268.1964058763807
 21
293.7962725568938
 31
0.0
  0
ARC
  5
88A
330
1E
100
AcDbEntity
  8
STEMPEL
100
AcDbCircle
 10
257.7721835526694
 20
288.3432377187656
 30
0.0
 40
8.0
100
AcDbArc
 50
60.6719358778391
 51
92.99999999999995
  0
ARC
  5
88B
330
1E
100
AcDbEntity
  8
STEMPEL
100
AcDbCircle
 10
267.5683744014654
 20
305.7798269739487
 30
0.0
 40
12.0
100
AcDbArc
 50
240.6719358778392
 51
273.0
  0
LINE
  5
88E
330
1E
100
AcDbEntity
  8
STEMPEL
100
AcDbLine
 10
282.6371656209046
 20
373.8617705092996
 30
0.0
 11
264.0513981419398
 21
372.8877317094561
 31
0.0
  0
ARC
  5
890
330
1E
100
AcDbEntity
  8
STEMPEL
100
AcDbCircle
 10
253.1142834470475
 20
377.2212663119227
 30
0.0
 40
8.0
100
AcDbArc
 50
273.0
 51
305.3280641221609
  0
ARC
  5
892
330
1E
100
AcDbEntity
  8
STEMPEL
100
AcDbCircle
 10
264.679429616855
 20
360.9041772924011
 30
0.0
 40
12.0
100
AcDbArc
 50
92.99999999999995
 51
125.3280641221607
  0
ARC
  5
893
330
1E
100
AcDbEntity
  8
STEMPEL
100
AcDbCircle
 10
298.9562912195482
 20
317.9392076236833
 30
0.0
 40
25.00009324312574
100
AcDbArc
 50
251.8168456069672
 51
273.1564859543311
  0
LINE
  5
895
330
1E
100
AcDbEntity
  8
MITTEL
100
AcDbLine
 10
320.6603327392898
 20
336.2001353577645
 30
0.0
 11
200.8247885687409
 21
329.9198206086114
 31
0.0
  0
LINE
  5
896
102
{ACAD_REACTORS
330
954
102
}
330
1E
100
AcDbEntity
  8
STEMPEL
100
AcDbLine
 10
257.3534959027259
 20
296.3322739968022
 30
0.0
 11
235.8247885687405
 21
295.2040022545936
 31
0.0
  0
LINE
  5
899
102
{ACAD_REACTORS
330
954
102
}
330
1E
100
AcDbEntity
  8
STEMPEL
100
AcDbLine
 10
253.532971096991
 20
369.232230033886
 30
0.0
 11
235.824788568741
 21
368.3041835124418
 31
0.0
  0
LINE
  5
89A
330
1E
100
AcDbEntity
  8
STEMPEL
100
AcDbLine
 10
302.929375832106
 20
377.4286710482081
 30
0.0
 11
295.7898161372017
 21
377.0545025795395
 31
0.0
  0
ARC
  5
89D
330
1E
100
AcDbEntity
  8
STEMPEL
100
AcDbCircle
 10
297.1664015160395
 20
352.0923377122898
 30
0.0
 40
25.00009324312574
100
AcDbArc
 50
92.84351404566885
 51
114.1831543930327
  0
ARC
  5
89E
330
1E
100
AcDbEntity
  8
STEMPEL
100
AcDbCircle
 10
282.0091341459892
 20
385.8453249263546
 30
0.0
 40
12.0
100
AcDbArc
 50
273.0
 51
294.1831543930328
  0
LINE
  5
8A1
330
1E
100
AcDbEntity
  8
HILF
100
AcDbLine
 10
288.910518501825
 20
296.3037484276918
 30
0.0
 11
284.9141392905236
 21
372.5592064145307
 31
0.0
  0
LINE
  5
8A2
330
1E
100
AcDbEntity
  8
HILF
100
AcDbLine
 10
264.7477434312577
 20
295.7696301262387
 30
0.0
 11
260.8278998647318
 21
370.5647010136345
 31
0.0
  0
LINE
  5
8A3
330
1E
100
AcDbEntity
  8
HILF
100
AcDbLine
 10
259.5075190465502
 20
297.785091918216
 30
0.0
 11
255.8270551013875
 21
368.0125275301236
 31
0.0
  0
TEXT
  5
8A5
330
1E
100
AcDbEntity
  8
TEXT
 62
     1
100
AcDbText
 10
290.7863000960505
 20
343.2873893193573
 30
0.0
 40
7.0
  1
DN70
 50
2.999999999999989
 41
0.8
  7
GREEKS
100
AcDbText
  0
DIMENSION
  5
8EF
330
1E
100
AcDbEntity
  8
BEM
100
AcDbDimension
  2
*D5
 10
203.8423785394078
 20
272.3407739108012
 30
0.0
 11
260.9233930722166
 21
281.8411833706752
 31
0.0
 70
    32
 71
     5
 42
114.9999999999999
 51
357.0
  3
Standard
100
AcDbAlignedDimension
 13
317.7483451600727
 23
296.2275553432834
 33
0.0
 14
200.824788568741
 24
329.9198206086114
 34
0.0
 50
2.999999999999893
100
AcDbRotatedDimension
1001
ACAD
1000
DSTYLE
1002
{
1070
    40
1040
2.0
1070
    41
1040
3.5
1070
    42
1040
1.0
1070
    43
1040
7.0
1070
    44
1040
1.0
1070
    73
1070
     0
1070
    74
1070
     0
1070
    77
1070
     1
1070
    78
1070
     8
1070
    79
1070
     2
1070
   140
1040
3.5
1070
   141
1040
1.5
1070
   146
1040
0.5
1070
   147
1040
1.5
1070
   172
1070
     1
1070
   178
1070
     1
1070
   179
1070
     2
1070
   271
1070
     2
1070
   272
1070
     2
1070
   284
1070
     8
1070
   285
1070
     8
1070
   286
1070
     8
1002
}
  0
ARC
  5
941
102
{ACAD_REACTORS
330
954
102
}
330
1E
100
AcDbEntity
  8
SCHRAFF
100
AcDbCircle
 10
235.824788568741
 20
368.3041835124418
 30
0.0
 40
4.0
100
AcDbArc
 50
2.999999999999829
 51
89.99999999999955
  0
ARC
  5
943
102
{ACAD_REACTORS
330
954
102
}
330
1E
100
AcDbEntity
  8
SCHRAFF
100
AcDbCircle
 10
235.8247885687406
 20
295.2040022545936
 30
0.0
 40
4.0
100
AcDbArc
 50
269.9999999999996
 51
2.99999999999903
  0
HATCH
  5
954
330
1E
100
AcDbEntity
  8
SCHRAFF
100
AcDbHatch
 10
0.0
 20
0.0
 30
0.0
210
0.0
220
0.0
230
1.0
  2
_USER
 70
     0
 71
     1
 91
        2
 92
        7
 72
     1
 73
     1
 93
        3
 10
235.8247885687411
 20
368.3041835124419
 42
0.0
 10
239.8193067077593
 20
368.5135273374136
 42
0.3989595459737179
 10
235.824788568741
 20
372.3041835124418
 42
0.0
 97
        3
330
6D7
330
899
330
941
 92
        7
 72
     1
 73
     1
 93
        3
 10
235.8247885687406
 20
291.2040022545937
 42
0.4296339059668244
 10
239.8193067077589
 20
295.4133460795653
 42
0.0
 10
235.8247885687406
 20
295.2040022545936
 42
0.0
 97
        3
330
896
330
6D7
330
943
 75
     0
 76
     0
 52
-0.000000000000062
 41
0.1
 77
     0
 78
     1
 53
359.9999999999998
 43
-0.0000000000003695
 44
-8.824384643234949
 45
0.0000000000000001
 46
0.1
 79
     0
 47
0.1925671187684283
 98
        2
 10
237.355178979316
 20
370.1443321111157
 10
237.1625084544529
 20
293.3100496761411
  0
ARC
  5
957
330
1E
100
AcDbEntity
  8
SCHRAFF
100
AcDbCircle
 10
237.824788568741
 20
368.4089990710079
 30
0.0
 40
5.0
100
AcDbArc
 50
246.4218215217976
 51
293.5781784782019
  0
ARC
  5
95C
330
1E
100
AcDbEntity
  8
SCHRAFF
100
AcDbCircle
 10
237.8247885687409
 20
363.408999071008
 30
0.0
 40
5.0
100
AcDbArc
 50
246.4218215217976
 51
293.5781784782019
  0
ARC
  5
95D
330
1E
100
AcDbEntity
  8
SCHRAFF
100
AcDbCircle
 10
237.824788568741
 20
358.4089990710081
 30
0.0
 40
5.0
100
AcDbArc
 50
246.4218215217976
 51
293.5781784782019
  0
ARC
  5
95E
330
1E
100
AcDbEntity
  8
SCHRAFF
100
AcDbCircle
 10
237.8247885687409
 20
353.4089990710079
 30
0.0
 40
5.0
100
AcDbArc
 50
246.4218215217976
 51
293.5781784782019
  0
ARC
  5
95F
330
1E
100
AcDbEntity
  8
SCHRAFF
100
AcDbCircle
 10
237.8247885687409
 20
348.408999071008
 30
0.0
 40
5.0
100
AcDbArc
 50
246.4218215217976
 51
293.5781784782019
  0
ARC
  5
960
330
1E
100
AcDbEntity
  8
SCHRAFF
100
AcDbCircle
 10
237.8247885687408
 20
343.408999071008
 30
0.0
 40
5.0
100
AcDbArc
 50
246.4218215217976
 51
293.5781784782019
  0
ARC
  5
961
330
1E
100
AcDbEntity
  8
SCHRAFF
100
AcDbCircle
 10
237.8247885687408
 20
338.408999071008
 30
0.0
 40
5.0
100
AcDbArc
 50
246.4218215217976
 51
293.5781784782019
  0
ARC
  5
962
330
1E
100
AcDbEntity
  8
SCHRAFF
100
AcDbCircle
 10
237.8247885687407
 20
333.4089990710079
 30
0.0
 40
5.0
100
AcDbArc
 50
246.4218215217976
 51
293.5781784782019
  0
ARC
  5
963
330
1E
100
AcDbEntity
  8
SCHRAFF
100
AcDbCircle
 10
237.8247885687407
 20
328.408999071008
 30
0.0
 40
5.0
100
AcDbArc
 50
246.4218215217976
 51
293.5781784782019
  0
ARC
  5
964
330
1E
100
AcDbEntity
  8
SCHRAFF
100
AcDbCircle
 10
237.8247885687407
 20
323.4089990710081
 30
0.0
 40
5.0
100
AcDbArc
 50
246.4218215217976
 51
293.5781784782019
  0
ARC
  5
965
330
1E
100
AcDbEntity
  8
SCHRAFF
100
AcDbCircle
 10
237.8247885687407
 20
318.4089990710079
 30
0.0
 40
5.0
100
AcDbArc
 50
246.4218215217976
 51
293.5781784782019
  0
ARC
  5
966
330
1E
100
AcDbEntity
  8
SCHRAFF
100
AcDbCircle
 10
237.8247885687407
 20
313.408999071008
 30
0.0
 40
5.0
100
AcDbArc
 50
246.4218215217976
 51
293.5781784782019
  0
ARC
  5
967
330
1E
100
AcDbEntity
  8
SCHRAFF
100
AcDbCircle
 10
237.8247885687406
 20
308.408999071008
 30
0.0
 40
5.0
100
AcDbArc
 50
246.4218215217976
 51
293.5781784782019
  0
ARC
  5
968
330
1E
100
AcDbEntity
  8
SCHRAFF
100
AcDbCircle
 10
237.8247885687406
 20
303.4089990710079
 30
0.0
 40
5.0
100
AcDbArc
 50
246.4218215217976
 51
293.5781784782019
  0
DIMENSION
  5
CC5
330
1E
100
AcDbEntity
  8
BEM
100
AcDbDimension
  2
*D6
 10
200.8247885687409
 20
224.9198206086113
 30
0.0
 11
300.6747093723093
 21
435.1396826622893
 31
0.0
 70
    34
 71
     5
 42
1.518436449235067
  3
Standard
100
AcDb2LineAngularDimension
 13
320.6603327392898
 23
336.2001353577645
 33
0.0
 14
226.8751064026317
 24
331.285059915903
 34
0.0
 15
200.8247885687411
 25
454.9235695686902
 35
0.0
 16
318.3268906492474
 26
403.3432829836407
 36
0.0
1001
ACAD
1000
DSTYLE
1002
{
1070
    40
1040
2.0
1070
    41
1040
3.5
1070
    42
1040
1.0
1070
    43
1040
7.0
1070
    44
1040
1.0
1070
    73
1070
     0
1070
    74
1070
     0
1070
    77
1070
     1
1070
    78
1070
     8
1070
    79
1070
     2
1070
   140
1040
3.5
1070
   141
1040
1.5
1070
   146
1040
0.5
1070
   147
1040
1.5
1070
   172
1070
     1
1070
   178
1070
     1
1070
   179
1070
     2
1070
   271
1070
     2
1070
   272
1070
     2
1070
   284
1070
     8
1070
   285
1070
     8
1070
   286
1070
     8
1002
}
  0
ENDSEC
  0
SECTION
  2
OBJECTS
  0
DICTIONARY
  5
C
330
0
100
AcDbDictionary
281
     1
  3
ACAD_COLOR
350
DF
  3
ACAD_GROUP
350
D
  3
ACAD_LAYOUT
350
19
  3
ACAD_MATERIAL
350
DE
  3
ACAD_MLINESTYLE
350
16
  3
ACAD_PLOTSETTINGS
350
18
  3
ACAD_PLOTSTYLENAME
350
E
  3
AcDbVariableDictionary
350
EA
  0
DICTIONARY
  5
A0
330
1E
100
AcDbDictionary
280
     1
281
     1
  3
ACAD_LAYOUTSELFREF
360
D4
  0
DICTIONARY
  5
A2
330
1A
100
AcDbDictionary
280
     1
281
     1
  3
ACAD_LAYOUTSELFREF
360
D3
  0
DICTIONARY
  5
DF
102
{ACAD_REACTORS
330
C
102
}
330
C
100
AcDbDictionary
281
     1
  0
DICTIONARY
  5
D
102
{ACAD_REACTORS
330
C
102
}
330
C
100
AcDbDictionary
281
     1
  0
DICTIONARY
  5
19
102
{ACAD_REACTORS
330
C
102
}
330
C
100
AcDbDictionary
281
     1
  3
Layout1
350
1D
  3
Model
350
21
  0
DICTIONARY
  5
DE
102
{ACAD_REACTORS
330
C
102
}
330
C
100
AcDbDictionary
281
     1
  0
DICTIONARY
  5
16
102
{ACAD_REACTORS
330
C
102
}
330
C
100
AcDbDictionary
281
     1
  3
Standard
350
17
  0
DICTIONARY
  5
18
102
{ACAD_REACTORS
330
C
102
}
330
C
100
AcDbDictionary
281
     1
  0
ACDBDICTIONARYWDFLT
  5
E
102
{ACAD_REACTORS
330
C
102
}
330
C
100
AcDbDictionary
281
     1
  3
Normal
350
F
100
AcDbDictionaryWithDefault
340
F
  0
DICTIONARY
  5
EA
102
{ACAD_REACTORS
330
C
102
}
330
C
100
AcDbDictionary
281
     1
  3
DIMASSOC
350
EB
  3
PROJECTNAME
350
EC
  0
XRECORD
  5
D4
102
{ACAD_REACTORS
330
A0
102
}
330
A0
100
AcDbXrecord
280
     1
340
1E
  0
XRECORD
  5
D3
102
{ACAD_REACTORS
330
A2
102
}
330
A2
100
AcDbXrecord
280
     1
340
1A
  0
LAYOUT
  5
1D
102
{ACAD_REACTORS
330
19
102
}
330
19
100
AcDbPlotSettings
  1

  2
\\NT_WORK01\HP LaserJet 5000 PCL 6
  4

  6

 40
0.0
 41
0.0
 42
0.0
 43
0.0
 44
0.0
 45
0.0
 46
0.0
 47
0.0
 48
0.0
 49
0.0
140
0.0
141
0.0
142
1.0
143
1.0
 70
   688
 72
     0
 73
     0
 74
     5
  7

 75
    16
147
1.0
 76
     0
 77
     2
 78
   300
148
0.0
149
0.0
100
AcDbLayout
  1
Layout1
 70
     0
 71
     1
 10
0.0
 20
0.0
 11
12.0
 21
9.0
 12
0.0
 22
0.0
 32
0.0
 14
1.000000000000000E+20
 24
1.000000000000000E+20
 34
1.000000000000000E+20
 15
-1.000000000000000E+20
 25
-1.000000000000000E+20
 35
-1.000000000000000E+20
146
0.0
 13
0.0
 23
0.0
 33
0.0
 16
1.0
 26
0.0
 36
0.0
 17
0.0
 27
1.0
 37
0.0
 76
     0
330
1A
  0
LAYOUT
  5
21
102
{ACAD_REACTORS
330
19
102
}
330
19
100
AcDbPlotSettings
  1

  2
none_device
  4
Letter_(8.50_x_11.00_Inches)
  6

 40
6.349999904632568
 41
6.349999904632568
 42
6.350006103515625
 43
6.350006103515625
 44
215.8999938964844
 45
279.3999938964844
 46
0.0
 47
0.0
 48
0.0
 49
0.0
140
0.0
141
0.0
142
1.0
143
1.0
 70
 11952
 72
     0
 73
     1
 74
     0
  7

 75
     0
147
1.0
 76
     0
 77
     2
 78
   300
148
2271.646906252491
149
61.84678790738967
100
AcDbLayout
  1
Model
 70
     1
 71
     0
 10
0.0
 20
0.0
 11
12.0
 21
9.0
 12
0.0
 22
0.0
 32
0.0
 14
0.0
 24
0.0
 34
0.0
 15
0.0
 25
0.0
 35
0.0
146
0.0
 13
0.0
 23
0.0
 33
0.0
 16
1.0
 26
0.0
 36
0.0
 17
0.0
 27
1.0
 37
0.0
 76
     0
330
1E
  0
MLINESTYLE
  5
17
102
{ACAD_REACTORS
330
16
102
}
330
16
100
AcDbMlineStyle
  2
STANDARD
 70
     0
  3

 62
   256
 51
90.0
 52
90.0
 71
     2
 49
0.5
 62
   256
  6
BYLAYER
 49
-0.5
 62
   256
  6
BYLAYER
  0
ACDBPLACEHOLDER
  5
F
102
{ACAD_REACTORS
330
E
102
}
330
E
  0
DICTIONARYVAR
  5
EB
102
{ACAD_REACTORS
330
EA
102
}
330
EA
100
DictionaryVariables
280
     0
  1
1
  0
DICTIONARYVAR
  5
EC
102
{ACAD_REACTORS
330
EA
102
}
330
EA
100
DictionaryVariables
280
     0
  1

  0
ENDSEC
  0
EOF
