  0
SECTION
  2
HEADER
  9
$ACADVER
  1
AC1018
  9
$ACADMAINTVER
 70
     2
  9
$DWGCODEPAGE
  3
ANSI_1252
  9
$INSBASE
 10
0.0
 20
0.0
 30
0.0
  9
$EXTMIN
 10
-0.0128164049388033
 20
-0.0181260584133725
 30
-0.0015258207003583
  9
$EXTMAX
 10
420.012818360716
 20
594.0181288244416
 30
0.0000000349246037
  9
$LIMMIN
 10
0.0
 20
0.0
  9
$LIMMAX
 10
419.9999999999999
 20
594.0
  9
$ORTHOMODE
 70
     1
  9
$REGENMODE
 70
     1
  9
$FILLMODE
 70
     1
  9
$QTEXTMODE
 70
     0
  9
$MIRRTEXT
 70
     1
  9
$LTSCALE
 40
20.0
  9
$ATTMODE
 70
     1
  9
$TEXTSIZE
 40
3.5
  9
$TRACEWID
 40
0.5
  9
$TEXTSTYLE
  7
STANDARD
  9
$CLAYER
  8
SCHRAFF
  9
$CELTYPE
  6
ByLayer
  9
$CECOLOR
 62
   256
  9
$CELTSCALE
 40
1.0
  9
$DISPSILH
 70
     0
  9
$DIMSCALE
 40
2.0
  9
$DIMASZ
 40
3.5
  9
$DIMEXO
 40
1.0
  9
$DIMDLI
 40
7.0
  9
$DIMRND
 40
0.0
  9
$DIMDLE
 40
0.0
  9
$DIMEXE
 40
1.0
  9
$DIMTP
 40
0.0
  9
$DIMTM
 40
0.0
  9
$DIMTXT
 40
3.5
  9
$DIMCEN
 40
1.5
  9
$DIMTSZ
 40
0.0
  9
$DIMTOL
 70
     0
  9
$DIMLIM
 70
     0
  9
$DIMTIH
 70
     0
  9
$DIMTOH
 70
     0
  9
$DIMSE1
 70
     0
  9
$DIMSE2
 70
     0
  9
$DIMTAD
 70
     1
  9
$DIMZIN
 70
     8
  9
$DIMBLK
  1

  9
$DIMASO
 70
     1
  9
$DIMSHO
 70
     0
  9
$DIMPOST
  1

  9
$DIMAPOST
  1

  9
$DIMALT
 70
     0
  9
$DIMALTD
 70
     2
  9
$DIMALTF
 40
25.4
  9
$DIMLFAC
 40
1.0
  9
$DIMTOFL
 70
     1
  9
$DIMTVP
 40
0.0
  9
$DIMTIX
 70
     0
  9
$DIMSOXD
 70
     0
  9
$DIMSAH
 70
     0
  9
$DIMBLK1
  1

  9
$DIMBLK2
  1

  9
$DIMSTYLE
  2
Standard
  9
$DIMCLRD
 70
     0
  9
$DIMCLRE
 70
     0
  9
$DIMCLRT
 70
     1
  9
$DIMTFAC
 40
0.5
  9
$DIMGAP
 40
1.5
  9
$DIMJUST
 70
     0
  9
$DIMSD1
 70
     0
  9
$DIMSD2
 70
     0
  9
$DIMTOLJ
 70
     1
  9
$DIMTZIN
 70
     8
  9
$DIMALTZ
 70
     8
  9
$DIMALTTZ
 70
     8
  9
$DIMUPT
 70
     0
  9
$DIMDEC
 70
     2
  9
$DIMTDEC
 70
     2
  9
$DIMALTU
 70
     2
  9
$DIMALTTD
 70
     2
  9
$DIMTXSTY
  7
STANDARD
  9
$DIMAUNIT
 70
     0
  9
$DIMADEC
 70
     2
  9
$DIMALTRND
 40
0.0
  9
$DIMAZIN
 70
     2
  9
$DIMDSEP
 70
    46
  9
$DIMATFIT
 70
     3
  9
$DIMFRAC
 70
     0
  9
$DIMLDRBLK
  1

  9
$DIMLUNIT
 70
     2
  9
$DIMLWD
 70
    -2
  9
$DIMLWE
 70
    -2
  9
$DIMTMOVE
 70
     0
  9
$LUNITS
 70
     2
  9
$LUPREC
 70
     2
  9
$SKETCHINC
 40
1.0
  9
$FILLETRAD
 40
0.0
  9
$AUNITS
 70
     0
  9
$AUPREC
 70
     0
  9
$MENU
  1
ACAD
  9
$ELEVATION
 40
0.0
  9
$PELEVATION
 40
0.0
  9
$THICKNESS
 40
0.0
  9
$LIMCHECK
 70
     0
  9
$CHAMFERA
 40
0.0
  9
$CHAMFERB
 40
0.0
  9
$CHAMFERC
 40
0.0
  9
$CHAMFERD
 40
0.0
  9
$SKPOLY
 70
     0
  9
$TDCREATE
 40
2455397.823042361
  9
$TDUCREATE
 40
2455397.781375695
  9
$TDUPDATE
 40
2455531.578284618
  9
$TDUUPDATE
 40
2455531.536617951
  9
$TDINDWG
 40
0.1233791667
  9
$TDUSRTIMER
 40
0.1233791667
  9
$USRTIMER
 70
     1
  9
$ANGBASE
 50
0.0
  9
$ANGDIR
 70
     0
  9
$PDMODE
 70
     0
  9
$PDSIZE
 40
0.0
  9
$PLINEWID
 40
0.0
  9
$SPLFRAME
 70
     0
  9
$SPLINETYPE
 70
     6
  9
$SPLINESEGS
 70
     8
  9
$HANDSEED
  5
1095
  9
$SURFTAB1
 70
     6
  9
$SURFTAB2
 70
     6
  9
$SURFTYPE
 70
     6
  9
$SURFU
 70
     6
  9
$SURFV
 70
     6
  9
$UCSBASE
  2

  9
$UCSNAME
  2

  9
$UCSORG
 10
0.0
 20
0.0
 30
0.0
  9
$UCSXDIR
 10
1.0
 20
0.0
 30
0.0
  9
$UCSYDIR
 10
0.0
 20
1.0
 30
0.0
  9
$UCSORTHOREF
  2

  9
$UCSORTHOVIEW
 70
     0
  9
$UCSORGTOP
 10
0.0
 20
0.0
 30
0.0
  9
$UCSORGBOTTOM
 10
0.0
 20
0.0
 30
0.0
  9
$UCSORGLEFT
 10
0.0
 20
0.0
 30
0.0
  9
$UCSORGRIGHT
 10
0.0
 20
0.0
 30
0.0
  9
$UCSORGFRONT
 10
0.0
 20
0.0
 30
0.0
  9
$UCSORGBACK
 10
0.0
 20
0.0
 30
0.0
  9
$PUCSBASE
  2

  9
$PUCSNAME
  2

  9
$PUCSORG
 10
0.0
 20
0.0
 30
0.0
  9
$PUCSXDIR
 10
1.0
 20
0.0
 30
0.0
  9
$PUCSYDIR
 10
0.0
 20
1.0
 30
0.0
  9
$PUCSORTHOREF
  2

  9
$PUCSORTHOVIEW
 70
     0
  9
$PUCSORGTOP
 10
0.0
 20
0.0
 30
0.0
  9
$PUCSORGBOTTOM
 10
0.0
 20
0.0
 30
0.0
  9
$PUCSORGLEFT
 10
0.0
 20
0.0
 30
0.0
  9
$PUCSORGRIGHT
 10
0.0
 20
0.0
 30
0.0
  9
$PUCSORGFRONT
 10
0.0
 20
0.0
 30
0.0
  9
$PUCSORGBACK
 10
0.0
 20
0.0
 30
0.0
  9
$USERI1
 70
     0
  9
$USERI2
 70
     0
  9
$USERI3
 70
     0
  9
$USERI4
 70
     0
  9
$USERI5
 70
     0
  9
$USERR1
 40
0.0
  9
$USERR2
 40
0.0
  9
$USERR3
 40
0.0
  9
$USERR4
 40
0.0
  9
$USERR5
 40
0.0
  9
$WORLDVIEW
 70
     1
  9
$SHADEDGE
 70
     3
  9
$SHADEDIF
 70
    70
  9
$TILEMODE
 70
     1
  9
$MAXACTVP
 70
    16
  9
$PINSBASE
 10
0.0
 20
0.0
 30
0.0
  9
$PLIMCHECK
 70
     0
  9
$PEXTMIN
 10
1.000000000000000E+20
 20
1.000000000000000E+20
 30
1.000000000000000E+20
  9
$PEXTMAX
 10
-1.000000000000000E+20
 20
-1.000000000000000E+20
 30
-1.000000000000000E+20
  9
$PLIMMIN
 10
0.0
 20
0.0
  9
$PLIMMAX
 10
12.0
 20
9.0
  9
$UNITMODE
 70
     0
  9
$VISRETAIN
 70
     0
  9
$PLINEGEN
 70
     0
  9
$PSLTSCALE
 70
     0
  9
$TREEDEPTH
 70
  3020
  9
$CMLSTYLE
  2
Standard
  9
$CMLJUST
 70
     0
  9
$CMLSCALE
 40
1.0
  9
$PROXYGRAPHICS
 70
     1
  9
$MEASUREMENT
 70
     0
  9
$CELWEIGHT
370
    -1
  9
$ENDCAPS
280
     0
  9
$JOINSTYLE
280
     0
  9
$LWDISPLAY
290
     0
  9
$INSUNITS
 70
     0
  9
$HYPERLINKBASE
  1

  9
$STYLESHEET
  1
monochrome 1.ctb
  9
$XEDIT
290
     1
  9
$CEPSNTYPE
380
     0
  9
$PSTYLEMODE
290
     1
  9
$FINGERPRINTGUID
  2
{D68B0D02-A558-11D7-B632-000102183313}
  9
$VERSIONGUID
  2
{E97894EC-2B19-4CE5-8914-2A40D768378F}
  9
$EXTNAMES
290
     1
  9
$PSVPSCALE
 40
0.0
  9
$OLESTARTUP
290
     0
  9
$SORTENTS
280
   127
  9
$INDEXCTL
280
     0
  9
$HIDETEXT
280
     0
  9
$XCLIPFRAME
290
     0
  9
$HALOGAP
280
     0
  9
$OBSCOLOR
 70
   257
  9
$OBSLTYPE
280
     0
  9
$INTERSECTIONDISPLAY
280
     0
  9
$INTERSECTIONCOLOR
 70
   257
  9
$DIMASSOC
280
     1
  9
$PROJECTNAME
  1

  0
ENDSEC
  0
SECTION
  2
CLASSES
  0
CLASS
  1
ACDBDICTIONARYWDFLT
  2
AcDbDictionaryWithDefault
  3
ObjectDBX Classes
 90
        0
 91
        1
280
     0
281
     0
  0
CLASS
  1
DICTIONARYVAR
  2
AcDbDictionaryVar
  3
ObjectDBX Classes
 90
        0
 91
        2
280
     0
281
     0
  0
ENDSEC
  0
SECTION
  2
TABLES
  0
TABLE
  2
VPORT
  5
8
330
0
100
AcDbSymbolTable
 70
     2
  0
VPORT
  5
1094
330
8
100
AcDbSymbolTableRecord
100
AcDbViewportTableRecord
  2
*Active
 70
     0
 10
0.0
 20
0.0
 11
1.0
 21
1.0
 12
210.0000009778887
 22
297.0000013830141
 13
0.0
 23
0.0
 14
1.0
 24
1.0
 15
10.0
 25
10.0
 16
0.0
 26
0.0
 36
1.0
 17
0.0
 27
0.0
 37
0.0
 40
598.8333175064042
 41
1.336927223719676
 42
50.0
 43
0.0
 44
0.0
 50
0.0
 51
0.0
 71
     0
 72
  1500
 73
     1
 74
     0
 75
     0
 76
     0
 77
     0
 78
     0
281
     0
 65
     1
110
0.0
120
0.0
130
0.0
111
1.0
121
0.0
131
0.0
112
0.0
122
1.0
132
0.0
 79
     0
146
0.0
  0
ENDTAB
  0
TABLE
  2
LTYPE
  5
5
330
0
100
AcDbSymbolTable
 70
     2
  0
LTYPE
  5
13
330
5
100
AcDbSymbolTableRecord
100
AcDbLinetypeTableRecord
  2
ByBlock
 70
     0
  3

 72
    65
 73
     0
 40
0.0
  0
LTYPE
  5
14
330
5
100
AcDbSymbolTableRecord
100
AcDbLinetypeTableRecord
  2
ByLayer
 70
     0
  3

 72
    65
 73
     0
 40
0.0
  0
LTYPE
  5
15
330
5
100
AcDbSymbolTableRecord
100
AcDbLinetypeTableRecord
  2
Continuous
 70
     0
  3
Solid line
 72
    65
 73
     0
 40
0.0
  0
LTYPE
  5
25
330
5
100
AcDbSymbolTableRecord
100
AcDbLinetypeTableRecord
  2
STRICHPUNKT
 70
     0
  3
__ . __ . __ . __ . __ . __ . __ . __ . __ . __
 72
    65
 73
     4
 40
1.0
 49
0.5
 74
     0
 49
-0.25
 74
     0
 49
0.0
 74
     0
 49
-0.25
 74
     0
  0
ENDTAB
  0
TABLE
  2
LAYER
  5
2
330
0
100
AcDbSymbolTable
 70
     9
  0
LAYER
  5
10
330
2
100
AcDbSymbolTableRecord
100
AcDbLayerTableRecord
  2
0
 70
     0
 62
     7
  6
Continuous
370
    -3
390
F
  0
LAYER
  5
2A
330
2
100
AcDbSymbolTableRecord
100
AcDbLayerTableRecord
  2
VOLL
 70
     0
 62
     1
  6
Continuous
370
    -3
390
F
  0
LAYER
  5
2B
330
2
100
AcDbSymbolTableRecord
100
AcDbLayerTableRecord
  2
HILF
 70
     0
 62
     2
  6
Continuous
370
    -3
390
F
  0
LAYER
  5
2C
330
2
100
AcDbSymbolTableRecord
100
AcDbLayerTableRecord
  2
MITTEL
 70
     0
 62
     2
  6
STRICHPUNKT
370
    -3
390
F
  0
LAYER
  5
2F
330
2
100
AcDbSymbolTableRecord
100
AcDbLayerTableRecord
  2
BEM
 70
     0
 62
     7
  6
Continuous
370
    -3
390
F
  0
LAYER
  5
30
330
2
100
AcDbSymbolTableRecord
100
AcDbLayerTableRecord
  2
STEMPEL
 70
     0
 62
     3
  6
Continuous
370
    -3
390
F
  0
LAYER
  5
31
330
2
100
AcDbSymbolTableRecord
100
AcDbLayerTableRecord
  2
TEXT
 70
     0
 62
     7
  6
Continuous
370
    -3
390
F
  0
LAYER
  5
390
330
2
100
AcDbSymbolTableRecord
100
AcDbLayerTableRecord
  2
DEFPOINTS
 70
     0
 62
     7
  6
Continuous
290
     0
370
    -3
390
F
  0
LAYER
  5
391
330
2
100
AcDbSymbolTableRecord
100
AcDbLayerTableRecord
  2
SCHRAFF
 70
     0
 62
     7
  6
Continuous
370
    -3
390
F
  0
ENDTAB
  0
TABLE
  2
STYLE
  5
3
330
0
100
AcDbSymbolTable
 70
     2
  0
STYLE
  5
11
330
3
100
AcDbSymbolTableRecord
100
AcDbTextStyleTableRecord
  2
STANDARD
 70
     0
 40
0.0
 41
0.8
 50
0.0
 71
     0
 42
3.5
  3
simplex.shx
  4

  0
STYLE
  5
24
330
3
100
AcDbSymbolTableRecord
100
AcDbTextStyleTableRecord
  2
GREEKS
 70
     0
 40
0.0
 41
0.8
 50
0.0
 71
     0
 42
2.5
  3
SIMPLEX.shx
  4

  0
ENDTAB
  0
TABLE
  2
VIEW
  5
6
330
0
100
AcDbSymbolTable
 70
     0
  0
ENDTAB
  0
TABLE
  2
UCS
  5
7
330
0
100
AcDbSymbolTable
 70
     0
  0
ENDTAB
  0
TABLE
  2
APPID
  5
9
330
0
100
AcDbSymbolTable
 70
     1
  0
APPID
  5
12
330
9
100
AcDbSymbolTableRecord
100
AcDbRegAppTableRecord
  2
ACAD
 70
     0
  0
ENDTAB
  0
TABLE
  2
DIMSTYLE
  5
A
330
0
100
AcDbSymbolTable
 70
     1
100
AcDbDimStyleTable
 71
     1
340
9D
  0
DIMSTYLE
105
9D
102
{ACAD_REACTORS
330
E1E
330
F44
330
F6F
330
FC0
330
1071
102
}
330
A
100
AcDbSymbolTableRecord
100
AcDbDimStyleTableRecord
  2
Standard
 70
     0
340
11
  0
ENDTAB
  0
TABLE
  2
BLOCK_RECORD
  5
1
330
0
100
AcDbSymbolTable
 70
     6
  0
BLOCK_RECORD
  5
1E
102
{ACAD_XDICTIONARY
360
A0
102
}
330
1
100
AcDbSymbolTableRecord
100
AcDbBlockTableRecord
  2
*Model_Space
340
21
  0
BLOCK_RECORD
  5
1A
102
{ACAD_XDICTIONARY
360
A2
102
}
330
1
100
AcDbSymbolTableRecord
100
AcDbBlockTableRecord
  2
*Paper_Space
340
1D
  0
BLOCK_RECORD
  5
22
330
1
100
AcDbSymbolTableRecord
100
AcDbBlockTableRecord
  2
LOGO
340
0
102
{BLKREFS
331
9B
102
}
  0
BLOCK_RECORD
  5
E21
330
1
100
AcDbSymbolTableRecord
100
AcDbBlockTableRecord
  2
*D1
340
0
  0
BLOCK_RECORD
  5
F47
330
1
100
AcDbSymbolTableRecord
100
AcDbBlockTableRecord
  2
*D2
340
0
  0
BLOCK_RECORD
  5
F70
330
1
100
AcDbSymbolTableRecord
100
AcDbBlockTableRecord
  2
*D3
340
0
  0
BLOCK_RECORD
  5
FC1
330
1
100
AcDbSymbolTableRecord
100
AcDbBlockTableRecord
  2
*D4
340
0
  0
BLOCK_RECORD
  5
1072
330
1
100
AcDbSymbolTableRecord
100
AcDbBlockTableRecord
  2
*D5
340
0
  0
ENDTAB
  0
ENDSEC
  0
SECTION
  2
BLOCKS
  0
BLOCK
  5
35
330
1E
100
AcDbEntity
  8
0
100
AcDbBlockBegin
  2
*Model_Space
 70
     0
 10
0.0
 20
0.0
 30
0.0
  3
*Model_Space
  1

  0
ENDBLK
  5
36
330
1E
100
AcDbEntity
  8
0
100
AcDbBlockEnd
  0
BLOCK
  5
33
330
1A
100
AcDbEntity
 67
     1
  8
0
100
AcDbBlockBegin
  2
*Paper_Space
 70
     0
 10
0.0
 20
0.0
 30
0.0
  3
*Paper_Space
  1

  0
ENDBLK
  5
34
330
1A
100
AcDbEntity
 67
     1
  8
0
100
AcDbBlockEnd
  0
BLOCK
  5
37
330
22
100
AcDbEntity
  8
0
100
AcDbBlockBegin
  2
LOGO
 70
     0
 10
0.0
 20
0.0
 30
0.0
  3
LOGO
  1

  0
ARC
  5
38
330
22
100
AcDbEntity
  8
0
100
AcDbCircle
 10
11.59973089678112
 20
-9.271599258481501
 30
0.0
 40
4.5
100
AcDbArc
 50
270.0
 51
231.0575587310159
  0
LINE
  5
39
330
22
100
AcDbEntity
  8
0
100
AcDbLine
 10
3.599730896781125
 20
-4.771599258481529
 30
0.0
 11
3.599730896781153
 21
-11.77159925848133
 31
0.0
  0
LINE
  5
3A
330
22
100
AcDbEntity
  8
0
100
AcDbLine
 10
2.599730896781125
 20
-4.771599258481529
 30
0.0
 11
2.599730896781153
 21
-11.77159925848133
 31
0.0
  0
CIRCLE
  5
3B
330
22
100
AcDbEntity
  8
0
100
AcDbCircle
 10
11.59973089678112
 20
-9.271599258481501
 30
0.0
 40
3.5
  0
ARC
  5
3C
330
22
100
AcDbEntity
  8
0
100
AcDbCircle
 10
31.59973089678115
 20
-9.271599258481472
 30
0.0
 40
4.5
100
AcDbArc
 50
270.0
 51
231.0575587310182
  0
LINE
  5
3D
330
22
100
AcDbEntity
  8
0
100
AcDbLine
 10
17.59973089678112
 20
-4.771599258481472
 30
0.0
 11
17.59973089678115
 21
-13.77159925848147
 31
0.0
  0
ARC
  5
3E
330
22
100
AcDbEntity
  8
0
100
AcDbCircle
 10
22.59973089678116
 20
-7.271599258481472
 30
0.0
 40
2.5
100
AcDbArc
 50
293.1161887722295
 51
90.0
  0
CIRCLE
  5
3F
330
22
100
AcDbEntity
  8
0
100
AcDbCircle
 10
31.59973089678115
 20
-9.271599258481472
 30
0.0
 40
3.5
  0
ARC
  5
40
330
22
100
AcDbEntity
  8
0
100
AcDbCircle
 10
4.599730896781153
 20
-11.77159925848133
 30
0.0
 40
1.0
100
AcDbArc
 50
180.0
 51
270.0
  0
ARC
  5
41
330
22
100
AcDbEntity
  8
0
100
AcDbCircle
 10
4.599730896781153
 20
-11.77159925848133
 30
0.0
 40
2.0
100
AcDbArc
 50
179.9999999999992
 51
270.0
  0
LINE
  5
42
330
22
100
AcDbEntity
  8
0
100
AcDbLine
 10
11.59973089678115
 20
-13.77159925848144
 30
0.0
 11
4.599730896781153
 21
-13.77159925848147
 31
0.0
  0
LINE
  5
43
330
22
100
AcDbEntity
  8
0
100
AcDbLine
 10
8.771303772034769
 20
-12.77159925848136
 30
0.0
 11
4.599730896781153
 21
-12.77159925848133
 31
0.0
  0
LINE
  5
44
330
22
100
AcDbEntity
  8
0
100
AcDbLine
 10
31.59973089678115
 20
-13.77159925848147
 30
0.0
 11
23.6715276665056
 21
-13.77159925848144
 31
0.0
  0
LINE
  5
45
330
22
100
AcDbEntity
  8
0
100
AcDbLine
 10
23.56565672307022
 20
-9.51278021337896
 30
0.0
 11
24.4388546544846
 21
-12.77159925848144
 31
0.0
  0
LINE
  5
46
330
22
100
AcDbEntity
  8
0
100
AcDbLine
 10
22.59973089678116
 20
-9.771599258481472
 30
0.0
 11
18.59973089678112
 21
-9.771599258481472
 31
0.0
  0
LINE
  5
47
330
22
100
AcDbEntity
  8
0
100
AcDbLine
 10
18.59973089678115
 20
-13.77159925848144
 30
0.0
 11
17.59973089678115
 21
-13.77159925848144
 31
0.0
  0
LINE
  5
48
330
22
100
AcDbEntity
  8
0
100
AcDbLine
 10
18.59973089678115
 20
-9.771599258481472
 30
0.0
 11
18.59973089678115
 21
-13.77159925848144
 31
0.0
  0
LINE
  5
49
330
22
100
AcDbEntity
  8
0
100
AcDbLine
 10
22.59973089678116
 20
-9.771599258481472
 30
0.0
 11
23.67152766650562
 21
-13.77159925848147
 31
0.0
  0
ARC
  5
4A
330
22
100
AcDbEntity
  8
0
100
AcDbCircle
 10
22.59973089678116
 20
-7.271599258481472
 30
0.0
 40
2.5
100
AcDbArc
 50
270.0
 51
270.0000000000007
  0
LINE
  5
4B
330
22
100
AcDbEntity
  8
0
100
AcDbLine
 10
28.77130377203494
 20
-12.77159925848147
 30
0.0
 11
24.43885465448463
 21
-12.77159925848144
 31
0.0
  0
LINE
  5
4C
330
22
100
AcDbEntity
  8
0
100
AcDbLine
 10
3.599730896781125
 20
-4.771599258481472
 30
0.0
 11
2.599730896781125
 21
-4.771599258481472
 31
0.0
  0
LINE
  5
4D
330
22
100
AcDbEntity
  8
0
100
AcDbLine
 10
22.59973089678116
 20
-8.771599258481472
 30
0.0
 11
18.59973089678115
 21
-8.771599258481472
 31
0.0
  0
LINE
  5
4E
330
22
100
AcDbEntity
  8
0
100
AcDbLine
 10
22.59973089678116
 20
-5.771599258481472
 30
0.0
 11
18.59973089678115
 21
-5.771599258481472
 31
0.0
  0
LINE
  5
4F
330
22
100
AcDbEntity
  8
0
100
AcDbLine
 10
22.59973089678116
 20
-4.771599258481472
 30
0.0
 11
17.59973089678115
 21
-4.771599258481472
 31
0.0
  0
LINE
  5
50
330
22
100
AcDbEntity
  8
0
100
AcDbLine
 10
18.59973089678115
 20
-5.771599258481472
 30
0.0
 11
18.59973089678115
 21
-8.771599258481472
 31
0.0
  0
ARC
  5
51
330
22
100
AcDbEntity
  8
0
100
AcDbCircle
 10
22.59973089678116
 20
-7.271599258481472
 30
0.0
 40
1.5
100
AcDbArc
 50
270.0
 51
90.0
  0
ENDBLK
  5
52
330
22
100
AcDbEntity
  8
0
100
AcDbBlockEnd
  0
BLOCK
  5
E2B
330
E21
100
AcDbEntity
  8
0
100
AcDbBlockBegin
  2
*D1
 70
     1
 10
0.0
 20
0.0
 30
0.0
  3
*D1
  1

  0
LINE
  5
1060
330
E21
100
AcDbEntity
  8
BEM
 62
     0
370
    -2
100
AcDbLine
 10
185.0
 20
388.2419435288923
 30
0.0
 11
185.0
 21
376.2276659460564
 31
0.0
  0
LINE
  5
1061
330
E21
100
AcDbEntity
  8
BEM
 62
     0
370
    -2
100
AcDbLine
 10
264.9999999999998
 20
388.2419435288922
 30
0.0
 11
264.9999999999998
 21
376.2276659460564
 31
0.0
  0
LINE
  5
1062
330
E21
100
AcDbEntity
  8
BEM
 62
     0
370
    -2
100
AcDbLine
 10
192.0
 20
378.2276659460564
 30
0.0
 11
257.9999999999998
 21
378.2276659460564
 31
0.0
  0
SOLID
  5
1063
330
E21
100
AcDbEntity
  8
BEM
 62
     0
100
AcDbTrace
 10
192.0
 20
379.3943326127231
 30
0.0
 11
192.0
 21
377.0609992793897
 31
0.0
 12
185.0
 22
378.2276659460564
 32
0.0
 13
185.0
 23
378.2276659460564
 33
0.0
  0
SOLID
  5
1064
330
E21
100
AcDbEntity
  8
BEM
 62
     0
100
AcDbTrace
 10
257.9999999999998
 20
379.3943326127231
 30
0.0
 11
257.9999999999998
 21
377.0609992793897
 31
0.0
 12
264.9999999999998
 22
378.2276659460564
 32
0.0
 13
264.9999999999998
 23
378.2276659460564
 33
0.0
  0
MTEXT
  5
1065
330
E21
100
AcDbEntity
  8
BEM
 62
     1
100
AcDbMText
 10
227.5996098150029
 20
384.7276659460564
 30
0.0
 40
7.0
 41
0.0
 71
     5
 72
     1
  1
\A1;80
 73
     1
 44
1.0
  0
POINT
  5
1066
330
E21
100
AcDbEntity
  8
DEFPOINTS
 62
     0
100
AcDbPoint
 10
185.0
 20
390.2419435288923
 30
0.0
  0
POINT
  5
1067
330
E21
100
AcDbEntity
  8
DEFPOINTS
 62
     0
100
AcDbPoint
 10
264.9999999999998
 20
390.2419435288922
 30
0.0
  0
POINT
  5
1068
330
E21
100
AcDbEntity
  8
DEFPOINTS
 62
     0
100
AcDbPoint
 10
264.9999999999998
 20
378.2276659460564
 30
0.0
  0
ENDBLK
  5
E2C
330
E21
100
AcDbEntity
  8
0
100
AcDbBlockEnd
  0
BLOCK
  5
F51
330
F47
100
AcDbEntity
  8
0
100
AcDbBlockBegin
  2
*D2
 70
     1
 10
0.0
 20
0.0
 30
0.0
  3
*D2
  1

  0
LINE
  5
103C
330
F47
100
AcDbEntity
  8
BEM
 62
     0
370
    -2
100
AcDbLine
 10
184.0
 20
471.2913024735248
 30
0.0
 11
184.0
 21
483.5996468738299
 31
0.0
  0
LINE
  5
103D
330
F47
100
AcDbEntity
  8
BEM
 62
     0
370
    -2
100
AcDbLine
 10
266.0
 20
471.2913024735248
 30
0.0
 11
266.0
 21
483.5996468738299
 31
0.0
  0
LINE
  5
103E
330
F47
100
AcDbEntity
  8
BEM
 62
     0
370
    -2
100
AcDbLine
 10
191.0
 20
481.5996468738299
 30
0.0
 11
259.0
 21
481.5996468738299
 31
0.0
  0
SOLID
  5
103F
330
F47
100
AcDbEntity
  8
BEM
 62
     0
100
AcDbTrace
 10
191.0
 20
482.7663135404965
 30
0.0
 11
191.0
 21
480.4329802071632
 31
0.0
 12
184.0
 22
481.5996468738299
 32
0.0
 13
184.0
 23
481.5996468738299
 33
0.0
  0
SOLID
  5
1040
330
F47
100
AcDbEntity
  8
BEM
 62
     0
100
AcDbTrace
 10
259.0
 20
482.7663135404965
 30
0.0
 11
259.0
 21
480.4329802071632
 31
0.0
 12
266.0
 22
481.5996468738299
 32
0.0
 13
266.0
 23
481.5996468738299
 33
0.0
  0
MTEXT
  5
1041
330
F47
100
AcDbEntity
  8
BEM
 62
     1
100
AcDbMText
 10
228.9536481127044
 20
488.0996468738299
 30
0.0
 40
7.0
 41
0.0
 71
     5
 72
     1
  1
\A1;82
 73
     1
 44
1.0
  0
POINT
  5
1042
330
F47
100
AcDbEntity
  8
DEFPOINTS
 62
     0
100
AcDbPoint
 10
184.0
 20
469.2913024735248
 30
0.0
  0
POINT
  5
1043
330
F47
100
AcDbEntity
  8
DEFPOINTS
 62
     0
100
AcDbPoint
 10
266.0
 20
469.2913024735248
 30
0.0
  0
POINT
  5
1044
330
F47
100
AcDbEntity
  8
DEFPOINTS
 62
     0
100
AcDbPoint
 10
266.0
 20
481.5996468738299
 30
0.0
  0
ENDBLK
  5
F52
330
F47
100
AcDbEntity
  8
0
100
AcDbBlockEnd
  0
BLOCK
  5
F7A
330
F70
100
AcDbEntity
  8
0
100
AcDbBlockBegin
  2
*D3
 70
     1
 10
0.0
 20
0.0
 30
0.0
  3
*D3
  1

  0
LINE
  5
1033
330
F70
100
AcDbEntity
  8
BEM
 62
     0
370
    -2
100
AcDbLine
 10
269.4999999999999
 20
234.2913024735248
 30
0.0
 11
269.4999999999999
 21
204.1559321044119
 31
0.0
  0
LINE
  5
1034
330
F70
100
AcDbEntity
  8
BEM
 62
     0
370
    -2
100
AcDbLine
 10
180.5
 20
234.2913024735249
 30
0.0
 11
180.5
 21
204.1559321044119
 31
0.0
  0
LINE
  5
1035
330
F70
100
AcDbEntity
  8
BEM
 62
     0
370
    -2
100
AcDbLine
 10
262.4999999999999
 20
206.1559321044119
 30
0.0
 11
187.5
 21
206.1559321044119
 31
0.0
  0
SOLID
  5
1036
330
F70
100
AcDbEntity
  8
BEM
 62
     0
100
AcDbTrace
 10
262.4999999999999
 20
207.3225987710786
 30
0.0
 11
262.4999999999999
 21
204.9892654377453
 31
0.0
 12
269.4999999999999
 22
206.1559321044119
 32
0.0
 13
269.4999999999999
 23
206.1559321044119
 33
0.0
  0
SOLID
  5
1037
330
F70
100
AcDbEntity
  8
BEM
 62
     0
100
AcDbTrace
 10
187.5
 20
207.3225987710786
 30
0.0
 11
187.5
 21
204.9892654377453
 31
0.0
 12
180.5
 22
206.1559321044119
 32
0.0
 13
180.5
 23
206.1559321044119
 33
0.0
  0
MTEXT
  5
1038
330
F70
100
AcDbEntity
  8
BEM
 62
     1
100
AcDbMText
 10
225.0
 20
212.6559321044119
 30
0.0
 40
7.0
 41
0.0
 71
     5
 72
     1
  1
\A1;%%c89
 73
     1
 44
1.0
  0
POINT
  5
1039
330
F70
100
AcDbEntity
  8
DEFPOINTS
 62
     0
100
AcDbPoint
 10
269.4999999999999
 20
236.2913024735248
 30
0.0
  0
POINT
  5
103A
330
F70
100
AcDbEntity
  8
DEFPOINTS
 62
     0
100
AcDbPoint
 10
180.5
 20
236.2913024735249
 30
0.0
  0
POINT
  5
103B
330
F70
100
AcDbEntity
  8
DEFPOINTS
 62
     0
100
AcDbPoint
 10
180.5
 20
206.1559321044119
 30
0.0
  0
ENDBLK
  5
F7B
330
F70
100
AcDbEntity
  8
0
100
AcDbBlockEnd
  0
BLOCK
  5
FCB
330
FC1
100
AcDbEntity
  8
0
100
AcDbBlockBegin
  2
*D4
 70
     1
 10
0.0
 20
0.0
 30
0.0
  3
*D4
  1

  0
LINE
  5
102A
330
FC1
100
AcDbEntity
  8
SCHRAFF
 62
     0
370
    -2
100
AcDbLine
 10
179.0
 20
469.2913024735248
 30
0.0
 11
164.290418869361
 21
469.2913024735248
 31
0.0
  0
LINE
  5
102B
330
FC1
100
AcDbEntity
  8
SCHRAFF
 62
     0
370
    -2
100
AcDbLine
 10
179.8244359626823
 20
409.2913024735249
 30
0.0
 11
164.290418869361
 21
409.2913024735249
 31
0.0
  0
LINE
  5
102C
330
FC1
100
AcDbEntity
  8
SCHRAFF
 62
     0
370
    -2
100
AcDbLine
 10
166.290418869361
 20
462.2913024735249
 30
0.0
 11
166.290418869361
 21
416.2913024735249
 31
0.0
  0
SOLID
  5
102D
330
FC1
100
AcDbEntity
  8
SCHRAFF
 62
     0
100
AcDbTrace
 10
165.1237522026944
 20
462.2913024735249
 30
0.0
 11
167.4570855360277
 21
462.2913024735249
 31
0.0
 12
166.290418869361
 22
469.2913024735248
 32
0.0
 13
166.290418869361
 23
469.2913024735248
 33
0.0
  0
SOLID
  5
102E
330
FC1
100
AcDbEntity
  8
SCHRAFF
 62
     0
100
AcDbTrace
 10
165.1237522026943
 20
416.2913024735249
 30
0.0
 11
167.4570855360276
 21
416.2913024735249
 31
0.0
 12
166.290418869361
 22
409.2913024735249
 32
0.0
 13
166.290418869361
 23
409.2913024735249
 33
0.0
  0
MTEXT
  5
102F
330
FC1
100
AcDbEntity
  8
SCHRAFF
 62
     1
100
AcDbMText
 10
159.7904188693609
 20
439.2913024735249
 30
0.0
 40
7.0
 41
0.0
 71
     5
 72
     1
  1
\A1;60
 11
0.0000000000000001
 21
1.0
 31
0.0
 73
     1
 44
1.0
  0
POINT
  5
1030
330
FC1
100
AcDbEntity
  8
DEFPOINTS
 62
     0
100
AcDbPoint
 10
181.0
 20
469.2913024735248
 30
0.0
  0
POINT
  5
1031
330
FC1
100
AcDbEntity
  8
DEFPOINTS
 62
     0
100
AcDbPoint
 10
181.8244359626823
 20
409.2913024735249
 30
0.0
  0
POINT
  5
1032
330
FC1
100
AcDbEntity
  8
DEFPOINTS
 62
     0
100
AcDbPoint
 10
166.290418869361
 20
409.2913024735249
 30
0.0
  0
ENDBLK
  5
FCC
330
FC1
100
AcDbEntity
  8
0
100
AcDbBlockEnd
  0
BLOCK
  5
107C
330
1072
100
AcDbEntity
  8
0
100
AcDbBlockBegin
  2
*D5
 70
     1
 10
0.0
 20
0.0
 30
0.0
  3
*D5
  1

  0
LINE
  5
1087
330
1072
100
AcDbEntity
  8
BEM
 62
     0
370
    -2
100
AcDbLine
 10
179.1124206446815
 20
229.2913024735249
 30
0.0
 11
145.4331105746304
 21
229.2913024735249
 31
0.0
  0
LINE
  5
1088
330
1072
100
AcDbEntity
  8
BEM
 62
     0
370
    -2
100
AcDbLine
 10
179.0
 20
469.2913024735248
 30
0.0
 11
145.4331105746305
 21
469.2913024735248
 31
0.0
  0
LINE
  5
1089
330
1072
100
AcDbEntity
  8
BEM
 62
     0
370
    -2
100
AcDbLine
 10
147.4331105746304
 20
236.2913024735249
 30
0.0
 11
147.4331105746305
 21
462.2913024735249
 31
0.0
  0
SOLID
  5
108A
330
1072
100
AcDbEntity
  8
BEM
 62
     0
100
AcDbTrace
 10
146.2664439079638
 20
236.2913024735249
 30
0.0
 11
148.5997772412971
 21
236.2913024735249
 31
0.0
 12
147.4331105746304
 22
229.2913024735249
 32
0.0
 13
147.4331105746304
 23
229.2913024735249
 33
0.0
  0
SOLID
  5
108B
330
1072
100
AcDbEntity
  8
BEM
 62
     0
100
AcDbTrace
 10
146.2664439079638
 20
462.2913024735249
 30
0.0
 11
148.5997772412972
 21
462.2913024735249
 31
0.0
 12
147.4331105746305
 22
469.2913024735248
 32
0.0
 13
147.4331105746305
 23
469.2913024735248
 33
0.0
  0
MTEXT
  5
108C
330
1072
100
AcDbEntity
  8
BEM
 62
     1
100
AcDbMText
 10
140.9331105746304
 20
349.2913024735249
 30
0.0
 40
7.0
 41
0.0
 71
     5
 72
     1
  1
\A1;240
 11
0.0000000000000001
 21
1.0
 31
0.0
 73
     1
 44
1.0
  0
POINT
  5
108D
330
1072
100
AcDbEntity
  8
DEFPOINTS
 62
     0
100
AcDbPoint
 10
181.1124206446815
 20
229.2913024735249
 30
0.0
  0
POINT
  5
108E
330
1072
100
AcDbEntity
  8
DEFPOINTS
 62
     0
100
AcDbPoint
 10
181.0
 20
469.2913024735248
 30
0.0
  0
POINT
  5
108F
330
1072
100
AcDbEntity
  8
DEFPOINTS
 62
     0
100
AcDbPoint
 10
147.4331105746305
 20
469.2913024735248
 30
0.0
  0
ENDBLK
  5
107D
330
1072
100
AcDbEntity
  8
0
100
AcDbBlockEnd
  0
ENDSEC
  0
SECTION
  2
ENTITIES
  0
LINE
  5
57
330
1E
100
AcDbEntity
  8
STEMPEL
100
AcDbLine
 10
410.0
 20
110.0
 30
0.0
 11
39.99999999999997
 21
110.0
 31
0.0
  0
LINE
  5
58
330
1E
100
AcDbEntity
  8
STEMPEL
100
AcDbLine
 10
136.0000000000001
 20
109.9999999999999
 30
0.0
 11
136.0
 21
9.999999999999971
 31
0.0
  0
LINE
  5
59
330
1E
100
AcDbEntity
  8
STEMPEL
100
AcDbLine
 10
220.0
 20
110.0
 30
0.0
 11
220.0
 21
9.999999999999971
 31
0.0
  0
LINE
  5
5A
330
1E
100
AcDbEntity
  8
STEMPEL
100
AcDbLine
 10
332.0
 20
109.9999999999997
 30
0.0
 11
332.0
 21
40.0
 31
0.0
  0
LINE
  5
5B
330
1E
100
AcDbEntity
  8
STEMPEL
100
AcDbLine
 10
135.9999999999999
 20
29.99999999999997
 30
0.0
 11
39.99999999999997
 21
29.99999999999997
 31
0.0
  0
LINE
  5
5C
330
1E
100
AcDbEntity
  8
STEMPEL
100
AcDbLine
 10
410.0
 20
40.0
 30
0.0
 11
136.0000000000001
 21
39.99999999999997
 31
0.0
  0
LINE
  5
5D
330
1E
100
AcDbEntity
  8
STEMPEL
100
AcDbLine
 10
410.0
 20
80.0
 30
0.0
 11
136.0000000000001
 21
79.99999999999994
 31
0.0
  0
LINE
  5
5E
330
1E
100
AcDbEntity
  8
VOLL
100
AcDbLine
 10
54.00000000000009
 20
110.0
 30
0.0
 11
53.99999999999997
 21
9.999999999999971
 31
0.0
  0
LINE
  5
5F
330
1E
100
AcDbEntity
  8
VOLL
100
AcDbLine
 10
94.00000000000011
 20
109.9999999999999
 30
0.0
 11
94.0
 21
9.999999999999971
 31
0.0
  0
LINE
  5
60
330
1E
100
AcDbEntity
  8
VOLL
100
AcDbLine
 10
114.0000000000001
 20
109.9999999999999
 30
0.0
 11
114.0
 21
9.999999999999971
 31
0.0
  0
LINE
  5
61
330
1E
100
AcDbEntity
  8
VOLL
100
AcDbLine
 10
154.0000000000001
 20
79.99999999999994
 30
0.0
 11
154.0000000000001
 21
39.99999999999997
 31
0.0
  0
LINE
  5
62
330
1E
100
AcDbEntity
  8
VOLL
100
AcDbLine
 10
180.0000000000001
 20
109.9999999999998
 30
0.0
 11
180.0
 21
39.99999999999997
 31
0.0
  0
LINE
  5
63
330
1E
100
AcDbEntity
  8
HILF
100
AcDbLine
 10
40.00000000000008
 20
100.0
 30
0.0
 11
136.0000000000001
 21
100.0
 31
0.0
  0
LINE
  5
64
330
1E
100
AcDbEntity
  8
HILF
100
AcDbLine
 10
40.00000000000008
 20
90.00000000000005
 30
0.0
 11
136.0000000000001
 21
90.00000000000005
 31
0.0
  0
LINE
  5
65
330
1E
100
AcDbEntity
  8
HILF
100
AcDbLine
 10
40.00000000000008
 20
79.99999999999994
 30
0.0
 11
136.0000000000001
 21
79.99999999999994
 31
0.0
  0
LINE
  5
66
330
1E
100
AcDbEntity
  8
HILF
100
AcDbLine
 10
40.00000000000008
 20
69.99999999999994
 30
0.0
 11
136.0000000000001
 21
69.99999999999994
 31
0.0
  0
LINE
  5
67
330
1E
100
AcDbEntity
  8
HILF
100
AcDbLine
 10
40.00000000000008
 20
59.99999999999997
 30
0.0
 11
136.0000000000001
 21
59.99999999999997
 31
0.0
  0
LINE
  5
68
330
1E
100
AcDbEntity
  8
HILF
100
AcDbLine
 10
40.00000000000008
 20
49.99999999999997
 30
0.0
 11
136.0000000000001
 21
49.99999999999997
 31
0.0
  0
LINE
  5
69
330
1E
100
AcDbEntity
  8
HILF
100
AcDbLine
 10
40.00000000000008
 20
39.99999999999997
 30
0.0
 11
136.0000000000001
 21
39.99999999999997
 31
0.0
  0
LINE
  5
6A
330
1E
100
AcDbEntity
  8
HILF
100
AcDbLine
 10
136.0000000000001
 20
69.99999999999994
 30
0.0
 11
220.0
 21
69.99999999999994
 31
0.0
  0
LINE
  5
6B
330
1E
100
AcDbEntity
  8
HILF
100
AcDbLine
 10
136.0000000000001
 20
59.99999999999997
 30
0.0
 11
220.0
 21
59.99999999999997
 31
0.0
  0
LINE
  5
6C
330
1E
100
AcDbEntity
  8
HILF
100
AcDbLine
 10
136.0000000000001
 20
49.99999999999997
 30
0.0
 11
220.0
 21
49.99999999999997
 31
0.0
  0
LINE
  5
6D
330
1E
100
AcDbEntity
  8
HILF
100
AcDbLine
 10
224.7736801096948
 20
84.03758247564139
 30
0.0
 11
324.8353916556311
 21
84.03758247564139
 31
0.0
  0
LINE
  5
6E
330
1E
100
AcDbEntity
  8
HILF
100
AcDbLine
 10
224.7736801096948
 20
69.99999999999994
 30
0.0
 11
324.835391655631
 21
69.99999999999994
 31
0.0
  0
LINE
  5
6F
330
1E
100
AcDbEntity
  8
HILF
100
AcDbLine
 10
224.7736801096948
 20
59.99999999999997
 30
0.0
 11
324.835391655631
 21
59.99999999999997
 31
0.0
  0
LINE
  5
70
330
1E
100
AcDbEntity
  8
HILF
100
AcDbLine
 10
224.7736801096948
 20
49.99999999999997
 30
0.0
 11
324.835391655631
 21
49.99999999999997
 31
0.0
  0
LINE
  5
71
330
1E
100
AcDbEntity
  8
VOLL
100
AcDbLine
 10
332.0
 20
60.0
 30
0.0
 11
410.0
 21
60.0
 31
0.0
  0
LINE
  5
72
330
1E
100
AcDbEntity
  8
HILF
100
AcDbLine
 10
336.7238616296993
 20
83.77983636955827
 30
0.0
 11
404.8588839326728
 21
83.77983636955827
 31
0.0
  0
LINE
  5
73
330
1E
100
AcDbEntity
  8
HILF
100
AcDbLine
 10
223.4909699289885
 20
14.89398258028314
 30
0.0
 11
404.8588839326728
 21
14.89398258028314
 31
0.0
  0
TEXT
  5
74
330
1E
100
AcDbEntity
  8
TEXT
100
AcDbText
 10
63.86165979631819
 20
18.67381894984132
 30
0.0
 40
4.0
  1
Änderung
 41
0.8
  7
GREEKS
 72
     1
 11
74.60451693917534
 21
18.67381894984132
 31
0.0
100
AcDbText
  0
TEXT
  5
75
330
1E
100
AcDbEntity
  8
TEXT
100
AcDbText
 10
143.5163572150377
 20
102.4620895087088
 30
0.0
 40
5.0
  1
Maßstab
 41
0.8
  7
GREEKS
100
AcDbText
  0
TEXT
  5
76
330
1E
100
AcDbEntity
  8
TEXT
100
AcDbText
 10
184.2858954734051
 20
102.4184168434819
 30
0.0
 40
5.0
  1
Zul. Abw.
 41
0.8
  7
GREEKS
100
AcDbText
  0
TEXT
  5
77
330
1E
100
AcDbEntity
  8
TEXT
100
AcDbText
 10
224.877940380901
 20
102.5489328011779
 30
0.0
 40
5.0
  1
Benennung
 41
0.8
  7
GREEKS
100
AcDbText
  0
TEXT
  5
78
330
1E
100
AcDbEntity
  8
TEXT
100
AcDbText
 10
336.178754957634
 20
102.3132034537136
 30
0.0
 40
5.0
  1
Zeichnungs Nr.
 41
0.8
  7
GREEKS
100
AcDbText
  0
TEXT
  5
79
330
1E
100
AcDbEntity
  8
TEXT
100
AcDbText
 10
224.742238391136
 20
30.84560570193057
 30
0.0
 40
5.0
  1
Bauvorhaben
 41
0.8
  7
GREEKS
100
AcDbText
  0
TEXT
  5
7A
330
1E
100
AcDbEntity
  8
TEXT
100
AcDbText
 10
336.7238616296993
 20
73.1811823709997
 30
0.0
 40
5.0
  1
Ersatz für:
 41
0.8
  7
GREEKS
100
AcDbText
  0
TEXT
  5
7B
330
1E
100
AcDbEntity
  8
TEXT
100
AcDbText
 10
48.26641107045756
 20
13.65465846027192
 30
0.0
 40
4.0
  1
Index
 50
90.0
 41
0.8
  7
GREEKS
100
AcDbText
  0
TEXT
  5
7C
330
1E
100
AcDbEntity
  8
TEXT
100
AcDbText
 10
100.0934676075481
 20
18.6715626933981
 30
0.0
 40
4.0
  1
Tag
 41
0.8
  7
GREEKS
 72
     1
 11
103.8268009408814
 21
18.6715626933981
 31
0.0
100
AcDbText
  0
TEXT
  5
7D
330
1E
100
AcDbEntity
  8
TEXT
100
AcDbText
 10
119.0122744386592
 20
18.59324216966408
 30
0.0
 40
4.0
  1
Name
 41
0.8
  7
GREEKS
 72
     1
 11
125.3360839624688
 21
18.59324216966408
 31
0.0
100
AcDbText
  0
TEXT
  5
7E
330
1E
100
AcDbEntity
  8
TEXT
100
AcDbText
 10
162.3311673153651
 20
73.31880501229926
 30
0.0
 40
4.0
  1
Tag
 41
0.8
  7
GREEKS
100
AcDbText
  0
TEXT
  5
7F
330
1E
100
AcDbEntity
  8
TEXT
100
AcDbText
 10
192.4626584226295
 20
73.30961091915225
 30
0.0
 40
4.0
  1
Name
 41
0.8
  7
GREEKS
100
AcDbText
  0
TEXT
  5
80
330
1E
100
AcDbEntity
  8
TEXT
100
AcDbText
 10
137.5836127167615
 20
63.62990369617964
 30
0.0
 40
4.0
  1
Gez.
 41
0.8
  7
GREEKS
100
AcDbText
  0
TEXT
  5
81
330
1E
100
AcDbEntity
  8
TEXT
100
AcDbText
 10
137.5515086571672
 20
53.68926291428377
 30
0.0
 40
4.0
  1
Gepr.
 41
0.8
  7
GREEKS
100
AcDbText
  0
TEXT
  5
82
330
1E
100
AcDbEntity
  8
TEXT
100
AcDbText
 10
137.6006777387304
 20
43.52946389649807
 30
0.0
 40
4.0
  1
Norm.
 41
0.8
  7
GREEKS
100
AcDbText
  0
LINE
  5
83
330
1E
100
AcDbEntity
  8
STEMPEL
100
AcDbLine
 10
49.99999999999989
 20
10.0
 30
0.0
 11
410.0
 21
10.0
 31
0.0
  0
TEXT
  5
84
330
1E
100
AcDbEntity
  8
TEXT
100
AcDbText
 10
337.2400861497006
 20
52.07416177878602
 30
0.0
 40
5.0
  1
ersetzt durch:
 41
0.8
  7
GREEKS
100
AcDbText
  0
LINE
  5
85
330
1E
100
AcDbEntity
  8
STEMPEL
100
AcDbLine
 10
410.0
 20
10.0
 30
0.0
 11
39.99999999999989
 21
10.0
 31
0.0
  0
LINE
  5
86
330
1E
100
AcDbEntity
  8
STEMPEL
100
AcDbLine
 10
410.0
 20
10.0
 30
0.0
 11
410.0
 21
584.0
 31
0.0
  0
LINE
  5
87
330
1E
100
AcDbEntity
  8
STEMPEL
100
AcDbLine
 10
40.0
 20
10.0
 30
0.0
 11
39.99999999999989
 21
584.0
 31
0.0
  0
LINE
  5
88
330
1E
100
AcDbEntity
  8
STEMPEL
100
AcDbLine
 10
410.0
 20
584.0
 30
0.0
 11
39.99999999999989
 21
584.0
 31
0.0
  0
LINE
  5
89
330
1E
100
AcDbEntity
  8
HILF
100
AcDbLine
 10
0.0
 20
0.0
 30
0.0
 11
-0.0000000000001137
 21
594.0
 31
0.0
  0
LINE
  5
8A
330
1E
100
AcDbEntity
  8
HILF
100
AcDbLine
 10
419.9999999999999
 20
594.0000000000002
 30
0.0
 11
0.0
 21
594.0
 31
0.0
  0
LINE
  5
8B
330
1E
100
AcDbEntity
  8
HILF
100
AcDbLine
 10
420.0
 20
0.0
 30
0.0
 11
0.0
 21
0.0
 31
0.0
  0
LINE
  5
8C
330
1E
100
AcDbEntity
  8
HILF
100
AcDbLine
 10
31.08767135713856
 20
297.0
 30
0.0
 11
0.0000000000001137
 21
297.0
 31
0.0
  0
TEXT
  5
8D
330
1E
100
AcDbEntity
  8
TEXT
100
AcDbText
 10
138.622109822104
 20
73.14025471151666
 30
0.0
 40
4.0
  1
2009
 41
0.8
  7
GREEKS
100
AcDbText
  0
LINE
  5
8E
330
1E
100
AcDbEntity
  8
HILF
100
AcDbLine
 10
420.0
 20
-0.0000000000001137
 30
0.0
 11
419.9999999999999
 21
594.0
 31
0.0
  0
TEXT
  5
8F
330
1E
100
AcDbEntity
  8
VOLL
100
AcDbText
 10
78.07675471698113
 20
31.02594776470585
 30
0.0
 40
1.8
  1

  7
GREEKS
100
AcDbText
  0
TEXT
  5
90
330
1E
100
AcDbEntity
  8
TEXT
100
AcDbText
 10
41.85509950977674
 20
111.6719999999999
 30
0.0
 40
5.0
  1
Erstellt mit AUTOCAD 2004
 41
0.8
  7
GREEKS
100
AcDbText
  0
TEXT
  5
91
330
1E
100
AcDbEntity
  8
TEXT
100
AcDbText
 10
194.4216048581257
 20
63.0896391972351
 30
0.0
 40
4.0
  1
Koeh
 41
0.8
  7
GREEKS
 72
     1
 11
199.6787477152685
 21
63.0896391972351
 31
0.0
100
AcDbText
  0
TEXT
  5
92
330
1E
100
AcDbEntity
  8
TEXT
 62
     1
100
AcDbText
 10
346.3485517453547
 20
88.14901428913959
 30
0.0
 40
7.0
  1
55688080W
 41
0.8
  7
GREEKS
 72
     1
 11
370.3485517453547
 21
88.14901428913959
 31
0.0
100
AcDbText
  0
TEXT
  5
93
330
1E
100
AcDbEntity
  8
TEXT
 62
     1
100
AcDbText
 10
150.5006306481887
 20
88.14901428913959
 30
0.0
 40
7.0
  1
1:2
 41
0.8
  7
GREEKS
100
AcDbText
  0
TEXT
  5
94
330
1E
100
AcDbEntity
  8
TEXT
100
AcDbText
 10
161.0085209177598
 20
63.10765040825732
 30
0.0
 40
4.0
  1
05.11.
 41
0.8
  7
GREEKS
 72
     1
 11
167.4085209177598
 21
63.10765040825732
 31
0.0
100
AcDbText
  0
TEXT
  5
95
330
1E
100
AcDbEntity
  8
TEXT
 62
     1
100
AcDbText
 10
225.354031386242
 20
87.41748789253779
 30
0.0
 40
7.0
  1
Übergangsrohr DN80
 41
0.8
  7
GREEKS
100
AcDbText
  0
TEXT
  5
96
330
1E
100
AcDbEntity
  8
TEXT
100
AcDbText
 10
225.1296391125315
 20
71.50334417585288
 30
0.0
 40
5.0
  1
quadratisches Rohr auf LX-Rohr
 41
0.8
  7
GREEKS
100
AcDbText
  0
TEXT
  5
98
330
1E
100
AcDbEntity
  8
TEXT
100
AcDbText
 10
225.1296391125315
 20
51.64011943042158
 30
0.0
 40
5.0
  1
EDV-Art.Nr. 55688.080X
 41
0.8
  7
GREEKS
100
AcDbText
  0
TEXT
  5
99
330
1E
100
AcDbEntity
  8
TEXT
100
AcDbText
 10
224.9837501577827
 20
42.62974153022632
 30
0.0
 40
4.0
  1
55688080W.DWG
 41
0.8
  7
GREEKS
100
AcDbText
  0
TEXT
  5
9A
330
1E
100
AcDbEntity
  8
TEXT
100
AcDbText
 10
182.626132208084
 20
90.76363841023022
 30
0.0
 40
4.0
  1
DIN EN1123-2
 41
0.8
  7
GREEKS
 72
     1
 11
199.6166083985602
 21
90.76363841023022
 31
0.0
100
AcDbText
  0
INSERT
  5
9B
330
1E
100
AcDbEntity
  8
STEMPEL
100
AcDbBlockReference
  2
LOGO
 10
140.9955485457794
 20
45.02105276448322
 30
0.0
 41
2.0
 42
2.0
 43
2.0
  0
TEXT
  5
118
330
1E
100
AcDbEntity
  8
BEM
100
AcDbText
 10
417.3022923857165
 20
10.16790107998849
 30
0.0
 40
4.0
  1
Diese Zeichnung ist urheberrechtlich geschützt und bleibt unser Eigentum. Sie darf weder ganz noch teilweise verfielfältigt und nicht an Dritte weitergegeben werden.
 50
90.0
 41
0.8
  7
GREEKS
100
AcDbText
  0
TEXT
  5
7C7
330
1E
100
AcDbEntity
  8
TEXT
 62
     1
100
AcDbText
 10
234.6057658946468
 20
129.0783465745483
 30
0.0
 40
7.0
  1
feuerverzinkt und innen beschichtet
 41
0.8
  7
GREEKS
100
AcDbText
  0
TEXT
  5
7C8
330
1E
100
AcDbEntity
  8
TEXT
 62
     1
100
AcDbText
 10
186.6560484572489
 20
139.8004583895517
 30
0.0
 40
7.0
  1
Werkstoff: S235 JRH, E195 EN10305
 41
0.8
  7
GREEKS
100
AcDbText
  0
LWPOLYLINE
  5
E1D
330
1E
100
AcDbEntity
  8
BEM
 62
     1
100
AcDbPolyline
 90
        4
 70
     1
 43
0.0
 10
214.0402761458393
 20
388.3255226493603
 10
214.0402761458393
 20
381.3255226493603
 10
221.0402761458393
 20
381.3255226493603
 10
221.0402761458393
 20
388.3255226493603
  0
DIMENSION
  5
E1E
330
1E
100
AcDbEntity
  8
BEM
100
AcDbDimension
  2
*D1
 10
264.9999999999998
 20
378.2276659460564
 30
0.0
 11
227.5996098150029
 21
378.2276659460564
 31
0.0
 70
   160
 71
     5
 42
79.99999999999975
  3
Standard
100
AcDbAlignedDimension
 13
185.0
 23
390.2419435288923
 33
0.0
 14
264.9999999999998
 24
390.2419435288922
 34
0.0
100
AcDbRotatedDimension
1001
ACAD
1000
DSTYLE
1002
{
1070
    40
1040
2.0
1070
    41
1040
3.5
1070
    42
1040
1.0
1070
    43
1040
7.0
1070
    44
1040
1.0
1070
    73
1070
     0
1070
    74
1070
     0
1070
    77
1070
     1
1070
    78
1070
     8
1070
    79
1070
     2
1070
   140
1040
3.5
1070
   141
1040
1.5
1070
   146
1040
0.5
1070
   147
1040
1.5
1070
   172
1070
     1
1070
   178
1070
     1
1070
   179
1070
     2
1070
   271
1070
     2
1070
   272
1070
     2
1070
   284
1070
     8
1070
   285
1070
     8
1070
   286
1070
     8
1002
}
  0
LINE
  5
E1F
330
1E
100
AcDbEntity
  8
STEMPEL
100
AcDbLine
 10
268.8875793553184
 20
229.2913024735248
 30
0.0
 11
181.1124206446815
 21
229.2913024735249
 31
0.0
  0
LINE
  5
E20
330
1E
100
AcDbEntity
  8
MITTEL
100
AcDbLine
 10
225.0
 20
474.2913024735249
 30
0.0
 11
225.0
 21
390.3904690039829
 31
0.0
  0
LINE
  5
E36
330
1E
100
AcDbEntity
  8
STEMPEL
100
AcDbLine
 10
265.0000000000001
 20
369.2913024735249
 30
0.0
 11
185.0000000000003
 21
369.2913024735249
 31
0.0
  0
TEXT
  5
E38
330
1E
100
AcDbEntity
  8
TEXT
 62
     1
100
AcDbText
 10
215.3093642201727
 20
434.3952677467337
 30
0.0
 40
7.0
  1
DN80
 50
90.0
 41
0.8
  7
GREEKS
100
AcDbText
  0
LINE
  5
E4D
330
1E
100
AcDbEntity
  8
STEMPEL
100
AcDbLine
 10
269.4999999999999
 20
236.2913024735248
 30
0.0
 11
269.5000000000001
 21
339.2913024735249
 31
0.0
  0
LINE
  5
E4E
330
1E
100
AcDbEntity
  8
STEMPEL
100
AcDbLine
 10
181.1124206446815
 20
229.2913024735249
 30
0.0
 11
180.5
 21
236.2913024735249
 31
0.0
  0
LINE
  5
E5A
330
1E
100
AcDbEntity
  8
STEMPEL
100
AcDbLine
 10
269.5000000000001
 20
339.2913024735249
 30
0.0
 11
265.0
 21
369.2913024735249
 31
0.0
  0
LINE
  5
E5B
330
1E
100
AcDbEntity
  8
STEMPEL
100
AcDbLine
 10
180.5000000000001
 20
339.2913024735248
 30
0.0
 11
185.0000000000002
 21
369.2913024735249
 31
0.0
  0
ELLIPSE
  5
E5C
330
1E
100
AcDbEntity
  8
HILF
100
AcDbEllipse
 10
225.0000000000001
 20
369.2913024735249
 30
0.0
 11
39.99999999999989
 21
0.0
 31
0.0
210
0.0
220
0.0
230
-1.0
 40
0.7500000000000036
 41
0.0
 42
3.141592653589793
  0
TEXT
  5
EAD
330
1E
100
AcDbEntity
  8
TEXT
 62
     1
100
AcDbText
 10
215.3093642201727
 20
298.7980415948957
 30
0.0
 40
7.0
  1
DN80
 50
90.0
 41
0.8
  7
GREEKS
100
AcDbText
  0
ARC
  5
EB0
330
1E
100
AcDbEntity
  8
SCHRAFF
100
AcDbCircle
 10
263.5067016322395
 20
369.1624300959428
 30
0.0
 40
3.466955778540005
100
AcDbArc
 50
304.091773119852
 51
64.48653353778603
  0
ARC
  5
EB1
330
1E
100
AcDbEntity
  8
SCHRAFF
100
AcDbCircle
 10
186.4932983677604
 20
369.1624300959436
 30
0.0
 40
3.466955778540005
100
AcDbArc
 50
115.5134664622128
 51
235.9082268801469
  0
ARC
  5
EB2
330
1E
100
AcDbEntity
  8
SCHRAFF
100
AcDbCircle
 10
183.6523968511541
 20
369.2913024735249
 30
0.0
 40
5.0
100
AcDbArc
 50
323.130102354156
 51
36.86989764584402
  0
ARC
  5
EB3
330
1E
100
AcDbEntity
  8
SCHRAFF
100
AcDbCircle
 10
188.6523968511541
 20
369.2913024735249
 30
0.0
 40
5.0
100
AcDbArc
 50
323.130102354156
 51
36.86989764584402
  0
ARC
  5
EB6
330
1E
100
AcDbEntity
  8
SCHRAFF
100
AcDbCircle
 10
198.6523968511541
 20
369.2913024735249
 30
0.0
 40
5.0
100
AcDbArc
 50
323.130102354156
 51
36.86989764584402
  0
ARC
  5
EB7
330
1E
100
AcDbEntity
  8
SCHRAFF
100
AcDbCircle
 10
193.6523968511541
 20
369.2913024735249
 30
0.0
 40
5.0
100
AcDbArc
 50
323.130102354156
 51
36.86989764584402
  0
ARC
  5
EB8
330
1E
100
AcDbEntity
  8
SCHRAFF
100
AcDbCircle
 10
213.6523968511542
 20
369.2913024735249
 30
0.0
 40
5.0
100
AcDbArc
 50
323.130102354156
 51
36.86989764584402
  0
ARC
  5
EB9
330
1E
100
AcDbEntity
  8
SCHRAFF
100
AcDbCircle
 10
218.6523968511541
 20
369.2913024735249
 30
0.0
 40
5.0
100
AcDbArc
 50
323.130102354156
 51
36.86989764584402
  0
ARC
  5
EBA
330
1E
100
AcDbEntity
  8
SCHRAFF
100
AcDbCircle
 10
208.6523968511542
 20
369.2913024735249
 30
0.0
 40
5.0
100
AcDbArc
 50
323.130102354156
 51
36.86989764584402
  0
ARC
  5
EBB
330
1E
100
AcDbEntity
  8
SCHRAFF
100
AcDbCircle
 10
203.6523968511541
 20
369.2913024735249
 30
0.0
 40
5.0
100
AcDbArc
 50
323.130102354156
 51
36.86989764584402
  0
ARC
  5
EBD
330
1E
100
AcDbEntity
  8
SCHRAFF
100
AcDbCircle
 10
238.6523968511542
 20
369.2913024735249
 30
0.0
 40
5.0
100
AcDbArc
 50
323.130102354156
 51
36.86989764584402
  0
ARC
  5
EBE
330
1E
100
AcDbEntity
  8
SCHRAFF
100
AcDbCircle
 10
243.6523968511541
 20
369.2913024735249
 30
0.0
 40
5.0
100
AcDbArc
 50
323.130102354156
 51
36.86989764584402
  0
ARC
  5
EBF
330
1E
100
AcDbEntity
  8
SCHRAFF
100
AcDbCircle
 10
253.6523968511541
 20
369.2913024735249
 30
0.0
 40
5.0
100
AcDbArc
 50
323.130102354156
 51
36.86989764584402
  0
ARC
  5
EC0
330
1E
100
AcDbEntity
  8
SCHRAFF
100
AcDbCircle
 10
248.6523968511542
 20
369.2913024735249
 30
0.0
 40
5.0
100
AcDbArc
 50
323.130102354156
 51
36.86989764584402
  0
ARC
  5
EC1
330
1E
100
AcDbEntity
  8
SCHRAFF
100
AcDbCircle
 10
228.6523968511541
 20
369.2913024735249
 30
0.0
 40
5.0
100
AcDbArc
 50
323.130102354156
 51
36.86989764584402
  0
ARC
  5
EC2
330
1E
100
AcDbEntity
  8
SCHRAFF
100
AcDbCircle
 10
233.6523968511542
 20
369.2913024735249
 30
0.0
 40
5.0
100
AcDbArc
 50
323.130102354156
 51
36.86989764584402
  0
ARC
  5
EC3
330
1E
100
AcDbEntity
  8
SCHRAFF
100
AcDbCircle
 10
223.6523968511542
 20
369.2913024735249
 30
0.0
 40
5.0
100
AcDbArc
 50
323.130102354156
 51
36.86989764584402
  0
ARC
  5
EC4
330
1E
100
AcDbEntity
  8
SCHRAFF
100
AcDbCircle
 10
258.6523968511542
 20
369.2913024735249
 30
0.0
 40
5.0
100
AcDbArc
 50
323.130102354156
 51
36.86989764584402
  0
HATCH
  5
ECF
330
1E
100
AcDbEntity
  8
SCHRAFF
100
AcDbHatch
 10
0.0
 20
0.0
 30
0.0
210
0.0
220
0.0
230
1.0
  2
_USER
 70
     0
 71
     0
 91
        2
 92
        7
 72
     1
 73
     1
 93
        3
 10
265.45
 20
366.2913024735249
 42
0.0
 10
265.0
 20
369.2913024735247
 42
0.0
 10
265.0
 20
372.2913024735248
 42
-0.5796491806711281
 97
        0
 92
        7
 72
     1
 73
     1
 93
        3
 10
184.5500000000003
 20
366.2913024735254
 42
-0.5796491806712024
 10
185.0000000000002
 20
372.2913024735257
 42
0.0
 10
185.0000000000002
 20
369.2913024735247
 42
0.0
 97
        0
 75
     0
 76
     0
 52
0.0
 41
0.1
 77
     0
 78
     1
 53
0.0
 43
0.0
 44
717.440438998534
 45
0.0
 46
-0.1
 79
     0
 47
0.1346872712470274
 98
        2
 10
266.0007779198235
 20
368.7432481573753
 10
184.3360202761808
 20
368.7432481573753
  0
LINE
  5
EF0
330
1E
100
AcDbEntity
  8
HILF
100
AcDbLine
 10
267.8938882599306
 20
236.2913024735248
 30
0.0
 11
182.1061117400693
 21
236.2913024735248
 31
0.0
  0
LINE
  5
EF1
330
1E
100
AcDbEntity
  8
STEMPEL
100
AcDbLine
 10
180.5
 20
236.2913024735249
 30
0.0
 11
180.5000000000001
 21
339.2913024735248
 31
0.0
  0
LINE
  5
EF4
330
1E
100
AcDbEntity
  8
STEMPEL
100
AcDbLine
 10
268.8875793553184
 20
229.2913024735248
 30
0.0
 11
269.4999999999999
 21
236.2913024735249
 31
0.0
  0
HATCH
  5
F30
330
1E
100
AcDbEntity
  8
SCHRAFF
100
AcDbHatch
 10
0.0
 20
0.0
 30
0.0
210
0.0
220
0.0
230
1.0
  2
_USER
 70
     0
 71
     1
 91
        2
 92
        5
 93
       10
 72
     1
 10
269.0000000000001
 20
469.291302473525
 11
266.0
 21
469.291302473525
 72
     1
 10
266.0
 20
469.291302473525
 11
266.0
 21
414.6764672806593
 72
     2
 10
251.0000000000001
 20
414.6764672806593
 40
14.99999999999996
 50
360.0
 51
388.5035101170838
 73
     0
 72
     2
 10
279.9999999999999
 20
398.9284515326358
 40
17.99999999999993
 50
151.4964898829228
 51
180.0000000000004
 73
     1
 72
     1
 10
262.0
 20
398.9284515326357
 11
262.0
 21
391.7068072843981
 72
     4
 94
        3
 73
     0
 74
     0
 95
        8
 96
        4
 40
80.46999473866957
 40
80.46999473866957
 40
80.46999473866957
 40
80.46999473866957
 40
83.62178572314537
 40
83.62178572314537
 40
83.62178572314537
 40
83.62178572314537
 10
262.0
 20
391.7068072843981
 10
263.0051419901736
 20
391.495985326879
 10
264.0045934374445
 20
391.2030676622128
 10
264.9999999999999
 20
390.8517956934471
 72
     1
 10
265.0
 20
390.8517956934471
 11
265.0
 21
398.9284515326357
 72
     2
 10
279.9999999999999
 20
398.9284515326357
 40
14.99999999999996
 50
180.0
 51
208.5035101170838
 73
     0
 72
     2
 10
251.0
 20
414.6764672806592
 40
17.99999999999993
 50
331.4964898829229
 51
360.0
 73
     1
 72
     1
 10
269.0
 20
414.6764672806592
 11
269.0000000000001
 21
469.291302473525
 97
       10
330
F34
330
F3E
330
F42
330
F3F
330
F33
330
F31
330
F46
330
F41
330
F40
330
F3D
 92
        5
 93
       10
 72
     1
 10
184.0
 20
469.291302473525
 11
181.0
 21
469.2913024735248
 72
     1
 10
181.0
 20
469.2913024735248
 11
181.0
 21
414.6764672806593
 72
     2
 10
199.0
 20
414.6764672806593
 40
17.99999999999995
 50
179.9999999999998
 51
208.5035101170802
 73
     1
 72
     2
 10
170.0
 20
398.9284515326357
 40
14.99999999999997
 50
331.4964898829198
 51
360.0
 73
     0
 72
     1
 10
185.0
 20
398.9284515326357
 11
185.0
 21
390.2419435288924
 72
     4
 94
        3
 73
     0
 74
     0
 95
        8
 96
        4
 40
2.36109555200313
 40
2.36109555200313
 40
2.36109555200313
 40
2.36109555200313
 40
5.380410510523191
 40
5.380410510523191
 40
5.380410510523191
 40
5.380410510523191
 10
185.0
 20
390.2419435288923
 10
186.0002467665615
 20
390.4979332198958
 10
187.0003205164726
 20
390.7458207851908
 10
188.0
 20
390.9752454118377
 72
     1
 10
188.0
 20
390.9752454118378
 11
188.0
 21
398.9284515326357
 72
     2
 10
170.0
 20
398.9284515326358
 40
17.99999999999996
 50
359.9999999999998
 51
388.5035101170802
 73
     1
 72
     2
 10
199.0
 20
414.6764672806593
 40
14.99999999999997
 50
151.4964898829197
 51
180.0
 73
     0
 72
     1
 10
184.0
 20
414.6764672806593
 11
184.0
 21
469.291302473525
 97
       10
330
F34
330
F38
330
F3A
330
F3B
330
F45
330
F31
330
F32
330
F39
330
F3C
330
F37
 75
     0
 76
     0
 52
45.0
 41
2.0
 77
     0
 78
     1
 53
45.0
 43
0.0000000000001137
 44
-48.87057200651452
 45
-1.414213562373094
 46
1.414213562373095
 79
     0
 47
0.2444042205245087
 98
        2
 10
268.0463127834542
 20
442.7442065937948
 10
183.1920486275459
 20
444.699440775603
  0
SPLINE
  5
F31
102
{ACAD_REACTORS
330
F30
102
}
330
1E
100
AcDbEntity
  8
HILF
100
AcDbSpline
210
0.0
220
0.0
230
1.0
 70
     8
 71
     3
 72
    13
 73
     9
 74
     0
 42
0.0000000001
 43
0.0000000001
 40
2.36109555200313
 40
2.36109555200313
 40
2.36109555200313
 40
2.36109555200313
 40
18.48028328192163
 40
31.129025212779
 40
47.65691941751909
 40
60.75790416558763
 40
77.08055717635622
 40
83.62178572314537
 40
83.62178572314537
 40
83.62178572314537
 40
83.62178572314537
 10
185.0
 20
390.2419435288923
 30
0.0
 10
190.3400077924801
 20
391.6085932301977
 30
0.0
 10
199.8615239610737
 20
393.6355245619134
 30
0.0
 10
214.6598213107899
 20
387.7624760879762
 30
0.0
 10
228.7461648186963
 20
394.6949436277545
 30
0.0
 10
243.5804543330387
 20
386.9677285367049
 30
0.0
 10
255.6523064454642
 20
393.2504888127567
 30
0.0
 10
262.9341327344611
 20
391.5808257087922
 30
0.0
 10
264.9999999999999
 20
390.8517956934471
 30
0.0
  0
LINE
  5
F32
102
{ACAD_REACTORS
330
F30
102
}
330
1E
100
AcDbEntity
  8
STEMPEL
100
AcDbLine
 10
188.0
 20
390.9752454118377
 30
0.0
 11
188.0
 21
398.9284515326357
 31
0.0
  0
LINE
  5
F33
102
{ACAD_REACTORS
330
F30
102
}
330
1E
100
AcDbEntity
  8
STEMPEL
100
AcDbLine
 10
262.0
 20
391.7068072843981
 30
0.0
 11
262.0
 21
398.9284515326357
 31
0.0
  0
LINE
  5
F34
102
{ACAD_REACTORS
330
F30
102
}
330
1E
100
AcDbEntity
  8
STEMPEL
100
AcDbLine
 10
269.0
 20
469.2913024735248
 30
0.0
 11
181.0
 21
469.2913024735248
 31
0.0
  0
LINE
  5
F35
330
1E
100
AcDbEntity
  8
HILF
100
AcDbLine
 10
263.9851313571961
 20
410.9837225512793
 30
0.0
 11
186.014868642804
 21
410.9837225512793
 31
0.0
  0
LINE
  5
F36
330
1E
100
AcDbEntity
  8
HILF
100
AcDbLine
 10
188.9898298139724
 20
403.3597452078916
 30
0.0
 11
261.0101701860276
 21
403.3597452078916
 31
0.0
  0
LINE
  5
F37
102
{ACAD_REACTORS
330
F30
102
}
330
1E
100
AcDbEntity
  8
STEMPEL
100
AcDbLine
 10
184.0
 20
414.6764672806593
 30
0.0
 11
184.0
 21
469.2913024735248
 31
0.0
  0
LINE
  5
F38
102
{ACAD_REACTORS
330
F30
102
}
330
1E
100
AcDbEntity
  8
STEMPEL
100
AcDbLine
 10
181.0
 20
414.6764672806593
 30
0.0
 11
181.0
 21
469.2913024735248
 31
0.0
  0
ARC
  5
F39
102
{ACAD_REACTORS
330
F30
102
}
330
1E
100
AcDbEntity
  8
STEMPEL
100
AcDbCircle
 10
170.0
 20
398.9284515326357
 30
0.0
 40
18.0
100
AcDbArc
 50
0.0
 51
28.50351011708373
  0
ARC
  5
F3A
102
{ACAD_REACTORS
330
F30
102
}
330
1E
100
AcDbEntity
  8
STEMPEL
100
AcDbCircle
 10
199.0
 20
414.6764672806593
 30
0.0
 40
18.0
100
AcDbArc
 50
180.0
 51
208.5035101170837
  0
ARC
  5
F3B
102
{ACAD_REACTORS
330
F30
102
}
330
1E
100
AcDbEntity
  8
STEMPEL
100
AcDbCircle
 10
170.0
 20
398.9284515326357
 30
0.0
 40
15.0
100
AcDbArc
 50
0.0
 51
28.50351011708373
  0
ARC
  5
F3C
102
{ACAD_REACTORS
330
F30
102
}
330
1E
100
AcDbEntity
  8
STEMPEL
100
AcDbCircle
 10
199.0
 20
414.6764672806593
 30
0.0
 40
15.0
100
AcDbArc
 50
180.0
 51
208.5035101170837
  0
LINE
  5
F3D
102
{ACAD_REACTORS
330
F30
102
}
330
1E
100
AcDbEntity
  8
STEMPEL
100
AcDbLine
 10
269.0
 20
414.6764672806593
 30
0.0
 11
269.0
 21
469.2913024735248
 31
0.0
  0
LINE
  5
F3E
102
{ACAD_REACTORS
330
F30
102
}
330
1E
100
AcDbEntity
  8
STEMPEL
100
AcDbLine
 10
266.0
 20
414.6764672806593
 30
0.0
 11
266.0
 21
469.2913024735248
 31
0.0
  0
ARC
  5
F3F
102
{ACAD_REACTORS
330
F30
102
}
330
1E
100
AcDbEntity
  8
STEMPEL
100
AcDbCircle
 10
280.0
 20
398.9284515326357
 30
0.0
 40
18.0
100
AcDbArc
 50
151.4964898829162
 51
180.0
  0
ARC
  5
F40
102
{ACAD_REACTORS
330
F30
102
}
330
1E
100
AcDbEntity
  8
STEMPEL
100
AcDbCircle
 10
251.0
 20
414.6764672806593
 30
0.0
 40
18.0
100
AcDbArc
 50
331.4964898829162
 51
0.0
  0
ARC
  5
F41
102
{ACAD_REACTORS
330
F30
102
}
330
1E
100
AcDbEntity
  8
STEMPEL
100
AcDbCircle
 10
280.0
 20
398.9284515326357
 30
0.0
 40
15.0
100
AcDbArc
 50
151.4964898829162
 51
180.0
  0
ARC
  5
F42
102
{ACAD_REACTORS
330
F30
102
}
330
1E
100
AcDbEntity
  8
STEMPEL
100
AcDbCircle
 10
251.0
 20
414.6764672806593
 30
0.0
 40
15.0
100
AcDbArc
 50
331.4964898829162
 51
0.0
  0
LWPOLYLINE
  5
F43
330
1E
100
AcDbEntity
  8
BEM
 62
     1
100
AcDbPolyline
 90
        4
 70
     1
 43
0.0
 10
215.0480296378312
 20
491.4647473046852
 10
215.0480296378312
 20
484.4647473046852
 10
222.0480296378312
 20
484.4647473046852
 10
222.0480296378312
 20
491.4647473046852
  0
DIMENSION
  5
F44
330
1E
100
AcDbEntity
  8
BEM
100
AcDbDimension
  2
*D2
 10
266.0
 20
481.5996468738299
 30
0.0
 11
228.9536481127044
 21
481.5996468738299
 31
0.0
 70
   160
 71
     5
 42
81.99999999999997
  3
Standard
100
AcDbAlignedDimension
 13
184.0
 23
469.2913024735248
 33
0.0
 14
266.0
 24
469.2913024735248
 34
0.0
100
AcDbRotatedDimension
1001
ACAD
1000
DSTYLE
1002
{
1070
    40
1040
2.0
1070
    41
1040
3.5
1070
    42
1040
1.0
1070
    43
1040
7.0
1070
    44
1040
1.0
1070
    73
1070
     0
1070
    74
1070
     0
1070
    77
1070
     1
1070
    78
1070
     8
1070
    79
1070
     2
1070
   140
1040
3.5
1070
   141
1040
1.5
1070
   146
1040
0.5
1070
   147
1040
1.5
1070
   172
1070
     1
1070
   178
1070
     1
1070
   179
1070
     2
1070
   271
1070
     2
1070
   272
1070
     2
1070
   284
1070
     8
1070
   285
1070
     8
1070
   286
1070
     8
1002
}
  0
LINE
  5
F45
102
{ACAD_REACTORS
330
F30
102
}
330
1E
100
AcDbEntity
  8
STEMPEL
100
AcDbLine
 10
185.0000000000001
 20
369.2913024735249
 30
0.0
 11
185.0
 21
398.9284515326357
 31
0.0
  0
LINE
  5
F46
102
{ACAD_REACTORS
330
F30
102
}
330
1E
100
AcDbEntity
  8
STEMPEL
100
AcDbLine
 10
265.0000000000001
 20
369.2913024735248
 30
0.0
 11
265.0
 21
398.9284515326357
 31
0.0
  0
LINE
  5
F6E
330
1E
100
AcDbEntity
  8
MITTEL
100
AcDbLine
 10
225.0
 20
374.979473630606
 30
0.0
 11
225.0
 21
224.2913024735249
 31
0.0
  0
DIMENSION
  5
F6F
330
1E
100
AcDbEntity
  8
BEM
100
AcDbDimension
  2
*D3
 10
180.5
 20
206.1559321044119
 30
0.0
 11
225.0
 21
212.6559321044119
 31
0.0
 70
    32
  1
%%c<>
 71
     5
 42
88.99999999999986
  3
Standard
100
AcDbAlignedDimension
 13
269.4999999999999
 23
236.2913024735248
 33
0.0
 14
180.5
 24
236.2913024735249
 34
0.0
100
AcDbRotatedDimension
1001
ACAD
1000
DSTYLE
1002
{
1070
    40
1040
2.0
1070
    41
1040
3.5
1070
    42
1040
1.0
1070
    43
1040
7.0
1070
    44
1040
1.0
1070
    73
1070
     0
1070
    74
1070
     0
1070
    77
1070
     1
1070
    78
1070
     8
1070
    79
1070
     2
1070
   140
1040
3.5
1070
   141
1040
1.5
1070
   146
1040
0.5
1070
   147
1040
1.5
1070
   172
1070
     1
1070
   178
1070
     1
1070
   179
1070
     2
1070
   271
1070
     2
1070
   272
1070
     2
1070
   284
1070
     8
1070
   285
1070
     8
1070
   286
1070
     8
1002
}
  0
DIMENSION
  5
FC0
330
1E
100
AcDbEntity
  8
SCHRAFF
100
AcDbDimension
  2
*D4
 10
166.290418869361
 20
409.2913024735249
 30
0.0
 11
159.7904188693609
 21
439.2913024735249
 31
0.0
 70
    32
 71
     5
 42
59.99999999999994
  3
Standard
100
AcDbAlignedDimension
 13
181.0
 23
469.2913024735248
 33
0.0
 14
181.8244359626823
 24
409.2913024735249
 34
0.0
 50
90.0
100
AcDbRotatedDimension
1001
ACAD
1000
DSTYLE
1002
{
1070
    40
1040
2.0
1070
    41
1040
3.5
1070
    42
1040
1.0
1070
    43
1040
7.0
1070
    44
1040
1.0
1070
    73
1070
     0
1070
    74
1070
     0
1070
    77
1070
     1
1070
    78
1070
     8
1070
    79
1070
     2
1070
   140
1040
3.5
1070
   141
1040
1.5
1070
   146
1040
0.5
1070
   147
1040
1.5
1070
   172
1070
     1
1070
   178
1070
     1
1070
   179
1070
     2
1070
   271
1070
     2
1070
   272
1070
     2
1070
   284
1070
     8
1070
   285
1070
     8
1070
   286
1070
     8
1002
}
  0
DIMENSION
  5
1071
330
1E
100
AcDbEntity
  8
BEM
100
AcDbDimension
  2
*D5
 10
147.4331105746305
 20
469.2913024735248
 30
0.0
 11
140.9331105746304
 21
349.2913024735249
 31
0.0
 70
    32
 71
     5
 42
240.0
  3
Standard
100
AcDbAlignedDimension
 13
181.1124206446815
 23
229.2913024735249
 33
0.0
 14
181.0
 24
469.2913024735248
 34
0.0
 50
90.0
100
AcDbRotatedDimension
1001
ACAD
1000
DSTYLE
1002
{
1070
    40
1040
2.0
1070
    41
1040
3.5
1070
    42
1040
1.0
1070
    43
1040
7.0
1070
    44
1040
1.0
1070
    73
1070
     0
1070
    74
1070
     0
1070
    77
1070
     1
1070
    78
1070
     8
1070
    79
1070
     2
1070
   140
1040
3.5
1070
   141
1040
1.5
1070
   146
1040
0.5
1070
   147
1040
1.5
1070
   172
1070
     1
1070
   178
1070
     1
1070
   179
1070
     2
1070
   271
1070
     2
1070
   272
1070
     2
1070
   284
1070
     8
1070
   285
1070
     8
1070
   286
1070
     8
1002
}
  0
ENDSEC
  0
SECTION
  2
OBJECTS
  0
DICTIONARY
  5
C
330
0
100
AcDbDictionary
281
     1
  3
ACAD_COLOR
350
DF
  3
ACAD_GROUP
350
D
  3
ACAD_LAYOUT
350
19
  3
ACAD_MATERIAL
350
DE
  3
ACAD_MLINESTYLE
350
16
  3
ACAD_PLOTSETTINGS
350
18
  3
ACAD_PLOTSTYLENAME
350
E
  3
AcDbVariableDictionary
350
EA
  0
DICTIONARY
  5
A0
330
1E
100
AcDbDictionary
280
     1
281
     1
  3
ACAD_LAYOUTSELFREF
360
D4
  0
DICTIONARY
  5
A2
330
1A
100
AcDbDictionary
280
     1
281
     1
  3
ACAD_LAYOUTSELFREF
360
D3
  0
DICTIONARY
  5
DF
102
{ACAD_REACTORS
330
C
102
}
330
C
100
AcDbDictionary
281
     1
  0
DICTIONARY
  5
D
102
{ACAD_REACTORS
330
C
102
}
330
C
100
AcDbDictionary
281
     1
  0
DICTIONARY
  5
19
102
{ACAD_REACTORS
330
C
102
}
330
C
100
AcDbDictionary
281
     1
  3
Layout1
350
1D
  3
Model
350
21
  0
DICTIONARY
  5
DE
102
{ACAD_REACTORS
330
C
102
}
330
C
100
AcDbDictionary
281
     1
  0
DICTIONARY
  5
16
102
{ACAD_REACTORS
330
C
102
}
330
C
100
AcDbDictionary
281
     1
  3
Standard
350
17
  0
DICTIONARY
  5
18
102
{ACAD_REACTORS
330
C
102
}
330
C
100
AcDbDictionary
281
     1
  0
ACDBDICTIONARYWDFLT
  5
E
102
{ACAD_REACTORS
330
C
102
}
330
C
100
AcDbDictionary
281
     1
  3
Normal
350
F
100
AcDbDictionaryWithDefault
340
F
  0
DICTIONARY
  5
EA
102
{ACAD_REACTORS
330
C
102
}
330
C
100
AcDbDictionary
281
     1
  3
DIMASSOC
350
EB
  3
PROJECTNAME
350
EC
  0
XRECORD
  5
D4
102
{ACAD_REACTORS
330
A0
102
}
330
A0
100
AcDbXrecord
280
     1
340
1E
  0
XRECORD
  5
D3
102
{ACAD_REACTORS
330
A2
102
}
330
A2
100
AcDbXrecord
280
     1
340
1A
  0
LAYOUT
  5
1D
102
{ACAD_REACTORS
330
19
102
}
330
19
100
AcDbPlotSettings
  1

  2
\\NT_WORK01\HP LaserJet 5000 PCL 6
  4

  6

 40
0.0
 41
0.0
 42
0.0
 43
0.0
 44
0.0
 45
0.0
 46
0.0
 47
0.0
 48
0.0
 49
0.0
140
0.0
141
0.0
142
1.0
143
1.0
 70
   688
 72
     0
 73
     0
 74
     5
  7

 75
    16
147
1.0
 76
     0
 77
     2
 78
   300
148
0.0
149
0.0
100
AcDbLayout
  1
Layout1
 70
     0
 71
     1
 10
0.0
 20
0.0
 11
12.0
 21
9.0
 12
0.0
 22
0.0
 32
0.0
 14
1.000000000000000E+20
 24
1.000000000000000E+20
 34
1.000000000000000E+20
 15
-1.000000000000000E+20
 25
-1.000000000000000E+20
 35
-1.000000000000000E+20
146
0.0
 13
0.0
 23
0.0
 33
0.0
 16
1.0
 26
0.0
 36
0.0
 17
0.0
 27
1.0
 37
0.0
 76
     0
330
1A
  0
LAYOUT
  5
21
102
{ACAD_REACTORS
330
19
102
}
330
19
100
AcDbPlotSettings
  1

  2
none_device
  4
Letter_(8.50_x_11.00_Inches)
  6

 40
6.349999904632568
 41
6.349999904632568
 42
6.350006103515625
 43
6.350006103515625
 44
215.8999938964844
 45
279.3999938964844
 46
0.0
 47
0.0
 48
0.0
 49
0.0
140
0.0
141
0.0
142
1.0
143
1.0
 70
 11952
 72
     0
 73
     1
 74
     0
  7

 75
     0
147
1.0
 76
     0
 77
     2
 78
   300
148
2286.441761784798
149
76.64172062186475
100
AcDbLayout
  1
Model
 70
     1
 71
     0
 10
0.0
 20
0.0
 11
12.0
 21
9.0
 12
0.0
 22
0.0
 32
0.0
 14
0.0
 24
0.0
 34
0.0
 15
0.0
 25
0.0
 35
0.0
146
0.0
 13
0.0
 23
0.0
 33
0.0
 16
1.0
 26
0.0
 36
0.0
 17
0.0
 27
1.0
 37
0.0
 76
     0
330
1E
  0
MLINESTYLE
  5
17
102
{ACAD_REACTORS
330
16
102
}
330
16
100
AcDbMlineStyle
  2
STANDARD
 70
     0
  3

 62
   256
 51
90.0
 52
90.0
 71
     2
 49
0.5
 62
   256
  6
BYLAYER
 49
-0.5
 62
   256
  6
BYLAYER
  0
ACDBPLACEHOLDER
  5
F
102
{ACAD_REACTORS
330
E
102
}
330
E
  0
DICTIONARYVAR
  5
EB
102
{ACAD_REACTORS
330
EA
102
}
330
EA
100
DictionaryVariables
280
     0
  1
1
  0
DICTIONARYVAR
  5
EC
102
{ACAD_REACTORS
330
EA
102
}
330
EA
100
DictionaryVariables
280
     0
  1

  0
ENDSEC
  0
EOF
