  0
SECTION
  2
HEADER
  9
$ACADVER
  1
AC1018
  9
$ACADMAINTVER
 70
     2
  9
$DWGCODEPAGE
  3
ANSI_1252
  9
$INSBASE
 10
0.0
 20
0.0
 30
0.0
  9
$EXTMIN
 10
-0.0192082752314491
 20
-0.0271659892566731
 30
-0.0000000000000053
  9
$EXTMAX
 10
420.0192346800471
 20
594.0272033332087
 30
0.0000000000000099
  9
$LIMMIN
 10
0.0
 20
0.0
  9
$LIMMAX
 10
419.9999999999999
 20
594.0
  9
$ORTHOMODE
 70
     1
  9
$REGENMODE
 70
     1
  9
$FILLMODE
 70
     1
  9
$QTEXTMODE
 70
     0
  9
$MIRRTEXT
 70
     1
  9
$LTSCALE
 40
20.0
  9
$ATTMODE
 70
     1
  9
$TEXTSIZE
 40
3.5
  9
$TRACEWID
 40
0.5
  9
$TEXTSTYLE
  7
STANDARD
  9
$CLAYER
  8
BEM
  9
$CELTYPE
  6
ByLayer
  9
$CECOLOR
 62
   256
  9
$CELTSCALE
 40
1.0
  9
$DISPSILH
 70
     0
  9
$DIMSCALE
 40
2.0
  9
$DIMASZ
 40
3.5
  9
$DIMEXO
 40
1.0
  9
$DIMDLI
 40
7.0
  9
$DIMRND
 40
0.0
  9
$DIMDLE
 40
0.0
  9
$DIMEXE
 40
1.0
  9
$DIMTP
 40
0.0
  9
$DIMTM
 40
0.0
  9
$DIMTXT
 40
3.5
  9
$DIMCEN
 40
1.5
  9
$DIMTSZ
 40
0.0
  9
$DIMTOL
 70
     0
  9
$DIMLIM
 70
     0
  9
$DIMTIH
 70
     0
  9
$DIMTOH
 70
     0
  9
$DIMSE1
 70
     0
  9
$DIMSE2
 70
     0
  9
$DIMTAD
 70
     1
  9
$DIMZIN
 70
     8
  9
$DIMBLK
  1

  9
$DIMASO
 70
     1
  9
$DIMSHO
 70
     0
  9
$DIMPOST
  1

  9
$DIMAPOST
  1

  9
$DIMALT
 70
     0
  9
$DIMALTD
 70
     2
  9
$DIMALTF
 40
25.4
  9
$DIMLFAC
 40
1.0
  9
$DIMTOFL
 70
     1
  9
$DIMTVP
 40
0.0
  9
$DIMTIX
 70
     0
  9
$DIMSOXD
 70
     0
  9
$DIMSAH
 70
     0
  9
$DIMBLK1
  1

  9
$DIMBLK2
  1

  9
$DIMSTYLE
  2
Standard
  9
$DIMCLRD
 70
     0
  9
$DIMCLRE
 70
     0
  9
$DIMCLRT
 70
     1
  9
$DIMTFAC
 40
0.5
  9
$DIMGAP
 40
1.5
  9
$DIMJUST
 70
     0
  9
$DIMSD1
 70
     0
  9
$DIMSD2
 70
     0
  9
$DIMTOLJ
 70
     1
  9
$DIMTZIN
 70
     8
  9
$DIMALTZ
 70
     8
  9
$DIMALTTZ
 70
     8
  9
$DIMUPT
 70
     0
  9
$DIMDEC
 70
     2
  9
$DIMTDEC
 70
     2
  9
$DIMALTU
 70
     2
  9
$DIMALTTD
 70
     2
  9
$DIMTXSTY
  7
STANDARD
  9
$DIMAUNIT
 70
     0
  9
$DIMADEC
 70
     2
  9
$DIMALTRND
 40
0.0
  9
$DIMAZIN
 70
     2
  9
$DIMDSEP
 70
    46
  9
$DIMATFIT
 70
     3
  9
$DIMFRAC
 70
     0
  9
$DIMLDRBLK
  1

  9
$DIMLUNIT
 70
     2
  9
$DIMLWD
 70
    -2
  9
$DIMLWE
 70
    -2
  9
$DIMTMOVE
 70
     0
  9
$LUNITS
 70
     2
  9
$LUPREC
 70
     2
  9
$SKETCHINC
 40
1.0
  9
$FILLETRAD
 40
0.0
  9
$AUNITS
 70
     0
  9
$AUPREC
 70
     0
  9
$MENU
  1
ACAD
  9
$ELEVATION
 40
0.0
  9
$PELEVATION
 40
0.0
  9
$THICKNESS
 40
0.0
  9
$LIMCHECK
 70
     0
  9
$CHAMFERA
 40
0.0
  9
$CHAMFERB
 40
0.0
  9
$CHAMFERC
 40
0.0
  9
$CHAMFERD
 40
0.0
  9
$SKPOLY
 70
     0
  9
$TDCREATE
 40
2455397.823042361
  9
$TDUCREATE
 40
2455397.781375695
  9
$TDUPDATE
 40
2455531.579608426
  9
$TDUUPDATE
 40
2455531.537941760
  9
$TDINDWG
 40
0.1058141551
  9
$TDUSRTIMER
 40
0.1058141551
  9
$USRTIMER
 70
     1
  9
$ANGBASE
 50
0.0
  9
$ANGDIR
 70
     0
  9
$PDMODE
 70
     0
  9
$PDSIZE
 40
0.0
  9
$PLINEWID
 40
0.0
  9
$SPLFRAME
 70
     0
  9
$SPLINETYPE
 70
     6
  9
$SPLINESEGS
 70
     8
  9
$HANDSEED
  5
FBF
  9
$SURFTAB1
 70
     6
  9
$SURFTAB2
 70
     6
  9
$SURFTYPE
 70
     6
  9
$SURFU
 70
     6
  9
$SURFV
 70
     6
  9
$UCSBASE
  2

  9
$UCSNAME
  2

  9
$UCSORG
 10
0.0
 20
0.0
 30
0.0
  9
$UCSXDIR
 10
1.0
 20
0.0
 30
0.0
  9
$UCSYDIR
 10
0.0
 20
1.0
 30
0.0
  9
$UCSORTHOREF
  2

  9
$UCSORTHOVIEW
 70
     0
  9
$UCSORGTOP
 10
0.0
 20
0.0
 30
0.0
  9
$UCSORGBOTTOM
 10
0.0
 20
0.0
 30
0.0
  9
$UCSORGLEFT
 10
0.0
 20
0.0
 30
0.0
  9
$UCSORGRIGHT
 10
0.0
 20
0.0
 30
0.0
  9
$UCSORGFRONT
 10
0.0
 20
0.0
 30
0.0
  9
$UCSORGBACK
 10
0.0
 20
0.0
 30
0.0
  9
$PUCSBASE
  2

  9
$PUCSNAME
  2

  9
$PUCSORG
 10
0.0
 20
0.0
 30
0.0
  9
$PUCSXDIR
 10
1.0
 20
0.0
 30
0.0
  9
$PUCSYDIR
 10
0.0
 20
1.0
 30
0.0
  9
$PUCSORTHOREF
  2

  9
$PUCSORTHOVIEW
 70
     0
  9
$PUCSORGTOP
 10
0.0
 20
0.0
 30
0.0
  9
$PUCSORGBOTTOM
 10
0.0
 20
0.0
 30
0.0
  9
$PUCSORGLEFT
 10
0.0
 20
0.0
 30
0.0
  9
$PUCSORGRIGHT
 10
0.0
 20
0.0
 30
0.0
  9
$PUCSORGFRONT
 10
0.0
 20
0.0
 30
0.0
  9
$PUCSORGBACK
 10
0.0
 20
0.0
 30
0.0
  9
$USERI1
 70
     0
  9
$USERI2
 70
     0
  9
$USERI3
 70
     0
  9
$USERI4
 70
     0
  9
$USERI5
 70
     0
  9
$USERR1
 40
0.0
  9
$USERR2
 40
0.0
  9
$USERR3
 40
0.0
  9
$USERR4
 40
0.0
  9
$USERR5
 40
0.0
  9
$WORLDVIEW
 70
     1
  9
$SHADEDGE
 70
     3
  9
$SHADEDIF
 70
    70
  9
$TILEMODE
 70
     1
  9
$MAXACTVP
 70
    16
  9
$PINSBASE
 10
0.0
 20
0.0
 30
0.0
  9
$PLIMCHECK
 70
     0
  9
$PEXTMIN
 10
1.000000000000000E+20
 20
1.000000000000000E+20
 30
1.000000000000000E+20
  9
$PEXTMAX
 10
-1.000000000000000E+20
 20
-1.000000000000000E+20
 30
-1.000000000000000E+20
  9
$PLIMMIN
 10
0.0
 20
0.0
  9
$PLIMMAX
 10
12.0
 20
9.0
  9
$UNITMODE
 70
     0
  9
$VISRETAIN
 70
     0
  9
$PLINEGEN
 70
     0
  9
$PSLTSCALE
 70
     0
  9
$TREEDEPTH
 70
  3020
  9
$CMLSTYLE
  2
Standard
  9
$CMLJUST
 70
     0
  9
$CMLSCALE
 40
1.0
  9
$PROXYGRAPHICS
 70
     1
  9
$MEASUREMENT
 70
     0
  9
$CELWEIGHT
370
    -1
  9
$ENDCAPS
280
     0
  9
$JOINSTYLE
280
     0
  9
$LWDISPLAY
290
     0
  9
$INSUNITS
 70
     0
  9
$HYPERLINKBASE
  1

  9
$STYLESHEET
  1
monochrome 1.ctb
  9
$XEDIT
290
     1
  9
$CEPSNTYPE
380
     0
  9
$PSTYLEMODE
290
     1
  9
$FINGERPRINTGUID
  2
{D68B0D02-A558-11D7-B632-000102183313}
  9
$VERSIONGUID
  2
{0A9B6A47-F687-4EB7-A60E-32131003B748}
  9
$EXTNAMES
290
     1
  9
$PSVPSCALE
 40
0.0
  9
$OLESTARTUP
290
     0
  9
$SORTENTS
280
   127
  9
$INDEXCTL
280
     0
  9
$HIDETEXT
280
     0
  9
$XCLIPFRAME
290
     0
  9
$HALOGAP
280
     0
  9
$OBSCOLOR
 70
   257
  9
$OBSLTYPE
280
     0
  9
$INTERSECTIONDISPLAY
280
     0
  9
$INTERSECTIONCOLOR
 70
   257
  9
$DIMASSOC
280
     1
  9
$PROJECTNAME
  1

  0
ENDSEC
  0
SECTION
  2
CLASSES
  0
CLASS
  1
ACDBDICTIONARYWDFLT
  2
AcDbDictionaryWithDefault
  3
ObjectDBX Classes
 90
        0
 91
        1
280
     0
281
     0
  0
CLASS
  1
DICTIONARYVAR
  2
AcDbDictionaryVar
  3
ObjectDBX Classes
 90
        0
 91
        2
280
     0
281
     0
  0
ENDSEC
  0
SECTION
  2
TABLES
  0
TABLE
  2
VPORT
  5
8
330
0
100
AcDbSymbolTable
 70
     2
  0
VPORT
  5
FBE
330
8
100
AcDbSymbolTableRecord
100
AcDbViewportTableRecord
  2
*Active
 70
     0
 10
0.0
 20
0.0
 11
1.0
 21
1.0
 12
210.0000132024078
 22
297.000018671976
 13
0.0
 23
0.0
 14
1.0
 24
1.0
 15
10.0
 25
10.0
 16
0.0
 26
0.0
 36
1.0
 17
0.0
 27
0.0
 37
0.0
 40
598.8515782268191
 41
1.336927223719676
 42
50.0
 43
0.0
 44
0.0
 50
0.0
 51
0.0
 71
     0
 72
  1500
 73
     1
 74
     0
 75
     0
 76
     0
 77
     0
 78
     0
281
     0
 65
     1
110
0.0
120
0.0
130
0.0
111
1.0
121
0.0
131
0.0
112
0.0
122
1.0
132
0.0
 79
     0
146
0.0
  0
ENDTAB
  0
TABLE
  2
LTYPE
  5
5
330
0
100
AcDbSymbolTable
 70
     2
  0
LTYPE
  5
13
330
5
100
AcDbSymbolTableRecord
100
AcDbLinetypeTableRecord
  2
ByBlock
 70
     0
  3

 72
    65
 73
     0
 40
0.0
  0
LTYPE
  5
14
330
5
100
AcDbSymbolTableRecord
100
AcDbLinetypeTableRecord
  2
ByLayer
 70
     0
  3

 72
    65
 73
     0
 40
0.0
  0
LTYPE
  5
15
330
5
100
AcDbSymbolTableRecord
100
AcDbLinetypeTableRecord
  2
Continuous
 70
     0
  3
Solid line
 72
    65
 73
     0
 40
0.0
  0
LTYPE
  5
25
330
5
100
AcDbSymbolTableRecord
100
AcDbLinetypeTableRecord
  2
STRICHPUNKT
 70
     0
  3
__ . __ . __ . __ . __ . __ . __ . __ . __ . __
 72
    65
 73
     4
 40
1.0
 49
0.5
 74
     0
 49
-0.25
 74
     0
 49
0.0
 74
     0
 49
-0.25
 74
     0
  0
ENDTAB
  0
TABLE
  2
LAYER
  5
2
330
0
100
AcDbSymbolTable
 70
     9
  0
LAYER
  5
10
330
2
100
AcDbSymbolTableRecord
100
AcDbLayerTableRecord
  2
0
 70
     0
 62
     7
  6
Continuous
370
    -3
390
F
  0
LAYER
  5
2A
330
2
100
AcDbSymbolTableRecord
100
AcDbLayerTableRecord
  2
VOLL
 70
     0
 62
     1
  6
Continuous
370
    -3
390
F
  0
LAYER
  5
2B
330
2
100
AcDbSymbolTableRecord
100
AcDbLayerTableRecord
  2
HILF
 70
     0
 62
     2
  6
Continuous
370
    -3
390
F
  0
LAYER
  5
2C
330
2
100
AcDbSymbolTableRecord
100
AcDbLayerTableRecord
  2
MITTEL
 70
     0
 62
     2
  6
STRICHPUNKT
370
    -3
390
F
  0
LAYER
  5
2F
330
2
100
AcDbSymbolTableRecord
100
AcDbLayerTableRecord
  2
BEM
 70
     0
 62
     7
  6
Continuous
370
    -3
390
F
  0
LAYER
  5
30
330
2
100
AcDbSymbolTableRecord
100
AcDbLayerTableRecord
  2
STEMPEL
 70
     0
 62
     3
  6
Continuous
370
    -3
390
F
  0
LAYER
  5
31
330
2
100
AcDbSymbolTableRecord
100
AcDbLayerTableRecord
  2
TEXT
 70
     0
 62
     7
  6
Continuous
370
    -3
390
F
  0
LAYER
  5
390
330
2
100
AcDbSymbolTableRecord
100
AcDbLayerTableRecord
  2
DEFPOINTS
 70
     0
 62
     7
  6
Continuous
290
     0
370
    -3
390
F
  0
LAYER
  5
391
330
2
100
AcDbSymbolTableRecord
100
AcDbLayerTableRecord
  2
SCHRAFF
 70
     0
 62
     7
  6
Continuous
370
    -3
390
F
  0
ENDTAB
  0
TABLE
  2
STYLE
  5
3
330
0
100
AcDbSymbolTable
 70
     2
  0
STYLE
  5
11
330
3
100
AcDbSymbolTableRecord
100
AcDbTextStyleTableRecord
  2
STANDARD
 70
     0
 40
0.0
 41
0.8
 50
0.0
 71
     0
 42
3.5
  3
simplex.shx
  4

  0
STYLE
  5
24
330
3
100
AcDbSymbolTableRecord
100
AcDbTextStyleTableRecord
  2
GREEKS
 70
     0
 40
0.0
 41
0.8
 50
0.0
 71
     0
 42
2.5
  3
SIMPLEX.shx
  4

  0
ENDTAB
  0
TABLE
  2
VIEW
  5
6
330
0
100
AcDbSymbolTable
 70
     0
  0
ENDTAB
  0
TABLE
  2
UCS
  5
7
330
0
100
AcDbSymbolTable
 70
     0
  0
ENDTAB
  0
TABLE
  2
APPID
  5
9
330
0
100
AcDbSymbolTable
 70
     1
  0
APPID
  5
12
330
9
100
AcDbSymbolTableRecord
100
AcDbRegAppTableRecord
  2
ACAD
 70
     0
  0
ENDTAB
  0
TABLE
  2
DIMSTYLE
  5
A
330
0
100
AcDbSymbolTable
 70
     1
100
AcDbDimStyleTable
 71
     1
340
9D
  0
DIMSTYLE
105
9D
102
{ACAD_REACTORS
330
E6E
330
E6F
330
F46
330
F5C
330
F97
102
}
330
A
100
AcDbSymbolTableRecord
100
AcDbDimStyleTableRecord
  2
Standard
 70
     0
340
11
  0
ENDTAB
  0
TABLE
  2
BLOCK_RECORD
  5
1
330
0
100
AcDbSymbolTable
 70
     6
  0
BLOCK_RECORD
  5
1E
102
{ACAD_XDICTIONARY
360
A0
102
}
330
1
100
AcDbSymbolTableRecord
100
AcDbBlockTableRecord
  2
*Model_Space
340
21
  0
BLOCK_RECORD
  5
1A
102
{ACAD_XDICTIONARY
360
A2
102
}
330
1
100
AcDbSymbolTableRecord
100
AcDbBlockTableRecord
  2
*Paper_Space
340
1D
  0
BLOCK_RECORD
  5
22
330
1
100
AcDbSymbolTableRecord
100
AcDbBlockTableRecord
  2
LOGO
340
0
102
{BLKREFS
331
9B
102
}
  0
BLOCK_RECORD
  5
E93
330
1
100
AcDbSymbolTableRecord
100
AcDbBlockTableRecord
  2
*D1
340
0
  0
BLOCK_RECORD
  5
E9F
330
1
100
AcDbSymbolTableRecord
100
AcDbBlockTableRecord
  2
*D2
340
0
  0
BLOCK_RECORD
  5
F47
330
1
100
AcDbSymbolTableRecord
100
AcDbBlockTableRecord
  2
*D3
340
0
  0
BLOCK_RECORD
  5
F5D
330
1
100
AcDbSymbolTableRecord
100
AcDbBlockTableRecord
  2
*D4
340
0
  0
BLOCK_RECORD
  5
F98
330
1
100
AcDbSymbolTableRecord
100
AcDbBlockTableRecord
  2
*D5
340
0
  0
ENDTAB
  0
ENDSEC
  0
SECTION
  2
BLOCKS
  0
BLOCK
  5
35
330
1E
100
AcDbEntity
  8
0
100
AcDbBlockBegin
  2
*Model_Space
 70
     0
 10
0.0
 20
0.0
 30
0.0
  3
*Model_Space
  1

  0
ENDBLK
  5
36
330
1E
100
AcDbEntity
  8
0
100
AcDbBlockEnd
  0
BLOCK
  5
33
330
1A
100
AcDbEntity
 67
     1
  8
0
100
AcDbBlockBegin
  2
*Paper_Space
 70
     0
 10
0.0
 20
0.0
 30
0.0
  3
*Paper_Space
  1

  0
ENDBLK
  5
34
330
1A
100
AcDbEntity
 67
     1
  8
0
100
AcDbBlockEnd
  0
BLOCK
  5
37
330
22
100
AcDbEntity
  8
0
100
AcDbBlockBegin
  2
LOGO
 70
     0
 10
0.0
 20
0.0
 30
0.0
  3
LOGO
  1

  0
ARC
  5
38
330
22
100
AcDbEntity
  8
0
100
AcDbCircle
 10
11.59973089678112
 20
-9.271599258481501
 30
0.0
 40
4.5
100
AcDbArc
 50
270.0
 51
231.0575587310159
  0
LINE
  5
39
330
22
100
AcDbEntity
  8
0
100
AcDbLine
 10
3.599730896781125
 20
-4.771599258481529
 30
0.0
 11
3.599730896781153
 21
-11.77159925848133
 31
0.0
  0
LINE
  5
3A
330
22
100
AcDbEntity
  8
0
100
AcDbLine
 10
2.599730896781125
 20
-4.771599258481529
 30
0.0
 11
2.599730896781153
 21
-11.77159925848133
 31
0.0
  0
CIRCLE
  5
3B
330
22
100
AcDbEntity
  8
0
100
AcDbCircle
 10
11.59973089678112
 20
-9.271599258481501
 30
0.0
 40
3.5
  0
ARC
  5
3C
330
22
100
AcDbEntity
  8
0
100
AcDbCircle
 10
31.59973089678115
 20
-9.271599258481472
 30
0.0
 40
4.5
100
AcDbArc
 50
270.0
 51
231.0575587310182
  0
LINE
  5
3D
330
22
100
AcDbEntity
  8
0
100
AcDbLine
 10
17.59973089678112
 20
-4.771599258481472
 30
0.0
 11
17.59973089678115
 21
-13.77159925848147
 31
0.0
  0
ARC
  5
3E
330
22
100
AcDbEntity
  8
0
100
AcDbCircle
 10
22.59973089678116
 20
-7.271599258481472
 30
0.0
 40
2.5
100
AcDbArc
 50
293.1161887722295
 51
90.0
  0
CIRCLE
  5
3F
330
22
100
AcDbEntity
  8
0
100
AcDbCircle
 10
31.59973089678115
 20
-9.271599258481472
 30
0.0
 40
3.5
  0
ARC
  5
40
330
22
100
AcDbEntity
  8
0
100
AcDbCircle
 10
4.599730896781153
 20
-11.77159925848133
 30
0.0
 40
1.0
100
AcDbArc
 50
180.0
 51
270.0
  0
ARC
  5
41
330
22
100
AcDbEntity
  8
0
100
AcDbCircle
 10
4.599730896781153
 20
-11.77159925848133
 30
0.0
 40
2.0
100
AcDbArc
 50
179.9999999999992
 51
270.0
  0
LINE
  5
42
330
22
100
AcDbEntity
  8
0
100
AcDbLine
 10
11.59973089678115
 20
-13.77159925848144
 30
0.0
 11
4.599730896781153
 21
-13.77159925848147
 31
0.0
  0
LINE
  5
43
330
22
100
AcDbEntity
  8
0
100
AcDbLine
 10
8.771303772034769
 20
-12.77159925848136
 30
0.0
 11
4.599730896781153
 21
-12.77159925848133
 31
0.0
  0
LINE
  5
44
330
22
100
AcDbEntity
  8
0
100
AcDbLine
 10
31.59973089678115
 20
-13.77159925848147
 30
0.0
 11
23.6715276665056
 21
-13.77159925848144
 31
0.0
  0
LINE
  5
45
330
22
100
AcDbEntity
  8
0
100
AcDbLine
 10
23.56565672307022
 20
-9.51278021337896
 30
0.0
 11
24.4388546544846
 21
-12.77159925848144
 31
0.0
  0
LINE
  5
46
330
22
100
AcDbEntity
  8
0
100
AcDbLine
 10
22.59973089678116
 20
-9.771599258481472
 30
0.0
 11
18.59973089678112
 21
-9.771599258481472
 31
0.0
  0
LINE
  5
47
330
22
100
AcDbEntity
  8
0
100
AcDbLine
 10
18.59973089678115
 20
-13.77159925848144
 30
0.0
 11
17.59973089678115
 21
-13.77159925848144
 31
0.0
  0
LINE
  5
48
330
22
100
AcDbEntity
  8
0
100
AcDbLine
 10
18.59973089678115
 20
-9.771599258481472
 30
0.0
 11
18.59973089678115
 21
-13.77159925848144
 31
0.0
  0
LINE
  5
49
330
22
100
AcDbEntity
  8
0
100
AcDbLine
 10
22.59973089678116
 20
-9.771599258481472
 30
0.0
 11
23.67152766650562
 21
-13.77159925848147
 31
0.0
  0
ARC
  5
4A
330
22
100
AcDbEntity
  8
0
100
AcDbCircle
 10
22.59973089678116
 20
-7.271599258481472
 30
0.0
 40
2.5
100
AcDbArc
 50
270.0
 51
270.0000000000007
  0
LINE
  5
4B
330
22
100
AcDbEntity
  8
0
100
AcDbLine
 10
28.77130377203494
 20
-12.77159925848147
 30
0.0
 11
24.43885465448463
 21
-12.77159925848144
 31
0.0
  0
LINE
  5
4C
330
22
100
AcDbEntity
  8
0
100
AcDbLine
 10
3.599730896781125
 20
-4.771599258481472
 30
0.0
 11
2.599730896781125
 21
-4.771599258481472
 31
0.0
  0
LINE
  5
4D
330
22
100
AcDbEntity
  8
0
100
AcDbLine
 10
22.59973089678116
 20
-8.771599258481472
 30
0.0
 11
18.59973089678115
 21
-8.771599258481472
 31
0.0
  0
LINE
  5
4E
330
22
100
AcDbEntity
  8
0
100
AcDbLine
 10
22.59973089678116
 20
-5.771599258481472
 30
0.0
 11
18.59973089678115
 21
-5.771599258481472
 31
0.0
  0
LINE
  5
4F
330
22
100
AcDbEntity
  8
0
100
AcDbLine
 10
22.59973089678116
 20
-4.771599258481472
 30
0.0
 11
17.59973089678115
 21
-4.771599258481472
 31
0.0
  0
LINE
  5
50
330
22
100
AcDbEntity
  8
0
100
AcDbLine
 10
18.59973089678115
 20
-5.771599258481472
 30
0.0
 11
18.59973089678115
 21
-8.771599258481472
 31
0.0
  0
ARC
  5
51
330
22
100
AcDbEntity
  8
0
100
AcDbCircle
 10
22.59973089678116
 20
-7.271599258481472
 30
0.0
 40
1.5
100
AcDbArc
 50
270.0
 51
90.0
  0
ENDBLK
  5
52
330
22
100
AcDbEntity
  8
0
100
AcDbBlockEnd
  0
BLOCK
  5
E9D
330
E93
100
AcDbEntity
  8
0
100
AcDbBlockBegin
  2
*D1
 70
     1
 10
0.0
 20
0.0
 30
0.0
  3
*D1
  1

  0
LINE
  5
EFF
330
E93
100
AcDbEntity
  8
BEM
 62
     0
370
    -2
100
AcDbLine
 10
189.0000000000003
 20
475.6627529128518
 30
0.0
 11
189.0000000000003
 21
487.8008936657777
 31
0.0
  0
LINE
  5
F00
330
E93
100
AcDbEntity
  8
BEM
 62
     0
370
    -2
100
AcDbLine
 10
261.0000000000002
 20
475.6627529128518
 30
0.0
 11
261.0000000000002
 21
487.8008936657777
 31
0.0
  0
LINE
  5
F01
330
E93
100
AcDbEntity
  8
BEM
 62
     0
370
    -2
100
AcDbLine
 10
196.0000000000003
 20
485.8008936657777
 30
0.0
 11
254.0000000000002
 21
485.8008936657777
 31
0.0
  0
SOLID
  5
F02
330
E93
100
AcDbEntity
  8
BEM
 62
     0
100
AcDbTrace
 10
196.0000000000003
 20
486.9675603324444
 30
0.0
 11
196.0000000000003
 21
484.6342269991111
 31
0.0
 12
189.0000000000003
 22
485.8008936657777
 32
0.0
 13
189.0000000000003
 23
485.8008936657777
 33
0.0
  0
SOLID
  5
F03
330
E93
100
AcDbEntity
  8
BEM
 62
     0
100
AcDbTrace
 10
254.0000000000002
 20
486.9675603324444
 30
0.0
 11
254.0000000000002
 21
484.6342269991111
 31
0.0
 12
261.0000000000002
 22
485.8008936657777
 32
0.0
 13
261.0000000000002
 23
485.8008936657777
 33
0.0
  0
MTEXT
  5
F04
330
E93
100
AcDbEntity
  8
BEM
 62
     1
100
AcDbMText
 10
228.1780558341593
 20
492.3008936657778
 30
0.0
 40
7.0
 41
0.0
 71
     5
 72
     1
  1
\A1;72
 73
     1
 44
1.0
  0
POINT
  5
F05
330
E93
100
AcDbEntity
  8
DEFPOINTS
 62
     0
100
AcDbPoint
 10
189.0000000000003
 20
473.6627529128519
 30
0.0
  0
POINT
  5
F06
330
E93
100
AcDbEntity
  8
DEFPOINTS
 62
     0
100
AcDbPoint
 10
261.0000000000002
 20
473.6627529128519
 30
0.0
  0
POINT
  5
F07
330
E93
100
AcDbEntity
  8
DEFPOINTS
 62
     0
100
AcDbPoint
 10
261.0000000000002
 20
485.8008936657777
 30
0.0
  0
ENDBLK
  5
E9E
330
E93
100
AcDbEntity
  8
0
100
AcDbBlockEnd
  0
BLOCK
  5
EA9
330
E9F
100
AcDbEntity
  8
0
100
AcDbBlockBegin
  2
*D2
 70
     1
 10
0.0
 20
0.0
 30
0.0
  3
*D2
  1

  0
LINE
  5
EF6
330
E9F
100
AcDbEntity
  8
BEM
 62
     0
370
    -2
100
AcDbLine
 10
185.0000000000003
 20
473.6627529128519
 30
0.0
 11
168.7442881841156
 21
473.6627529128519
 31
0.0
  0
LINE
  5
EF7
330
E9F
100
AcDbEntity
  8
BEM
 62
     0
370
    -2
100
AcDbLine
 10
185.2107582832099
 20
418.662752912852
 30
0.0
 11
168.7442881841156
 21
418.662752912852
 31
0.0
  0
LINE
  5
EF8
330
E9F
100
AcDbEntity
  8
BEM
 62
     0
370
    -2
100
AcDbLine
 10
170.7442881841156
 20
466.6627529128518
 30
0.0
 11
170.7442881841156
 21
425.662752912852
 31
0.0
  0
SOLID
  5
EF9
330
E9F
100
AcDbEntity
  8
BEM
 62
     0
100
AcDbTrace
 10
169.5776215174489
 20
466.6627529128518
 30
0.0
 11
171.9109548507822
 21
466.6627529128518
 31
0.0
 12
170.7442881841156
 22
473.6627529128519
 32
0.0
 13
170.7442881841156
 23
473.6627529128519
 33
0.0
  0
SOLID
  5
EFA
330
E9F
100
AcDbEntity
  8
BEM
 62
     0
100
AcDbTrace
 10
169.5776215174489
 20
425.662752912852
 30
0.0
 11
171.9109548507822
 21
425.662752912852
 31
0.0
 12
170.7442881841156
 22
418.662752912852
 32
0.0
 13
170.7442881841156
 23
418.662752912852
 33
0.0
  0
MTEXT
  5
EFB
330
E9F
100
AcDbEntity
  8
BEM
 62
     1
100
AcDbMText
 10
164.2442881841155
 20
446.162752912852
 30
0.0
 40
7.0
 41
0.0
 71
     5
 72
     1
  1
\A1;55
 11
0.0000000000000001
 21
1.0
 31
0.0
 73
     1
 44
1.0
  0
POINT
  5
EFC
330
E9F
100
AcDbEntity
  8
DEFPOINTS
 62
     0
100
AcDbPoint
 10
187.0000000000003
 20
473.6627529128519
 30
0.0
  0
POINT
  5
EFD
330
E9F
100
AcDbEntity
  8
DEFPOINTS
 62
     0
100
AcDbPoint
 10
187.2107582832099
 20
418.662752912852
 30
0.0
  0
POINT
  5
EFE
330
E9F
100
AcDbEntity
  8
DEFPOINTS
 62
     0
100
AcDbPoint
 10
170.7442881841156
 20
418.662752912852
 30
0.0
  0
ENDBLK
  5
EAA
330
E9F
100
AcDbEntity
  8
0
100
AcDbBlockEnd
  0
BLOCK
  5
F51
330
F47
100
AcDbEntity
  8
0
100
AcDbBlockBegin
  2
*D3
 70
     1
 10
0.0
 20
0.0
 30
0.0
  3
*D3
  1

  0
LINE
  5
F53
330
F47
100
AcDbEntity
  8
BEM
 62
     0
370
    -2
100
AcDbLine
 10
261.5000000000001
 20
276.6627529128523
 30
0.0
 11
261.5000000000001
 21
249.2918215903646
 31
0.0
  0
LINE
  5
F54
330
F47
100
AcDbEntity
  8
BEM
 62
     0
370
    -2
100
AcDbLine
 10
188.5
 20
276.6627529128519
 30
0.0
 11
188.5
 21
249.2918215903646
 31
0.0
  0
LINE
  5
F55
330
F47
100
AcDbEntity
  8
BEM
 62
     0
370
    -2
100
AcDbLine
 10
254.5000000000001
 20
251.2918215903646
 30
0.0
 11
195.5
 21
251.2918215903646
 31
0.0
  0
SOLID
  5
F56
330
F47
100
AcDbEntity
  8
BEM
 62
     0
100
AcDbTrace
 10
254.5000000000001
 20
252.4584882570313
 30
0.0
 11
254.5000000000001
 21
250.125154923698
 31
0.0
 12
261.5000000000001
 22
251.2918215903646
 32
0.0
 13
261.5000000000001
 23
251.2918215903646
 33
0.0
  0
SOLID
  5
F57
330
F47
100
AcDbEntity
  8
BEM
 62
     0
100
AcDbTrace
 10
195.5
 20
252.4584882570313
 30
0.0
 11
195.5
 21
250.125154923698
 31
0.0
 12
188.5
 22
251.2918215903646
 32
0.0
 13
188.5
 23
251.2918215903646
 33
0.0
  0
MTEXT
  5
F58
330
F47
100
AcDbEntity
  8
BEM
 62
     1
100
AcDbMText
 10
225.0
 20
257.7918215903646
 30
0.0
 40
7.0
 41
0.0
 71
     5
 72
     1
  1
\A1;%%c73
 73
     1
 44
1.0
  0
POINT
  5
F59
330
F47
100
AcDbEntity
  8
DEFPOINTS
 62
     0
100
AcDbPoint
 10
261.5000000000001
 20
278.6627529128523
 30
0.0
  0
POINT
  5
F5A
330
F47
100
AcDbEntity
  8
DEFPOINTS
 62
     0
100
AcDbPoint
 10
188.5
 20
278.6627529128519
 30
0.0
  0
POINT
  5
F5B
330
F47
100
AcDbEntity
  8
DEFPOINTS
 62
     0
100
AcDbPoint
 10
188.5
 20
251.2918215903646
 30
0.0
  0
ENDBLK
  5
F52
330
F47
100
AcDbEntity
  8
0
100
AcDbBlockEnd
  0
BLOCK
  5
F67
330
F5D
100
AcDbEntity
  8
0
100
AcDbBlockBegin
  2
*D4
 70
     1
 10
0.0
 20
0.0
 30
0.0
  3
*D4
  1

  0
LINE
  5
F73
330
F5D
100
AcDbEntity
  8
BEM
 62
     0
370
    -2
100
AcDbLine
 10
260.0000000000001
 20
375.6627529128519
 30
0.0
 11
260.0000000000001
 21
384.2468142618529
 31
0.0
  0
LINE
  5
F74
330
F5D
100
AcDbEntity
  8
BEM
 62
     0
370
    -2
100
AcDbLine
 10
190.0000000000002
 20
375.6627529128518
 30
0.0
 11
190.0000000000002
 21
384.2468142618529
 31
0.0
  0
LINE
  5
F75
330
F5D
100
AcDbEntity
  8
BEM
 62
     0
370
    -2
100
AcDbLine
 10
253.0000000000001
 20
382.2468142618529
 30
0.0
 11
197.0000000000002
 21
382.2468142618529
 31
0.0
  0
SOLID
  5
F76
330
F5D
100
AcDbEntity
  8
BEM
 62
     0
100
AcDbTrace
 10
253.0000000000001
 20
383.4134809285196
 30
0.0
 11
253.0000000000001
 21
381.0801475951862
 31
0.0
 12
260.0000000000001
 22
382.2468142618529
 32
0.0
 13
260.0000000000001
 23
382.2468142618529
 33
0.0
  0
SOLID
  5
F77
330
F5D
100
AcDbEntity
  8
BEM
 62
     0
100
AcDbTrace
 10
197.0000000000002
 20
383.4134809285196
 30
0.0
 11
197.0000000000002
 21
381.0801475951862
 31
0.0
 12
190.0000000000002
 22
382.2468142618529
 32
0.0
 13
190.0000000000002
 23
382.2468142618529
 33
0.0
  0
MTEXT
  5
F78
330
F5D
100
AcDbEntity
  8
BEM
 62
     1
100
AcDbMText
 10
228.2662597632784
 20
388.746814261853
 30
0.0
 40
7.0
 41
0.0
 71
     5
 72
     1
  1
\A1;70
 73
     1
 44
1.0
  0
POINT
  5
F79
330
F5D
100
AcDbEntity
  8
DEFPOINTS
 62
     0
100
AcDbPoint
 10
260.0000000000001
 20
373.6627529128519
 30
0.0
  0
POINT
  5
F7A
330
F5D
100
AcDbEntity
  8
DEFPOINTS
 62
     0
100
AcDbPoint
 10
190.0000000000002
 20
373.6627529128518
 30
0.0
  0
POINT
  5
F7B
330
F5D
100
AcDbEntity
  8
DEFPOINTS
 62
     0
100
AcDbPoint
 10
190.0000000000002
 20
382.2468142618529
 30
0.0
  0
ENDBLK
  5
F68
330
F5D
100
AcDbEntity
  8
0
100
AcDbBlockEnd
  0
BLOCK
  5
FA2
330
F98
100
AcDbEntity
  8
0
100
AcDbBlockBegin
  2
*D5
 70
     1
 10
0.0
 20
0.0
 30
0.0
  3
*D5
  1

  0
LINE
  5
FB1
330
F98
100
AcDbEntity
  8
BEM
 62
     0
370
    -2
100
AcDbLine
 10
185.0000000000004
 20
473.6627529128519
 30
0.0
 11
152.7646474510726
 21
473.6627529128519
 31
0.0
  0
LINE
  5
FB2
330
F98
100
AcDbEntity
  8
BEM
 62
     0
370
    -2
100
AcDbLine
 10
186.9374433176297
 20
273.662752912852
 30
0.0
 11
152.7646474510725
 21
273.662752912852
 31
0.0
  0
LINE
  5
FB3
330
F98
100
AcDbEntity
  8
BEM
 62
     0
370
    -2
100
AcDbLine
 10
154.7646474510726
 20
466.6627529128519
 30
0.0
 11
154.7646474510725
 21
280.6627529128519
 31
0.0
  0
SOLID
  5
FB4
330
F98
100
AcDbEntity
  8
BEM
 62
     0
100
AcDbTrace
 10
153.5979807844059
 20
466.6627529128519
 30
0.0
 11
155.9313141177393
 21
466.6627529128519
 31
0.0
 12
154.7646474510726
 22
473.6627529128519
 32
0.0
 13
154.7646474510726
 23
473.6627529128519
 33
0.0
  0
SOLID
  5
FB5
330
F98
100
AcDbEntity
  8
BEM
 62
     0
100
AcDbTrace
 10
153.5979807844059
 20
280.6627529128519
 30
0.0
 11
155.9313141177392
 21
280.6627529128519
 31
0.0
 12
154.7646474510725
 22
273.662752912852
 32
0.0
 13
154.7646474510725
 23
273.662752912852
 33
0.0
  0
MTEXT
  5
FB6
330
F98
100
AcDbEntity
  8
BEM
 62
     1
100
AcDbMText
 10
148.2646474510725
 20
373.662752912852
 30
0.0
 40
7.0
 41
0.0
 71
     5
 72
     1
  1
\A1;200
 11
0.0000000000000001
 21
1.0
 31
0.0
 73
     1
 44
1.0
  0
POINT
  5
FB7
330
F98
100
AcDbEntity
  8
DEFPOINTS
 62
     0
100
AcDbPoint
 10
187.0000000000004
 20
473.6627529128519
 30
0.0
  0
POINT
  5
FB8
330
F98
100
AcDbEntity
  8
DEFPOINTS
 62
     0
100
AcDbPoint
 10
188.9374433176297
 20
273.662752912852
 30
0.0
  0
POINT
  5
FB9
330
F98
100
AcDbEntity
  8
DEFPOINTS
 62
     0
100
AcDbPoint
 10
154.7646474510725
 20
273.662752912852
 30
0.0
  0
ENDBLK
  5
FA3
330
F98
100
AcDbEntity
  8
0
100
AcDbBlockEnd
  0
ENDSEC
  0
SECTION
  2
ENTITIES
  0
LINE
  5
57
330
1E
100
AcDbEntity
  8
STEMPEL
100
AcDbLine
 10
410.0
 20
110.0
 30
0.0
 11
39.99999999999997
 21
110.0
 31
0.0
  0
LINE
  5
58
330
1E
100
AcDbEntity
  8
STEMPEL
100
AcDbLine
 10
136.0000000000001
 20
109.9999999999999
 30
0.0
 11
136.0
 21
9.999999999999971
 31
0.0
  0
LINE
  5
59
330
1E
100
AcDbEntity
  8
STEMPEL
100
AcDbLine
 10
220.0
 20
110.0
 30
0.0
 11
220.0
 21
9.999999999999971
 31
0.0
  0
LINE
  5
5A
330
1E
100
AcDbEntity
  8
STEMPEL
100
AcDbLine
 10
332.0
 20
109.9999999999997
 30
0.0
 11
332.0
 21
40.0
 31
0.0
  0
LINE
  5
5B
330
1E
100
AcDbEntity
  8
STEMPEL
100
AcDbLine
 10
135.9999999999999
 20
29.99999999999997
 30
0.0
 11
39.99999999999997
 21
29.99999999999997
 31
0.0
  0
LINE
  5
5C
330
1E
100
AcDbEntity
  8
STEMPEL
100
AcDbLine
 10
410.0
 20
40.0
 30
0.0
 11
136.0000000000001
 21
39.99999999999997
 31
0.0
  0
LINE
  5
5D
330
1E
100
AcDbEntity
  8
STEMPEL
100
AcDbLine
 10
410.0
 20
80.0
 30
0.0
 11
136.0000000000001
 21
79.99999999999994
 31
0.0
  0
LINE
  5
5E
330
1E
100
AcDbEntity
  8
VOLL
100
AcDbLine
 10
54.00000000000009
 20
110.0
 30
0.0
 11
53.99999999999997
 21
9.999999999999971
 31
0.0
  0
LINE
  5
5F
330
1E
100
AcDbEntity
  8
VOLL
100
AcDbLine
 10
94.00000000000011
 20
109.9999999999999
 30
0.0
 11
94.0
 21
9.999999999999971
 31
0.0
  0
LINE
  5
60
330
1E
100
AcDbEntity
  8
VOLL
100
AcDbLine
 10
114.0000000000001
 20
109.9999999999999
 30
0.0
 11
114.0
 21
9.999999999999971
 31
0.0
  0
LINE
  5
61
330
1E
100
AcDbEntity
  8
VOLL
100
AcDbLine
 10
154.0000000000001
 20
79.99999999999994
 30
0.0
 11
154.0000000000001
 21
39.99999999999997
 31
0.0
  0
LINE
  5
62
330
1E
100
AcDbEntity
  8
VOLL
100
AcDbLine
 10
180.0000000000001
 20
109.9999999999998
 30
0.0
 11
180.0
 21
39.99999999999997
 31
0.0
  0
LINE
  5
63
330
1E
100
AcDbEntity
  8
HILF
100
AcDbLine
 10
40.00000000000008
 20
100.0
 30
0.0
 11
136.0000000000001
 21
100.0
 31
0.0
  0
LINE
  5
64
330
1E
100
AcDbEntity
  8
HILF
100
AcDbLine
 10
40.00000000000008
 20
90.00000000000005
 30
0.0
 11
136.0000000000001
 21
90.00000000000005
 31
0.0
  0
LINE
  5
65
330
1E
100
AcDbEntity
  8
HILF
100
AcDbLine
 10
40.00000000000008
 20
79.99999999999994
 30
0.0
 11
136.0000000000001
 21
79.99999999999994
 31
0.0
  0
LINE
  5
66
330
1E
100
AcDbEntity
  8
HILF
100
AcDbLine
 10
40.00000000000008
 20
69.99999999999994
 30
0.0
 11
136.0000000000001
 21
69.99999999999994
 31
0.0
  0
LINE
  5
67
330
1E
100
AcDbEntity
  8
HILF
100
AcDbLine
 10
40.00000000000008
 20
59.99999999999997
 30
0.0
 11
136.0000000000001
 21
59.99999999999997
 31
0.0
  0
LINE
  5
68
330
1E
100
AcDbEntity
  8
HILF
100
AcDbLine
 10
40.00000000000008
 20
49.99999999999997
 30
0.0
 11
136.0000000000001
 21
49.99999999999997
 31
0.0
  0
LINE
  5
69
330
1E
100
AcDbEntity
  8
HILF
100
AcDbLine
 10
40.00000000000008
 20
39.99999999999997
 30
0.0
 11
136.0000000000001
 21
39.99999999999997
 31
0.0
  0
LINE
  5
6A
330
1E
100
AcDbEntity
  8
HILF
100
AcDbLine
 10
136.0000000000001
 20
69.99999999999994
 30
0.0
 11
220.0
 21
69.99999999999994
 31
0.0
  0
LINE
  5
6B
330
1E
100
AcDbEntity
  8
HILF
100
AcDbLine
 10
136.0000000000001
 20
59.99999999999997
 30
0.0
 11
220.0
 21
59.99999999999997
 31
0.0
  0
LINE
  5
6C
330
1E
100
AcDbEntity
  8
HILF
100
AcDbLine
 10
136.0000000000001
 20
49.99999999999997
 30
0.0
 11
220.0
 21
49.99999999999997
 31
0.0
  0
LINE
  5
6D
330
1E
100
AcDbEntity
  8
HILF
100
AcDbLine
 10
224.7736801096948
 20
84.03758247564139
 30
0.0
 11
324.8353916556311
 21
84.03758247564139
 31
0.0
  0
LINE
  5
6E
330
1E
100
AcDbEntity
  8
HILF
100
AcDbLine
 10
224.7736801096948
 20
69.99999999999994
 30
0.0
 11
324.835391655631
 21
69.99999999999994
 31
0.0
  0
LINE
  5
6F
330
1E
100
AcDbEntity
  8
HILF
100
AcDbLine
 10
224.7736801096948
 20
59.99999999999997
 30
0.0
 11
324.835391655631
 21
59.99999999999997
 31
0.0
  0
LINE
  5
70
330
1E
100
AcDbEntity
  8
HILF
100
AcDbLine
 10
224.7736801096948
 20
49.99999999999997
 30
0.0
 11
324.835391655631
 21
49.99999999999997
 31
0.0
  0
LINE
  5
71
330
1E
100
AcDbEntity
  8
VOLL
100
AcDbLine
 10
332.0
 20
60.0
 30
0.0
 11
410.0
 21
60.0
 31
0.0
  0
LINE
  5
72
330
1E
100
AcDbEntity
  8
HILF
100
AcDbLine
 10
336.7238616296993
 20
83.77983636955827
 30
0.0
 11
404.8588839326728
 21
83.77983636955827
 31
0.0
  0
LINE
  5
73
330
1E
100
AcDbEntity
  8
HILF
100
AcDbLine
 10
223.4909699289885
 20
14.89398258028314
 30
0.0
 11
404.8588839326728
 21
14.89398258028314
 31
0.0
  0
TEXT
  5
74
330
1E
100
AcDbEntity
  8
TEXT
100
AcDbText
 10
63.86165979631819
 20
18.67381894984132
 30
0.0
 40
4.0
  1
Änderung
 41
0.8
  7
GREEKS
 72
     1
 11
74.60451693917534
 21
18.67381894984132
 31
0.0
100
AcDbText
  0
TEXT
  5
75
330
1E
100
AcDbEntity
  8
TEXT
100
AcDbText
 10
143.5163572150377
 20
102.4620895087088
 30
0.0
 40
5.0
  1
Maßstab
 41
0.8
  7
GREEKS
100
AcDbText
  0
TEXT
  5
76
330
1E
100
AcDbEntity
  8
TEXT
100
AcDbText
 10
184.2858954734051
 20
102.4184168434819
 30
0.0
 40
5.0
  1
Zul. Abw.
 41
0.8
  7
GREEKS
100
AcDbText
  0
TEXT
  5
77
330
1E
100
AcDbEntity
  8
TEXT
100
AcDbText
 10
224.877940380901
 20
102.5489328011779
 30
0.0
 40
5.0
  1
Benennung
 41
0.8
  7
GREEKS
100
AcDbText
  0
TEXT
  5
78
330
1E
100
AcDbEntity
  8
TEXT
100
AcDbText
 10
336.178754957634
 20
102.3132034537136
 30
0.0
 40
5.0
  1
Zeichnungs Nr.
 41
0.8
  7
GREEKS
100
AcDbText
  0
TEXT
  5
79
330
1E
100
AcDbEntity
  8
TEXT
100
AcDbText
 10
224.742238391136
 20
30.84560570193057
 30
0.0
 40
5.0
  1
Bauvorhaben
 41
0.8
  7
GREEKS
100
AcDbText
  0
TEXT
  5
7A
330
1E
100
AcDbEntity
  8
TEXT
100
AcDbText
 10
336.7238616296993
 20
73.1811823709997
 30
0.0
 40
5.0
  1
Ersatz für:
 41
0.8
  7
GREEKS
100
AcDbText
  0
TEXT
  5
7B
330
1E
100
AcDbEntity
  8
TEXT
100
AcDbText
 10
48.26641107045756
 20
13.65465846027192
 30
0.0
 40
4.0
  1
Index
 50
90.0
 41
0.8
  7
GREEKS
100
AcDbText
  0
TEXT
  5
7C
330
1E
100
AcDbEntity
  8
TEXT
100
AcDbText
 10
100.0934676075481
 20
18.6715626933981
 30
0.0
 40
4.0
  1
Tag
 41
0.8
  7
GREEKS
 72
     1
 11
103.8268009408814
 21
18.6715626933981
 31
0.0
100
AcDbText
  0
TEXT
  5
7D
330
1E
100
AcDbEntity
  8
TEXT
100
AcDbText
 10
119.0122744386592
 20
18.59324216966408
 30
0.0
 40
4.0
  1
Name
 41
0.8
  7
GREEKS
 72
     1
 11
125.3360839624688
 21
18.59324216966408
 31
0.0
100
AcDbText
  0
TEXT
  5
7E
330
1E
100
AcDbEntity
  8
TEXT
100
AcDbText
 10
162.3311673153651
 20
73.31880501229926
 30
0.0
 40
4.0
  1
Tag
 41
0.8
  7
GREEKS
100
AcDbText
  0
TEXT
  5
7F
330
1E
100
AcDbEntity
  8
TEXT
100
AcDbText
 10
192.4626584226295
 20
73.30961091915225
 30
0.0
 40
4.0
  1
Name
 41
0.8
  7
GREEKS
100
AcDbText
  0
TEXT
  5
80
330
1E
100
AcDbEntity
  8
TEXT
100
AcDbText
 10
137.5836127167615
 20
63.62990369617964
 30
0.0
 40
4.0
  1
Gez.
 41
0.8
  7
GREEKS
100
AcDbText
  0
TEXT
  5
81
330
1E
100
AcDbEntity
  8
TEXT
100
AcDbText
 10
137.5515086571672
 20
53.68926291428377
 30
0.0
 40
4.0
  1
Gepr.
 41
0.8
  7
GREEKS
100
AcDbText
  0
TEXT
  5
82
330
1E
100
AcDbEntity
  8
TEXT
100
AcDbText
 10
137.6006777387304
 20
43.52946389649807
 30
0.0
 40
4.0
  1
Norm.
 41
0.8
  7
GREEKS
100
AcDbText
  0
LINE
  5
83
330
1E
100
AcDbEntity
  8
STEMPEL
100
AcDbLine
 10
49.99999999999989
 20
10.0
 30
0.0
 11
410.0
 21
10.0
 31
0.0
  0
TEXT
  5
84
330
1E
100
AcDbEntity
  8
TEXT
100
AcDbText
 10
337.2400861497006
 20
52.07416177878602
 30
0.0
 40
5.0
  1
ersetzt durch:
 41
0.8
  7
GREEKS
100
AcDbText
  0
LINE
  5
85
330
1E
100
AcDbEntity
  8
STEMPEL
100
AcDbLine
 10
410.0
 20
10.0
 30
0.0
 11
39.99999999999989
 21
10.0
 31
0.0
  0
LINE
  5
86
330
1E
100
AcDbEntity
  8
STEMPEL
100
AcDbLine
 10
410.0
 20
10.0
 30
0.0
 11
410.0
 21
584.0
 31
0.0
  0
LINE
  5
87
330
1E
100
AcDbEntity
  8
STEMPEL
100
AcDbLine
 10
40.0
 20
10.0
 30
0.0
 11
39.99999999999989
 21
584.0
 31
0.0
  0
LINE
  5
88
330
1E
100
AcDbEntity
  8
STEMPEL
100
AcDbLine
 10
410.0
 20
584.0
 30
0.0
 11
39.99999999999989
 21
584.0
 31
0.0
  0
LINE
  5
89
330
1E
100
AcDbEntity
  8
HILF
100
AcDbLine
 10
0.0
 20
0.0
 30
0.0
 11
-0.0000000000001137
 21
594.0
 31
0.0
  0
LINE
  5
8A
330
1E
100
AcDbEntity
  8
HILF
100
AcDbLine
 10
419.9999999999999
 20
594.0000000000002
 30
0.0
 11
0.0
 21
594.0
 31
0.0
  0
LINE
  5
8B
330
1E
100
AcDbEntity
  8
HILF
100
AcDbLine
 10
420.0
 20
0.0
 30
0.0
 11
0.0
 21
0.0
 31
0.0
  0
LINE
  5
8C
330
1E
100
AcDbEntity
  8
HILF
100
AcDbLine
 10
31.08767135713856
 20
297.0
 30
0.0
 11
0.0000000000001137
 21
297.0
 31
0.0
  0
TEXT
  5
8D
330
1E
100
AcDbEntity
  8
TEXT
100
AcDbText
 10
138.622109822104
 20
73.14025471151666
 30
0.0
 40
4.0
  1
2009
 41
0.8
  7
GREEKS
100
AcDbText
  0
LINE
  5
8E
330
1E
100
AcDbEntity
  8
HILF
100
AcDbLine
 10
420.0
 20
-0.0000000000001137
 30
0.0
 11
419.9999999999999
 21
594.0
 31
0.0
  0
TEXT
  5
8F
330
1E
100
AcDbEntity
  8
VOLL
100
AcDbText
 10
78.07675471698113
 20
31.02594776470585
 30
0.0
 40
1.8
  1

  7
GREEKS
100
AcDbText
  0
TEXT
  5
90
330
1E
100
AcDbEntity
  8
TEXT
100
AcDbText
 10
41.85509950977674
 20
111.6719999999999
 30
0.0
 40
5.0
  1
Erstellt mit AUTOCAD 2004
 41
0.8
  7
GREEKS
100
AcDbText
  0
TEXT
  5
91
330
1E
100
AcDbEntity
  8
TEXT
100
AcDbText
 10
194.4216048581257
 20
63.0896391972351
 30
0.0
 40
4.0
  1
Koeh
 41
0.8
  7
GREEKS
 72
     1
 11
199.6787477152685
 21
63.0896391972351
 31
0.0
100
AcDbText
  0
TEXT
  5
92
330
1E
100
AcDbEntity
  8
TEXT
 62
     1
100
AcDbText
 10
346.3485517453547
 20
88.14901428913959
 30
0.0
 40
7.0
  1
55688070W
 41
0.8
  7
GREEKS
 72
     1
 11
370.3485517453547
 21
88.14901428913959
 31
0.0
100
AcDbText
  0
TEXT
  5
93
330
1E
100
AcDbEntity
  8
TEXT
 62
     1
100
AcDbText
 10
150.5006306481887
 20
88.14901428913959
 30
0.0
 40
7.0
  1
1:2
 41
0.8
  7
GREEKS
100
AcDbText
  0
TEXT
  5
94
330
1E
100
AcDbEntity
  8
TEXT
100
AcDbText
 10
161.0085209177598
 20
63.10765040825732
 30
0.0
 40
4.0
  1
05.11.
 41
0.8
  7
GREEKS
 72
     1
 11
167.4085209177598
 21
63.10765040825732
 31
0.0
100
AcDbText
  0
TEXT
  5
95
330
1E
100
AcDbEntity
  8
TEXT
 62
     1
100
AcDbText
 10
225.3047845892622
 20
87.41748789253779
 30
0.0
 40
7.0
  1
Übergangsrohr DN70
 41
0.8
  7
GREEKS
100
AcDbText
  0
TEXT
  5
96
330
1E
100
AcDbEntity
  8
TEXT
100
AcDbText
 10
225.1296391125315
 20
71.50334417585288
 30
0.0
 40
5.0
  1
quadratisches Rohr auf LX-Rohr
 41
0.8
  7
GREEKS
100
AcDbText
  0
TEXT
  5
98
330
1E
100
AcDbEntity
  8
TEXT
100
AcDbText
 10
225.1296391125315
 20
51.64011943042158
 30
0.0
 40
5.0
  1
EDV-Art.Nr. 55688.070X
 41
0.8
  7
GREEKS
100
AcDbText
  0
TEXT
  5
99
330
1E
100
AcDbEntity
  8
TEXT
100
AcDbText
 10
224.9837501577827
 20
42.62974153022632
 30
0.0
 40
4.0
  1
55688070W.DWG
 41
0.8
  7
GREEKS
100
AcDbText
  0
TEXT
  5
9A
330
1E
100
AcDbEntity
  8
TEXT
100
AcDbText
 10
182.626132208084
 20
90.76363841023022
 30
0.0
 40
4.0
  1
DIN EN1123-2
 41
0.8
  7
GREEKS
 72
     1
 11
199.6166083985602
 21
90.76363841023022
 31
0.0
100
AcDbText
  0
INSERT
  5
9B
330
1E
100
AcDbEntity
  8
STEMPEL
100
AcDbBlockReference
  2
LOGO
 10
140.9955485457794
 20
45.02105276448322
 30
0.0
 41
2.0
 42
2.0
 43
2.0
  0
TEXT
  5
118
330
1E
100
AcDbEntity
  8
BEM
100
AcDbText
 10
417.3022923857165
 20
10.16790107998849
 30
0.0
 40
4.0
  1
Diese Zeichnung ist urheberrechtlich geschützt und bleibt unser Eigentum. Sie darf weder ganz noch teilweise verfielfältigt und nicht an Dritte weitergegeben werden.
 50
90.0
 41
0.8
  7
GREEKS
100
AcDbText
  0
TEXT
  5
7C7
330
1E
100
AcDbEntity
  8
TEXT
 62
     1
100
AcDbText
 10
230.9245397576281
 20
129.0783465745483
 30
0.0
 40
7.0
  1
feuerverzinkt und innen beschichtet
 41
0.8
  7
GREEKS
100
AcDbText
  0
TEXT
  5
7C8
330
1E
100
AcDbEntity
  8
TEXT
 62
     1
100
AcDbText
 10
182.9748223202302
 20
139.8004583895517
 30
0.0
 40
7.0
  1
Werkstoff: S235 JRH, E195 EN10305 
 41
0.8
  7
GREEKS
100
AcDbText
  0
TEXT
  5
879
330
1E
100
AcDbEntity
  8
VOLL
100
AcDbText
 10
366.6967681602972
 20
359.5372558102732
 30
0.0
 40
1.8
  1

  7
GREEKS
100
AcDbText
  0
TEXT
  5
D82
330
1E
100
AcDbEntity
  8
VOLL
100
AcDbText
 10
351.0320839205596
 20
304.3675940501409
 30
0.0
 40
1.8
  1

  7
GREEKS
100
AcDbText
  0
HATCH
  5
E6B
330
1E
100
AcDbEntity
  8
SCHRAFF
100
AcDbHatch
 10
0.0
 20
0.0
 30
0.0
210
0.0
220
0.0
230
1.0
  2
_USER
 70
     0
 71
     1
 91
        2
 92
        5
 93
       10
 72
     2
 10
245.2500000000003
 20
421.3899309415116
 40
15.75000000000007
 50
0.0000000000006107
 51
24.71524700569508
 73
     0
 72
     2
 10
275.0000000000003
 20
407.6968670038821
 40
17.00000000000005
 50
155.284752994301
 51
180.0
 73
     1
 72
     1
 10
258.0000000000002
 20
407.6968670038821
 11
258.0000000000002
 21
399.4474557071151
 72
     4
 94
        3
 73
     0
 74
     0
 95
        8
 96
        4
 40
71.78011111739303
 40
71.78011111739303
 40
71.78011111739303
 40
71.78011111739303
 40
73.81475880016219
 40
73.81475880016219
 40
73.81475880016219
 40
73.81475880016219
 10
258.0000000000002
 20
399.4474557071151
 10
258.6671878081009
 20
399.3091920850961
 10
259.3337532270528
 20
399.1494805657192
 10
260.0000000000004
 20
398.9787883169877
 72
     1
 10
260.0000000000003
 20
398.9787883169876
 11
260.0000000000004
 21
407.6968670038821
 72
     2
 10
275.0000000000004
 20
407.6968670038821
 40
15.00000000000004
 50
180.0
 51
204.7152470056964
 73
     0
 72
     2
 10
245.2500000000003
 20
421.3899309415113
 40
17.75000000000003
 50
335.284752994303
 51
359.9999999999998
 73
     1
 72
     1
 10
263.0000000000003
 20
421.3899309415112
 11
263.0000000000002
 21
473.6627529128518
 72
     1
 10
263.0000000000002
 20
473.6627529128518
 11
261.0000000000003
 21
473.6627529128518
 72
     1
 10
261.0000000000003
 20
473.6627529128518
 11
261.0000000000003
 21
421.3899309415114
 97
       10
330
E75
330
E7C
330
E7F
330
E80
330
E74
330
E6C
330
E73
330
E81
330
E7E
330
E7D
 92
        5
 93
       10
 72
     1
 10
189.0000000000003
 20
473.6627529128519
 11
187.0000000000003
 21
473.6627529128519
 72
     1
 10
187.0000000000003
 20
473.6627529128519
 11
187.0000000000002
 21
421.3899309415113
 72
     2
 10
204.7500000000002
 20
421.3899309415114
 40
17.74999999999995
 50
180.0000000000002
 51
204.7152470056971
 73
     1
 72
     2
 10
175.0000000000003
 20
407.6968670038822
 40
14.99999999999994
 50
335.2847529943036
 51
360.0000000000004
 73
     0
 72
     1
 10
190.0000000000002
 20
407.6968670038821
 11
190.0000000000002
 21
399.2458141297094
 72
     4
 94
        3
 73
     0
 74
     0
 95
        8
 96
        4
 40
3.170970425850351
 40
3.170970425850351
 40
3.170970425850351
 40
3.170970425850351
 40
5.187226584912703
 40
5.187226584912703
 40
5.187226584912703
 40
5.187226584912703
 10
190.0000000000003
 20
399.2458141297094
 10
190.666972493184
 20
399.3592088437349
 10
191.3336926437298
 20
399.451684995108
 10
192.0000000000002
 20
399.5099415512986
 72
     1
 10
192.0000000000002
 20
399.5099415512986
 11
192.0000000000002
 21
407.6968670038821
 72
     2
 10
175.0000000000001
 20
407.6968670038822
 40
17.00000000000005
 50
359.9999999999996
 51
384.7152470056967
 73
     1
 72
     2
 10
204.7500000000003
 20
421.3899309415114
 40
15.75000000000005
 50
155.2847529943033
 51
179.9999999999998
 73
     0
 72
     1
 10
189.0000000000002
 20
421.3899309415114
 11
189.0000000000003
 21
473.6627529128519
 97
       10
330
E75
330
E77
330
E79
330
E7B
330
E72
330
E6C
330
E71
330
E7A
330
E78
330
E76
 75
     0
 76
     0
 52
44.99999999999993
 41
1.999999999999999
 77
     0
 78
     1
 53
44.99999999999993
 43
-0.0000000000001705
 44
-44.49912156718727
 45
-1.414213562373093
 46
1.414213562373096
 79
     0
 47
0.1592029413536472
 98
        2
 10
261.5481378090858
 20
459.9061326000507
 10
188.4343490607888
 20
451.7867823073867
  0
SPLINE
  5
E6C
102
{ACAD_REACTORS
330
E6B
102
}
330
1E
100
AcDbEntity
  8
HILF
100
AcDbSpline
210
0.0
220
0.0
230
1.0
 70
     8
 71
     3
 72
    15
 73
    11
 74
     0
 42
0.0000000001
 43
0.0000000001
 40
3.170970425850351
 40
3.170970425850351
 40
3.170970425850351
 40
3.170970425850351
 40
7.471001228641081
 40
15.15636353375204
 40
26.80288465850033
 40
36.72895552413903
 40
46.53786718439749
 40
55.40941104410809
 40
67.26483309466101
 40
73.81475880016219
 40
73.81475880016219
 40
73.81475880016219
 40
73.81475880016219
 10
190.0000000000003
 20
399.2458141297094
 30
0.0
 10
191.4224394318221
 20
399.4876488593848
 30
0.0
 10
195.3839784219987
 20
399.8965157923816
 30
0.0
 10
203.153626279101
 20
397.2688639129378
 30
0.0
 10
212.8827157905589
 20
400.7965850156375
 30
0.0
 10
223.3108463241529
 20
397.3576296702639
 30
0.0
 10
232.7260999319137
 20
401.4569746898883
 30
0.0
 10
242.7162872696741
 20
397.1490094869681
 30
0.0
 10
251.8190994679451
 20
400.752588923178
 30
0.0
 10
257.8552223555498
 20
399.5282797877541
 30
0.0
 10
260.0000000000004
 20
398.9787883169877
 30
0.0
  0
LWPOLYLINE
  5
E6D
330
1E
100
AcDbEntity
  8
BEM
 62
     1
100
AcDbPolyline
 90
        4
 70
     1
 43
0.0
 10
215.0480296378315
 20
495.836197744012
 10
215.0480296378315
 20
488.8361977440121
 10
222.0480296378315
 20
488.8361977440122
 10
222.0480296378315
 20
495.836197744012
  0
DIMENSION
  5
E6E
330
1E
100
AcDbEntity
  8
BEM
100
AcDbDimension
  2
*D1
 10
261.0000000000002
 20
485.8008936657777
 30
0.0
 11
228.1780558341593
 21
485.8008936657777
 31
0.0
 70
   160
 71
     5
 42
71.99999999999988
  3
Standard
100
AcDbAlignedDimension
 13
189.0000000000003
 23
473.6627529128519
 33
0.0
 14
261.0000000000002
 24
473.6627529128519
 34
0.0
100
AcDbRotatedDimension
1001
ACAD
1000
DSTYLE
1002
{
1070
    40
1040
2.0
1070
    41
1040
3.5
1070
    42
1040
1.0
1070
    43
1040
7.0
1070
    44
1040
1.0
1070
    73
1070
     0
1070
    74
1070
     0
1070
    77
1070
     1
1070
    78
1070
     8
1070
    79
1070
     2
1070
   140
1040
3.5
1070
   141
1040
1.5
1070
   146
1040
0.5
1070
   147
1040
1.5
1070
   172
1070
     1
1070
   178
1070
     1
1070
   179
1070
     2
1070
   271
1070
     2
1070
   272
1070
     2
1070
   284
1070
     8
1070
   285
1070
     8
1070
   286
1070
     8
1002
}
  0
DIMENSION
  5
E6F
330
1E
100
AcDbEntity
  8
BEM
100
AcDbDimension
  2
*D2
 10
170.7442881841156
 20
418.662752912852
 30
0.0
 11
164.2442881841155
 21
446.162752912852
 31
0.0
 70
    32
 71
     5
 42
54.99999999999983
  3
Standard
100
AcDbAlignedDimension
 13
187.0000000000003
 23
473.6627529128519
 33
0.0
 14
187.2107582832099
 24
418.662752912852
 34
0.0
 50
90.0
100
AcDbRotatedDimension
1001
ACAD
1000
DSTYLE
1002
{
1070
    40
1040
2.0
1070
    41
1040
3.5
1070
    42
1040
1.0
1070
    43
1040
7.0
1070
    44
1040
1.0
1070
    73
1070
     0
1070
    74
1070
     0
1070
    77
1070
     1
1070
    78
1070
     8
1070
    79
1070
     2
1070
   140
1040
3.5
1070
   141
1040
1.5
1070
   146
1040
0.5
1070
   147
1040
1.5
1070
   172
1070
     1
1070
   178
1070
     1
1070
   179
1070
     2
1070
   271
1070
     2
1070
   272
1070
     2
1070
   284
1070
     8
1070
   285
1070
     8
1070
   286
1070
     8
1002
}
  0
LINE
  5
E70
330
1E
100
AcDbEntity
  8
MITTEL
100
AcDbLine
 10
225.0000000000003
 20
478.6627529128518
 30
0.0
 11
225.0000000000003
 21
393.5797225807026
 31
0.0
  0
LINE
  5
E71
102
{ACAD_REACTORS
330
E6B
102
}
330
1E
100
AcDbEntity
  8
STEMPEL
100
AcDbLine
 10
192.0000000000002
 20
407.6968670038821
 30
0.0
 11
192.0000000000002
 21
399.5099415512989
 31
0.0
  0
LINE
  5
E72
102
{ACAD_REACTORS
330
E6B
102
}
330
1E
100
AcDbEntity
  8
STEMPEL
100
AcDbLine
 10
190.0000000000002
 20
407.6968670038821
 30
0.0
 11
190.0000000000002
 21
373.6627529128518
 31
0.0
  0
LINE
  5
E73
102
{ACAD_REACTORS
330
E6B
102
}
330
1E
100
AcDbEntity
  8
STEMPEL
100
AcDbLine
 10
260.0000000000004
 20
407.6968670038821
 30
0.0
 11
260.0000000000001
 21
373.6627529128519
 31
0.0
  0
LINE
  5
E74
102
{ACAD_REACTORS
330
E6B
102
}
330
1E
100
AcDbEntity
  8
STEMPEL
100
AcDbLine
 10
258.0000000000002
 20
407.6968670038822
 30
0.0
 11
258.0000000000002
 21
399.4474557071151
 31
0.0
  0
LINE
  5
E75
102
{ACAD_REACTORS
330
E6B
102
}
330
1E
100
AcDbEntity
  8
STEMPEL
100
AcDbLine
 10
187.0000000000003
 20
473.6627529128519
 30
0.0
 11
263.0000000000002
 21
473.6627529128518
 31
0.0
  0
LINE
  5
E76
102
{ACAD_REACTORS
330
E6B
102
}
330
1E
100
AcDbEntity
  8
STEMPEL
100
AcDbLine
 10
189.0000000000003
 20
473.6627529128519
 30
0.0
 11
189.0000000000002
 21
421.3899309415114
 31
0.0
  0
LINE
  5
E77
102
{ACAD_REACTORS
330
E6B
102
}
330
1E
100
AcDbEntity
  8
STEMPEL
100
AcDbLine
 10
187.0000000000003
 20
473.6627529128519
 30
0.0
 11
187.0000000000002
 21
421.3899309415113
 31
0.0
  0
ARC
  5
E78
102
{ACAD_REACTORS
330
E6B
102
}
330
1E
100
AcDbEntity
  8
STEMPEL
100
AcDbCircle
 10
204.7500000000002
 20
421.3899309415114
 30
0.0
 40
15.75
100
AcDbArc
 50
180.0
 51
204.7152470056899
  0
ARC
  5
E79
102
{ACAD_REACTORS
330
E6B
102
}
330
1E
100
AcDbEntity
  8
STEMPEL
100
AcDbCircle
 10
204.7500000000002
 20
421.3899309415114
 30
0.0
 40
17.75
100
AcDbArc
 50
180.0
 51
204.7152470056899
  0
ARC
  5
E7A
102
{ACAD_REACTORS
330
E6B
102
}
330
1E
100
AcDbEntity
  8
STEMPEL
100
AcDbCircle
 10
175.0000000000003
 20
407.6968670038821
 30
0.0
 40
17.0
100
AcDbArc
 50
0.0
 51
24.71524700569418
  0
ARC
  5
E7B
102
{ACAD_REACTORS
330
E6B
102
}
330
1E
100
AcDbEntity
  8
STEMPEL
100
AcDbCircle
 10
175.0000000000003
 20
407.6968670038821
 30
0.0
 40
15.0
100
AcDbArc
 50
0.0
 51
24.71524700569418
  0
LINE
  5
E7C
102
{ACAD_REACTORS
330
E6B
102
}
330
1E
100
AcDbEntity
  8
STEMPEL
100
AcDbLine
 10
261.0000000000002
 20
473.6627529128519
 30
0.0
 11
261.0000000000003
 21
421.3899309415114
 31
0.0
  0
LINE
  5
E7D
102
{ACAD_REACTORS
330
E6B
102
}
330
1E
100
AcDbEntity
  8
STEMPEL
100
AcDbLine
 10
263.0000000000002
 20
473.6627529128518
 30
0.0
 11
263.0000000000003
 21
421.3899309415112
 31
0.0
  0
ARC
  5
E7E
102
{ACAD_REACTORS
330
E6B
102
}
330
1E
100
AcDbEntity
  8
STEMPEL
100
AcDbCircle
 10
245.2500000000002
 20
421.3899309415113
 30
0.0
 40
17.75
100
AcDbArc
 50
335.2847529943058
 51
0.0
  0
ARC
  5
E7F
102
{ACAD_REACTORS
330
E6B
102
}
330
1E
100
AcDbEntity
  8
STEMPEL
100
AcDbCircle
 10
245.2500000000002
 20
421.3899309415113
 30
0.0
 40
15.75
100
AcDbArc
 50
335.2847529943058
 51
0.0
  0
ARC
  5
E80
102
{ACAD_REACTORS
330
E6B
102
}
330
1E
100
AcDbEntity
  8
STEMPEL
100
AcDbCircle
 10
275.0000000000002
 20
407.6968670038819
 30
0.0
 40
17.0
100
AcDbArc
 50
155.2847529943028
 51
180.0
  0
ARC
  5
E81
102
{ACAD_REACTORS
330
E6B
102
}
330
1E
100
AcDbEntity
  8
STEMPEL
100
AcDbCircle
 10
275.0000000000002
 20
407.6968670038819
 30
0.0
 40
15.0
100
AcDbArc
 50
155.2847529943028
 51
180.0
  0
LINE
  5
E82
330
1E
100
AcDbEntity
  8
HILF
100
AcDbLine
 10
193.6484143770627
 20
411.3350865164146
 30
0.0
 11
256.3515856229378
 21
411.3350865164146
 31
0.0
  0
LINE
  5
E83
330
1E
100
AcDbEntity
  8
HILF
100
AcDbLine
 10
191.4195514412069
 20
418.0192275696071
 30
0.0
 11
258.5804485587936
 21
418.019227569607
 31
0.0
  0
TEXT
  5
E84
330
1E
100
AcDbEntity
  8
TEXT
 62
     1
100
AcDbText
 10
216.9744278735678
 20
438.5617258234352
 30
0.0
 40
7.0
  1
DN70
 50
90.0
 41
0.8
  7
GREEKS
100
AcDbText
  0
LINE
  5
F17
330
1E
100
AcDbEntity
  8
STEMPEL
100
AcDbLine
 10
188.9374433176297
 20
273.6627529128519
 30
0.0
 11
261.0625566823703
 21
273.6627529128518
 31
0.0
  0
ELLIPSE
  5
F18
330
1E
100
AcDbEntity
  8
HILF
100
AcDbEllipse
 10
225.0000000000001
 20
373.6627529128519
 30
0.0
 11
34.99999999999983
 21
0.0000000000000568
 31
0.0
210
0.0
220
0.0
230
-1.0
 40
0.7142857142857162
 41
0.0
 42
3.141592653589793
  0
ARC
  5
F19
330
1E
100
AcDbEntity
  8
SCHRAFF
100
AcDbCircle
 10
253.5641589958481
 20
373.6627529128519
 30
0.0
 40
5.0
100
AcDbArc
 50
323.130102354156
 51
36.86989764584474
  0
ARC
  5
F1A
330
1E
100
AcDbEntity
  8
SCHRAFF
100
AcDbCircle
 10
248.5641589958481
 20
373.6627529128519
 30
0.0
 40
5.0
100
AcDbArc
 50
323.130102354156
 51
36.86989764584474
  0
ARC
  5
F1B
330
1E
100
AcDbEntity
  8
SCHRAFF
100
AcDbCircle
 10
238.5641589958481
 20
373.6627529128519
 30
0.0
 40
5.0
100
AcDbArc
 50
323.130102354156
 51
36.86989764584474
  0
ARC
  5
F1C
330
1E
100
AcDbEntity
  8
SCHRAFF
100
AcDbCircle
 10
243.5641589958481
 20
373.6627529128519
 30
0.0
 40
5.0
100
AcDbArc
 50
323.130102354156
 51
36.86989764584474
  0
ARC
  5
F1D
330
1E
100
AcDbEntity
  8
SCHRAFF
100
AcDbCircle
 10
233.5641589958481
 20
373.6627529128519
 30
0.0
 40
5.0
100
AcDbArc
 50
323.130102354156
 51
36.86989764584474
  0
ARC
  5
F1E
330
1E
100
AcDbEntity
  8
SCHRAFF
100
AcDbCircle
 10
228.5641589958481
 20
373.6627529128519
 30
0.0
 40
5.0
100
AcDbArc
 50
323.130102354156
 51
36.86989764584474
  0
ARC
  5
F1F
330
1E
100
AcDbEntity
  8
SCHRAFF
100
AcDbCircle
 10
208.5641589958481
 20
373.6627529128519
 30
0.0
 40
5.0
100
AcDbArc
 50
323.130102354156
 51
36.86989764584474
  0
ARC
  5
F20
330
1E
100
AcDbEntity
  8
SCHRAFF
100
AcDbCircle
 10
213.5641589958481
 20
373.6627529128519
 30
0.0
 40
5.0
100
AcDbArc
 50
323.130102354156
 51
36.86989764584474
  0
ARC
  5
F21
330
1E
100
AcDbEntity
  8
SCHRAFF
100
AcDbCircle
 10
223.5641589958481
 20
373.6627529128519
 30
0.0
 40
5.0
100
AcDbArc
 50
323.130102354156
 51
36.86989764584474
  0
ARC
  5
F22
330
1E
100
AcDbEntity
  8
SCHRAFF
100
AcDbCircle
 10
218.5641589958481
 20
373.6627529128519
 30
0.0
 40
5.0
100
AcDbArc
 50
323.130102354156
 51
36.86989764584474
  0
ARC
  5
F23
330
1E
100
AcDbEntity
  8
SCHRAFF
100
AcDbCircle
 10
198.5641589958481
 20
373.6627529128519
 30
0.0
 40
5.0
100
AcDbArc
 50
323.130102354156
 51
36.86989764584474
  0
ARC
  5
F24
330
1E
100
AcDbEntity
  8
SCHRAFF
100
AcDbCircle
 10
203.5641589958481
 20
373.6627529128519
 30
0.0
 40
5.0
100
AcDbArc
 50
323.130102354156
 51
36.86989764584474
  0
ARC
  5
F25
330
1E
100
AcDbEntity
  8
SCHRAFF
100
AcDbCircle
 10
193.5641589958481
 20
373.6627529128519
 30
0.0
 40
5.0
100
AcDbArc
 50
323.130102354156
 51
36.86989764584474
  0
ARC
  5
F26
330
1E
100
AcDbEntity
  8
SCHRAFF
100
AcDbCircle
 10
188.5641589958481
 20
373.6627529128519
 30
0.0
 40
5.0
100
AcDbArc
 50
323.130102354156
 51
36.86989764584474
  0
HATCH
  5
F27
330
1E
100
AcDbEntity
  8
SCHRAFF
100
AcDbHatch
 10
0.0
 20
0.0
 30
0.0
210
0.0
220
0.0
230
1.0
  2
_USER
 70
     0
 71
     0
 91
        2
 92
        7
 72
     1
 73
     1
 93
        3
 10
260.1800000000001
 20
370.6627529128519
 42
0.0
 10
260.0
 20
373.6627529128516
 42
0.0
 10
260.0
 20
376.6627529128518
 42
-0.5363177063896086
 97
        0
 92
        7
 72
     1
 73
     1
 93
        3
 10
189.8200000000003
 20
370.6627529128519
 42
-0.5363177063895807
 10
190.0000000000003
 20
376.6627529128516
 42
0.0
 10
190.0000000000002
 20
373.6627529128517
 42
0.0
 97
        0
 75
     0
 76
     0
 52
0.0
 41
0.1
 77
     0
 78
     1
 53
0.0000000000000931
 43
-0.0000000000005969
 44
747.3255058257034
 45
0.0000000000000002
 46
-0.1
 79
     0
 47
0.1103893854966475
 98
        2
 10
261.0919267429785
 20
374.3028372309678
 10
189.6312531947847
 20
373.5301114926429
  0
ARC
  5
F28
330
1E
100
AcDbEntity
  8
SCHRAFF
100
AcDbCircle
 10
191.9023731101718
 20
373.6029817195466
 30
0.0
 40
3.602946461673114
100
AcDbArc
 50
121.8707476406773
 51
234.6925363560104
  0
ARC
  5
F29
330
1E
100
AcDbEntity
  8
SCHRAFF
100
AcDbCircle
 10
258.0976268898286
 20
373.6029817195467
 30
0.0
 40
3.602946461673114
100
AcDbArc
 50
305.3074636439897
 51
58.12925235932289
  0
LINE
  5
F2A
330
1E
100
AcDbEntity
  8
STEMPEL
100
AcDbLine
 10
188.5000000000003
 20
348.6627529128519
 30
0.0
 11
190.0000000000003
 21
373.6627529128518
 31
0.0
  0
LINE
  5
F2B
330
1E
100
AcDbEntity
  8
STEMPEL
100
AcDbLine
 10
261.5000000000003
 20
348.662752912852
 30
0.0
 11
260.0
 21
373.662752912852
 31
0.0
  0
LINE
  5
F2C
330
1E
100
AcDbEntity
  8
STEMPEL
100
AcDbLine
 10
260.0000000000001
 20
373.6627529128519
 30
0.0
 11
190.0000000000002
 21
373.6627529128518
 31
0.0
  0
TEXT
  5
F35
330
1E
100
AcDbEntity
  8
TEXT
 62
     1
100
AcDbText
 10
218.5247595762891
 20
308.9141703573053
 30
0.0
 40
7.0
  1
DN70
 50
89.99999999999994
 41
0.8
  7
GREEKS
100
AcDbText
  0
LINE
  5
F36
330
1E
100
AcDbEntity
  8
STEMPEL
100
AcDbLine
 10
188.5000000000001
 20
348.662752912849
 30
0.0
 11
188.5
 21
278.6627529128519
 31
0.0
  0
LINE
  5
F37
330
1E
100
AcDbEntity
  8
STEMPEL
100
AcDbLine
 10
261.5000000000001
 20
348.6627529128547
 30
0.0
 11
261.5000000000001
 21
278.6627529128523
 31
0.0
  0
LINE
  5
F38
330
1E
100
AcDbEntity
  8
HILF
100
AcDbLine
 10
190.1061117400694
 20
278.6627529128518
 30
0.0
 11
259.8938882599307
 21
278.6627529128518
 31
0.0
  0
LINE
  5
F3D
330
1E
100
AcDbEntity
  8
STEMPEL
100
AcDbLine
 10
188.5
 20
278.6627529128519
 30
0.0
 11
188.9374433176297
 21
273.6627529128519
 31
0.0
  0
LINE
  5
F40
330
1E
100
AcDbEntity
  8
STEMPEL
100
AcDbLine
 10
261.5000000000001
 20
278.6627529128523
 30
0.0
 11
261.0625566823703
 21
273.6627529128518
 31
0.0
  0
DIMENSION
  5
F46
330
1E
100
AcDbEntity
  8
BEM
100
AcDbDimension
  2
*D3
 10
188.5
 20
251.2918215903646
 30
0.0
 11
225.0
 21
257.7918215903646
 31
0.0
 70
    32
  1
%%c<>
 71
     5
 42
73.0
  3
Standard
100
AcDbAlignedDimension
 13
261.5000000000001
 23
278.6627529128523
 33
0.0
 14
188.5
 24
278.6627529128519
 34
0.0
100
AcDbRotatedDimension
1001
ACAD
1000
DSTYLE
1002
{
1070
    40
1040
2.0
1070
    41
1040
3.5
1070
    42
1040
1.0
1070
    43
1040
7.0
1070
    44
1040
1.0
1070
    73
1070
     0
1070
    74
1070
     0
1070
    77
1070
     1
1070
    78
1070
     8
1070
    79
1070
     2
1070
   140
1040
3.5
1070
   141
1040
1.5
1070
   146
1040
0.5
1070
   147
1040
1.5
1070
   172
1070
     1
1070
   178
1070
     1
1070
   179
1070
     2
1070
   271
1070
     2
1070
   272
1070
     2
1070
   284
1070
     8
1070
   285
1070
     8
1070
   286
1070
     8
1002
}
  0
DIMENSION
  5
F5C
330
1E
100
AcDbEntity
  8
BEM
100
AcDbDimension
  2
*D4
 10
190.0000000000002
 20
382.2468142618529
 30
0.0
 11
228.2662597632784
 21
382.2468142618529
 31
0.0
 70
   160
 71
     5
 42
69.99999999999985
  3
Standard
100
AcDbAlignedDimension
 13
260.0000000000001
 23
373.6627529128519
 33
0.0
 14
190.0000000000002
 24
373.6627529128518
 34
0.0
100
AcDbRotatedDimension
1001
ACAD
1000
DSTYLE
1002
{
1070
    40
1040
2.0
1070
    41
1040
3.5
1070
    42
1040
1.0
1070
    43
1040
7.0
1070
    44
1040
1.0
1070
    73
1070
     0
1070
    74
1070
     0
1070
    77
1070
     1
1070
    78
1070
     8
1070
    79
1070
     2
1070
   140
1040
3.5
1070
   141
1040
1.5
1070
   146
1040
0.5
1070
   147
1040
1.5
1070
   172
1070
     1
1070
   178
1070
     1
1070
   179
1070
     2
1070
   271
1070
     2
1070
   272
1070
     2
1070
   284
1070
     8
1070
   285
1070
     8
1070
   286
1070
     8
1002
}
  0
LWPOLYLINE
  5
F69
330
1E
100
AcDbEntity
  8
BEM
 62
     1
100
AcDbPolyline
 90
        4
 70
     1
 43
0.0
 10
214.6627146783581
 20
392.272995784964
 10
214.6627146783581
 20
385.2729957849641
 10
221.6627146783581
 20
385.2729957849642
 10
221.6627146783581
 20
392.272995784964
  0
LINE
  5
F7C
330
1E
100
AcDbEntity
  8
MITTEL
100
AcDbLine
 10
225.0000000000002
 20
378.5546437841715
 30
0.0
 11
225.0
 21
268.6627529128518
 31
0.0
  0
DIMENSION
  5
F97
330
1E
100
AcDbEntity
  8
BEM
100
AcDbDimension
  2
*D5
 10
154.7646474510725
 20
273.662752912852
 30
0.0
 11
148.2646474510725
 21
373.662752912852
 31
0.0
 70
    32
 71
     5
 42
200.0
  3
Standard
100
AcDbAlignedDimension
 13
187.0000000000004
 23
473.6627529128519
 33
0.0
 14
188.9374433176297
 24
273.662752912852
 34
0.0
 50
90.0
100
AcDbRotatedDimension
1001
ACAD
1000
DSTYLE
1002
{
1070
    40
1040
2.0
1070
    41
1040
3.5
1070
    42
1040
1.0
1070
    43
1040
7.0
1070
    44
1040
1.0
1070
    73
1070
     0
1070
    74
1070
     0
1070
    77
1070
     1
1070
    78
1070
     8
1070
    79
1070
     2
1070
   140
1040
3.5
1070
   141
1040
1.5
1070
   146
1040
0.5
1070
   147
1040
1.5
1070
   172
1070
     1
1070
   178
1070
     1
1070
   179
1070
     2
1070
   271
1070
     2
1070
   272
1070
     2
1070
   284
1070
     8
1070
   285
1070
     8
1070
   286
1070
     8
1002
}
  0
ENDSEC
  0
SECTION
  2
OBJECTS
  0
DICTIONARY
  5
C
330
0
100
AcDbDictionary
281
     1
  3
ACAD_COLOR
350
DF
  3
ACAD_GROUP
350
D
  3
ACAD_LAYOUT
350
19
  3
ACAD_MATERIAL
350
DE
  3
ACAD_MLINESTYLE
350
16
  3
ACAD_PLOTSETTINGS
350
18
  3
ACAD_PLOTSTYLENAME
350
E
  3
AcDbVariableDictionary
350
EA
  0
DICTIONARY
  5
A0
330
1E
100
AcDbDictionary
280
     1
281
     1
  3
ACAD_LAYOUTSELFREF
360
D4
  0
DICTIONARY
  5
A2
330
1A
100
AcDbDictionary
280
     1
281
     1
  3
ACAD_LAYOUTSELFREF
360
D3
  0
DICTIONARY
  5
DF
102
{ACAD_REACTORS
330
C
102
}
330
C
100
AcDbDictionary
281
     1
  0
DICTIONARY
  5
D
102
{ACAD_REACTORS
330
C
102
}
330
C
100
AcDbDictionary
281
     1
  0
DICTIONARY
  5
19
102
{ACAD_REACTORS
330
C
102
}
330
C
100
AcDbDictionary
281
     1
  3
Layout1
350
1D
  3
Model
350
21
  0
DICTIONARY
  5
DE
102
{ACAD_REACTORS
330
C
102
}
330
C
100
AcDbDictionary
281
     1
  0
DICTIONARY
  5
16
102
{ACAD_REACTORS
330
C
102
}
330
C
100
AcDbDictionary
281
     1
  3
Standard
350
17
  0
DICTIONARY
  5
18
102
{ACAD_REACTORS
330
C
102
}
330
C
100
AcDbDictionary
281
     1
  0
ACDBDICTIONARYWDFLT
  5
E
102
{ACAD_REACTORS
330
C
102
}
330
C
100
AcDbDictionary
281
     1
  3
Normal
350
F
100
AcDbDictionaryWithDefault
340
F
  0
DICTIONARY
  5
EA
102
{ACAD_REACTORS
330
C
102
}
330
C
100
AcDbDictionary
281
     1
  3
DIMASSOC
350
EB
  3
PROJECTNAME
350
EC
  0
XRECORD
  5
D4
102
{ACAD_REACTORS
330
A0
102
}
330
A0
100
AcDbXrecord
280
     1
340
1E
  0
XRECORD
  5
D3
102
{ACAD_REACTORS
330
A2
102
}
330
A2
100
AcDbXrecord
280
     1
340
1A
  0
LAYOUT
  5
1D
102
{ACAD_REACTORS
330
19
102
}
330
19
100
AcDbPlotSettings
  1

  2
\\NT_WORK01\HP LaserJet 5000 PCL 6
  4

  6

 40
0.0
 41
0.0
 42
0.0
 43
0.0
 44
0.0
 45
0.0
 46
0.0
 47
0.0
 48
0.0
 49
0.0
140
0.0
141
0.0
142
1.0
143
1.0
 70
   688
 72
     0
 73
     0
 74
     5
  7

 75
    16
147
1.0
 76
     0
 77
     2
 78
   300
148
0.0
149
0.0
100
AcDbLayout
  1
Layout1
 70
     0
 71
     1
 10
0.0
 20
0.0
 11
12.0
 21
9.0
 12
0.0
 22
0.0
 32
0.0
 14
1.000000000000000E+20
 24
1.000000000000000E+20
 34
1.000000000000000E+20
 15
-1.000000000000000E+20
 25
-1.000000000000000E+20
 35
-1.000000000000000E+20
146
0.0
 13
0.0
 23
0.0
 33
0.0
 16
1.0
 26
0.0
 36
0.0
 17
0.0
 27
1.0
 37
0.0
 76
     0
330
1A
  0
LAYOUT
  5
21
102
{ACAD_REACTORS
330
19
102
}
330
19
100
AcDbPlotSettings
  1

  2
none_device
  4
Letter_(8.50_x_11.00_Inches)
  6

 40
6.349999904632568
 41
6.349999904632568
 42
6.350006103515625
 43
6.350006103515625
 44
215.8999938964844
 45
279.3999938964844
 46
0.0
 47
0.0
 48
0.0
 49
0.0
140
0.0
141
0.0
142
1.0
143
1.0
 70
 11952
 72
     0
 73
     1
 74
     0
  7

 75
     0
147
1.0
 76
     0
 77
     2
 78
   300
148
2271.414708139444
149
61.61456921241196
100
AcDbLayout
  1
Model
 70
     1
 71
     0
 10
0.0
 20
0.0
 11
12.0
 21
9.0
 12
0.0
 22
0.0
 32
0.0
 14
0.0
 24
0.0
 34
0.0
 15
0.0
 25
0.0
 35
0.0
146
0.0
 13
0.0
 23
0.0
 33
0.0
 16
1.0
 26
0.0
 36
0.0
 17
0.0
 27
1.0
 37
0.0
 76
     0
330
1E
  0
MLINESTYLE
  5
17
102
{ACAD_REACTORS
330
16
102
}
330
16
100
AcDbMlineStyle
  2
STANDARD
 70
     0
  3

 62
   256
 51
90.0
 52
90.0
 71
     2
 49
0.5
 62
   256
  6
BYLAYER
 49
-0.5
 62
   256
  6
BYLAYER
  0
ACDBPLACEHOLDER
  5
F
102
{ACAD_REACTORS
330
E
102
}
330
E
  0
DICTIONARYVAR
  5
EB
102
{ACAD_REACTORS
330
EA
102
}
330
EA
100
DictionaryVariables
280
     0
  1
1
  0
DICTIONARYVAR
  5
EC
102
{ACAD_REACTORS
330
EA
102
}
330
EA
100
DictionaryVariables
280
     0
  1

  0
ENDSEC
  0
EOF
