  0
SECTION
  2
HEADER
  9
$ACADVER
  1
AC1027
  9
$ACADMAINTVER
 70
   125
  9
$DWGCODEPAGE
  3
ANSI_1252
  9
$LASTSAVEDBY
  1
i.haase
  9
$REQUIREDVERSIONS
160
                 0
  9
$INSBASE
 10
0.0
 20
0.0
 30
0.0
  9
$EXTMIN
 10
0.0
 20
-0.0000000000001137
 30
0.0
  9
$EXTMAX
 10
840.0000000000002
 20
594.0
 30
0.0
  9
$LIMMIN
 10
0.0
 20
0.0
  9
$LIMMAX
 10
840.0000000000002
 20
593.9999999999998
  9
$ORTHOMODE
 70
     1
  9
$REGENMODE
 70
     1
  9
$FILLMODE
 70
     1
  9
$QTEXTMODE
 70
     0
  9
$MIRRTEXT
 70
     1
  9
$LTSCALE
 40
20.0
  9
$ATTMODE
 70
     1
  9
$TEXTSIZE
 40
3.5
  9
$TRACEWID
 40
1.0
  9
$TEXTSTYLE
  7
STANDARD
  9
$CLAYER
  8
VOLL
  9
$CELTYPE
  6
ByLayer
  9
$CECOLOR
 62
   256
  9
$CELTSCALE
 40
1.0
  9
$DISPSILH
 70
     0
  9
$DIMSCALE
 40
2.0
  9
$DIMASZ
 40
3.5
  9
$DIMEXO
 40
1.0
  9
$DIMDLI
 40
7.0
  9
$DIMRND
 40
0.0
  9
$DIMDLE
 40
0.0
  9
$DIMEXE
 40
1.0
  9
$DIMTP
 40
0.0
  9
$DIMTM
 40
0.0
  9
$DIMTXT
 40
3.5
  9
$DIMCEN
 40
1.5
  9
$DIMTSZ
 40
0.0
  9
$DIMTOL
 70
     0
  9
$DIMLIM
 70
     0
  9
$DIMTIH
 70
     0
  9
$DIMTOH
 70
     0
  9
$DIMSE1
 70
     0
  9
$DIMSE2
 70
     0
  9
$DIMTAD
 70
     1
  9
$DIMZIN
 70
     8
  9
$DIMBLK
  1

  9
$DIMASO
 70
     1
  9
$DIMSHO
 70
     0
  9
$DIMPOST
  1

  9
$DIMAPOST
  1

  9
$DIMALT
 70
     0
  9
$DIMALTD
 70
     2
  9
$DIMALTF
 40
25.4
  9
$DIMLFAC
 40
1.0
  9
$DIMTOFL
 70
     1
  9
$DIMTVP
 40
0.0
  9
$DIMTIX
 70
     0
  9
$DIMSOXD
 70
     0
  9
$DIMSAH
 70
     0
  9
$DIMBLK1
  1

  9
$DIMBLK2
  1

  9
$DIMSTYLE
  2
Standard
  9
$DIMCLRD
 70
     0
  9
$DIMCLRE
 70
     0
  9
$DIMCLRT
 70
     1
  9
$DIMTFAC
 40
0.5142857142857144
  9
$DIMGAP
 40
1.5
  9
$DIMJUST
 70
     0
  9
$DIMSD1
 70
     0
  9
$DIMSD2
 70
     0
  9
$DIMTOLJ
 70
     1
  9
$DIMTZIN
 70
     8
  9
$DIMALTZ
 70
     8
  9
$DIMALTTZ
 70
     8
  9
$DIMUPT
 70
     0
  9
$DIMDEC
 70
     2
  9
$DIMTDEC
 70
     2
  9
$DIMALTU
 70
     2
  9
$DIMALTTD
 70
     2
  9
$DIMTXSTY
  7
STANDARD
  9
$DIMAUNIT
 70
     0
  9
$DIMADEC
 70
     2
  9
$DIMALTRND
 40
0.0
  9
$DIMAZIN
 70
     2
  9
$DIMDSEP
 70
    46
  9
$DIMATFIT
 70
     3
  9
$DIMFRAC
 70
     0
  9
$DIMLDRBLK
  1

  9
$DIMLUNIT
 70
     2
  9
$DIMLWD
 70
    -2
  9
$DIMLWE
 70
    -2
  9
$DIMTMOVE
 70
     0
  9
$DIMFXL
 40
1.0
  9
$DIMFXLON
 70
     0
  9
$DIMJOGANG
 40
0.7853981633974483
  9
$DIMTFILL
 70
     0
  9
$DIMTFILLCLR
 70
     0
  9
$DIMARCSYM
 70
     0
  9
$DIMLTYPE
  6

  9
$DIMLTEX1
  6

  9
$DIMLTEX2
  6

  9
$DIMTXTDIRECTION
 70
     0
  9
$LUNITS
 70
     2
  9
$LUPREC
 70
     2
  9
$SKETCHINC
 40
1.0
  9
$FILLETRAD
 40
0.0
  9
$AUNITS
 70
     0
  9
$AUPREC
 70
     0
  9
$MENU
  1
ACAD
  9
$ELEVATION
 40
0.0
  9
$PELEVATION
 40
0.0
  9
$THICKNESS
 40
0.0
  9
$LIMCHECK
 70
     0
  9
$CHAMFERA
 40
0.0
  9
$CHAMFERB
 40
0.0
  9
$CHAMFERC
 40
0.0
  9
$CHAMFERD
 40
0.0
  9
$SKPOLY
 70
     0
  9
$TDCREATE
 40
2455397.867048611
  9
$TDUCREATE
 40
2455397.783726505
  9
$TDUPDATE
 40
2458281.479328704
  9
$TDUUPDATE
 40
2458281.395995371
  9
$TDINDWG
 40
0.0723402546
  9
$TDUSRTIMER
 40
0.0723402546
  9
$USRTIMER
 70
     1
  9
$ANGBASE
 50
0.0
  9
$ANGDIR
 70
     0
  9
$PDMODE
 70
     0
  9
$PDSIZE
 40
0.0
  9
$PLINEWID
 40
0.0
  9
$SPLFRAME
 70
     0
  9
$SPLINETYPE
 70
     6
  9
$SPLINESEGS
 70
     8
  9
$HANDSEED
  5
1A74
  9
$SURFTAB1
 70
     6
  9
$SURFTAB2
 70
     6
  9
$SURFTYPE
 70
     6
  9
$SURFU
 70
     6
  9
$SURFV
 70
     6
  9
$UCSBASE
  2

  9
$UCSNAME
  2

  9
$UCSORG
 10
0.0
 20
0.0
 30
0.0
  9
$UCSXDIR
 10
1.0
 20
0.0
 30
0.0
  9
$UCSYDIR
 10
0.0
 20
1.0
 30
0.0
  9
$UCSORTHOREF
  2

  9
$UCSORTHOVIEW
 70
     0
  9
$UCSORGTOP
 10
0.0
 20
0.0
 30
0.0
  9
$UCSORGBOTTOM
 10
0.0
 20
0.0
 30
0.0
  9
$UCSORGLEFT
 10
0.0
 20
0.0
 30
0.0
  9
$UCSORGRIGHT
 10
0.0
 20
0.0
 30
0.0
  9
$UCSORGFRONT
 10
0.0
 20
0.0
 30
0.0
  9
$UCSORGBACK
 10
0.0
 20
0.0
 30
0.0
  9
$PUCSBASE
  2

  9
$PUCSNAME
  2

  9
$PUCSORG
 10
0.0
 20
0.0
 30
0.0
  9
$PUCSXDIR
 10
1.0
 20
0.0
 30
0.0
  9
$PUCSYDIR
 10
0.0
 20
1.0
 30
0.0
  9
$PUCSORTHOREF
  2

  9
$PUCSORTHOVIEW
 70
     0
  9
$PUCSORGTOP
 10
0.0
 20
0.0
 30
0.0
  9
$PUCSORGBOTTOM
 10
0.0
 20
0.0
 30
0.0
  9
$PUCSORGLEFT
 10
0.0
 20
0.0
 30
0.0
  9
$PUCSORGRIGHT
 10
0.0
 20
0.0
 30
0.0
  9
$PUCSORGFRONT
 10
0.0
 20
0.0
 30
0.0
  9
$PUCSORGBACK
 10
0.0
 20
0.0
 30
0.0
  9
$USERI1
 70
     0
  9
$USERI2
 70
     0
  9
$USERI3
 70
     0
  9
$USERI4
 70
     0
  9
$USERI5
 70
     0
  9
$USERR1
 40
0.0
  9
$USERR2
 40
0.0
  9
$USERR3
 40
0.0
  9
$USERR4
 40
0.0
  9
$USERR5
 40
0.0
  9
$WORLDVIEW
 70
     1
  9
$SHADEDGE
 70
     3
  9
$SHADEDIF
 70
    70
  9
$TILEMODE
 70
     1
  9
$MAXACTVP
 70
    16
  9
$PINSBASE
 10
0.0
 20
0.0
 30
0.0
  9
$PLIMCHECK
 70
     0
  9
$PEXTMIN
 10
1.000000000000000E+20
 20
1.000000000000000E+20
 30
1.000000000000000E+20
  9
$PEXTMAX
 10
-1.000000000000000E+20
 20
-1.000000000000000E+20
 30
-1.000000000000000E+20
  9
$PLIMMIN
 10
0.0
 20
0.0
  9
$PLIMMAX
 10
12.0
 20
9.0
  9
$UNITMODE
 70
     0
  9
$VISRETAIN
 70
     0
  9
$PLINEGEN
 70
     0
  9
$PSLTSCALE
 70
     0
  9
$TREEDEPTH
 70
  3020
  9
$CMLSTYLE
  2
Standard
  9
$CMLJUST
 70
     0
  9
$CMLSCALE
 40
1.0
  9
$PROXYGRAPHICS
 70
     1
  9
$MEASUREMENT
 70
     0
  9
$CELWEIGHT
370
    -1
  9
$ENDCAPS
280
     0
  9
$JOINSTYLE
280
     0
  9
$LWDISPLAY
290
     0
  9
$INSUNITS
 70
     0
  9
$HYPERLINKBASE
  1

  9
$STYLESHEET
  1

  9
$XEDIT
290
     1
  9
$CEPSNTYPE
380
     0
  9
$PSTYLEMODE
290
     1
  9
$FINGERPRINTGUID
  2
{D68B0D0D-A558-11D7-B632-000102183313}
  9
$VERSIONGUID
  2
{A0778ED9-DCF7-4BAA-A527-CEF744D9A586}
  9
$EXTNAMES
290
     1
  9
$PSVPSCALE
 40
0.0
  9
$OLESTARTUP
290
     0
  9
$SORTENTS
280
   127
  9
$INDEXCTL
280
     0
  9
$HIDETEXT
280
     0
  9
$XCLIPFRAME
280
     2
  9
$HALOGAP
280
     0
  9
$OBSCOLOR
 70
   257
  9
$OBSLTYPE
280
     0
  9
$INTERSECTIONDISPLAY
280
     0
  9
$INTERSECTIONCOLOR
 70
   257
  9
$DIMASSOC
280
     1
  9
$PROJECTNAME
  1

  9
$CAMERADISPLAY
290
     0
  9
$LENSLENGTH
 40
50.0
  9
$CAMERAHEIGHT
 40
0.0
  9
$STEPSPERSEC
 40
2.0
  9
$STEPSIZE
 40
6.0
  9
$3DDWFPREC
 40
2.0
  9
$PSOLWIDTH
 40
0.25
  9
$PSOLHEIGHT
 40
4.0
  9
$LOFTANG1
 40
1.570796326794896
  9
$LOFTANG2
 40
1.570796326794896
  9
$LOFTMAG1
 40
0.0
  9
$LOFTMAG2
 40
0.0
  9
$LOFTPARAM
 70
     7
  9
$LOFTNORMALS
280
     1
  9
$LATITUDE
 40
37.795
  9
$LONGITUDE
 40
-122.394
  9
$NORTHDIRECTION
 40
0.0
  9
$TIMEZONE
 70
 -8000
  9
$LIGHTGLYPHDISPLAY
280
     1
  9
$TILEMODELIGHTSYNCH
280
     1
  9
$CMATERIAL
347
19F7
  9
$SOLIDHIST
280
     0
  9
$SHOWHIST
280
     1
  9
$DWFFRAME
280
     2
  9
$DGNFRAME
280
     0
  9
$REALWORLDSCALE
290
     1
  9
$INTERFERECOLOR
 62
     1
  9
$INTERFEREOBJVS
345
1A19
  9
$INTERFEREVPVS
346
1A16
  9
$CSHADOW
280
     0
  9
$SHADOWPLANELOCATION
 40
0.0
  0
ENDSEC
  0
SECTION
  2
CLASSES
  0
CLASS
  1
ACDBDICTIONARYWDFLT
  2
AcDbDictionaryWithDefault
  3
ObjectDBX Classes
 90
        0
 91
        1
280
     0
281
     0
  0
CLASS
  1
DICTIONARYVAR
  2
AcDbDictionaryVar
  3
ObjectDBX Classes
 90
        0
 91
       11
280
     0
281
     0
  0
CLASS
  1
MATERIAL
  2
AcDbMaterial
  3
ObjectDBX Classes
 90
     1153
 91
        3
280
     0
281
     0
  0
CLASS
  1
VISUALSTYLE
  2
AcDbVisualStyle
  3
ObjectDBX Classes
 90
     4095
 91
       24
280
     0
281
     0
  0
CLASS
  1
TABLESTYLE
  2
AcDbTableStyle
  3
ObjectDBX Classes
 90
     4095
 91
        1
280
     0
281
     0
  0
CLASS
  1
SCALE
  2
AcDbScale
  3
ObjectDBX Classes
 90
     1153
 91
       17
280
     0
281
     0
  0
CLASS
  1
MLEADERSTYLE
  2
AcDbMLeaderStyle
  3
ACDB_MLEADERSTYLE_CLASS
 90
     4095
 91
        1
280
     0
281
     0
  0
CLASS
  1
ACDBSECTIONVIEWSTYLE
  2
AcDbSectionViewStyle
  3
ObjectDBX Classes
 90
     1025
 91
        1
280
     0
281
     0
  0
CLASS
  1
ACDBDETAILVIEWSTYLE
  2
AcDbDetailViewStyle
  3
ObjectDBX Classes
 90
     1025
 91
        1
280
     0
281
     0
  0
CLASS
  1
EXACXREFPANELOBJECT
  2
ExAcXREFPanelObject
  3
EXAC_ESW
 90
     1025
 91
        2
280
     0
281
     0
  0
CLASS
  1
NPOCOLLECTION
  2
AcDbImpNonPersistentObjectsCollection
  3
ObjectDBX Classes
 90
     1153
 91
        1
280
     0
281
     0
  0
CLASS
  1
RAPIDRTRENDERSETTINGS
  2
AcDbRapidRTRenderSettings
  3
ObjectDBX Classes
 90
     1024
 91
        7
280
     0
281
     0
  0
CLASS
  1
CELLSTYLEMAP
  2
AcDbCellStyleMap
  3
ObjectDBX Classes
 90
     1152
 91
        1
280
     0
281
     0
  0
CLASS
  1
MENTALRAYRENDERSETTINGS
  2
AcDbMentalRayRenderSettings
  3
SCENEOE
 90
     1024
 91
        1
280
     0
281
     0
  0
ENDSEC
  0
SECTION
  2
TABLES
  0
TABLE
  2
VPORT
  5
8
330
0
100
AcDbSymbolTable
 70
     1
1001
ACAD
1000
DbSaveVer
1071
       51
  0
VPORT
  5
19EE
330
8
100
AcDbSymbolTableRecord
100
AcDbViewportTableRecord
  2
*Active
 70
     0
 10
0.0
 20
0.0
 11
1.0
 21
1.0
 12
525.3479636077498
 22
297.0000027661123
 13
0.0
 23
0.0
 14
1.0
 24
1.0
 15
10.0
 25
10.0
 16
0.0
 26
0.0
 36
1.0
 17
0.0
 27
0.0
 37
0.0
 40
495.2195589102335
 41
1.907090464547677
 42
50.0
 43
0.0
 44
0.0
 50
0.0
 51
0.0
 71
     0
 72
  1500
 73
     1
 74
     0
 75
     0
 76
     0
 77
     0
 78
     0
281
     0
 65
     1
110
0.0
120
0.0
130
0.0
111
1.0
121
0.0
131
0.0
112
0.0
122
1.0
132
0.0
 79
     0
146
0.0
348
1A15
 60
     3
 61
     5
292
     1
282
     1
141
0.0
142
0.0
 63
   250
421
  3355443
1001
ACAD_NAV_VCDISPLAY
1070
     3
  0
ENDTAB
  0
TABLE
  2
LTYPE
  5
5
330
0
100
AcDbSymbolTable
 70
     2
  0
LTYPE
  5
13
330
5
100
AcDbSymbolTableRecord
100
AcDbLinetypeTableRecord
  2
ByBlock
 70
     0
  3

 72
    65
 73
     0
 40
0.0
  0
LTYPE
  5
14
330
5
100
AcDbSymbolTableRecord
100
AcDbLinetypeTableRecord
  2
ByLayer
 70
     0
  3

 72
    65
 73
     0
 40
0.0
  0
LTYPE
  5
15
330
5
100
AcDbSymbolTableRecord
100
AcDbLinetypeTableRecord
  2
Continuous
 70
     0
  3
Solid line
 72
    65
 73
     0
 40
0.0
  0
LTYPE
  5
25
330
5
100
AcDbSymbolTableRecord
100
AcDbLinetypeTableRecord
  2
STRICHPUNKT
 70
     0
  3
__ . __ . __ . __ . __ . __ . __ . __ . __ . __
 72
    65
 73
     4
 40
1.0
 49
0.5
 74
     0
 49
-0.25
 74
     0
 49
0.0
 74
     0
 49
-0.25
 74
     0
  0
ENDTAB
  0
TABLE
  2
LAYER
  5
2
330
0
100
AcDbSymbolTable
 70
     9
  0
LAYER
  5
10
102
{ACAD_XDICTIONARY
360
1A4F
102
}
330
2
100
AcDbSymbolTableRecord
100
AcDbLayerTableRecord
  2
0
 70
     0
 62
     7
  6
Continuous
370
    -3
390
F
347
1A07
348
0
  0
LAYER
  5
2B
102
{ACAD_XDICTIONARY
360
1A51
102
}
330
2
100
AcDbSymbolTableRecord
100
AcDbLayerTableRecord
  2
VOLL
 70
     0
 62
     1
  6
Continuous
370
    -3
390
F
347
1A07
348
0
  0
LAYER
  5
2C
102
{ACAD_XDICTIONARY
360
1A53
102
}
330
2
100
AcDbSymbolTableRecord
100
AcDbLayerTableRecord
  2
HILF
 70
     0
 62
     2
  6
Continuous
370
    -3
390
F
347
1A07
348
0
  0
LAYER
  5
2D
102
{ACAD_XDICTIONARY
360
1A55
102
}
330
2
100
AcDbSymbolTableRecord
100
AcDbLayerTableRecord
  2
MITTEL
 70
     0
 62
     2
  6
STRICHPUNKT
370
    -3
390
F
347
1A07
348
0
  0
LAYER
  5
2F
102
{ACAD_XDICTIONARY
360
1A57
102
}
330
2
100
AcDbSymbolTableRecord
100
AcDbLayerTableRecord
  2
BEM
 70
     0
 62
     7
  6
Continuous
370
    -3
390
F
347
1A07
348
0
  0
LAYER
  5
30
102
{ACAD_XDICTIONARY
360
1A59
102
}
330
2
100
AcDbSymbolTableRecord
100
AcDbLayerTableRecord
  2
STEMPEL
 70
     0
 62
     3
  6
Continuous
370
    -3
390
F
347
1A07
348
0
  0
LAYER
  5
33
102
{ACAD_XDICTIONARY
360
1A5B
102
}
330
2
100
AcDbSymbolTableRecord
100
AcDbLayerTableRecord
  2
TEXT
 70
     0
 62
     7
  6
Continuous
370
    -3
390
F
347
1A07
348
0
  0
LAYER
  5
239
102
{ACAD_XDICTIONARY
360
1A5D
102
}
330
2
100
AcDbSymbolTableRecord
100
AcDbLayerTableRecord
  2
SCHRAFF
 70
     0
 62
     7
  6
Continuous
370
    -3
390
F
347
1A07
348
0
  0
LAYER
  5
23A
330
2
100
AcDbSymbolTableRecord
100
AcDbLayerTableRecord
  2
DEFPOINTS
 70
     0
 62
     7
  6
Continuous
290
     0
370
    -3
390
F
347
1A07
348
0
  0
ENDTAB
  0
TABLE
  2
STYLE
  5
3
330
0
100
AcDbSymbolTable
 70
     2
  0
STYLE
  5
11
330
3
100
AcDbSymbolTableRecord
100
AcDbTextStyleTableRecord
  2
STANDARD
 70
     0
 40
0.0
 41
0.8
 50
0.0
 71
     0
 42
3.5
  3
simplex.shx
  4

  0
STYLE
  5
24
330
3
100
AcDbSymbolTableRecord
100
AcDbTextStyleTableRecord
  2
GREEKS
 70
     0
 40
0.0
 41
0.8
 50
0.0
 71
     0
 42
2.5
  3
SIMPLEX.shx
  4

  0
ENDTAB
  0
TABLE
  2
VIEW
  5
6
330
0
100
AcDbSymbolTable
 70
     0
  0
ENDTAB
  0
TABLE
  2
UCS
  5
7
330
0
100
AcDbSymbolTable
 70
     0
  0
ENDTAB
  0
TABLE
  2
APPID
  5
9
330
0
100
AcDbSymbolTable
 70
     2
  0
APPID
  5
12
330
9
100
AcDbSymbolTableRecord
100
AcDbRegAppTableRecord
  2
ACAD
 70
     0
  0
APPID
  5
1A68
330
9
100
AcDbSymbolTableRecord
100
AcDbRegAppTableRecord
  2
ACAD_NAV_VCDISPLAY
 70
     0
  0
ENDTAB
  0
TABLE
  2
DIMSTYLE
  5
A
330
0
100
AcDbSymbolTable
 70
     1
100
AcDbDimStyleTable
 71
     1
340
A2
  0
DIMSTYLE
105
A2
102
{ACAD_REACTORS
330
1533
330
1501
330
14D5
330
13F1
102
}
330
A
100
AcDbSymbolTableRecord
100
AcDbDimStyleTableRecord
  2
Standard
 70
     0
340
11
  0
ENDTAB
  0
TABLE
  2
BLOCK_RECORD
  5
1
330
0
100
AcDbSymbolTable
 70
    13
  0
BLOCK_RECORD
  5
1E
102
{ACAD_XDICTIONARY
360
DB
102
}
330
1
100
AcDbSymbolTableRecord
100
AcDbBlockTableRecord
  2
*Model_Space
340
21
 70
     0
280
     1
281
     0
  0
BLOCK_RECORD
  5
1A
102
{ACAD_XDICTIONARY
360
DD
102
}
330
1
100
AcDbSymbolTableRecord
100
AcDbBlockTableRecord
  2
*Paper_Space
340
1D
 70
     0
280
     1
281
     0
  0
BLOCK_RECORD
  5
22
330
1
100
AcDbSymbolTableRecord
100
AcDbBlockTableRecord
  2
LOGO
340
0
102
{BLKREFS
331
56
102
}
 70
     0
280
     1
281
     0
  0
BLOCK_RECORD
  5
23
330
1
100
AcDbSymbolTableRecord
100
AcDbBlockTableRecord
  2
LORO
340
0
102
{BLKREFS
331
9B
102
}
 70
     0
280
     1
281
     0
  0
BLOCK_RECORD
  5
11D1
330
1
100
AcDbSymbolTableRecord
100
AcDbBlockTableRecord
  2
8DI931D
340
0
102
{BLKREFS
331
1472
331
157B
102
}
 70
     0
280
     1
281
     0
  0
BLOCK_RECORD
  5
157E
330
1
100
AcDbSymbolTableRecord
100
AcDbBlockTableRecord
  2
*D3
340
0
 70
     0
280
     1
281
     0
  0
BLOCK_RECORD
  5
158B
330
1
100
AcDbSymbolTableRecord
100
AcDbBlockTableRecord
  2
*D4
340
0
 70
     0
280
     1
281
     0
  0
BLOCK_RECORD
  5
15B2
330
1
100
AcDbSymbolTableRecord
100
AcDbBlockTableRecord
  2
*D5
340
0
 70
     0
280
     1
281
     0
  0
BLOCK_RECORD
  5
15BF
330
1
100
AcDbSymbolTableRecord
100
AcDbBlockTableRecord
  2
*D6
340
0
 70
     0
280
     1
281
     0
  0
BLOCK_RECORD
  5
1652
330
1
100
AcDbSymbolTableRecord
100
AcDbBlockTableRecord
  2
*X7
340
0
102
{BLKREFS
331
1882
102
}
 70
     0
280
     1
281
     0
  0
BLOCK_RECORD
  5
1670
330
1
100
AcDbSymbolTableRecord
100
AcDbBlockTableRecord
  2
*X8
340
0
102
{BLKREFS
331
184D
102
}
 70
     0
280
     1
281
     0
  0
BLOCK_RECORD
  5
167F
330
1
100
AcDbSymbolTableRecord
100
AcDbBlockTableRecord
  2
*X9
340
0
102
{BLKREFS
331
184A
102
}
 70
     0
280
     1
281
     0
  0
BLOCK_RECORD
  5
16B4
330
1
100
AcDbSymbolTableRecord
100
AcDbBlockTableRecord
  2
*X10
340
0
102
{BLKREFS
331
1883
102
}
 70
     0
280
     1
281
     0
  0
BLOCK_RECORD
  5
16EF
330
1
100
AcDbSymbolTableRecord
100
AcDbBlockTableRecord
  2
*X11
340
0
102
{BLKREFS
331
1817
102
}
 70
     0
280
     1
281
     0
  0
BLOCK_RECORD
  5
16FB
330
1
100
AcDbSymbolTableRecord
100
AcDbBlockTableRecord
  2
*X12
340
0
102
{BLKREFS
331
17FF
102
}
 70
     0
280
     1
281
     0
  0
ENDTAB
  0
ENDSEC
  0
SECTION
  2
BLOCKS
  0
BLOCK
  5
37
330
1E
100
AcDbEntity
  8
0
100
AcDbBlockBegin
  2
*Model_Space
 70
     0
 10
0.0
 20
0.0
 30
0.0
  3
*Model_Space
  1

  0
ENDBLK
  5
38
330
1E
100
AcDbEntity
  8
0
100
AcDbBlockEnd
  0
BLOCK
  5
35
330
1A
100
AcDbEntity
 67
     1
  8
0
100
AcDbBlockBegin
  2
*Paper_Space
 70
     0
 10
0.0
 20
0.0
 30
0.0
  3
*Paper_Space
  1

  0
ENDBLK
  5
36
330
1A
100
AcDbEntity
 67
     1
  8
0
100
AcDbBlockEnd
  0
BLOCK
  5
39
330
22
100
AcDbEntity
  8
0
100
AcDbBlockBegin
  2
LOGO
 70
     0
 10
0.0
 20
0.0
 30
0.0
  3
LOGO
  1

  0
ARC
  5
3A
330
22
100
AcDbEntity
  8
0
100
AcDbCircle
 10
11.59973089678112
 20
-9.271599258481501
 30
0.0
 40
4.5
100
AcDbArc
 50
270.0
 51
231.0575587310159
  0
LINE
  5
3B
330
22
100
AcDbEntity
  8
0
100
AcDbLine
 10
3.599730896781125
 20
-4.771599258481529
 30
0.0
 11
3.599730896781153
 21
-11.77159925848133
 31
0.0
  0
LINE
  5
3C
330
22
100
AcDbEntity
  8
0
100
AcDbLine
 10
2.599730896781125
 20
-4.771599258481529
 30
0.0
 11
2.599730896781153
 21
-11.77159925848133
 31
0.0
  0
CIRCLE
  5
3D
330
22
100
AcDbEntity
  8
0
100
AcDbCircle
 10
11.59973089678112
 20
-9.271599258481501
 30
0.0
 40
3.5
  0
ARC
  5
3E
330
22
100
AcDbEntity
  8
0
100
AcDbCircle
 10
31.59973089678115
 20
-9.271599258481472
 30
0.0
 40
4.5
100
AcDbArc
 50
270.0
 51
231.0575587310182
  0
LINE
  5
3F
330
22
100
AcDbEntity
  8
0
100
AcDbLine
 10
17.59973089678112
 20
-4.771599258481472
 30
0.0
 11
17.59973089678115
 21
-13.77159925848147
 31
0.0
  0
ARC
  5
40
330
22
100
AcDbEntity
  8
0
100
AcDbCircle
 10
22.59973089678116
 20
-7.271599258481472
 30
0.0
 40
2.5
100
AcDbArc
 50
293.1161887722295
 51
90.0
  0
CIRCLE
  5
41
330
22
100
AcDbEntity
  8
0
100
AcDbCircle
 10
31.59973089678115
 20
-9.271599258481472
 30
0.0
 40
3.5
  0
ARC
  5
42
330
22
100
AcDbEntity
  8
0
100
AcDbCircle
 10
4.599730896781153
 20
-11.77159925848133
 30
0.0
 40
1.0
100
AcDbArc
 50
180.0
 51
270.0
  0
ARC
  5
43
330
22
100
AcDbEntity
  8
0
100
AcDbCircle
 10
4.599730896781153
 20
-11.77159925848133
 30
0.0
 40
2.0
100
AcDbArc
 50
179.9999999999992
 51
270.0
  0
LINE
  5
44
330
22
100
AcDbEntity
  8
0
100
AcDbLine
 10
11.59973089678115
 20
-13.77159925848144
 30
0.0
 11
4.599730896781153
 21
-13.77159925848147
 31
0.0
  0
LINE
  5
45
330
22
100
AcDbEntity
  8
0
100
AcDbLine
 10
8.771303772034769
 20
-12.77159925848136
 30
0.0
 11
4.599730896781153
 21
-12.77159925848133
 31
0.0
  0
LINE
  5
46
330
22
100
AcDbEntity
  8
0
100
AcDbLine
 10
31.59973089678115
 20
-13.77159925848147
 30
0.0
 11
23.6715276665056
 21
-13.77159925848144
 31
0.0
  0
LINE
  5
47
330
22
100
AcDbEntity
  8
0
100
AcDbLine
 10
23.56565672307022
 20
-9.51278021337896
 30
0.0
 11
24.4388546544846
 21
-12.77159925848144
 31
0.0
  0
LINE
  5
48
330
22
100
AcDbEntity
  8
0
100
AcDbLine
 10
22.59973089678116
 20
-9.771599258481472
 30
0.0
 11
18.59973089678112
 21
-9.771599258481472
 31
0.0
  0
LINE
  5
49
330
22
100
AcDbEntity
  8
0
100
AcDbLine
 10
18.59973089678115
 20
-13.77159925848144
 30
0.0
 11
17.59973089678115
 21
-13.77159925848144
 31
0.0
  0
LINE
  5
4A
330
22
100
AcDbEntity
  8
0
100
AcDbLine
 10
18.59973089678115
 20
-9.771599258481472
 30
0.0
 11
18.59973089678115
 21
-13.77159925848144
 31
0.0
  0
LINE
  5
4B
330
22
100
AcDbEntity
  8
0
100
AcDbLine
 10
22.59973089678116
 20
-9.771599258481472
 30
0.0
 11
23.67152766650562
 21
-13.77159925848147
 31
0.0
  0
ARC
  5
4C
330
22
100
AcDbEntity
  8
0
100
AcDbCircle
 10
22.59973089678116
 20
-7.271599258481472
 30
0.0
 40
2.5
100
AcDbArc
 50
270.0
 51
270.0000000000007
  0
LINE
  5
4D
330
22
100
AcDbEntity
  8
0
100
AcDbLine
 10
28.77130377203494
 20
-12.77159925848147
 30
0.0
 11
24.43885465448463
 21
-12.77159925848144
 31
0.0
  0
LINE
  5
4E
330
22
100
AcDbEntity
  8
0
100
AcDbLine
 10
3.599730896781125
 20
-4.771599258481472
 30
0.0
 11
2.599730896781125
 21
-4.771599258481472
 31
0.0
  0
LINE
  5
4F
330
22
100
AcDbEntity
  8
0
100
AcDbLine
 10
22.59973089678116
 20
-8.771599258481472
 30
0.0
 11
18.59973089678115
 21
-8.771599258481472
 31
0.0
  0
LINE
  5
50
330
22
100
AcDbEntity
  8
0
100
AcDbLine
 10
22.59973089678116
 20
-5.771599258481472
 30
0.0
 11
18.59973089678115
 21
-5.771599258481472
 31
0.0
  0
LINE
  5
51
330
22
100
AcDbEntity
  8
0
100
AcDbLine
 10
22.59973089678116
 20
-4.771599258481472
 30
0.0
 11
17.59973089678115
 21
-4.771599258481472
 31
0.0
  0
LINE
  5
52
330
22
100
AcDbEntity
  8
0
100
AcDbLine
 10
18.59973089678115
 20
-5.771599258481472
 30
0.0
 11
18.59973089678115
 21
-8.771599258481472
 31
0.0
  0
ARC
  5
53
330
22
100
AcDbEntity
  8
0
100
AcDbCircle
 10
22.59973089678116
 20
-7.271599258481472
 30
0.0
 40
1.5
100
AcDbArc
 50
270.0
 51
90.0
  0
ENDBLK
  5
54
330
22
100
AcDbEntity
  8
0
100
AcDbBlockEnd
  0
BLOCK
  5
55
330
23
100
AcDbEntity
  8
0
100
AcDbBlockBegin
  2
LORO
 70
     0
 10
0.0
 20
0.0
 30
0.0
  3
LORO
  1

  0
INSERT
  5
56
330
23
100
AcDbEntity
  8
STEMPEL
100
AcDbBlockReference
  2
LOGO
 10
-1.748032802467321
 20
3.771489518552062
 30
0.0
  0
ENDBLK
  5
57
330
23
100
AcDbEntity
  8
0
100
AcDbBlockEnd
  0
BLOCK
  5
11D2
330
11D1
100
AcDbEntity
  8
0
100
AcDbBlockBegin
  2
8DI931D
 70
     0
 10
0.0
 20
0.0
 30
0.0
  3
8DI931D
  1

  0
LWPOLYLINE
  5
11D3
330
11D1
100
AcDbEntity
  8
STEMPEL
100
AcDbPolyline
 90
        6
 70
     1
 43
0.0
 10
-3.752776749732561
 20
6.5
 10
-7.505553499465122
 20
0.0
 10
-3.752776749732561
 20
-6.5
 10
3.752776749732561
 20
-6.5
 10
7.505553499465122
 20
0.0
 10
3.752776749732561
 20
6.5
  0
CIRCLE
  5
11D4
330
11D1
100
AcDbEntity
  8
STEMPEL
100
AcDbCircle
 10
0.0
 20
0.0
 30
0.0
 40
6.5
  0
ENDBLK
  5
11D5
330
11D1
100
AcDbEntity
  8
0
100
AcDbBlockEnd
  0
BLOCK
  5
1589
330
157E
100
AcDbEntity
  8
0
100
AcDbBlockBegin
  2
*D3
 70
     1
 10
0.0
 20
0.0
 30
0.0
  3
*D3
  1

  0
LINE
  5
19E5
330
157E
100
AcDbEntity
  8
BEM
 62
     0
440
 16777216
370
    -2
100
AcDbLine
 10
728.7128067205972
 20
169.7923954938967
 30
0.0
 11
728.7128067205972
 21
133.7817639622379
 31
0.0
  0
LINE
  5
19E6
330
157E
100
AcDbEntity
  8
BEM
 62
     0
440
 16777216
370
    -2
100
AcDbLine
 10
146.1895216404571
 20
176.0508402913028
 30
0.0
 11
146.1895216404571
 21
133.7817639622379
 31
0.0
  0
LINE
  5
19E7
330
157E
100
AcDbEntity
  8
BEM
 62
     0
440
 16777216
370
    -2
100
AcDbLine
 10
721.7128067205972
 20
135.7817639622379
 30
0.0
 11
153.1895216404571
 21
135.7817639622379
 31
0.0
  0
SOLID
  5
19E8
330
157E
100
AcDbEntity
  8
BEM
 62
     0
440
 16777216
100
AcDbTrace
 10
721.7128067205972
 20
136.9484306289046
 30
0.0
 11
721.7128067205972
 21
134.6150972955713
 31
0.0
 12
728.7128067205972
 22
135.7817639622379
 32
0.0
 13
728.7128067205972
 23
135.7817639622379
 33
0.0
  0
SOLID
  5
19E9
330
157E
100
AcDbEntity
  8
BEM
 62
     0
440
 16777216
100
AcDbTrace
 10
153.1895216404571
 20
136.9484306289046
 30
0.0
 11
153.1895216404571
 21
134.6150972955713
 31
0.0
 12
146.1895216404571
 22
135.7817639622379
 32
0.0
 13
146.1895216404571
 23
135.7817639622379
 33
0.0
  0
MTEXT
  5
19EA
330
157E
100
AcDbEntity
  8
BEM
 62
     1
440
 16777216
100
AcDbMText
 10
437.4511641805271
 20
142.2817639622379
 30
0.0
 40
7.0
 41
0.0
 46
0.0
 71
     5
 72
     1
  1
\A1;1500
 73
     1
 44
1.0
  0
POINT
  5
19EB
330
157E
100
AcDbEntity
  8
DEFPOINTS
 62
     0
440
 16777216
100
AcDbPoint
 10
728.7128067205972
 20
171.7923954938967
 30
0.0
  0
POINT
  5
19EC
330
157E
100
AcDbEntity
  8
DEFPOINTS
 62
     0
440
 16777216
100
AcDbPoint
 10
146.1895216404571
 20
178.0508402913028
 30
0.0
  0
POINT
  5
19ED
330
157E
100
AcDbEntity
  8
DEFPOINTS
 62
     0
440
 16777216
100
AcDbPoint
 10
146.1895216404571
 20
135.7817639622379
 30
0.0
  0
ENDBLK
  5
158A
330
157E
100
AcDbEntity
  8
0
100
AcDbBlockEnd
  0
BLOCK
  5
1596
330
158B
100
AcDbEntity
  8
0
100
AcDbBlockBegin
  2
*D4
 70
     1
 10
0.0
 20
0.0
 30
0.0
  3
*D4
  1

  0
LINE
  5
1623
330
158B
100
AcDbEntity
  8
BEM
 62
     0
440
 16777216
370
    -2
100
AcDbLine
 10
728.7128067205972
 20
169.7923954938967
 30
0.0
 11
728.7128067205972
 21
147.7817639622379
 31
0.0
  0
LINE
  5
1624
330
158B
100
AcDbEntity
  8
BEM
 62
     0
440
 16777216
370
    -2
100
AcDbLine
 10
568.7128067205971
 20
173.1674907912739
 30
0.0
 11
568.7128067205971
 21
147.7817639622379
 31
0.0
  0
LINE
  5
1625
330
158B
100
AcDbEntity
  8
BEM
 62
     0
440
 16777216
370
    -2
100
AcDbLine
 10
721.7128067205972
 20
149.7817639622379
 30
0.0
 11
575.7128067205972
 21
149.7817639622379
 31
0.0
  0
SOLID
  5
1626
330
158B
100
AcDbEntity
  8
BEM
 62
     0
440
 16777216
100
AcDbTrace
 10
721.7128067205972
 20
150.9484306289046
 30
0.0
 11
721.7128067205972
 21
148.6150972955713
 31
0.0
 12
728.7128067205972
 22
149.7817639622379
 32
0.0
 13
728.7128067205972
 23
149.7817639622379
 33
0.0
  0
SOLID
  5
1627
330
158B
100
AcDbEntity
  8
BEM
 62
     0
440
 16777216
100
AcDbTrace
 10
575.7128067205972
 20
150.9484306289046
 30
0.0
 11
575.7128067205972
 21
148.6150972955713
 31
0.0
 12
568.7128067205971
 22
149.7817639622379
 32
0.0
 13
568.7128067205971
 23
149.7817639622379
 33
0.0
  0
MTEXT
  5
1628
330
158B
100
AcDbEntity
  8
BEM
 62
     1
440
 16777216
100
AcDbMText
 10
648.7128067205972
 20
156.2817639622379
 30
0.0
 40
7.0
 41
0.0
 46
0.0
 71
     5
 72
     1
  1
\A1;160
 73
     1
 44
1.0
  0
POINT
  5
1629
330
158B
100
AcDbEntity
  8
DEFPOINTS
 62
     0
440
 16777216
100
AcDbPoint
 10
728.7128067205972
 20
171.7923954938967
 30
0.0
  0
POINT
  5
162A
330
158B
100
AcDbEntity
  8
DEFPOINTS
 62
     0
440
 16777216
100
AcDbPoint
 10
568.7128067205971
 20
175.1674907912739
 30
0.0
  0
POINT
  5
162B
330
158B
100
AcDbEntity
  8
DEFPOINTS
 62
     0
440
 16777216
100
AcDbPoint
 10
568.7128067205971
 20
149.7817639622379
 30
0.0
  0
ENDBLK
  5
1597
330
158B
100
AcDbEntity
  8
0
100
AcDbBlockEnd
  0
BLOCK
  5
15BD
330
15B2
100
AcDbEntity
  8
0
100
AcDbBlockBegin
  2
*D5
 70
     1
 10
0.0
 20
0.0
 30
0.0
  3
*D5
  1

  0
LINE
  5
162C
330
15B2
100
AcDbEntity
  8
BEM
 62
     0
440
 16777216
370
    -2
100
AcDbLine
 10
146.1895216404571
 20
176.0508402913028
 30
0.0
 11
146.1895216404571
 21
147.4807379664651
 31
0.0
  0
LINE
  5
162D
330
15B2
100
AcDbEntity
  8
BEM
 62
     0
440
 16777216
370
    -2
100
AcDbLine
 10
348.7128067205972
 20
172.550840291303
 30
0.0
 11
348.7128067205972
 21
147.4807379664651
 31
0.0
  0
LINE
  5
162E
330
15B2
100
AcDbEntity
  8
BEM
 62
     0
440
 16777216
370
    -2
100
AcDbLine
 10
153.1895216404571
 20
149.4807379664651
 30
0.0
 11
341.7128067205972
 21
149.4807379664651
 31
0.0
  0
SOLID
  5
162F
330
15B2
100
AcDbEntity
  8
BEM
 62
     0
440
 16777216
100
AcDbTrace
 10
153.1895216404571
 20
150.6474046331317
 30
0.0
 11
153.1895216404571
 21
148.3140712997984
 31
0.0
 12
146.1895216404571
 22
149.4807379664651
 32
0.0
 13
146.1895216404571
 23
149.4807379664651
 33
0.0
  0
SOLID
  5
1630
330
15B2
100
AcDbEntity
  8
BEM
 62
     0
440
 16777216
100
AcDbTrace
 10
341.7128067205972
 20
150.6474046331317
 30
0.0
 11
341.7128067205972
 21
148.3140712997984
 31
0.0
 12
348.7128067205972
 22
149.4807379664651
 32
0.0
 13
348.7128067205972
 23
149.4807379664651
 33
0.0
  0
MTEXT
  5
1631
330
15B2
100
AcDbEntity
  8
BEM
 62
     1
440
 16777216
100
AcDbMText
 10
247.4511641805271
 20
155.9807379664651
 30
0.0
 40
7.0
 41
0.0
 46
0.0
 71
     5
 72
     1
  1
\A1;620
 73
     1
 44
1.0
  0
POINT
  5
1632
330
15B2
100
AcDbEntity
  8
DEFPOINTS
 62
     0
440
 16777216
100
AcDbPoint
 10
146.1895216404571
 20
178.0508402913028
 30
0.0
  0
POINT
  5
1633
330
15B2
100
AcDbEntity
  8
DEFPOINTS
 62
     0
440
 16777216
100
AcDbPoint
 10
348.7128067205972
 20
174.550840291303
 30
0.0
  0
POINT
  5
1634
330
15B2
100
AcDbEntity
  8
DEFPOINTS
 62
     0
440
 16777216
100
AcDbPoint
 10
348.7128067205972
 20
149.4807379664651
 30
0.0
  0
ENDBLK
  5
15BE
330
15B2
100
AcDbEntity
  8
0
100
AcDbBlockEnd
  0
BLOCK
  5
15CA
330
15BF
100
AcDbEntity
  8
0
100
AcDbBlockBegin
  2
*D6
 70
     1
 10
0.0
 20
0.0
 30
0.0
  3
*D6
  1

  0
LINE
  5
1611
330
15BF
100
AcDbEntity
  8
BEM
 62
     0
440
 16777216
370
    -2
100
AcDbLine
 10
144.1895216404571
 20
178.0508402913028
 30
0.0
 11
124.9602040441913
 21
178.0508402913028
 31
0.0
  0
LINE
  5
1612
330
15BF
100
AcDbEntity
  8
BEM
 62
     0
440
 16777216
370
    -2
100
AcDbLine
 10
144.1895216404571
 20
311.0508402913031
 30
0.0
 11
124.9602040441913
 21
311.0508402913031
 31
0.0
  0
LINE
  5
1613
330
15BF
100
AcDbEntity
  8
BEM
 62
     0
440
 16777216
370
    -2
100
AcDbLine
 10
126.9602040441913
 20
185.0508402913028
 30
0.0
 11
126.9602040441913
 21
304.0508402913031
 31
0.0
  0
SOLID
  5
1614
330
15BF
100
AcDbEntity
  8
BEM
 62
     0
440
 16777216
100
AcDbTrace
 10
125.7935373775246
 20
185.0508402913028
 30
0.0
 11
128.1268707108579
 21
185.0508402913028
 31
0.0
 12
126.9602040441913
 22
178.0508402913028
 32
0.0
 13
126.9602040441913
 23
178.0508402913028
 33
0.0
  0
SOLID
  5
1615
330
15BF
100
AcDbEntity
  8
BEM
 62
     0
440
 16777216
100
AcDbTrace
 10
125.7935373775246
 20
304.0508402913031
 30
0.0
 11
128.1268707108579
 21
304.0508402913031
 31
0.0
 12
126.9602040441913
 22
311.0508402913031
 32
0.0
 13
126.9602040441913
 23
311.0508402913031
 33
0.0
  0
MTEXT
  5
1616
330
15BF
100
AcDbEntity
  8
BEM
 62
     1
440
 16777216
100
AcDbMText
 10
120.4602040441912
 20
244.550840291303
 30
0.0
 40
7.0
 41
0.0
 46
0.0
 71
     5
 72
     1
  1
\A1;%%c133
 11
0.0000000000000001
 21
1.0
 31
0.0
 73
     1
 44
1.0
  0
POINT
  5
1617
330
15BF
100
AcDbEntity
  8
DEFPOINTS
 62
     0
440
 16777216
100
AcDbPoint
 10
146.1895216404571
 20
178.0508402913028
 30
0.0
  0
POINT
  5
1618
330
15BF
100
AcDbEntity
  8
DEFPOINTS
 62
     0
440
 16777216
100
AcDbPoint
 10
146.1895216404571
 20
311.0508402913031
 30
0.0
  0
POINT
  5
1619
330
15BF
100
AcDbEntity
  8
DEFPOINTS
 62
     0
440
 16777216
100
AcDbPoint
 10
126.9602040441913
 20
311.0508402913031
 30
0.0
  0
ENDBLK
  5
15CB
330
15BF
100
AcDbEntity
  8
0
100
AcDbBlockEnd
  0
BLOCK
  5
1653
330
1652
100
AcDbEntity
  8
0
100
AcDbBlockBegin
  2
*X7
 70
     1
 10
0.0
 20
0.0
 30
0.0
  3
*X7
  1

  0
LINE
  5
1654
330
1652
100
AcDbEntity
  8
0
 62
     0
100
AcDbLine
 10
291.1224192644115
 20
517.8077384129988
 30
0.0
 11
288.8620416766701
 21
520.0681160007402
 31
0.0
  0
LINE
  5
1655
330
1652
100
AcDbEntity
  8
0
 62
     0
100
AcDbLine
 10
290.5885462502022
 20
515.5131843024618
 30
0.0
 11
288.5668616367926
 21
517.5348689158714
 31
0.0
  0
LINE
  5
1656
330
1652
100
AcDbEntity
  8
0
 62
     0
100
AcDbLine
 10
289.6033182642901
 20
513.6699851636278
 30
0.0
 11
287.7979675569544
 21
515.4753358709634
 31
0.0
  0
LINE
  5
1657
330
1652
100
AcDbEntity
  8
0
 62
     0
100
AcDbLine
 10
288.2643788345836
 20
512.1804974685881
 30
0.0
 11
286.4913186765762
 21
513.9535576265955
 31
0.0
  0
LINE
  5
1658
330
1652
100
AcDbEntity
  8
0
 62
     0
100
AcDbLine
 10
286.5856769592675
 20
511.030772219158
 30
0.0
 11
284.6923747402856
 21
512.9240744381398
 31
0.0
  0
LINE
  5
1659
330
1652
100
AcDbEntity
  8
0
 62
     0
100
AcDbLine
 10
284.5143788053091
 20
510.2736432483702
 30
0.0
 11
282.2199060529391
 21
512.5681160007402
 31
0.0
  0
LINE
  5
165A
330
1652
100
AcDbEntity
  8
0
 62
     0
100
AcDbLine
 10
281.8914789281929
 20
510.0681160007401
 30
0.0
 11
279.3914789281929
 21
512.5681160007402
 31
0.0
  0
LINE
  5
165B
330
1652
100
AcDbEntity
  8
0
 62
     0
100
AcDbLine
 10
279.0630518034467
 20
510.0681160007401
 30
0.0
 11
276.5630518034468
 21
512.5681160007402
 31
0.0
  0
LINE
  5
165C
330
1652
100
AcDbEntity
  8
0
 62
     0
100
AcDbLine
 10
276.2346246787005
 20
510.0681160007401
 30
0.0
 11
273.7346246787005
 21
512.5681160007402
 31
0.0
  0
LINE
  5
165D
330
1652
100
AcDbEntity
  8
0
 62
     0
100
AcDbLine
 10
273.4061975539543
 20
510.0681160007401
 30
0.0
 11
270.9061975539543
 21
512.5681160007402
 31
0.0
  0
LINE
  5
165E
330
1652
100
AcDbEntity
  8
0
 62
     0
100
AcDbLine
 10
270.5777704292081
 20
510.0681160007401
 30
0.0
 11
268.0777704292081
 21
512.5681160007402
 31
0.0
  0
LINE
  5
165F
330
1652
100
AcDbEntity
  8
0
 62
     0
100
AcDbLine
 10
267.7493433044619
 20
510.0681160007401
 30
0.0
 11
265.2493433044619
 21
512.5681160007402
 31
0.0
  0
LINE
  5
1660
330
1652
100
AcDbEntity
  8
0
 62
     0
100
AcDbLine
 10
264.9209161797157
 20
510.0681160007401
 30
0.0
 11
262.4209161797158
 21
512.5681160007402
 31
0.0
  0
LINE
  5
1661
330
1652
100
AcDbEntity
  8
0
 62
     0
100
AcDbLine
 10
262.0924890549696
 20
510.0681160007401
 30
0.0
 11
259.5924890549696
 21
512.5681160007402
 31
0.0
  0
LINE
  5
1662
330
1652
100
AcDbEntity
  8
0
 62
     0
100
AcDbLine
 10
259.2640619302234
 20
510.0681160007401
 30
0.0
 11
256.7640619302234
 21
512.5681160007402
 31
0.0
  0
LINE
  5
1663
330
1652
100
AcDbEntity
  8
0
 62
     0
100
AcDbLine
 10
256.4356348054772
 20
510.0681160007401
 30
0.0
 11
253.9356348054772
 21
512.5681160007402
 31
0.0
  0
LINE
  5
1664
330
1652
100
AcDbEntity
  8
0
 62
     0
100
AcDbLine
 10
253.607207680731
 20
510.0681160007401
 30
0.0
 11
251.107207680731
 21
512.5681160007402
 31
0.0
  0
LINE
  5
1665
330
1652
100
AcDbEntity
  8
0
 62
     0
100
AcDbLine
 10
406.220011133613
 20
510.1903772841525
 30
0.0
 11
399.2787591021641
 21
517.1316293156015
 31
0.0
  0
LINE
  5
1666
330
1652
100
AcDbEntity
  8
0
 62
     0
100
AcDbLine
 10
409.1706995417714
 20
510.0681160007401
 30
0.0
 11
406.5718460945303
 21
512.6669694479812
 31
0.0
  0
LINE
  5
1667
330
1652
100
AcDbEntity
  8
0
 62
     0
100
AcDbLine
 10
401.7553512659929
 20
517.4834642765188
 30
0.0
 11
399.1706995417715
 21
520.0681160007402
 31
0.0
  0
LINE
  5
1668
330
1652
100
AcDbEntity
  8
0
 62
     0
100
AcDbLine
 10
411.9991266665177
 20
510.0681160007401
 30
0.0
 11
409.4991266665176
 21
512.5681160007402
 31
0.0
  0
LINE
  5
1669
330
1652
100
AcDbEntity
  8
0
 62
     0
100
AcDbLine
 10
414.8275537912638
 20
510.0681160007401
 30
0.0
 11
412.3275537912638
 21
512.5681160007402
 31
0.0
  0
LINE
  5
166A
330
1652
100
AcDbEntity
  8
0
 62
     0
100
AcDbLine
 10
417.65598091601
 20
510.0681160007401
 30
0.0
 11
415.1559809160101
 21
512.5681160007402
 31
0.0
  0
LINE
  5
166B
330
1652
100
AcDbEntity
  8
0
 62
     0
100
AcDbLine
 10
420.4844080407562
 20
510.0681160007401
 30
0.0
 11
417.9844080407562
 21
512.5681160007402
 31
0.0
  0
LINE
  5
166C
330
1652
100
AcDbEntity
  8
0
 62
     0
100
AcDbLine
 10
423.3128351655024
 20
510.0681160007401
 30
0.0
 11
420.8128351655024
 21
512.5681160007402
 31
0.0
  0
LINE
  5
166D
330
1652
100
AcDbEntity
  8
0
 62
     0
100
AcDbLine
 10
425.9254753373226
 20
510.2839029536662
 30
0.0
 11
423.6412622902486
 21
512.5681160007402
 31
0.0
  0
LINE
  5
166E
330
1652
100
AcDbEntity
  8
0
 62
     0
100
AcDbLine
 10
426.7808104525657
 20
512.2569949631692
 30
0.0
 11
426.4696894149948
 21
512.5681160007402
 31
0.0
  0
ENDBLK
  5
166F
330
1652
100
AcDbEntity
  8
0
100
AcDbBlockEnd
  0
BLOCK
  5
1671
330
1670
100
AcDbEntity
  8
0
100
AcDbBlockBegin
  2
*X8
 70
     1
 10
0.0
 20
0.0
 30
0.0
  3
*X8
  1

  0
LINE
  5
1672
330
1670
100
AcDbEntity
  8
0
 62
     0
100
AcDbLine
 10
302.316951344301
 20
243.9806418964109
 30
0.0
 11
303.3100006596937
 21
244.9736912118035
 31
0.0
  0
LINE
  5
1673
330
1670
100
AcDbEntity
  8
0
 62
     0
100
AcDbLine
 10
301.3100006596937
 20
245.6253416412531
 30
0.0
 11
303.2811928333529
 21
247.5965338149123
 31
0.0
  0
LINE
  5
1674
330
1670
100
AcDbEntity
  8
0
 62
     0
100
AcDbLine
 10
300.9678993997685
 20
247.9348908107774
 30
0.0
 11
302.3831829759803
 21
249.3501743869892
 31
0.0
  0
LINE
  5
1675
330
1670
100
AcDbEntity
  8
0
 62
     0
100
AcDbLine
 10
298.7071901578266
 20
248.3258319982851
 30
0.0
 11
300.5533148508208
 21
250.1719566912793
 31
0.0
  0
LINE
  5
1676
330
1670
100
AcDbEntity
  8
0
 62
     0
100
AcDbLine
 10
296.2688654944206
 20
248.5391577643287
 30
0.0
 11
298.1149901874149
 21
250.385282457323
 31
0.0
  0
LINE
  5
1677
330
1670
100
AcDbEntity
  8
0
 62
     0
100
AcDbLine
 10
293.8305408310147
 20
248.7524835303723
 30
0.0
 11
295.6766655240091
 21
250.5986082233667
 31
0.0
  0
LINE
  5
1678
330
1670
100
AcDbEntity
  8
0
 62
     0
100
AcDbLine
 10
291.3922161676087
 20
248.9658092964158
 30
0.0
 11
293.2383408606033
 21
250.8119339894104
 31
0.0
  0
LINE
  5
1679
330
1670
100
AcDbEntity
  8
0
 62
     0
100
AcDbLine
 10
291.3100006596938
 20
87.13291759207816
 30
0.0
 11
292.2473741971275
 21
88.07029112951198
 31
0.0
  0
LINE
  5
167A
330
1670
100
AcDbEntity
  8
0
 62
     0
100
AcDbLine
 10
292.9531306393999
 20
86.12439714233476
 30
0.0
 11
295.1532563746526
 21
88.32452287758746
 31
0.0
  0
LINE
  5
167B
330
1670
100
AcDbEntity
  8
0
 62
     0
100
AcDbLine
 10
295.859012816925
 20
86.37862889041025
 30
0.0
 11
298.0591385521776
 21
88.57875462566294
 31
0.0
  0
LINE
  5
167C
330
1670
100
AcDbEntity
  8
0
 62
     0
100
AcDbLine
 10
301.3100006596937
 20
91.82961673317905
 30
0.0
 11
302.4610258229258
 21
92.98064189641111
 31
0.0
  0
LINE
  5
167D
330
1670
100
AcDbEntity
  8
0
 62
     0
100
AcDbLine
 10
298.76489499445
 20
86.63286063848577
 30
0.0
 11
303.3100006596937
 21
91.17796630372948
 31
0.0
  0
ENDBLK
  5
167E
330
1670
100
AcDbEntity
  8
0
100
AcDbBlockEnd
  0
BLOCK
  5
1680
330
167F
100
AcDbEntity
  8
0
100
AcDbBlockBegin
  2
*X9
 70
     1
 10
0.0
 20
0.0
 30
0.0
  3
*X9
  1

  0
LINE
  5
1681
330
167F
100
AcDbEntity
  8
0
 62
     0
100
AcDbLine
 10
302.1920741880784
 20
489.5753712025134
 30
0.0
 11
303.7128067205971
 21
491.0961037350322
 31
0.0
  0
LINE
  5
1682
330
167F
100
AcDbEntity
  8
0
 62
     0
100
AcDbLine
 10
300.424307235112
 20
489.5753712025134
 30
0.0
 11
303.7128067205971
 21
492.8638706879985
 31
0.0
  0
LINE
  5
1683
330
167F
100
AcDbEntity
  8
0
 62
     0
100
AcDbLine
 10
298.6565402821457
 20
489.5753712025134
 30
0.0
 11
303.6565402821458
 21
494.5753712025136
 31
0.0
  0
LINE
  5
1684
330
167F
100
AcDbEntity
  8
0
 62
     0
100
AcDbLine
 10
296.8887733291794
 20
489.5753712025134
 30
0.0
 11
301.8887733291795
 21
494.5753712025136
 31
0.0
  0
LINE
  5
1685
330
167F
100
AcDbEntity
  8
0
 62
     0
100
AcDbLine
 10
295.1210063762129
 20
489.5753712025134
 30
0.0
 11
300.1210063762131
 21
494.5753712025136
 31
0.0
  0
LINE
  5
1686
330
167F
100
AcDbEntity
  8
0
 62
     0
100
AcDbLine
 10
293.3532394232466
 20
489.5753712025134
 30
0.0
 11
298.3532394232467
 21
494.5753712025136
 31
0.0
  0
LINE
  5
1687
330
167F
100
AcDbEntity
  8
0
 62
     0
100
AcDbLine
 10
291.5854724702802
 20
489.5753712025134
 30
0.0
 11
296.5854724702804
 21
494.5753712025136
 31
0.0
  0
LINE
  5
1688
330
167F
100
AcDbEntity
  8
0
 62
     0
100
AcDbLine
 10
289.8177055173139
 20
489.5753712025134
 30
0.0
 11
294.817705517314
 21
494.5753712025136
 31
0.0
  0
LINE
  5
1689
330
167F
100
AcDbEntity
  8
0
 62
     0
100
AcDbLine
 10
288.0499385643475
 20
489.5753712025134
 30
0.0
 11
293.0499385643476
 21
494.5753712025136
 31
0.0
  0
LINE
  5
168A
330
167F
100
AcDbEntity
  8
0
 62
     0
100
AcDbLine
 10
286.7128067205971
 20
490.0060063117295
 30
0.0
 11
291.2821716113812
 21
494.5753712025136
 31
0.0
  0
LINE
  5
168B
330
167F
100
AcDbEntity
  8
0
 62
     0
100
AcDbLine
 10
286.7128067205971
 20
491.7737732646958
 30
0.0
 11
289.5144046584149
 21
494.5753712025136
 31
0.0
  0
LINE
  5
168C
330
167F
100
AcDbEntity
  8
0
 62
     0
100
AcDbLine
 10
286.7128067205971
 20
493.5415402176622
 30
0.0
 11
287.7466377054485
 21
494.5753712025136
 31
0.0
  0
LINE
  5
168D
330
167F
100
AcDbEntity
  8
0
 62
     0
100
AcDbLine
 10
393.7128067205971
 20
494.47552303968
 30
0.0
 11
393.8126548834306
 21
494.5753712025136
 31
0.0
  0
LINE
  5
168E
330
167F
100
AcDbEntity
  8
0
 62
     0
100
AcDbLine
 10
393.7128067205971
 20
492.7077560867137
 30
0.0
 11
395.580421836397
 21
494.5753712025135
 31
0.0
  0
LINE
  5
168F
330
167F
100
AcDbEntity
  8
0
 62
     0
100
AcDbLine
 10
393.7128067205971
 20
490.9399891337473
 30
0.0
 11
397.3481887893633
 21
494.5753712025135
 31
0.0
  0
LINE
  5
1690
330
167F
100
AcDbEntity
  8
0
 62
     0
100
AcDbLine
 10
394.1159557423296
 20
489.5753712025134
 30
0.0
 11
399.1159557423296
 21
494.5753712025135
 31
0.0
  0
LINE
  5
1691
330
167F
100
AcDbEntity
  8
0
 62
     0
100
AcDbLine
 10
395.883722695296
 20
489.5753712025134
 30
0.0
 11
400.883722695296
 21
494.5753712025135
 31
0.0
  0
LINE
  5
1692
330
167F
100
AcDbEntity
  8
0
 62
     0
100
AcDbLine
 10
397.6514896482624
 20
489.5753712025134
 30
0.0
 11
402.6514896482622
 21
494.5753712025135
 31
0.0
  0
LINE
  5
1693
330
167F
100
AcDbEntity
  8
0
 62
     0
100
AcDbLine
 10
399.4192566012287
 20
489.5753712025134
 30
0.0
 11
404.4192566012286
 21
494.5753712025134
 31
0.0
  0
LINE
  5
1694
330
167F
100
AcDbEntity
  8
0
 62
     0
100
AcDbLine
 10
401.187023554195
 20
489.5753712025134
 30
0.0
 11
406.187023554195
 21
494.5753712025134
 31
0.0
  0
LINE
  5
1695
330
167F
100
AcDbEntity
  8
0
 62
     0
100
AcDbLine
 10
402.9547905071614
 20
489.5753712025134
 30
0.0
 11
407.9547905071613
 21
494.5753712025133
 31
0.0
  0
LINE
  5
1696
330
167F
100
AcDbEntity
  8
0
 62
     0
100
AcDbLine
 10
404.7225574601277
 20
489.5753712025134
 30
0.0
 11
409.7225574601276
 21
494.5753712025133
 31
0.0
  0
LINE
  5
1697
330
167F
100
AcDbEntity
  8
0
 62
     0
100
AcDbLine
 10
406.4903244130942
 20
489.5753712025134
 30
0.0
 11
410.7128067205971
 21
493.7978535100165
 31
0.0
  0
LINE
  5
1698
330
167F
100
AcDbEntity
  8
0
 62
     0
100
AcDbLine
 10
408.2580913660605
 20
489.5753712025134
 30
0.0
 11
410.7128067205971
 21
492.0300865570501
 31
0.0
  0
LINE
  5
1699
330
167F
100
AcDbEntity
  8
0
 62
     0
100
AcDbLine
 10
410.0258583190268
 20
489.5753712025134
 30
0.0
 11
410.7128067205971
 21
490.2623196040837
 31
0.0
  0
LINE
  5
169A
330
167F
100
AcDbEntity
  8
0
 62
     0
100
AcDbLine
 10
303.7128067205971
 20
493.5500890672351
 30
0.0
 11
302.6875245853186
 21
494.5753712025136
 31
0.0
  0
LINE
  5
169B
330
167F
100
AcDbEntity
  8
0
 62
     0
100
AcDbLine
 10
303.7128067205971
 20
491.7823221142687
 30
0.0
 11
300.9197576323523
 21
494.5753712025136
 31
0.0
  0
LINE
  5
169C
330
167F
100
AcDbEntity
  8
0
 62
     0
100
AcDbLine
 10
303.7128067205971
 20
490.0145551613023
 30
0.0
 11
299.1519906793858
 21
494.5753712025136
 31
0.0
  0
LINE
  5
169D
330
167F
100
AcDbEntity
  8
0
 62
     0
100
AcDbLine
 10
302.3842237264196
 20
489.5753712025134
 30
0.0
 11
297.3842237264195
 21
494.5753712025136
 31
0.0
  0
LINE
  5
169E
330
167F
100
AcDbEntity
  8
0
 62
     0
100
AcDbLine
 10
300.6164567734533
 20
489.5753712025134
 30
0.0
 11
295.6164567734532
 21
494.5753712025136
 31
0.0
  0
LINE
  5
169F
330
167F
100
AcDbEntity
  8
0
 62
     0
100
AcDbLine
 10
298.8486898204869
 20
489.5753712025134
 30
0.0
 11
293.8486898204868
 21
494.5753712025136
 31
0.0
  0
LINE
  5
16A0
330
167F
100
AcDbEntity
  8
0
 62
     0
100
AcDbLine
 10
297.0809228675205
 20
489.5753712025134
 30
0.0
 11
292.0809228675204
 21
494.5753712025136
 31
0.0
  0
LINE
  5
16A1
330
167F
100
AcDbEntity
  8
0
 62
     0
100
AcDbLine
 10
295.3131559145542
 20
489.5753712025134
 30
0.0
 11
290.3131559145541
 21
494.5753712025136
 31
0.0
  0
LINE
  5
16A2
330
167F
100
AcDbEntity
  8
0
 62
     0
100
AcDbLine
 10
293.5453889615878
 20
489.5753712025134
 30
0.0
 11
288.5453889615877
 21
494.5753712025136
 31
0.0
  0
LINE
  5
16A3
330
167F
100
AcDbEntity
  8
0
 62
     0
100
AcDbLine
 10
291.7776220086214
 20
489.5753712025134
 30
0.0
 11
286.7776220086213
 21
494.5753712025136
 31
0.0
  0
LINE
  5
16A4
330
167F
100
AcDbEntity
  8
0
 62
     0
100
AcDbLine
 10
290.0098550556551
 20
489.5753712025134
 30
0.0
 11
286.7128067205971
 21
492.8724195375713
 31
0.0
  0
LINE
  5
16A5
330
167F
100
AcDbEntity
  8
0
 62
     0
100
AcDbLine
 10
288.2420881026887
 20
489.5753712025134
 30
0.0
 11
286.7128067205971
 21
491.104652584605
 31
0.0
  0
LINE
  5
16A6
330
167F
100
AcDbEntity
  8
0
 62
     0
100
AcDbLine
 10
394.3081052806708
 20
489.5753712025134
 30
0.0
 11
393.7128067205971
 21
490.1706697625871
 31
0.0
  0
LINE
  5
16A7
330
167F
100
AcDbEntity
  8
0
 62
     0
100
AcDbLine
 10
396.0758722336372
 20
489.5753712025134
 30
0.0
 11
393.7128067205971
 21
491.9384367155535
 31
0.0
  0
LINE
  5
16A8
330
167F
100
AcDbEntity
  8
0
 62
     0
100
AcDbLine
 10
397.8436391866035
 20
489.5753712025134
 30
0.0
 11
393.7128067205971
 21
493.7062036685198
 31
0.0
  0
LINE
  5
16A9
330
167F
100
AcDbEntity
  8
0
 62
     0
100
AcDbLine
 10
399.6114061395699
 20
489.5753712025134
 30
0.0
 11
394.6114061395698
 21
494.5753712025136
 31
0.0
  0
LINE
  5
16AA
330
167F
100
AcDbEntity
  8
0
 62
     0
100
AcDbLine
 10
401.3791730925363
 20
489.5753712025134
 30
0.0
 11
396.3791730925363
 21
494.5753712025135
 31
0.0
  0
LINE
  5
16AB
330
167F
100
AcDbEntity
  8
0
 62
     0
100
AcDbLine
 10
403.1469400455026
 20
489.5753712025134
 30
0.0
 11
398.1469400455027
 21
494.5753712025135
 31
0.0
  0
LINE
  5
16AC
330
167F
100
AcDbEntity
  8
0
 62
     0
100
AcDbLine
 10
404.9147069984689
 20
489.5753712025134
 30
0.0
 11
399.9147069984691
 21
494.5753712025135
 31
0.0
  0
LINE
  5
16AD
330
167F
100
AcDbEntity
  8
0
 62
     0
100
AcDbLine
 10
406.6824739514354
 20
489.5753712025134
 30
0.0
 11
401.6824739514354
 21
494.5753712025135
 31
0.0
  0
LINE
  5
16AE
330
167F
100
AcDbEntity
  8
0
 62
     0
100
AcDbLine
 10
408.4502409044017
 20
489.5753712025134
 30
0.0
 11
403.4502409044018
 21
494.5753712025134
 31
0.0
  0
LINE
  5
16AF
330
167F
100
AcDbEntity
  8
0
 62
     0
100
AcDbLine
 10
410.2180078573681
 20
489.5753712025134
 30
0.0
 11
405.2180078573682
 21
494.5753712025134
 31
0.0
  0
LINE
  5
16B0
330
167F
100
AcDbEntity
  8
0
 62
     0
100
AcDbLine
 10
410.7128067205971
 20
490.8483392922509
 30
0.0
 11
406.9857748103346
 21
494.5753712025134
 31
0.0
  0
LINE
  5
16B1
330
167F
100
AcDbEntity
  8
0
 62
     0
100
AcDbLine
 10
410.7128067205971
 20
492.6161062452172
 30
0.0
 11
408.753541763301
 21
494.5753712025133
 31
0.0
  0
LINE
  5
16B2
330
167F
100
AcDbEntity
  8
0
 62
     0
100
AcDbLine
 10
410.7128067205971
 20
494.3838731981836
 30
0.0
 11
410.5213087162674
 21
494.5753712025133
 31
0.0
  0
ENDBLK
  5
16B3
330
167F
100
AcDbEntity
  8
0
100
AcDbBlockEnd
  0
BLOCK
  5
16B5
330
16B4
100
AcDbEntity
  8
0
100
AcDbBlockBegin
  2
*X10
 70
     1
 10
0.0
 20
0.0
 30
0.0
  3
*X10
  1

  0
LINE
  5
16B6
330
16B4
100
AcDbEntity
  8
0
 62
     0
100
AcDbLine
 10
223.9650539585828
 20
481.3519223104861
 30
0.0
 11
224.6556529205102
 21
482.0425212724134
 31
0.0
  0
LINE
  5
16B7
330
16B4
100
AcDbEntity
  8
0
 62
     0
100
AcDbLine
 10
220.6178135203374
 20
480.8331089969867
 30
0.0
 11
223.0293902144631
 21
483.2446856911126
 31
0.0
  0
LINE
  5
16B8
330
16B4
100
AcDbEntity
  8
0
 62
     0
100
AcDbLine
 10
217.1225472124329
 20
480.1662698138285
 30
0.0
 11
219.6608652187804
 21
482.7045878201761
 31
0.0
  0
LINE
  5
16B9
330
16B4
100
AcDbEntity
  8
0
 62
     0
100
AcDbLine
 10
213.4538929556532
 20
479.326042681795
 30
0.0
 11
216.1440529548044
 21
482.0162026809462
 31
0.0
  0
LINE
  5
16BA
330
16B4
100
AcDbEntity
  8
0
 62
     0
100
AcDbLine
 10
209.5773403625341
 20
478.2779172134222
 30
0.0
 11
212.4536088376349
 21
481.154185688523
 31
0.0
  0
LINE
  5
16BB
330
16B4
100
AcDbEntity
  8
0
 62
     0
100
AcDbLine
 10
205.4437744000189
 20
476.9727783756531
 30
0.0
 11
208.5550916931948
 21
480.0840956688289
 31
0.0
  0
LINE
  5
16BC
330
16B4
100
AcDbEntity
  8
0
 62
     0
100
AcDbLine
 10
200.9789228621717
 20
475.3363539625521
 30
0.0
 11
204.399569819197
 21
478.7570009195774
 31
0.0
  0
LINE
  5
16BD
330
16B4
100
AcDbEntity
  8
0
 62
     0
100
AcDbLine
 10
196.0602850151474
 20
473.246143240274
 30
0.0
 11
199.9132252769338
 21
477.0990835020604
 31
0.0
  0
LINE
  5
16BE
330
16B4
100
AcDbEntity
  8
0
 62
     0
100
AcDbLine
 10
190.4564365579339
 20
470.4707219078067
 30
0.0
 11
194.9747385591219
 21
474.9890239089947
 31
0.0
  0
LINE
  5
16BF
330
16B4
100
AcDbEntity
  8
0
 62
     0
100
AcDbLine
 10
187.385289044452
 20
470.228001519071
 30
0.0
 11
189.5056170238862
 21
472.3483294985051
 31
0.0
  0
LINE
  5
16C0
330
16B4
100
AcDbEntity
  8
0
 62
     0
100
AcDbLine
 10
184.5568619197058
 20
470.228001519071
 30
0.0
 11
186.5568619197059
 21
472.228001519071
 31
0.0
  0
LINE
  5
16C1
330
16B4
100
AcDbEntity
  8
0
 62
     0
100
AcDbLine
 10
181.7284347949597
 20
470.228001519071
 30
0.0
 11
183.7284347949597
 21
472.228001519071
 31
0.0
  0
LINE
  5
16C2
330
16B4
100
AcDbEntity
  8
0
 62
     0
100
AcDbLine
 10
179.1205675338427
 20
470.4485613827002
 30
0.0
 11
180.9000076702135
 21
472.228001519071
 31
0.0
  0
LINE
  5
16C3
330
16B4
100
AcDbEntity
  8
0
 62
     0
100
AcDbLine
 10
177.622682126257
 20
471.7791030998607
 30
0.0
 11
179.2098006632092
 21
473.366221636813
 31
0.0
  0
LINE
  5
16C4
330
16B4
100
AcDbEntity
  8
0
 62
     0
100
AcDbLine
 10
177.0593941178213
 20
474.0442422161713
 30
0.0
 11
178.3366634847132
 21
475.3215115830631
 31
0.0
  0
LINE
  5
16C5
330
16B4
100
AcDbEntity
  8
0
 62
     0
100
AcDbLine
 10
174.4147262959748
 20
474.228001519071
 30
0.0
 11
176.4067337527612
 21
476.2200089758573
 31
0.0
  0
LINE
  5
16C6
330
16B4
100
AcDbEntity
  8
0
 62
     0
100
AcDbLine
 10
171.5862991712286
 20
474.228001519071
 30
0.0
 11
173.5862991712289
 21
476.2280015190712
 31
0.0
  0
LINE
  5
16C7
330
16B4
100
AcDbEntity
  8
0
 62
     0
100
AcDbLine
 10
168.7578720464824
 20
474.2280015190709
 30
0.0
 11
170.7578720464827
 21
476.2280015190712
 31
0.0
  0
LINE
  5
16C8
330
16B4
100
AcDbEntity
  8
0
 62
     0
100
AcDbLine
 10
165.9294449217362
 20
474.2280015190709
 30
0.0
 11
167.9294449217365
 21
476.2280015190712
 31
0.0
  0
LINE
  5
16C9
330
16B4
100
AcDbEntity
  8
0
 62
     0
100
AcDbLine
 10
163.10101779699
 20
474.2280015190708
 30
0.0
 11
165.1010177969903
 21
476.2280015190712
 31
0.0
  0
LINE
  5
16CA
330
16B4
100
AcDbEntity
  8
0
 62
     0
100
AcDbLine
 10
160.2725906722437
 20
474.2280015190708
 30
0.0
 11
162.2725906722441
 21
476.2280015190712
 31
0.0
  0
LINE
  5
16CB
330
16B4
100
AcDbEntity
  8
0
 62
     0
100
AcDbLine
 10
157.4441635474975
 20
474.2280015190708
 30
0.0
 11
159.444163547498
 21
476.2280015190712
 31
0.0
  0
LINE
  5
16CC
330
16B4
100
AcDbEntity
  8
0
 62
     0
100
AcDbLine
 10
154.6157364227513
 20
474.2280015190708
 30
0.0
 11
156.6157364227518
 21
476.2280015190713
 31
0.0
  0
LINE
  5
16CD
330
16B4
100
AcDbEntity
  8
0
 62
     0
100
AcDbLine
 10
138.958882173259
 20
464.2280015190708
 30
0.0
 11
140.5580481490138
 21
465.8271674948257
 31
0.0
  0
LINE
  5
16CE
330
16B4
100
AcDbEntity
  8
0
 62
     0
100
AcDbLine
 10
138.6291029450412
 20
466.7266494155993
 30
0.0
 11
140.8292286802942
 21
468.9267751508522
 31
0.0
  0
LINE
  5
16CF
330
16B4
100
AcDbEntity
  8
0
 62
     0
100
AcDbLine
 10
138.9002834763218
 20
469.8262570716259
 30
0.0
 11
141.1004092115745
 21
472.0263828068787
 31
0.0
  0
LINE
  5
16D0
330
16B4
100
AcDbEntity
  8
0
 62
     0
100
AcDbLine
 10
143.3020279237666
 20
474.2280015190708
 30
0.0
 11
145.3020279237671
 21
476.2280015190713
 31
0.0
  0
LINE
  5
16D1
330
16B4
100
AcDbEntity
  8
0
 62
     0
100
AcDbLine
 10
139.1714640076023
 20
472.9258647276528
 30
0.0
 11
142.4736007990209
 21
476.2280015190713
 31
0.0
  0
LINE
  5
16D2
330
16B4
100
AcDbEntity
  8
0
 62
     0
100
AcDbLine
 10
226.9832687908987
 20
470.228001519071
 30
0.0
 11
228.9832687908987
 21
472.2280015190709
 31
0.0
  0
LINE
  5
16D3
330
16B4
100
AcDbEntity
  8
0
 62
     0
100
AcDbLine
 10
229.8116959156449
 20
470.228001519071
 30
0.0
 11
231.8116959156449
 21
472.2280015190709
 31
0.0
  0
LINE
  5
16D4
330
16B4
100
AcDbEntity
  8
0
 62
     0
100
AcDbLine
 10
232.6401230403911
 20
470.228001519071
 30
0.0
 11
234.640123040391
 21
472.2280015190709
 31
0.0
  0
LINE
  5
16D5
330
16B4
100
AcDbEntity
  8
0
 62
     0
100
AcDbLine
 10
235.4685501651373
 20
470.228001519071
 30
0.0
 11
237.4685501651372
 21
472.2280015190709
 31
0.0
  0
LINE
  5
16D6
330
16B4
100
AcDbEntity
  8
0
 62
     0
100
AcDbLine
 10
238.2969772898834
 20
470.228001519071
 30
0.0
 11
240.8215195745895
 21
472.7525438037771
 31
0.0
  0
LINE
  5
16D7
330
16B4
100
AcDbEntity
  8
0
 62
     0
100
AcDbLine
 10
241.1254044146296
 20
470.228001519071
 30
0.0
 11
244.0700506900748
 21
473.1726477945161
 31
0.0
  0
LINE
  5
16D8
330
16B4
100
AcDbEntity
  8
0
 62
     0
100
AcDbLine
 10
243.9538315393758
 20
470.228001519071
 30
0.0
 11
246.0563309841029
 21
472.330500963798
 31
0.0
  0
LINE
  5
16D9
330
16B4
100
AcDbEntity
  8
0
 62
     0
100
AcDbLine
 10
246.782258664122
 20
470.228001519071
 30
0.0
 11
248.7822586641221
 21
472.2280015190711
 31
0.0
  0
LINE
  5
16DA
330
16B4
100
AcDbEntity
  8
0
 62
     0
100
AcDbLine
 10
249.6106857888682
 20
470.228001519071
 30
0.0
 11
251.6106857888683
 21
472.2280015190711
 31
0.0
  0
LINE
  5
16DB
330
16B4
100
AcDbEntity
  8
0
 62
     0
100
AcDbLine
 10
252.4391129136144
 20
470.228001519071
 30
0.0
 11
254.4391129136145
 21
472.2280015190711
 31
0.0
  0
LINE
  5
16DC
330
16B4
100
AcDbEntity
  8
0
 62
     0
100
AcDbLine
 10
255.2675400383606
 20
470.228001519071
 30
0.0
 11
257.2675400383606
 21
472.2280015190711
 31
0.0
  0
LINE
  5
16DD
330
16B4
100
AcDbEntity
  8
0
 62
     0
100
AcDbLine
 10
258.0959671631068
 20
470.228001519071
 30
0.0
 11
260.0959671631068
 21
472.2280015190711
 31
0.0
  0
LINE
  5
16DE
330
16B4
100
AcDbEntity
  8
0
 62
     0
100
AcDbLine
 10
260.924394287853
 20
470.228001519071
 30
0.0
 11
264.766094186164
 21
474.069701417382
 31
0.0
  0
LINE
  5
16DF
330
16B4
100
AcDbEntity
  8
0
 62
     0
100
AcDbLine
 10
264.924394287853
 20
474.228001519071
 30
0.0
 11
266.9243942878527
 21
476.2280015190706
 31
0.0
  0
LINE
  5
16E0
330
16B4
100
AcDbEntity
  8
0
 62
     0
100
AcDbLine
 10
267.7528214125991
 20
474.228001519071
 30
0.0
 11
269.7528214125989
 21
476.2280015190706
 31
0.0
  0
LINE
  5
16E1
330
16B4
100
AcDbEntity
  8
0
 62
     0
100
AcDbLine
 10
270.5812485373453
 20
474.228001519071
 30
0.0
 11
272.581248537345
 21
476.2280015190706
 31
0.0
  0
LINE
  5
16E2
330
16B4
100
AcDbEntity
  8
0
 62
     0
100
AcDbLine
 10
273.4096756620915
 20
474.228001519071
 30
0.0
 11
275.4096756620912
 21
476.2280015190706
 31
0.0
  0
LINE
  5
16E3
330
16B4
100
AcDbEntity
  8
0
 62
     0
100
AcDbLine
 10
276.2381027868376
 20
474.2280015190709
 30
0.0
 11
278.2381027868374
 21
476.2280015190706
 31
0.0
  0
LINE
  5
16E4
330
16B4
100
AcDbEntity
  8
0
 62
     0
100
AcDbLine
 10
279.0665299115838
 20
474.2280015190709
 30
0.0
 11
281.0665299115835
 21
476.2280015190706
 31
0.0
  0
LINE
  5
16E5
330
16B4
100
AcDbEntity
  8
0
 62
     0
100
AcDbLine
 10
281.8949570363299
 20
474.2280015190709
 30
0.0
 11
283.8949570363297
 21
476.2280015190706
 31
0.0
  0
LINE
  5
16E6
330
16B4
100
AcDbEntity
  8
0
 62
     0
100
AcDbLine
 10
284.7233841610762
 20
474.2280015190708
 30
0.0
 11
286.7233841610759
 21
476.2280015190706
 31
0.0
  0
LINE
  5
16E7
330
16B4
100
AcDbEntity
  8
0
 62
     0
100
AcDbLine
 10
296.4104995799524
 20
474.6014084389624
 30
0.0
 11
298.0370926600606
 21
476.2280015190705
 31
0.0
  0
LINE
  5
16E8
330
16B4
100
AcDbEntity
  8
0
 62
     0
100
AcDbLine
 10
298.865519784807
 20
474.2280015190707
 30
0.0
 11
300.6719107669336
 21
476.0343925011973
 31
0.0
  0
LINE
  5
16E9
330
16B4
100
AcDbEntity
  8
0
 62
     0
100
AcDbLine
 10
300.6217760639593
 20
473.1558306734768
 30
0.0
 11
302.2039293280802
 21
474.7379839375977
 31
0.0
  0
LINE
  5
16EA
330
16B4
100
AcDbEntity
  8
0
 62
     0
100
AcDbLine
 10
300.8493235477392
 20
470.5549510325106
 30
0.0
 11
302.6954482407334
 21
472.4010757255047
 31
0.0
  0
LINE
  5
16EB
330
16B4
100
AcDbEntity
  8
0
 62
     0
100
AcDbLine
 10
301.0768710315192
 20
467.9540713915443
 30
0.0
 11
302.9229957245133
 21
469.8001960845385
 31
0.0
  0
LINE
  5
16EC
330
16B4
100
AcDbEntity
  8
0
 62
     0
100
AcDbLine
 10
301.3044185152991
 20
465.353191750578
 30
0.0
 11
303.1505432082933
 21
467.1993164435723
 31
0.0
  0
LINE
  5
16ED
330
16B4
100
AcDbEntity
  8
0
 62
     0
100
AcDbLine
 10
303.007655408538
 20
464.2280015190707
 30
0.0
 11
303.3780906920732
 21
464.598436802606
 31
0.0
  0
ENDBLK
  5
16EE
330
16B4
100
AcDbEntity
  8
0
100
AcDbBlockEnd
  0
BLOCK
  5
16F0
330
16EF
100
AcDbEntity
  8
0
100
AcDbBlockBegin
  2
*X11
 70
     1
 10
0.0
 20
0.0
 30
0.0
  3
*X11
  1

  0
LINE
  5
16F1
330
16EF
100
AcDbEntity
  8
0
 62
     0
100
AcDbLine
 10
208.9450567413825
 20
452.9068904492259
 30
0.0
 11
205.2254703800233
 21
456.6264768105851
 31
0.0
  0
LINE
  5
16F2
330
16EF
100
AcDbEntity
  8
0
 62
     0
100
AcDbLine
 10
204.0494420326467
 20
454.9740780332156
 30
0.0
 11
198.2309316695352
 21
460.792588396327
 31
0.0
  0
LINE
  5
16F3
330
16EF
100
AcDbEntity
  8
0
 62
     0
100
AcDbLine
 10
196.9282061968442
 20
459.2668867442718
 30
0.0
 11
186.0013912843037
 21
470.1937016568122
 31
0.0
  0
LINE
  5
16F4
330
16EF
100
AcDbEntity
  8
0
 62
     0
100
AcDbLine
 10
185.0917550613364
 20
468.2749107550335
 30
0.0
 11
183.1386642972988
 21
470.228001519071
 31
0.0
  0
LINE
  5
16F5
330
16EF
100
AcDbEntity
  8
0
 62
     0
100
AcDbLine
 10
213.0337085870713
 20
451.6466657282833
 30
0.0
 11
210.0382881268758
 21
454.6420861884788
 31
0.0
  0
LINE
  5
16F6
330
16EF
100
AcDbEntity
  8
0
 62
     0
100
AcDbLine
 10
216.6538263548623
 20
450.8549750852385
 30
0.0
 11
214.0587441409529
 21
453.4500572991479
 31
0.0
  0
LINE
  5
16F7
330
16EF
100
AcDbEntity
  8
0
 62
     0
100
AcDbLine
 10
219.9522815932298
 20
450.3849469716172
 30
0.0
 11
217.6184034682081
 21
452.7188250966388
 31
0.0
  0
LINE
  5
16F8
330
16EF
100
AcDbEntity
  8
0
 62
     0
100
AcDbLine
 10
223.0088683400896
 20
450.1567873495036
 30
0.0
 11
220.8611881019824
 21
452.3044675876108
 31
0.0
  0
LINE
  5
16F9
330
16EF
100
AcDbEntity
  8
0
 62
     0
100
AcDbLine
 10
224.6301906141814
 20
451.363892200158
 30
0.0
 11
223.8652932660408
 21
452.1287895482986
 31
0.0
  0
ENDBLK
  5
16FA
330
16EF
100
AcDbEntity
  8
0
100
AcDbBlockEnd
  0
BLOCK
  5
16FC
330
16FB
100
AcDbEntity
  8
0
100
AcDbBlockBegin
  2
*X12
 70
     1
 10
0.0
 20
0.0
 30
0.0
  3
*X12
  1

  0
LINE
  5
16FD
330
16FB
100
AcDbEntity
  8
0
 62
     0
100
AcDbLine
 10
179.4172717833911
 20
469.6
 30
0.0
 11
182.8601080516023
 21
469.6
 31
0.0
  0
LINE
  5
16FE
330
16FB
100
AcDbEntity
  8
0
 62
     0
100
AcDbLine
 10
179.3206190732259
 20
469.7
 30
0.0
 11
182.6852449851329
 21
469.7
 31
0.0
  0
LINE
  5
16FF
330
16FB
100
AcDbEntity
  8
0
 62
     0
100
AcDbLine
 10
179.2296499916641
 20
469.8
 30
0.0
 11
182.5094206981169
 21
469.8
 31
0.0
  0
LINE
  5
1700
330
16FB
100
AcDbEntity
  8
0
 62
     0
100
AcDbLine
 10
179.1439195519181
 20
469.9
 30
0.0
 11
182.3326231292884
 21
469.9
 31
0.0
  0
LINE
  5
1701
330
16FB
100
AcDbEntity
  8
0
 62
     0
100
AcDbLine
 10
179.06304999338
 20
470.0
 30
0.0
 11
182.1548399462791
 21
470.0
 31
0.0
  0
LINE
  5
1702
330
16FB
100
AcDbEntity
  8
0
 62
     0
100
AcDbLine
 10
178.9867176008087
 20
470.1
 30
0.0
 11
181.9760585369694
 21
470.1
 31
0.0
  0
LINE
  5
1703
330
16FB
100
AcDbEntity
  8
0
 62
     0
100
AcDbLine
 10
178.9146427043783
 20
470.2
 30
0.0
 11
181.7962660004818
 21
470.2
 31
0.0
  0
LINE
  5
1704
330
16FB
100
AcDbEntity
  8
0
 62
     0
100
AcDbLine
 10
178.8465819694328
 20
470.3
 30
0.0
 11
179.5962944550417
 21
470.3
 31
0.0
  0
LINE
  5
1705
330
16FB
100
AcDbEntity
  8
0
 62
     0
100
AcDbLine
 10
178.7823223660492
 20
470.4
 30
0.0
 11
179.24839623064
 21
470.4
 31
0.0
  0
LINE
  5
1706
330
16FB
100
AcDbEntity
  8
0
 62
     0
100
AcDbLine
 10
178.721676392009
 20
470.5
 30
0.0
 11
179.0013974197693
 21
470.5
 31
0.0
  0
LINE
  5
1707
330
16FB
100
AcDbEntity
  8
0
 62
     0
100
AcDbLine
 10
178.6644782453438
 20
470.6
 30
0.0
 11
178.8026686613901
 21
470.6
 31
0.0
  0
LINE
  5
1708
330
16FB
100
AcDbEntity
  8
0
 62
     0
100
AcDbLine
 10
178.6105807262319
 20
470.7
 30
0.0
 11
178.63429480651
 21
470.7
 31
0.0
  0
LINE
  5
1709
330
16FB
100
AcDbEntity
  8
0
 62
     0
100
AcDbLine
 10
179.5201380306207
 20
469.5
 30
0.0
 11
183.0340216959948
 21
469.5
 31
0.0
  0
LINE
  5
170A
330
16FB
100
AcDbEntity
  8
0
 62
     0
100
AcDbLine
 10
179.6298569070346
 20
469.4
 30
0.0
 11
183.2069974619653
 21
469.4
 31
0.0
  0
LINE
  5
170B
330
16FB
100
AcDbEntity
  8
0
 62
     0
100
AcDbLine
 10
179.7472107740421
 20
469.3
 30
0.0
 11
183.3790466460262
 21
469.3
 31
0.0
  0
LINE
  5
170C
330
16FB
100
AcDbEntity
  8
0
 62
     0
100
AcDbLine
 10
179.87317453462
 20
469.2
 30
0.0
 11
183.5501803049232
 21
469.2
 31
0.0
  0
LINE
  5
170D
330
16FB
100
AcDbEntity
  8
0
 62
     0
100
AcDbLine
 10
180.0089893105177
 20
469.1
 30
0.0
 11
183.7204092627317
 21
469.1
 31
0.0
  0
LINE
  5
170E
330
16FB
100
AcDbEntity
  8
0
 62
     0
100
AcDbLine
 10
180.1562772049171
 20
469.0
 30
0.0
 11
183.8897441176824
 21
469.0
 31
0.0
  0
LINE
  5
170F
330
16FB
100
AcDbEntity
  8
0
 62
     0
100
AcDbLine
 10
180.3172292850821
 20
468.9
 30
0.0
 11
184.0581952487331
 21
468.9
 31
0.0
  0
LINE
  5
1710
330
16FB
100
AcDbEntity
  8
0
 62
     0
100
AcDbLine
 10
180.4949337299455
 20
468.8
 30
0.0
 11
184.2257728218956
 21
468.8
 31
0.0
  0
LINE
  5
1711
330
16FB
100
AcDbEntity
  8
0
 62
     0
100
AcDbLine
 10
180.693998431502
 20
468.7
 30
0.0
 11
184.3924867963273
 21
468.7
 31
0.0
  0
LINE
  5
1712
330
16FB
100
AcDbEntity
  8
0
 62
     0
100
AcDbLine
 10
180.9218756639788
 20
468.5999999999999
 30
0.0
 11
184.3378667529321
 21
468.5999999999999
 31
0.0
  0
LINE
  5
1713
330
16FB
100
AcDbEntity
  8
0
 62
     0
100
AcDbLine
 10
181.1922015136525
 20
468.5
 30
0.0
 11
184.0675409032584
 21
468.5
 31
0.0
  0
LINE
  5
1714
330
16FB
100
AcDbEntity
  8
0
 62
     0
100
AcDbLine
 10
181.5360067183298
 20
468.4
 30
0.0
 11
183.7237356985811
 21
468.4
 31
0.0
  0
LINE
  5
1715
330
16FB
100
AcDbEntity
  8
0
 62
     0
100
AcDbLine
 10
182.0765314446932
 20
468.2999999999999
 30
0.0
 11
183.1832109722178
 21
468.2999999999999
 31
0.0
  0
ENDBLK
  5
1716
330
16FB
100
AcDbEntity
  8
0
100
AcDbBlockEnd
  0
ENDSEC
  0
SECTION
  2
ENTITIES
  0
LINE
  5
58
330
1E
100
AcDbEntity
  8
STEMPEL
100
AcDbLine
 10
830.0000000000004
 20
109.9999999999998
 30
0.0
 11
470.0000000000001
 21
109.9999999999999
 31
0.0
  0
LINE
  5
59
330
1E
100
AcDbEntity
  8
STEMPEL
100
AcDbLine
 10
470.0000000000001
 20
109.9999999999999
 30
0.0
 11
470.0000000000001
 21
9.999999999999886
 31
0.0
  0
LINE
  5
5A
330
1E
100
AcDbEntity
  8
STEMPEL
100
AcDbLine
 10
566.0000000000003
 20
109.9999999999997
 30
0.0
 11
566.0000000000001
 21
9.999999999999772
 31
0.0
  0
LINE
  5
5B
330
1E
100
AcDbEntity
  8
STEMPEL
100
AcDbLine
 10
650.0
 20
109.9999999999999
 30
0.0
 11
650.0
 21
9.999999999999886
 31
0.0
  0
LINE
  5
5C
330
1E
100
AcDbEntity
  8
STEMPEL
100
AcDbLine
 10
752.0000000000003
 20
109.9999999999995
 30
0.0
 11
752.0000000000003
 21
39.99999999999989
 31
0.0
  0
LINE
  5
5D
330
1E
100
AcDbEntity
  8
STEMPEL
100
AcDbLine
 10
566.0000000000001
 20
29.99999999999989
 30
0.0
 11
470.0000000000001
 21
29.99999999999989
 31
0.0
  0
LINE
  5
5E
330
1E
100
AcDbEntity
  8
STEMPEL
100
AcDbLine
 10
830.0000000000004
 20
39.99999999999989
 30
0.0
 11
566.0000000000001
 21
39.99999999999989
 31
0.0
  0
LINE
  5
5F
330
1E
100
AcDbEntity
  8
STEMPEL
100
AcDbLine
 10
830.0000000000004
 20
79.99999999999989
 30
0.0
 11
566.0000000000003
 21
79.99999999999989
 31
0.0
  0
LINE
  5
60
330
1E
100
AcDbEntity
  8
VOLL
100
AcDbLine
 10
484.0000000000002
 20
109.9999999999999
 30
0.0
 11
484.0000000000001
 21
9.999999999999886
 31
0.0
  0
LINE
  5
61
330
1E
100
AcDbEntity
  8
VOLL
100
AcDbLine
 10
524.0000000000001
 20
109.9999999999997
 30
0.0
 11
524.0
 21
9.999999999999772
 31
0.0
  0
LINE
  5
62
330
1E
100
AcDbEntity
  8
VOLL
100
AcDbLine
 10
544.0000000000002
 20
109.9999999999997
 30
0.0
 11
544.0
 21
9.999999999999772
 31
0.0
  0
LINE
  5
63
330
1E
100
AcDbEntity
  8
VOLL
100
AcDbLine
 10
584.0000000000003
 20
79.99999999999989
 30
0.0
 11
584.0000000000003
 21
39.99999999999989
 31
0.0
  0
LINE
  5
64
330
1E
100
AcDbEntity
  8
VOLL
100
AcDbLine
 10
610.0000000000003
 20
109.9999999999996
 30
0.0
 11
610.0000000000001
 21
39.99999999999989
 31
0.0
  0
LINE
  5
65
330
1E
100
AcDbEntity
  8
HILF
100
AcDbLine
 10
470.0000000000001
 20
99.99999999999989
 30
0.0
 11
566.0000000000003
 21
99.99999999999989
 31
0.0
  0
LINE
  5
66
330
1E
100
AcDbEntity
  8
HILF
100
AcDbLine
 10
470.0000000000001
 20
89.99999999999989
 30
0.0
 11
566.0000000000003
 21
89.99999999999989
 31
0.0
  0
LINE
  5
67
330
1E
100
AcDbEntity
  8
HILF
100
AcDbLine
 10
470.0000000000001
 20
79.99999999999989
 30
0.0
 11
566.0000000000003
 21
79.99999999999989
 31
0.0
  0
LINE
  5
68
330
1E
100
AcDbEntity
  8
HILF
100
AcDbLine
 10
470.0000000000001
 20
69.99999999999989
 30
0.0
 11
566.0000000000003
 21
69.99999999999989
 31
0.0
  0
LINE
  5
69
330
1E
100
AcDbEntity
  8
HILF
100
AcDbLine
 10
470.0000000000001
 20
59.99999999999989
 30
0.0
 11
566.0000000000003
 21
59.99999999999989
 31
0.0
  0
LINE
  5
6A
330
1E
100
AcDbEntity
  8
HILF
100
AcDbLine
 10
470.0000000000001
 20
49.99999999999989
 30
0.0
 11
566.0000000000003
 21
49.99999999999989
 31
0.0
  0
LINE
  5
6B
330
1E
100
AcDbEntity
  8
HILF
100
AcDbLine
 10
470.0000000000001
 20
39.99999999999989
 30
0.0
 11
566.0000000000003
 21
39.99999999999989
 31
0.0
  0
LINE
  5
6C
330
1E
100
AcDbEntity
  8
HILF
100
AcDbLine
 10
566.0000000000003
 20
69.99999999999989
 30
0.0
 11
650.0
 21
69.99999999999989
 31
0.0
  0
LINE
  5
6D
330
1E
100
AcDbEntity
  8
HILF
100
AcDbLine
 10
566.0000000000003
 20
59.99999999999989
 30
0.0
 11
650.0
 21
59.99999999999989
 31
0.0
  0
LINE
  5
6E
330
1E
100
AcDbEntity
  8
HILF
100
AcDbLine
 10
566.0000000000003
 20
49.99999999999989
 30
0.0
 11
650.0
 21
49.99999999999989
 31
0.0
  0
LINE
  5
6F
330
1E
100
AcDbEntity
  8
HILF
100
AcDbLine
 10
654.773680109695
 20
84.03758247564121
 30
0.0
 11
746.6297842514812
 21
84.03758247564121
 31
0.0
  0
LINE
  5
70
330
1E
100
AcDbEntity
  8
HILF
100
AcDbLine
 10
654.773680109695
 20
69.99999999999989
 30
0.0
 11
746.6297842514812
 21
69.99999999999989
 31
0.0
  0
LINE
  5
71
330
1E
100
AcDbEntity
  8
HILF
100
AcDbLine
 10
654.773680109695
 20
59.99999999999989
 30
0.0
 11
746.6297842514812
 21
59.99999999999989
 31
0.0
  0
LINE
  5
72
330
1E
100
AcDbEntity
  8
HILF
100
AcDbLine
 10
654.773680109695
 20
49.99999999999989
 30
0.0
 11
746.6297842514812
 21
49.99999999999989
 31
0.0
  0
LINE
  5
73
330
1E
100
AcDbEntity
  8
VOLL
100
AcDbLine
 10
752.0000000000003
 20
59.99999999999989
 30
0.0
 11
830.0000000000004
 21
59.99999999999989
 31
0.0
  0
LINE
  5
74
330
1E
100
AcDbEntity
  8
HILF
100
AcDbLine
 10
756.7238616296996
 20
83.77983636955809
 30
0.0
 11
824.8588839326732
 21
83.77983636955804
 31
0.0
  0
LINE
  5
75
330
1E
100
AcDbEntity
  8
HILF
100
AcDbLine
 10
654.773680109695
 20
14.89398258028291
 30
0.0
 11
824.8588839326732
 21
14.89398258028291
 31
0.0
  0
TEXT
  5
76
330
1E
100
AcDbEntity
  8
TEXT
100
AcDbText
 10
492.3998239263299
 20
18.67381894984115
 30
0.0
 40
4.0
  1
Änderung
 41
0.8
  7
GREEKS
 72
     1
 11
503.1426810691869
 21
18.67381894984115
 31
0.0
100
AcDbText
  0
TEXT
  5
78
330
1E
100
AcDbEntity
  8
TEXT
100
AcDbText
 10
573.5163572150376
 20
102.4620895087087
 30
0.0
 40
5.0
  1
Maßstab
 41
0.8
  7
GREEKS
100
AcDbText
  0
TEXT
  5
79
330
1E
100
AcDbEntity
  8
TEXT
100
AcDbText
 10
654.8779403809009
 20
102.5489328011778
 30
0.0
 40
5.0
  1
Benennung
 41
0.8
  7
GREEKS
100
AcDbText
  0
TEXT
  5
7A
330
1E
100
AcDbEntity
  8
TEXT
100
AcDbText
 10
756.1787549576343
 20
102.3132034537135
 30
0.0
 40
5.0
  1
Zeichnungs Nr.
 41
0.8
  7
GREEKS
100
AcDbText
  0
TEXT
  5
7B
330
1E
100
AcDbEntity
  8
TEXT
100
AcDbText
 10
654.7422383911359
 20
30.84560570193048
 30
0.0
 40
5.0
  1
Bauvorhaben
 41
0.8
  7
GREEKS
100
AcDbText
  0
TEXT
  5
7C
330
1E
100
AcDbEntity
  8
TEXT
100
AcDbText
 10
756.7238616296995
 20
73.18118237099949
 30
0.0
 40
5.0
  1
Ersatz für:
 41
0.8
  7
GREEKS
100
AcDbText
  0
TEXT
  5
7D
330
1E
100
AcDbEntity
  8
TEXT
100
AcDbText
 10
478.2664110704578
 20
13.6546584602718
 30
0.0
 40
4.0
  1
Index
 50
89.99999999999998
 41
0.8
  7
GREEKS
100
AcDbText
  0
TEXT
  5
7E
330
1E
100
AcDbEntity
  8
TEXT
100
AcDbText
 10
529.8990113186979
 20
18.67156269339799
 30
0.0
 40
4.0
  1
Tag
 41
0.8
  7
GREEKS
 72
     1
 11
533.6323446520313
 21
18.67156269339799
 31
0.0
100
AcDbText
  0
TEXT
  5
7F
330
1E
100
AcDbEntity
  8
TEXT
100
AcDbText
 10
548.9795678138292
 20
18.59324216966391
 30
0.0
 40
4.0
  1
Name
 41
0.8
  7
GREEKS
 72
     1
 11
555.3033773376387
 21
18.59324216966391
 31
0.0
100
AcDbText
  0
TEXT
  5
80
330
1E
100
AcDbEntity
  8
TEXT
100
AcDbText
 10
592.3311673153651
 20
73.31880501229909
 30
0.0
 40
4.0
  1
Tag
 41
0.8
  7
GREEKS
100
AcDbText
  0
TEXT
  5
81
330
1E
100
AcDbEntity
  8
TEXT
100
AcDbText
 10
622.4626584226296
 20
73.30961091915208
 30
0.0
 40
4.0
  1
Name
 41
0.8
  7
GREEKS
100
AcDbText
  0
TEXT
  5
82
330
1E
100
AcDbEntity
  8
TEXT
100
AcDbText
 10
567.5836127167615
 20
63.62990369617946
 30
0.0
 40
4.0
  1
Gez.
 41
0.8
  7
GREEKS
100
AcDbText
  0
TEXT
  5
83
330
1E
100
AcDbEntity
  8
TEXT
100
AcDbText
 10
567.5515086571672
 20
53.68926291428365
 30
0.0
 40
4.0
  1
Gepr.
 41
0.8
  7
GREEKS
100
AcDbText
  0
TEXT
  5
84
330
1E
100
AcDbEntity
  8
TEXT
100
AcDbText
 10
567.6006777387303
 20
43.52946389649789
 30
0.0
 40
4.0
  1
Norm.
 41
0.8
  7
GREEKS
100
AcDbText
  0
TEXT
  5
85
330
1E
100
AcDbEntity
  8
TEXT
100
AcDbText
 10
757.2400861497007
 20
52.07416177878585
 30
0.0
 40
5.0
  1
ersetzt durch:
 41
0.8
  7
GREEKS
100
AcDbText
  0
TEXT
  5
86
330
1E
100
AcDbEntity
  8
TEXT
100
AcDbText
 10
568.8693027807324
 20
72.96682596523718
 30
0.0
 40
4.0
  1
2006
 41
0.8
  7
GREEKS
100
AcDbText
  0
LINE
  5
87
330
1E
100
AcDbEntity
  8
HILF
100
AcDbLine
 10
0.0
 20
0.0
 30
0.0
 11
840.0000000000002
 21
-0.0000000000001137
 31
0.0
  0
LINE
  5
88
330
1E
100
AcDbEntity
  8
HILF
100
AcDbLine
 10
840.0000000000002
 20
-0.0000000000001137
 30
0.0
 11
840.0000000000002
 21
593.9999999999998
 31
0.0
  0
LINE
  5
89
330
1E
100
AcDbEntity
  8
HILF
100
AcDbLine
 10
840.0000000000002
 20
593.9999999999998
 30
0.0
 11
0.0000000000001705
 21
594.0
 31
0.0
  0
LINE
  5
8B
330
1E
100
AcDbEntity
  8
STEMPEL
100
AcDbLine
 10
830.0
 20
583.9999999999998
 30
0.0
 11
40.00000000000011
 21
584.0
 31
0.0
  0
LINE
  5
8D
330
1E
100
AcDbEntity
  8
STEMPEL
100
AcDbLine
 10
40.0
 20
10.0
 30
0.0
 11
830.0
 21
9.999999999999886
 31
0.0
  0
LINE
  5
8E
330
1E
100
AcDbEntity
  8
STEMPEL
100
AcDbLine
 10
830.0
 20
9.999999999999886
 30
0.0
 11
830.0
 21
583.9999999999998
 31
0.0
  0
TEXT
  5
8F
330
1E
100
AcDbEntity
  8
TEXT
 62
     1
100
AcDbText
 10
655.0390572473189
 20
87.3734307565253
 30
0.0
 40
7.0
  1
Regenstandrohr DN125
 41
0.75
  7
GREEKS
100
AcDbText
  0
TEXT
  5
90
330
1E
100
AcDbEntity
  8
TEXT
 62
     1
100
AcDbText
 10
767.9961422184136
 20
87.37343075652526
 30
0.0
 40
7.0
  1
55153125X
 41
0.8
  7
GREEKS
 72
     1
 11
790.1294755517469
 21
87.37343075652526
 31
0.0
100
AcDbText
  0
TEXT
  5
91
330
1E
100
AcDbEntity
  8
TEXT
100
AcDbText
 10
618.5090226415829
 20
102.8398961137899
 30
0.0
 40
5.0
  1
Zul.Abw.
 41
0.8
  7
GREEKS
100
AcDbText
  0
TEXT
  5
93
330
1E
100
AcDbEntity
  8
TEXT
100
AcDbText
 10
590.4612856559488
 20
63.15085876120213
 30
0.0
 40
4.0
  1
14.09.
 41
0.8
  7
GREEKS
 72
     1
 11
597.1660475607107
 21
63.15085876120213
 31
0.0
100
AcDbText
  0
TEXT
  5
94
330
1E
100
AcDbEntity
  8
TEXT
100
AcDbText
 10
624.0231753226609
 20
62.94297655165462
 30
0.0
 40
4.0
  1
Koeh
 41
0.8
  7
GREEKS
 72
     1
 11
629.2803181798038
 21
62.94297655165462
 31
0.0
100
AcDbText
  0
TEXT
  5
97
330
1E
100
AcDbEntity
  8
TEXT
100
AcDbText
 10
654.3410940884991
 20
52.59097337846049
 30
0.0
 40
5.0
  1
EDV-Art.Nr. 55153.125X
 41
0.8
  7
GREEKS
100
AcDbText
  0
TEXT
  5
98
330
1E
100
AcDbEntity
  8
TEXT
100
AcDbText
 10
654.1676050109347
 20
43.31127624791498
 30
0.0
 40
4.0
  1
55153125X.DWG
 41
0.8
  7
GREEKS
100
AcDbText
  0
TEXT
  5
99
330
1E
100
AcDbEntity
  8
TEXT
 62
     1
100
AcDbText
 10
582.703491203422
 20
87.47077088414959
 30
0.0
 40
7.0
  1
1:2
 41
0.8
  7
GREEKS
100
AcDbText
  0
TEXT
  5
9A
330
1E
100
AcDbEntity
  8
TEXT
100
AcDbText
 10
470.0441139350129
 20
114.1143585051042
 30
0.0
 40
5.0
  1
Erstellt mit AUTOCAD 2004
 41
0.8
  7
GREEKS
100
AcDbText
  0
INSERT
  5
9B
330
1E
100
AcDbEntity
  8
HILF
100
AcDbBlockReference
  2
LORO
 10
573.0624985962354
 20
36.98059300298954
 30
0.0
 41
2.0
 42
2.0
 43
2.0
  0
LINE
  5
9C
330
1E
100
AcDbEntity
  8
BEM
100
AcDbLine
 10
456.0
 20
-0.0000000000001137
 30
0.0
 11
456.0
 21
9.999999999999886
 31
0.0
  0
LINE
  5
13E
330
1E
100
AcDbEntity
  8
HILF
100
AcDbLine
 10
0.0
 20
0.0
 30
0.0
 11
0.0000000000001705
 21
594.0
 31
0.0
  0
LINE
  5
13F
330
1E
100
AcDbEntity
  8
STEMPEL
100
AcDbLine
 10
40.0
 20
10.0
 30
0.0
 11
40.00000000000011
 21
584.0
 31
0.0
  0
LINE
  5
14A
330
1E
100
AcDbEntity
  8
HILF
100
AcDbLine
 10
0.0000000000000568
 20
297.0
 30
0.0
 11
40.00000000000006
 21
297.0
 31
0.0
  0
TEXT
  5
15B
330
1E
100
AcDbEntity
  8
TEXT
100
AcDbText
 10
837.3022923857165
 20
10.16790107998847
 30
0.0
 40
4.0
  1
Diese Zeichnung ist urheberrechtlich geschützt und bleibt unser Eigentum. Sie darf weder ganz noch teilweise verfielfältigt und nicht an Dritte weitergegeben werden.
 50
89.99999999999998
 41
0.8
  7
GREEKS
100
AcDbText
  0
TEXT
  5
ACA
330
1E
100
AcDbEntity
  8
TEXT
100
AcDbText
 10
612.2898419893275
 20
89.26643524492067
 30
0.0
 40
4.0
  1
DIN EN1123-2
 41
0.8
  7
GREEKS
 72
     1
 11
629.2803181798038
 21
89.26643524492067
 31
0.0
100
AcDbText
  0
TEXT
  5
AE3
330
1E
100
AcDbEntity
  8
TEXT
 62
     1
100
AcDbText
 10
664.6057658946469
 20
129.0783465745481
 30
0.0
 40
7.0
  1

 41
0.8
  7
GREEKS
100
AcDbText
  0
TEXT
  5
1074
330
1E
100
AcDbEntity
  8
TEXT
 62
     1
100
AcDbText
 10
314.6055936936341
 20
84.17747414387127
 30
0.0
 40
7.0
  1
und innen beschichtet
 41
0.8
  7
GREEKS
100
AcDbText
  0
TEXT
  5
1075
330
1E
100
AcDbEntity
  8
TEXT
 62
     1
100
AcDbText
 10
266.6558762562363
 20
94.89958595887475
 30
0.0
 40
7.0
  1
Werkstoff: E195 EN10305 feuerverzinkt
 41
0.8
  7
GREEKS
100
AcDbText
  0
TEXT
  5
1076
330
1E
100
AcDbEntity
  8
TEXT
 62
     1
100
AcDbText
 10
770.6628088850802
 20
62.79741485912879
 30
0.0
 40
7.0
  1
55153X12
 41
0.8
  7
GREEKS
 72
     1
 11
790.1294755517469
 21
62.79741485912879
 31
0.0
100
AcDbText
  0
TEXT
  5
10C3
330
1E
100
AcDbEntity
  8
TEXT
 62
     1
100
AcDbText
 10
622.8789479987974
 20
425.206389313743
 30
0.0
 40
7.0
  1
DN125
 41
0.8
  7
GREEKS
100
AcDbText
  0
LINE
  5
13AC
330
1E
100
AcDbEntity
  8
STEMPEL
100
AcDbLine
 10
728.7128067205972
 20
488.3338159999195
 30
0.0
 11
727.788977128354
 21
488.7646048136128
 31
0.0
  0
ARC
  5
13AD
330
1E
100
AcDbEntity
  8
STEMPEL
100
AcDbCircle
 10
696.0038067205971
 20
461.5753712025132
 30
0.0
 40
29.99973625969209
100
AcDbArc
 50
90.0
 51
115.0071583365423
  0
ARC
  5
13AE
330
1E
100
AcDbEntity
  8
STEMPEL
100
AcDbCircle
 10
675.7128067205972
 20
505.0753712025133
 30
0.0
 40
18.0
100
AcDbArc
 50
270.0
 51
295.0071583365423
  0
LINE
  5
13AF
330
1E
100
AcDbEntity
  8
STEMPEL
100
AcDbLine
 10
715.1104292761329
 20
491.5753712025132
 30
0.0
 11
696.0038067205971
 21
491.5753712025132
 31
0.0
  0
ARC
  5
13B0
330
1E
100
AcDbEntity
  8
STEMPEL
100
AcDbCircle
 10
715.1104292761329
 20
461.5753712025132
 30
0.0
 40
30.0
100
AcDbArc
 50
65.00000000000655
 51
90.0
  0
ARC
  5
13B1
330
1E
100
AcDbEntity
  8
STEMPEL
100
AcDbCircle
 10
577.1815261432683
 20
469.0753712025133
 30
0.0
 40
18.0
100
AcDbArc
 50
90.0
 51
124.771944031949
  0
ARC
  5
13B2
330
1E
100
AcDbEntity
  8
STEMPEL
100
AcDbCircle
 10
561.2128067205971
 20
492.0753712025134
 30
0.0
 40
10.0
100
AcDbArc
 50
270.0
 51
304.771944031949
  0
LINE
  5
13CB
330
1E
100
AcDbEntity
  8
TEXT
 62
     2
100
AcDbLine
 10
464.1555552325778
 20
550.0462922394981
 30
0.0
 11
422.9787474975544
 21
508.590802104595
 31
0.0
  0
LINE
  5
13CC
330
1E
100
AcDbEntity
  8
TEXT
 62
     2
100
AcDbLine
 10
507.5425174159289
 20
523.5308613374164
 30
0.0
 11
466.3657096809055
 21
477.0753712025133
 31
0.0
  0
TEXT
  5
13CD
330
1E
100
AcDbEntity
  8
TEXT
 62
     1
100
AcDbText
 10
464.3458289071517
 20
553.4261976563946
 30
0.0
 40
7.0
  1
Hutmutter DIN1587-M8
 41
0.75
  7
GREEKS
100
AcDbText
  0
LINE
  5
13CE
330
1E
100
AcDbEntity
  8
TEXT
 62
     2
100
AcDbLine
 10
464.1555552325778
 20
550.0462922394981
 30
0.0
 11
559.9073588264181
 21
550.0462922394981
 31
0.0
  0
LINE
  5
13CF
330
1E
100
AcDbEntity
  8
STEMPEL
100
AcDbLine
 10
675.7128067205972
 20
487.0753712025132
 30
0.0
 11
577.1815261432683
 21
487.0753712025132
 31
0.0
  0
TEXT
  5
13D0
330
1E
100
AcDbEntity
  8
TEXT
 62
     1
100
AcDbText
 10
507.7327910905029
 20
526.9107667543129
 30
0.0
 40
7.0
  1
Regenstandrohr DN125
 41
0.75
  7
GREEKS
100
AcDbText
  0
LINE
  5
13D1
330
1E
100
AcDbEntity
  8
TEXT
 62
     2
100
AcDbLine
 10
507.5425174159289
 20
523.5308613374164
 30
0.0
 11
602.2652864152927
 21
523.5308613374164
 31
0.0
  0
TEXT
  5
13D2
330
1E
100
AcDbEntity
  8
TEXT
 62
     1
100
AcDbText
 10
507.7327910905029
 20
514.1245363985192
 30
0.0
 40
7.0
  1
nach Zchng. S000397B
 41
0.75
  7
GREEKS
100
AcDbText
  0
LINE
  5
13D3
330
1E
100
AcDbEntity
  8
STEMPEL
100
AcDbLine
 10
728.7128067205972
 20
342.816926405107
 30
0.0
 11
727.788977128354
 21
342.3861375914137
 31
0.0
  0
LINE
  5
13D4
330
1E
100
AcDbEntity
  8
STEMPEL
100
AcDbLine
 10
728.7128067205972
 20
317.3092850887092
 30
0.0
 11
727.788977128354
 21
317.7400739024025
 31
0.0
  0
ARC
  5
13D5
330
1E
100
AcDbEntity
  8
STEMPEL
100
AcDbCircle
 10
696.0038067205971
 20
369.5753712025133
 30
0.0
 40
29.99973625969209
100
AcDbArc
 50
244.9928416634577
 51
270.0
  0
LINE
  5
13D6
330
1E
100
AcDbEntity
  8
STEMPEL
100
AcDbLine
 10
715.1104292761329
 20
339.5753712025133
 30
0.0
 11
696.0038067205971
 21
339.5753712025133
 31
0.0
  0
ARC
  5
13D7
330
1E
100
AcDbEntity
  8
STEMPEL
100
AcDbCircle
 10
696.0038067205971
 20
290.550840291303
 30
0.0
 40
29.99973625969209
100
AcDbArc
 50
90.0
 51
115.0071583365423
  0
ARC
  5
13D8
330
1E
100
AcDbEntity
  8
STEMPEL
100
AcDbCircle
 10
675.7128067205972
 20
334.050840291303
 30
0.0
 40
18.0
100
AcDbArc
 50
270.0
 51
295.0071583365423
  0
LINE
  5
13D9
330
1E
100
AcDbEntity
  8
STEMPEL
100
AcDbLine
 10
715.1104292761329
 20
320.550840291303
 30
0.0
 11
696.0038067205971
 21
320.550840291303
 31
0.0
  0
ARC
  5
13DA
330
1E
100
AcDbEntity
  8
STEMPEL
100
AcDbCircle
 10
715.1104292761329
 20
290.550840291303
 30
0.0
 40
30.0
100
AcDbArc
 50
65.00000000000655
 51
90.0
  0
ARC
  5
13DB
330
1E
100
AcDbEntity
  8
STEMPEL
100
AcDbCircle
 10
715.1104292761329
 20
369.5753712025133
 30
0.0
 40
30.0
100
AcDbArc
 50
270.0
 51
294.9999999999935
  0
ARC
  5
13DC
330
1E
100
AcDbEntity
  8
STEMPEL
100
AcDbCircle
 10
675.7128067205972
 20
326.0753712025133
 30
0.0
 40
18.0
100
AcDbArc
 50
64.99284166345768
 51
90.0
  0
ARC
  5
13DD
330
1E
100
AcDbEntity
  8
STEMPEL
100
AcDbCircle
 10
561.2128067205971
 20
339.0753712025132
 30
0.0
 40
10.0
100
AcDbArc
 50
55.22805596805097
 51
90.0
  0
ARC
  5
13DE
330
1E
100
AcDbEntity
  8
STEMPEL
100
AcDbCircle
 10
577.1815261432683
 20
298.0508402913029
 30
0.0
 40
18.0
100
AcDbArc
 50
90.0
 51
124.771944031949
  0
ARC
  5
13DF
330
1E
100
AcDbEntity
  8
STEMPEL
100
AcDbCircle
 10
561.2128067205971
 20
321.0508402913031
 30
0.0
 40
10.0
100
AcDbArc
 50
270.0
 51
304.771944031949
  0
ARC
  5
13E0
330
1E
100
AcDbEntity
  8
STEMPEL
100
AcDbCircle
 10
577.1815261432683
 20
362.0753712025133
 30
0.0
 40
18.0
100
AcDbArc
 50
235.228055968051
 51
270.0
  0
ARC
  5
13E1
330
1E
100
AcDbEntity
  8
STEMPEL
100
AcDbCircle
 10
405.2128067205972
 20
244.5508402913031
 30
0.0
 40
26.0
100
AcDbArc
 50
313.6511281171656
 51
46.34887188283442
  0
ARC
  5
13E2
330
1E
100
AcDbEntity
  8
HILF
100
AcDbCircle
 10
405.2128067205972
 20
244.5508402913031
 30
0.0
 40
25.0
100
AcDbArc
 50
313.6511281171656
 51
46.34887188283442
  0
LINE
  5
13E3
330
1E
100
AcDbEntity
  8
MITTEL
100
AcDbLine
 10
420.2128067205972
 20
233.5669385589456
 30
0.0
 11
420.2128067205972
 21
255.9715399151512
 31
0.0
  0
LINE
  5
13E4
330
1E
100
AcDbEntity
  8
STEMPEL
100
AcDbLine
 10
675.7128067205972
 20
316.050840291303
 30
0.0
 11
577.1815261432683
 21
316.050840291303
 31
0.0
  0
LINE
  5
13E5
330
1E
100
AcDbEntity
  8
STEMPEL
100
AcDbLine
 10
675.7128067205972
 20
344.0753712025133
 30
0.0
 11
577.1815261432683
 21
344.0753712025132
 31
0.0
  0
LINE
  5
13E6
330
1E
100
AcDbEntity
  8
HILF
100
AcDbLine
 10
571.8029974012636
 20
483.6122700661456
 30
0.0
 11
571.8029974012636
 21
347.5384723388821
 31
0.0
  0
LINE
  5
13E7
330
1E
100
AcDbEntity
  8
HILF
100
AcDbLine
 10
564.2008782439331
 20
479.9377672968242
 30
0.0
 11
564.2008782439331
 21
351.2129751082037
 31
0.0
  0
LINE
  5
13E8
330
1E
100
AcDbEntity
  8
HILF
100
AcDbLine
 10
679.6098175393015
 20
484.9491865993917
 30
0.0
 11
679.6098175393015
 21
346.2015558056338
 31
0.0
  0
LINE
  5
13E9
330
1E
100
AcDbEntity
  8
STEMPEL
100
AcDbLine
 10
728.7128067205972
 20
488.3338159999195
 30
0.0
 11
728.7128067205972
 21
342.816926405107
 31
0.0
  0
LINE
  5
13EA
330
1E
100
AcDbEntity
  8
STEMPEL
100
AcDbLine
 10
728.7128067205972
 20
171.7923954938967
 30
0.0
 11
727.788977128354
 21
171.3616066802034
 31
0.0
  0
ARC
  5
13EB
330
1E
100
AcDbEntity
  8
STEMPEL
100
AcDbCircle
 10
696.0038067205971
 20
198.5508402913029
 30
0.0
 40
29.99973625969209
100
AcDbArc
 50
244.9928416634577
 51
270.0
  0
ARC
  5
13EC
330
1E
100
AcDbEntity
  8
STEMPEL
100
AcDbCircle
 10
675.7128067205972
 20
155.0508402913029
 30
0.0
 40
18.0
100
AcDbArc
 50
64.99284166345768
 51
90.0
  0
LINE
  5
13ED
330
1E
100
AcDbEntity
  8
STEMPEL
100
AcDbLine
 10
715.1104292761329
 20
168.5508402913029
 30
0.0
 11
696.0038067205971
 21
168.5508402913029
 31
0.0
  0
ARC
  5
13EE
330
1E
100
AcDbEntity
  8
STEMPEL
100
AcDbCircle
 10
715.1104292761329
 20
198.5508402913029
 30
0.0
 40
30.0
100
AcDbArc
 50
270.0
 51
294.9999999999935
  0
ARC
  5
13EF
330
1E
100
AcDbEntity
  8
STEMPEL
100
AcDbCircle
 10
577.1815261432683
 20
191.0508402913029
 30
0.0
 40
18.0
100
AcDbArc
 50
235.228055968051
 51
270.0
  0
ARC
  5
13F0
330
1E
100
AcDbEntity
  8
STEMPEL
100
AcDbCircle
 10
561.2128067205971
 20
168.0508402913028
 30
0.0
 40
10.0
100
AcDbArc
 50
55.22805596805097
 51
90.0
  0
DIMENSION
  5
13F1
330
1E
100
AcDbEntity
  8
BEM
100
AcDbDimension
280
     0
  2
*D4
 10
568.7128067205971
 20
149.7817639622379
 30
0.0
 11
648.7128067205972
 21
156.2817639622379
 31
0.0
 70
    32
 71
     5
 42
160.0
 73
     0
 74
     0
 75
     0
  3
Standard
100
AcDbAlignedDimension
 13
728.7128067205972
 23
171.7923954938967
 33
0.0
 14
568.7128067205971
 24
175.1674907912739
 34
0.0
100
AcDbRotatedDimension
1001
ACAD
1000
DSTYLE
1002
{
1070
    40
1040
2.0
1070
    41
1040
3.5
1070
    42
1040
1.0
1070
    43
1040
7.0
1070
    44
1040
1.0
1070
    73
1070
     0
1070
    74
1070
     0
1070
    77
1070
     1
1070
    78
1070
     8
1070
    79
1070
     2
1070
   140
1040
3.5
1070
   141
1040
1.5
1070
   146
1040
0.5142857142857144
1070
   147
1040
1.5
1070
   172
1070
     1
1070
   178
1070
     1
1070
   179
1070
     2
1070
   271
1070
     2
1070
   272
1070
     2
1070
   284
1070
     8
1070
   285
1070
     8
1070
   286
1070
     8
1002
}
  0
LINE
  5
13F2
330
1E
100
AcDbEntity
  8
STEMPEL
100
AcDbLine
 10
675.7128067205972
 20
173.0508402913029
 30
0.0
 11
577.1815261432683
 21
173.0508402913029
 31
0.0
  0
LINE
  5
13F3
330
1E
100
AcDbEntity
  8
HILF
100
AcDbLine
 10
571.8029974012636
 20
312.5877391549353
 30
0.0
 11
571.8029974012636
 21
176.5139414276718
 31
0.0
  0
LINE
  5
13F4
330
1E
100
AcDbEntity
  8
HILF
100
AcDbLine
 10
564.2008782439331
 20
308.9132363856139
 30
0.0
 11
564.2008782439331
 21
180.1884441969934
 31
0.0
  0
LINE
  5
13F5
330
1E
100
AcDbEntity
  8
HILF
100
AcDbLine
 10
679.6098175393015
 20
313.9246556881815
 30
0.0
 11
679.6098175393015
 21
175.1770248944236
 31
0.0
  0
LINE
  5
13F6
330
1E
100
AcDbEntity
  8
STEMPEL
100
AcDbLine
 10
728.7128067205972
 20
317.3092850887092
 30
0.0
 11
728.7128067205972
 21
171.7923954938967
 31
0.0
  0
LINE
  5
1449
330
1E
100
AcDbEntity
  8
MITTEL
100
AcDbLine
 10
348.7128067205973
 20
504.5753712025134
 30
0.0
 11
348.7128067205972
 21
415.5753712025133
 31
0.0
  0
LINE
  5
144A
330
1E
100
AcDbEntity
  8
STEMPEL
100
AcDbLine
 10
205.7587424490549
 20
482.0753712025133
 30
0.0
 11
146.1895216404571
 21
482.0753712025133
 31
0.0
  0
TEXT
  5
144B
330
1E
100
AcDbEntity
  8
TEXT
 62
     1
100
AcDbText
 10
127.8696820077621
 20
524.25922414492
 30
0.0
 40
7.0
  1
Deckel DN125
 41
0.75
  7
GREEKS
100
AcDbText
  0
LINE
  5
144C
330
1E
100
AcDbEntity
  8
TEXT
 62
     2
100
AcDbLine
 10
127.6794083331881
 20
520.8793187280235
 30
0.0
 11
227.0369069564923
 21
520.8793187280235
 31
0.0
  0
TEXT
  5
144D
330
1E
100
AcDbEntity
  8
TEXT
 62
     1
100
AcDbText
 10
127.8696820077621
 20
511.4729937891263
 30
0.0
 40
7.0
  1
EDV-Art.Nr. 55881.125X
 41
0.75
  7
GREEKS
100
AcDbText
  0
LINE
  5
144E
330
1E
100
AcDbEntity
  8
STEMPEL
100
AcDbLine
 10
286.2128067205973
 20
482.0753712025133
 30
0.0
 11
210.7587424490549
 21
482.0753712025133
 31
0.0
  0
LINE
  5
144F
330
1E
100
AcDbEntity
  8
TEXT
 62
     2
100
AcDbLine
 10
268.2137146915157
 20
493.9890945292304
 30
0.0
 11
227.0369069564923
 21
520.8793187280235
 31
0.0
  0
LINE
  5
1470
330
1E
100
AcDbEntity
  8
STEMPEL
100
AcDbLine
 10
303.8455500834289
 20
291.5819925401529
 30
0.0
 11
274.2659040657295
 21
263.3633011908433
 31
0.0
  0
LINE
  5
1471
330
1E
100
AcDbEntity
  8
HILF
100
AcDbLine
 10
304.5358155701547
 20
290.8584363517093
 30
0.0
 11
274.9561695524553
 21
262.6397450023992
 31
0.0
  0
INSERT
  5
1472
330
1E
100
AcDbEntity
  8
STEMPEL
100
AcDbBlockReference
  2
8DI931D
 10
277.2128067205967
 20
244.5508402913031
 30
0.0
  0
CIRCLE
  5
1473
330
1E
100
AcDbEntity
  8
STEMPEL
100
AcDbCircle
 10
277.2128067205967
 20
244.7692392370484
 30
0.0
 40
5.65
  0
ARC
  5
1474
330
1E
100
AcDbEntity
  8
STEMPEL
100
AcDbCircle
 10
292.2128067205972
 20
244.5508402913031
 30
0.0
 40
26.0
100
AcDbArc
 50
133.6511281171656
 51
226.3488718828344
  0
ARC
  5
1475
330
1E
100
AcDbEntity
  8
HILF
100
AcDbCircle
 10
292.2128067205972
 20
244.5508402913031
 30
0.0
 40
25.0
100
AcDbArc
 50
133.6511281171656
 51
226.3488718828344
  0
LINE
  5
1476
330
1E
100
AcDbEntity
  8
MITTEL
100
AcDbLine
 10
277.2128067205967
 20
233.5669385589456
 30
0.0
 11
277.2128067205967
 21
255.9715399151512
 31
0.0
  0
ARC
  5
1479
330
1E
100
AcDbEntity
  8
STEMPEL
100
AcDbCircle
 10
348.7128067205972
 20
244.5508402913033
 30
0.0
 40
65.0
100
AcDbArc
 50
46.34887188283442
 51
133.6511281171656
  0
ARC
  5
147A
330
1E
100
AcDbEntity
  8
HILF
100
AcDbCircle
 10
348.7128067205972
 20
244.5508402913033
 30
0.0
 40
64.0
100
AcDbArc
 50
46.34887188283442
 51
133.6511281171656
  0
LINE
  5
147B
330
1E
100
AcDbEntity
  8
STEMPEL
100
AcDbLine
 10
205.7587424490549
 20
349.0753712025132
 30
0.0
 11
146.1895216404571
 21
349.0753712025132
 31
0.0
  0
LINE
  5
147C
330
1E
100
AcDbEntity
  8
STEMPEL
100
AcDbLine
 10
205.7587424490549
 20
311.0508402913031
 30
0.0
 11
146.1895216404571
 21
311.0508402913031
 31
0.0
  0
POLYLINE
  5
147D
330
1E
100
AcDbEntity
  8
HILF
100
AcDb2dPolyline
 66
     1
 10
0.0
 20
0.0
 30
0.0
 70
     4
 75
     6
  0
VERTEX
  5
147E
330
147D
100
AcDbEntity
  8
HILF
100
AcDbVertex
100
AcDb2dVertex
 10
210.7587424490549
 20
482.0753712025133
 30
0.0
 70
    16
  0
VERTEX
  5
147F
330
147D
100
AcDbEntity
  8
HILF
100
AcDbVertex
100
AcDb2dVertex
 10
210.7587424490549
 20
482.0753712025133
 30
0.0
 70
     8
  0
VERTEX
  5
1480
330
147D
100
AcDbEntity
  8
HILF
100
AcDbVertex
100
AcDb2dVertex
 10
213.152996665558
 20
472.222112746927
 30
0.0
 70
     8
  0
VERTEX
  5
1481
330
147D
100
AcDbEntity
  8
HILF
100
AcDbVertex
100
AcDb2dVertex
 10
214.9305282788867
 20
463.7929883767784
 30
0.0
 70
     8
  0
VERTEX
  5
1482
330
147D
100
AcDbEntity
  8
HILF
100
AcDbVertex
100
AcDb2dVertex
 10
216.1556259541482
 20
456.6126638249724
 30
0.0
 70
     8
  0
VERTEX
  5
1483
330
147D
100
AcDbEntity
  8
HILF
100
AcDbVertex
100
AcDb2dVertex
 10
216.8925783564495
 20
450.5058048244129
 30
0.0
 70
     8
  0
VERTEX
  5
1484
330
147D
100
AcDbEntity
  8
HILF
100
AcDbVertex
100
AcDb2dVertex
 10
217.2056741508978
 20
445.2970771080044
 30
0.0
 70
     8
  0
VERTEX
  5
1485
330
147D
100
AcDbEntity
  8
HILF
100
AcDbVertex
100
AcDb2dVertex
 10
217.1592020026004
 20
440.8111464086513
 30
0.0
 70
     8
  0
VERTEX
  5
1486
330
147D
100
AcDbEntity
  8
HILF
100
AcDbVertex
100
AcDb2dVertex
 10
216.8174505766641
 20
436.8726784592579
 30
0.0
 70
     8
  0
VERTEX
  5
1487
330
147D
100
AcDbEntity
  8
HILF
100
AcDbVertex
100
AcDb2dVertex
 10
216.2447085381963
 20
433.3063389927287
 30
0.0
 70
     8
  0
VERTEX
  5
1488
330
147D
100
AcDbEntity
  8
HILF
100
AcDbVertex
100
AcDb2dVertex
 10
215.4964020186463
 20
429.9604057584025
 30
0.0
 70
     8
  0
VERTEX
  5
1489
330
147D
100
AcDbEntity
  8
HILF
100
AcDbVertex
100
AcDb2dVertex
 10
214.5925070148336
 20
426.7776045713583
 30
0.0
 70
     8
  0
VERTEX
  5
148A
330
147D
100
AcDbEntity
  8
HILF
100
AcDbVertex
100
AcDb2dVertex
 10
213.5441369899196
 20
423.7242732631091
 30
0.0
 70
     8
  0
VERTEX
  5
148B
330
147D
100
AcDbEntity
  8
HILF
100
AcDbVertex
100
AcDb2dVertex
 10
212.3624054070659
 20
420.7667496651681
 30
0.0
 70
     8
  0
VERTEX
  5
148C
330
147D
100
AcDbEntity
  8
HILF
100
AcDbVertex
100
AcDb2dVertex
 10
211.0584257294344
 20
417.8713716090487
 30
0.0
 70
     8
  0
VERTEX
  5
148D
330
147D
100
AcDbEntity
  8
HILF
100
AcDbVertex
100
AcDb2dVertex
 10
209.6433114201865
 20
415.0044769262642
 30
0.0
 70
     8
  0
VERTEX
  5
148E
330
147D
100
AcDbEntity
  8
HILF
100
AcDbVertex
100
AcDb2dVertex
 10
208.1281759424838
 20
412.132403448328
 30
0.0
 70
     8
  0
VERTEX
  5
148F
330
147D
100
AcDbEntity
  8
HILF
100
AcDbVertex
100
AcDb2dVertex
 10
206.5241327594882
 20
409.2214890067531
 30
0.0
 70
     8
  0
VERTEX
  5
1490
330
147D
100
AcDbEntity
  8
HILF
100
AcDbVertex
100
AcDb2dVertex
 10
204.8488939531134
 20
406.241955529417
 30
0.0
 70
     8
  0
VERTEX
  5
1491
330
147D
100
AcDbEntity
  8
HILF
100
AcDbVertex
100
AcDb2dVertex
 10
203.146566080282
 20
403.1795613296521
 30
0.0
 70
     8
  0
VERTEX
  5
1492
330
147D
100
AcDbEntity
  8
HILF
100
AcDbVertex
100
AcDb2dVertex
 10
201.4678543166691
 20
400.0239488171548
 30
0.0
 70
     8
  0
VERTEX
  5
1493
330
147D
100
AcDbEntity
  8
HILF
100
AcDbVertex
100
AcDb2dVertex
 10
199.8634638379496
 20
396.7647604016215
 30
0.0
 70
     8
  0
VERTEX
  5
1494
330
147D
100
AcDbEntity
  8
HILF
100
AcDbVertex
100
AcDb2dVertex
 10
198.3840998197985
 20
393.3916384927485
 30
0.0
 70
     8
  0
VERTEX
  5
1495
330
147D
100
AcDbEntity
  8
HILF
100
AcDbVertex
100
AcDb2dVertex
 10
197.0804674378907
 20
389.8942255002322
 30
0.0
 70
     8
  0
VERTEX
  5
1496
330
147D
100
AcDbEntity
  8
HILF
100
AcDbVertex
100
AcDb2dVertex
 10
196.0032718679013
 20
386.2621638337692
 30
0.0
 70
     8
  0
VERTEX
  5
1497
330
147D
100
AcDbEntity
  8
HILF
100
AcDbVertex
100
AcDb2dVertex
 10
195.203218285505
 20
382.4850959030557
 30
0.0
 70
     8
  0
VERTEX
  5
1498
330
147D
100
AcDbEntity
  8
HILF
100
AcDbVertex
100
AcDb2dVertex
 10
194.7425240151823
 20
378.5590507488324
 30
0.0
 70
     8
  0
VERTEX
  5
1499
330
147D
100
AcDbEntity
  8
HILF
100
AcDbVertex
100
AcDb2dVertex
 10
194.7294549766352
 20
374.5056039360164
 30
0.0
 70
     8
  0
VERTEX
  5
149A
330
147D
100
AcDbEntity
  8
HILF
100
AcDbVertex
100
AcDb2dVertex
 10
195.283789238371
 20
370.3527176605692
 30
0.0
 70
     8
  0
VERTEX
  5
149B
330
147D
100
AcDbEntity
  8
HILF
100
AcDbVertex
100
AcDb2dVertex
 10
196.5253048688973
 20
366.1283541184521
 30
0.0
 70
     8
  0
VERTEX
  5
149C
330
147D
100
AcDbEntity
  8
HILF
100
AcDbVertex
100
AcDb2dVertex
 10
198.5737799367215
 20
361.8604755056267
 30
0.0
 70
     8
  0
VERTEX
  5
149D
330
147D
100
AcDbEntity
  8
HILF
100
AcDbVertex
100
AcDb2dVertex
 10
201.5489925103508
 20
357.577044018054
 30
0.0
 70
     8
  0
VERTEX
  5
149E
330
147D
100
AcDbEntity
  8
HILF
100
AcDbVertex
100
AcDb2dVertex
 10
205.5707206582929
 20
353.3060218516957
 30
0.0
 70
     8
  0
VERTEX
  5
149F
330
147D
100
AcDbEntity
  8
HILF
100
AcDbVertex
100
AcDb2dVertex
 10
210.7587424490549
 20
349.0753712025132
 30
0.0
 70
     8
  0
VERTEX
  5
14A0
330
147D
100
AcDbEntity
  8
HILF
100
AcDbVertex
100
AcDb2dVertex
 10
218.0228626440575
 20
453.7453171918362
 30
0.0
 70
    16
  0
VERTEX
  5
14A1
330
147D
100
AcDbEntity
  8
HILF
100
AcDbVertex
100
AcDb2dVertex
 10
218.0228626440575
 20
431.2072006911987
 30
0.0
 70
    16
  0
VERTEX
  5
14A2
330
147D
100
AcDbEntity
  8
HILF
100
AcDbVertex
100
AcDb2dVertex
 10
207.3539380088902
 20
409.994855749422
 30
0.0
 70
    16
  0
VERTEX
  5
14A3
330
147D
100
AcDbEntity
  8
HILF
100
AcDbVertex
100
AcDb2dVertex
 10
191.7061818773112
 20
384.142310351632
 30
0.0
 70
    16
  0
VERTEX
  5
14A4
330
147D
100
AcDbEntity
  8
HILF
100
AcDbVertex
100
AcDb2dVertex
 10
195.2624900890338
 20
360.2784222921334
 30
0.0
 70
    16
  0
VERTEX
  5
14A5
330
147D
100
AcDbEntity
  8
HILF
100
AcDbVertex
100
AcDb2dVertex
 10
210.7587424490549
 20
349.0753712025132
 30
0.0
 70
    16
  0
SEQEND
  5
14A6
330
147D
100
AcDbEntity
  8
HILF
  0
POLYLINE
  5
14A7
330
1E
100
AcDbEntity
  8
HILF
100
AcDb2dPolyline
 66
     1
 10
0.0
 20
0.0
 30
0.0
 70
     4
 75
     6
  0
VERTEX
  5
14A8
330
14A7
100
AcDbEntity
  8
HILF
100
AcDbVertex
100
AcDb2dVertex
 10
205.7587424490549
 20
482.0753712025133
 30
0.0
 70
    16
  0
VERTEX
  5
14A9
330
14A7
100
AcDbEntity
  8
HILF
100
AcDbVertex
100
AcDb2dVertex
 10
205.7587424490549
 20
482.0753712025133
 30
0.0
 70
     8
  0
VERTEX
  5
14AA
330
14A7
100
AcDbEntity
  8
HILF
100
AcDbVertex
100
AcDb2dVertex
 10
208.152996665558
 20
472.222112746927
 30
0.0
 70
     8
  0
VERTEX
  5
14AB
330
14A7
100
AcDbEntity
  8
HILF
100
AcDbVertex
100
AcDb2dVertex
 10
209.9305282788868
 20
463.7929883767784
 30
0.0
 70
     8
  0
VERTEX
  5
14AC
330
14A7
100
AcDbEntity
  8
HILF
100
AcDbVertex
100
AcDb2dVertex
 10
211.1556259541481
 20
456.6126638249724
 30
0.0
 70
     8
  0
VERTEX
  5
14AD
330
14A7
100
AcDbEntity
  8
HILF
100
AcDbVertex
100
AcDb2dVertex
 10
211.8925783564495
 20
450.5058048244129
 30
0.0
 70
     8
  0
VERTEX
  5
14AE
330
14A7
100
AcDbEntity
  8
HILF
100
AcDbVertex
100
AcDb2dVertex
 10
212.2056741508978
 20
445.2970771080044
 30
0.0
 70
     8
  0
VERTEX
  5
14AF
330
14A7
100
AcDbEntity
  8
HILF
100
AcDbVertex
100
AcDb2dVertex
 10
212.1592020026004
 20
440.8111464086513
 30
0.0
 70
     8
  0
VERTEX
  5
14B0
330
14A7
100
AcDbEntity
  8
HILF
100
AcDbVertex
100
AcDb2dVertex
 10
211.8174505766641
 20
436.8726784592579
 30
0.0
 70
     8
  0
VERTEX
  5
14B1
330
14A7
100
AcDbEntity
  8
HILF
100
AcDbVertex
100
AcDb2dVertex
 10
211.2447085381963
 20
433.3063389927287
 30
0.0
 70
     8
  0
VERTEX
  5
14B2
330
14A7
100
AcDbEntity
  8
HILF
100
AcDbVertex
100
AcDb2dVertex
 10
210.4964020186463
 20
429.9604057584025
 30
0.0
 70
     8
  0
VERTEX
  5
14B3
330
14A7
100
AcDbEntity
  8
HILF
100
AcDbVertex
100
AcDb2dVertex
 10
209.5925070148336
 20
426.7776045713583
 30
0.0
 70
     8
  0
VERTEX
  5
14B4
330
14A7
100
AcDbEntity
  8
HILF
100
AcDbVertex
100
AcDb2dVertex
 10
208.5441369899196
 20
423.7242732631091
 30
0.0
 70
     8
  0
VERTEX
  5
14B5
330
14A7
100
AcDbEntity
  8
HILF
100
AcDbVertex
100
AcDb2dVertex
 10
207.3624054070659
 20
420.7667496651681
 30
0.0
 70
     8
  0
VERTEX
  5
14B6
330
14A7
100
AcDbEntity
  8
HILF
100
AcDbVertex
100
AcDb2dVertex
 10
206.0584257294344
 20
417.8713716090487
 30
0.0
 70
     8
  0
VERTEX
  5
14B7
330
14A7
100
AcDbEntity
  8
HILF
100
AcDbVertex
100
AcDb2dVertex
 10
204.6433114201865
 20
415.0044769262642
 30
0.0
 70
     8
  0
VERTEX
  5
14B8
330
14A7
100
AcDbEntity
  8
HILF
100
AcDbVertex
100
AcDb2dVertex
 10
203.1281759424838
 20
412.132403448328
 30
0.0
 70
     8
  0
VERTEX
  5
14B9
330
14A7
100
AcDbEntity
  8
HILF
100
AcDbVertex
100
AcDb2dVertex
 10
201.5241327594882
 20
409.2214890067531
 30
0.0
 70
     8
  0
VERTEX
  5
14BA
330
14A7
100
AcDbEntity
  8
HILF
100
AcDbVertex
100
AcDb2dVertex
 10
199.8488939531133
 20
406.241955529417
 30
0.0
 70
     8
  0
VERTEX
  5
14BB
330
14A7
100
AcDbEntity
  8
HILF
100
AcDbVertex
100
AcDb2dVertex
 10
198.146566080282
 20
403.1795613296521
 30
0.0
 70
     8
  0
VERTEX
  5
14BC
330
14A7
100
AcDbEntity
  8
HILF
100
AcDbVertex
100
AcDb2dVertex
 10
196.4678543166691
 20
400.0239488171548
 30
0.0
 70
     8
  0
VERTEX
  5
14BD
330
14A7
100
AcDbEntity
  8
HILF
100
AcDbVertex
100
AcDb2dVertex
 10
194.8634638379497
 20
396.7647604016215
 30
0.0
 70
     8
  0
VERTEX
  5
14BE
330
14A7
100
AcDbEntity
  8
HILF
100
AcDbVertex
100
AcDb2dVertex
 10
193.3840998197985
 20
393.3916384927485
 30
0.0
 70
     8
  0
VERTEX
  5
14BF
330
14A7
100
AcDbEntity
  8
HILF
100
AcDbVertex
100
AcDb2dVertex
 10
192.0804674378907
 20
389.8942255002322
 30
0.0
 70
     8
  0
VERTEX
  5
14C0
330
14A7
100
AcDbEntity
  8
HILF
100
AcDbVertex
100
AcDb2dVertex
 10
191.0032718679012
 20
386.2621638337692
 30
0.0
 70
     8
  0
VERTEX
  5
14C1
330
14A7
100
AcDbEntity
  8
HILF
100
AcDbVertex
100
AcDb2dVertex
 10
190.203218285505
 20
382.4850959030557
 30
0.0
 70
     8
  0
VERTEX
  5
14C2
330
14A7
100
AcDbEntity
  8
HILF
100
AcDbVertex
100
AcDb2dVertex
 10
189.7425240151823
 20
378.5590507488324
 30
0.0
 70
     8
  0
VERTEX
  5
14C3
330
14A7
100
AcDbEntity
  8
HILF
100
AcDbVertex
100
AcDb2dVertex
 10
189.7294549766352
 20
374.5056039360164
 30
0.0
 70
     8
  0
VERTEX
  5
14C4
330
14A7
100
AcDbEntity
  8
HILF
100
AcDbVertex
100
AcDb2dVertex
 10
190.283789238371
 20
370.3527176605692
 30
0.0
 70
     8
  0
VERTEX
  5
14C5
330
14A7
100
AcDbEntity
  8
HILF
100
AcDbVertex
100
AcDb2dVertex
 10
191.5253048688973
 20
366.1283541184521
 30
0.0
 70
     8
  0
VERTEX
  5
14C6
330
14A7
100
AcDbEntity
  8
HILF
100
AcDbVertex
100
AcDb2dVertex
 10
193.5737799367215
 20
361.8604755056267
 30
0.0
 70
     8
  0
VERTEX
  5
14C7
330
14A7
100
AcDbEntity
  8
HILF
100
AcDbVertex
100
AcDb2dVertex
 10
196.5489925103508
 20
357.577044018054
 30
0.0
 70
     8
  0
VERTEX
  5
14C8
330
14A7
100
AcDbEntity
  8
HILF
100
AcDbVertex
100
AcDb2dVertex
 10
200.5707206582929
 20
353.3060218516957
 30
0.0
 70
     8
  0
VERTEX
  5
14C9
330
14A7
100
AcDbEntity
  8
HILF
100
AcDbVertex
100
AcDb2dVertex
 10
205.7587424490549
 20
349.0753712025132
 30
0.0
 70
     8
  0
VERTEX
  5
14CA
330
14A7
100
AcDbEntity
  8
HILF
100
AcDbVertex
100
AcDb2dVertex
 10
213.0228626440575
 20
453.7453171918362
 30
0.0
 70
    16
  0
VERTEX
  5
14CB
330
14A7
100
AcDbEntity
  8
HILF
100
AcDbVertex
100
AcDb2dVertex
 10
213.0228626440575
 20
431.2072006911987
 30
0.0
 70
    16
  0
VERTEX
  5
14CC
330
14A7
100
AcDbEntity
  8
HILF
100
AcDbVertex
100
AcDb2dVertex
 10
202.3539380088902
 20
409.994855749422
 30
0.0
 70
    16
  0
VERTEX
  5
14CD
330
14A7
100
AcDbEntity
  8
HILF
100
AcDbVertex
100
AcDb2dVertex
 10
186.7061818773112
 20
384.142310351632
 30
0.0
 70
    16
  0
VERTEX
  5
14CE
330
14A7
100
AcDbEntity
  8
HILF
100
AcDbVertex
100
AcDb2dVertex
 10
190.2624900890338
 20
360.2784222921334
 30
0.0
 70
    16
  0
VERTEX
  5
14CF
330
14A7
100
AcDbEntity
  8
HILF
100
AcDbVertex
100
AcDb2dVertex
 10
205.7587424490549
 20
349.0753712025132
 30
0.0
 70
    16
  0
SEQEND
  5
14D0
330
14A7
100
AcDbEntity
  8
HILF
  0
LINE
  5
14D1
330
1E
100
AcDbEntity
  8
STEMPEL
100
AcDbLine
 10
146.1895216404571
 20
482.0753712025133
 30
0.0
 11
146.1895216404571
 21
349.0753712025132
 31
0.0
  0
ARC
  5
14D2
330
1E
100
AcDbEntity
  8
HILF
100
AcDbCircle
 10
348.7128067205972
 20
244.5508402913031
 30
0.0
 40
64.0
100
AcDbArc
 50
226.3488718828344
 51
313.6511281171656
  0
ARC
  5
14D3
330
1E
100
AcDbEntity
  8
STEMPEL
100
AcDbCircle
 10
348.7128067205972
 20
244.5508402913031
 30
0.0
 40
65.0
100
AcDbArc
 50
226.3488718828344
 51
313.6511281171656
  0
LINE
  5
14D4
330
1E
100
AcDbEntity
  8
STEMPEL
100
AcDbLine
 10
205.7587424490549
 20
178.0508402913028
 30
0.0
 11
146.1895216404571
 21
178.0508402913028
 31
0.0
  0
DIMENSION
  5
14D5
330
1E
100
AcDbEntity
  8
BEM
100
AcDbDimension
280
     0
  2
*D5
 10
348.7128067205972
 20
149.4807379664651
 30
0.0
 11
247.4511641805271
 21
155.9807379664651
 31
0.0
 70
    32
  1
620
 71
     5
 42
202.5232850801401
 73
     0
 74
     0
 75
     0
  3
Standard
100
AcDbAlignedDimension
 13
146.1895216404571
 23
178.0508402913028
 33
0.0
 14
348.7128067205972
 24
174.550840291303
 34
0.0
100
AcDbRotatedDimension
1001
ACAD
1000
DSTYLE
1002
{
1070
    40
1040
2.0
1070
    41
1040
3.5
1070
    42
1040
1.0
1070
    43
1040
7.0
1070
    44
1040
1.0
1070
    73
1070
     0
1070
    74
1070
     0
1070
    77
1070
     1
1070
    78
1070
     8
1070
    79
1070
     2
1070
   140
1040
3.5
1070
   141
1040
1.5
1070
   146
1040
0.5142857142857144
1070
   147
1040
1.5
1070
   172
1070
     1
1070
   178
1070
     1
1070
   179
1070
     2
1070
   271
1070
     2
1070
   272
1070
     2
1070
   284
1070
     8
1070
   285
1070
     8
1070
   286
1070
     8
1002
}
  0
POLYLINE
  5
14D6
330
1E
100
AcDbEntity
  8
HILF
100
AcDb2dPolyline
 66
     1
 10
0.0
 20
0.0
 30
0.0
 70
     4
 75
     6
  0
VERTEX
  5
14D7
330
14D6
100
AcDbEntity
  8
HILF
100
AcDbVertex
100
AcDb2dVertex
 10
210.7587424490549
 20
311.0508402913031
 30
0.0
 70
    16
  0
VERTEX
  5
14D8
330
14D6
100
AcDbEntity
  8
HILF
100
AcDbVertex
100
AcDb2dVertex
 10
210.7587424490549
 20
311.0508402913031
 30
0.0
 70
     8
  0
VERTEX
  5
14D9
330
14D6
100
AcDbEntity
  8
HILF
100
AcDbVertex
100
AcDb2dVertex
 10
213.152996665558
 20
301.1975818357167
 30
0.0
 70
     8
  0
VERTEX
  5
14DA
330
14D6
100
AcDbEntity
  8
HILF
100
AcDbVertex
100
AcDb2dVertex
 10
214.9305282788867
 20
292.7684574655682
 30
0.0
 70
     8
  0
VERTEX
  5
14DB
330
14D6
100
AcDbEntity
  8
HILF
100
AcDbVertex
100
AcDb2dVertex
 10
216.1556259541482
 20
285.5881329137621
 30
0.0
 70
     8
  0
VERTEX
  5
14DC
330
14D6
100
AcDbEntity
  8
HILF
100
AcDbVertex
100
AcDb2dVertex
 10
216.8925783564495
 20
279.4812739132026
 30
0.0
 70
     8
  0
VERTEX
  5
14DD
330
14D6
100
AcDbEntity
  8
HILF
100
AcDbVertex
100
AcDb2dVertex
 10
217.2056741508978
 20
274.2725461967942
 30
0.0
 70
     8
  0
VERTEX
  5
14DE
330
14D6
100
AcDbEntity
  8
HILF
100
AcDbVertex
100
AcDb2dVertex
 10
217.1592020026004
 20
269.786615497441
 30
0.0
 70
     8
  0
VERTEX
  5
14DF
330
14D6
100
AcDbEntity
  8
HILF
100
AcDbVertex
100
AcDb2dVertex
 10
216.8174505766641
 20
265.8481475480477
 30
0.0
 70
     8
  0
VERTEX
  5
14E0
330
14D6
100
AcDbEntity
  8
HILF
100
AcDbVertex
100
AcDb2dVertex
 10
216.2447085381963
 20
262.2818080815184
 30
0.0
 70
     8
  0
VERTEX
  5
14E1
330
14D6
100
AcDbEntity
  8
HILF
100
AcDbVertex
100
AcDb2dVertex
 10
215.4964020186463
 20
258.9358748471923
 30
0.0
 70
     8
  0
VERTEX
  5
14E2
330
14D6
100
AcDbEntity
  8
HILF
100
AcDbVertex
100
AcDb2dVertex
 10
214.5925070148336
 20
255.7530736601481
 30
0.0
 70
     8
  0
VERTEX
  5
14E3
330
14D6
100
AcDbEntity
  8
HILF
100
AcDbVertex
100
AcDb2dVertex
 10
213.5441369899196
 20
252.6997423518988
 30
0.0
 70
     8
  0
VERTEX
  5
14E4
330
14D6
100
AcDbEntity
  8
HILF
100
AcDbVertex
100
AcDb2dVertex
 10
212.3624054070659
 20
249.7422187539578
 30
0.0
 70
     8
  0
VERTEX
  5
14E5
330
14D6
100
AcDbEntity
  8
HILF
100
AcDbVertex
100
AcDb2dVertex
 10
211.0584257294344
 20
246.8468406978384
 30
0.0
 70
     8
  0
VERTEX
  5
14E6
330
14D6
100
AcDbEntity
  8
HILF
100
AcDbVertex
100
AcDb2dVertex
 10
209.6433114201865
 20
243.9799460150539
 30
0.0
 70
     8
  0
VERTEX
  5
14E7
330
14D6
100
AcDbEntity
  8
HILF
100
AcDbVertex
100
AcDb2dVertex
 10
208.1281759424838
 20
241.1078725371177
 30
0.0
 70
     8
  0
VERTEX
  5
14E8
330
14D6
100
AcDbEntity
  8
HILF
100
AcDbVertex
100
AcDb2dVertex
 10
206.5241327594882
 20
238.1969580955429
 30
0.0
 70
     8
  0
VERTEX
  5
14E9
330
14D6
100
AcDbEntity
  8
HILF
100
AcDbVertex
100
AcDb2dVertex
 10
204.8488939531134
 20
235.2174246182068
 30
0.0
 70
     8
  0
VERTEX
  5
14EA
330
14D6
100
AcDbEntity
  8
HILF
100
AcDbVertex
100
AcDb2dVertex
 10
203.146566080282
 20
232.1550304184419
 30
0.0
 70
     8
  0
VERTEX
  5
14EB
330
14D6
100
AcDbEntity
  8
HILF
100
AcDbVertex
100
AcDb2dVertex
 10
201.4678543166691
 20
228.9994179059445
 30
0.0
 70
     8
  0
VERTEX
  5
14EC
330
14D6
100
AcDbEntity
  8
HILF
100
AcDbVertex
100
AcDb2dVertex
 10
199.8634638379496
 20
225.7402294904111
 30
0.0
 70
     8
  0
VERTEX
  5
14ED
330
14D6
100
AcDbEntity
  8
HILF
100
AcDbVertex
100
AcDb2dVertex
 10
198.3840998197985
 20
222.3671075815381
 30
0.0
 70
     8
  0
VERTEX
  5
14EE
330
14D6
100
AcDbEntity
  8
HILF
100
AcDbVertex
100
AcDb2dVertex
 10
197.0804674378907
 20
218.869694589022
 30
0.0
 70
     8
  0
VERTEX
  5
14EF
330
14D6
100
AcDbEntity
  8
HILF
100
AcDbVertex
100
AcDb2dVertex
 10
196.0032718679013
 20
215.2376329225589
 30
0.0
 70
     8
  0
VERTEX
  5
14F0
330
14D6
100
AcDbEntity
  8
HILF
100
AcDbVertex
100
AcDb2dVertex
 10
195.203218285505
 20
211.4605649918455
 30
0.0
 70
     8
  0
VERTEX
  5
14F1
330
14D6
100
AcDbEntity
  8
HILF
100
AcDbVertex
100
AcDb2dVertex
 10
194.7425240151823
 20
207.5345198376221
 30
0.0
 70
     8
  0
VERTEX
  5
14F2
330
14D6
100
AcDbEntity
  8
HILF
100
AcDbVertex
100
AcDb2dVertex
 10
194.7294549766352
 20
203.4810730248062
 30
0.0
 70
     8
  0
VERTEX
  5
14F3
330
14D6
100
AcDbEntity
  8
HILF
100
AcDbVertex
100
AcDb2dVertex
 10
195.283789238371
 20
199.3281867493589
 30
0.0
 70
     8
  0
VERTEX
  5
14F4
330
14D6
100
AcDbEntity
  8
HILF
100
AcDbVertex
100
AcDb2dVertex
 10
196.5253048688973
 20
195.1038232072418
 30
0.0
 70
     8
  0
VERTEX
  5
14F5
330
14D6
100
AcDbEntity
  8
HILF
100
AcDbVertex
100
AcDb2dVertex
 10
198.5737799367215
 20
190.8359445944163
 30
0.0
 70
     8
  0
VERTEX
  5
14F6
330
14D6
100
AcDbEntity
  8
HILF
100
AcDbVertex
100
AcDb2dVertex
 10
201.5489925103508
 20
186.5525131068437
 30
0.0
 70
     8
  0
VERTEX
  5
14F7
330
14D6
100
AcDbEntity
  8
HILF
100
AcDbVertex
100
AcDb2dVertex
 10
205.5707206582929
 20
182.2814909404854
 30
0.0
 70
     8
  0
VERTEX
  5
14F8
330
14D6
100
AcDbEntity
  8
HILF
100
AcDbVertex
100
AcDb2dVertex
 10
210.7587424490549
 20
178.0508402913028
 30
0.0
 70
     8
  0
VERTEX
  5
14F9
330
14D6
100
AcDbEntity
  8
HILF
100
AcDbVertex
100
AcDb2dVertex
 10
218.0228626440575
 20
282.720786280626
 30
0.0
 70
    16
  0
VERTEX
  5
14FA
330
14D6
100
AcDbEntity
  8
HILF
100
AcDbVertex
100
AcDb2dVertex
 10
218.0228626440575
 20
260.1826697799884
 30
0.0
 70
    16
  0
VERTEX
  5
14FB
330
14D6
100
AcDbEntity
  8
HILF
100
AcDbVertex
100
AcDb2dVertex
 10
207.3539380088902
 20
238.9703248382119
 30
0.0
 70
    16
  0
VERTEX
  5
14FC
330
14D6
100
AcDbEntity
  8
HILF
100
AcDbVertex
100
AcDb2dVertex
 10
191.7061818773112
 20
213.1177794404217
 30
0.0
 70
    16
  0
VERTEX
  5
14FD
330
14D6
100
AcDbEntity
  8
HILF
100
AcDbVertex
100
AcDb2dVertex
 10
195.2624900890338
 20
189.2538913809231
 30
0.0
 70
    16
  0
VERTEX
  5
14FE
330
14D6
100
AcDbEntity
  8
HILF
100
AcDbVertex
100
AcDb2dVertex
 10
210.7587424490549
 20
178.0508402913028
 30
0.0
 70
    16
  0
SEQEND
  5
14FF
330
14D6
100
AcDbEntity
  8
HILF
  0
LINE
  5
1500
330
1E
100
AcDbEntity
  8
STEMPEL
100
AcDbLine
 10
146.1895216404571
 20
311.0508402913031
 30
0.0
 11
146.1895216404571
 21
178.0508402913028
 31
0.0
  0
DIMENSION
  5
1501
330
1E
100
AcDbEntity
  8
BEM
100
AcDbDimension
280
     0
  2
*D6
 10
126.9602040441913
 20
311.0508402913031
 30
0.0
 11
120.4602040441912
 21
244.550840291303
 31
0.0
 70
    32
  1
%%c<>
 71
     5
 42
133.0000000000002
 73
     0
 74
     0
 75
     0
  3
Standard
100
AcDbAlignedDimension
 13
146.1895216404571
 23
178.0508402913028
 33
0.0
 14
146.1895216404571
 24
311.0508402913031
 34
0.0
 50
90.0
100
AcDbRotatedDimension
1001
ACAD
1000
DSTYLE
1002
{
1070
    40
1040
2.0
1070
    41
1040
3.5
1070
    42
1040
1.0
1070
    43
1040
7.0
1070
    44
1040
1.0
1070
    73
1070
     0
1070
    74
1070
     0
1070
    77
1070
     1
1070
    78
1070
     8
1070
    79
1070
     2
1070
   140
1040
3.5
1070
   141
1040
1.5
1070
   146
1040
0.5142857142857144
1070
   147
1040
1.5
1070
   172
1070
     1
1070
   178
1070
     1
1070
   179
1070
     2
1070
   271
1070
     2
1070
   272
1070
     2
1070
   284
1070
     8
1070
   285
1070
     8
1070
   286
1070
     8
1002
}
  0
POLYLINE
  5
1502
330
1E
100
AcDbEntity
  8
HILF
100
AcDb2dPolyline
 66
     1
 10
0.0
 20
0.0
 30
0.0
 70
     4
 75
     6
  0
VERTEX
  5
1503
330
1502
100
AcDbEntity
  8
HILF
100
AcDbVertex
100
AcDb2dVertex
 10
205.7587424490549
 20
311.0508402913031
 30
0.0
 70
    16
  0
VERTEX
  5
1504
330
1502
100
AcDbEntity
  8
HILF
100
AcDbVertex
100
AcDb2dVertex
 10
205.7587424490549
 20
311.0508402913031
 30
0.0
 70
     8
  0
VERTEX
  5
1505
330
1502
100
AcDbEntity
  8
HILF
100
AcDbVertex
100
AcDb2dVertex
 10
208.152996665558
 20
301.1975818357167
 30
0.0
 70
     8
  0
VERTEX
  5
1506
330
1502
100
AcDbEntity
  8
HILF
100
AcDbVertex
100
AcDb2dVertex
 10
209.9305282788868
 20
292.7684574655682
 30
0.0
 70
     8
  0
VERTEX
  5
1507
330
1502
100
AcDbEntity
  8
HILF
100
AcDbVertex
100
AcDb2dVertex
 10
211.1556259541481
 20
285.5881329137621
 30
0.0
 70
     8
  0
VERTEX
  5
1508
330
1502
100
AcDbEntity
  8
HILF
100
AcDbVertex
100
AcDb2dVertex
 10
211.8925783564495
 20
279.4812739132026
 30
0.0
 70
     8
  0
VERTEX
  5
1509
330
1502
100
AcDbEntity
  8
HILF
100
AcDbVertex
100
AcDb2dVertex
 10
212.2056741508978
 20
274.2725461967942
 30
0.0
 70
     8
  0
VERTEX
  5
150A
330
1502
100
AcDbEntity
  8
HILF
100
AcDbVertex
100
AcDb2dVertex
 10
212.1592020026004
 20
269.786615497441
 30
0.0
 70
     8
  0
VERTEX
  5
150B
330
1502
100
AcDbEntity
  8
HILF
100
AcDbVertex
100
AcDb2dVertex
 10
211.8174505766641
 20
265.8481475480477
 30
0.0
 70
     8
  0
VERTEX
  5
150C
330
1502
100
AcDbEntity
  8
HILF
100
AcDbVertex
100
AcDb2dVertex
 10
211.2447085381963
 20
262.2818080815184
 30
0.0
 70
     8
  0
VERTEX
  5
150D
330
1502
100
AcDbEntity
  8
HILF
100
AcDbVertex
100
AcDb2dVertex
 10
210.4964020186463
 20
258.9358748471923
 30
0.0
 70
     8
  0
VERTEX
  5
150E
330
1502
100
AcDbEntity
  8
HILF
100
AcDbVertex
100
AcDb2dVertex
 10
209.5925070148336
 20
255.7530736601481
 30
0.0
 70
     8
  0
VERTEX
  5
150F
330
1502
100
AcDbEntity
  8
HILF
100
AcDbVertex
100
AcDb2dVertex
 10
208.5441369899196
 20
252.6997423518988
 30
0.0
 70
     8
  0
VERTEX
  5
1510
330
1502
100
AcDbEntity
  8
HILF
100
AcDbVertex
100
AcDb2dVertex
 10
207.3624054070659
 20
249.7422187539578
 30
0.0
 70
     8
  0
VERTEX
  5
1511
330
1502
100
AcDbEntity
  8
HILF
100
AcDbVertex
100
AcDb2dVertex
 10
206.0584257294344
 20
246.8468406978384
 30
0.0
 70
     8
  0
VERTEX
  5
1512
330
1502
100
AcDbEntity
  8
HILF
100
AcDbVertex
100
AcDb2dVertex
 10
204.6433114201865
 20
243.9799460150539
 30
0.0
 70
     8
  0
VERTEX
  5
1513
330
1502
100
AcDbEntity
  8
HILF
100
AcDbVertex
100
AcDb2dVertex
 10
203.1281759424838
 20
241.1078725371177
 30
0.0
 70
     8
  0
VERTEX
  5
1514
330
1502
100
AcDbEntity
  8
HILF
100
AcDbVertex
100
AcDb2dVertex
 10
201.5241327594882
 20
238.1969580955429
 30
0.0
 70
     8
  0
VERTEX
  5
1515
330
1502
100
AcDbEntity
  8
HILF
100
AcDbVertex
100
AcDb2dVertex
 10
199.8488939531133
 20
235.2174246182068
 30
0.0
 70
     8
  0
VERTEX
  5
1516
330
1502
100
AcDbEntity
  8
HILF
100
AcDbVertex
100
AcDb2dVertex
 10
198.146566080282
 20
232.1550304184419
 30
0.0
 70
     8
  0
VERTEX
  5
1517
330
1502
100
AcDbEntity
  8
HILF
100
AcDbVertex
100
AcDb2dVertex
 10
196.4678543166691
 20
228.9994179059445
 30
0.0
 70
     8
  0
VERTEX
  5
1518
330
1502
100
AcDbEntity
  8
HILF
100
AcDbVertex
100
AcDb2dVertex
 10
194.8634638379497
 20
225.7402294904111
 30
0.0
 70
     8
  0
VERTEX
  5
1519
330
1502
100
AcDbEntity
  8
HILF
100
AcDbVertex
100
AcDb2dVertex
 10
193.3840998197985
 20
222.3671075815381
 30
0.0
 70
     8
  0
VERTEX
  5
151A
330
1502
100
AcDbEntity
  8
HILF
100
AcDbVertex
100
AcDb2dVertex
 10
192.0804674378907
 20
218.869694589022
 30
0.0
 70
     8
  0
VERTEX
  5
151B
330
1502
100
AcDbEntity
  8
HILF
100
AcDbVertex
100
AcDb2dVertex
 10
191.0032718679012
 20
215.2376329225589
 30
0.0
 70
     8
  0
VERTEX
  5
151C
330
1502
100
AcDbEntity
  8
HILF
100
AcDbVertex
100
AcDb2dVertex
 10
190.203218285505
 20
211.4605649918455
 30
0.0
 70
     8
  0
VERTEX
  5
151D
330
1502
100
AcDbEntity
  8
HILF
100
AcDbVertex
100
AcDb2dVertex
 10
189.7425240151823
 20
207.5345198376221
 30
0.0
 70
     8
  0
VERTEX
  5
151E
330
1502
100
AcDbEntity
  8
HILF
100
AcDbVertex
100
AcDb2dVertex
 10
189.7294549766352
 20
203.4810730248062
 30
0.0
 70
     8
  0
VERTEX
  5
151F
330
1502
100
AcDbEntity
  8
HILF
100
AcDbVertex
100
AcDb2dVertex
 10
190.283789238371
 20
199.3281867493589
 30
0.0
 70
     8
  0
VERTEX
  5
1520
330
1502
100
AcDbEntity
  8
HILF
100
AcDbVertex
100
AcDb2dVertex
 10
191.5253048688973
 20
195.1038232072418
 30
0.0
 70
     8
  0
VERTEX
  5
1521
330
1502
100
AcDbEntity
  8
HILF
100
AcDbVertex
100
AcDb2dVertex
 10
193.5737799367215
 20
190.8359445944163
 30
0.0
 70
     8
  0
VERTEX
  5
1522
330
1502
100
AcDbEntity
  8
HILF
100
AcDbVertex
100
AcDb2dVertex
 10
196.5489925103508
 20
186.5525131068437
 30
0.0
 70
     8
  0
VERTEX
  5
1523
330
1502
100
AcDbEntity
  8
HILF
100
AcDbVertex
100
AcDb2dVertex
 10
200.5707206582929
 20
182.2814909404854
 30
0.0
 70
     8
  0
VERTEX
  5
1524
330
1502
100
AcDbEntity
  8
HILF
100
AcDbVertex
100
AcDb2dVertex
 10
205.7587424490549
 20
178.0508402913028
 30
0.0
 70
     8
  0
VERTEX
  5
1525
330
1502
100
AcDbEntity
  8
HILF
100
AcDbVertex
100
AcDb2dVertex
 10
213.0228626440575
 20
282.720786280626
 30
0.0
 70
    16
  0
VERTEX
  5
1526
330
1502
100
AcDbEntity
  8
HILF
100
AcDbVertex
100
AcDb2dVertex
 10
213.0228626440575
 20
260.1826697799884
 30
0.0
 70
    16
  0
VERTEX
  5
1527
330
1502
100
AcDbEntity
  8
HILF
100
AcDbVertex
100
AcDb2dVertex
 10
202.3539380088902
 20
238.9703248382119
 30
0.0
 70
    16
  0
VERTEX
  5
1528
330
1502
100
AcDbEntity
  8
HILF
100
AcDbVertex
100
AcDb2dVertex
 10
186.7061818773112
 20
213.1177794404217
 30
0.0
 70
    16
  0
VERTEX
  5
1529
330
1502
100
AcDbEntity
  8
HILF
100
AcDbVertex
100
AcDb2dVertex
 10
190.2624900890338
 20
189.2538913809231
 30
0.0
 70
    16
  0
VERTEX
  5
152A
330
1502
100
AcDbEntity
  8
HILF
100
AcDbVertex
100
AcDb2dVertex
 10
205.7587424490549
 20
178.0508402913028
 30
0.0
 70
    16
  0
SEQEND
  5
152B
330
1502
100
AcDbEntity
  8
HILF
  0
LINE
  5
152E
330
1E
100
AcDbEntity
  8
STEMPEL
100
AcDbLine
 10
303.8455500834289
 20
197.5196880424532
 30
0.0
 11
274.2659040657295
 21
225.7383793917631
 31
0.0
  0
LINE
  5
152F
330
1E
100
AcDbEntity
  8
HILF
100
AcDbLine
 10
304.5358155701547
 20
198.243244230897
 30
0.0
 11
274.9561695524553
 21
226.461935580207
 31
0.0
  0
LINE
  5
1532
330
1E
100
AcDbEntity
  8
MITTEL
100
AcDbLine
 10
348.7128067205972
 20
314.5508402913033
 30
0.0
 11
348.7128067205972
 21
174.550840291303
 31
0.0
  0
DIMENSION
  5
1533
330
1E
100
AcDbEntity
  8
BEM
100
AcDbDimension
280
     0
  2
*D3
 10
146.1895216404571
 20
135.7817639622379
 30
0.0
 11
437.4511641805271
 21
142.2817639622379
 31
0.0
 70
    32
  1
1500
 71
     5
 42
582.5232850801401
 73
     0
 74
     0
 75
     0
  3
Standard
100
AcDbAlignedDimension
 13
728.7128067205972
 23
171.7923954938967
 33
0.0
 14
146.1895216404571
 24
178.0508402913028
 34
0.0
100
AcDbRotatedDimension
1001
ACAD
1000
DSTYLE
1002
{
1070
    40
1040
2.0
1070
    41
1040
3.5
1070
    42
1040
1.0
1070
    43
1040
7.0
1070
    44
1040
1.0
1070
    73
1070
     0
1070
    74
1070
     0
1070
    77
1070
     1
1070
    78
1070
     8
1070
    79
1070
     2
1070
   140
1040
3.5
1070
   141
1040
1.5
1070
   146
1040
0.5142857142857144
1070
   147
1040
1.5
1070
   172
1070
     1
1070
   178
1070
     1
1070
   179
1070
     2
1070
   271
1070
     2
1070
   272
1070
     2
1070
   284
1070
     8
1070
   285
1070
     8
1070
   286
1070
     8
1002
}
  0
LINE
  5
1534
330
1E
100
AcDbEntity
  8
MITTEL
100
AcDbLine
 10
733.7128067205971
 20
415.5753712025131
 30
0.0
 11
141.1895216404571
 21
415.5753712025133
 31
0.0
  0
LINE
  5
1535
330
1E
100
AcDbEntity
  8
STEMPEL
100
AcDbLine
 10
561.2128067205971
 20
178.0508402913028
 30
0.0
 11
521.5524695547911
 21
178.0508402913028
 31
0.0
  0
LINE
  5
1536
330
1E
100
AcDbEntity
  8
STEMPEL
100
AcDbLine
 10
561.2128067205971
 20
311.0508402913031
 30
0.0
 11
521.5524695547911
 21
311.050840291303
 31
0.0
  0
LINE
  5
1537
330
1E
100
AcDbEntity
  8
STEMPEL
100
AcDbLine
 10
561.2128067205971
 20
349.0753712025132
 30
0.0
 11
521.5524695547911
 21
349.0753712025132
 31
0.0
  0
LINE
  5
1538
330
1E
100
AcDbEntity
  8
STEMPEL
100
AcDbLine
 10
393.5800633577656
 20
197.5196880424532
 30
0.0
 11
423.1597093754644
 21
225.7383793917631
 31
0.0
  0
LINE
  5
1539
330
1E
100
AcDbEntity
  8
HILF
100
AcDbLine
 10
392.8897978710397
 20
198.243244230897
 30
0.0
 11
422.4694438887386
 21
226.461935580207
 31
0.0
  0
LINE
  5
153B
330
1E
100
AcDbEntity
  8
STEMPEL
100
AcDbLine
 10
393.5800633577656
 20
291.5819925401529
 30
0.0
 11
423.1597093754644
 21
263.3633011908433
 31
0.0
  0
LINE
  5
153C
330
1E
100
AcDbEntity
  8
HILF
100
AcDbLine
 10
392.8897978710397
 20
290.8584363517093
 30
0.0
 11
422.4694438887386
 21
262.6397450023992
 31
0.0
  0
LINE
  5
1573
330
1E
100
AcDbEntity
  8
STEMPEL
100
AcDbLine
 10
561.2128067205971
 20
482.0753712025133
 30
0.0
 11
521.5524695547911
 21
482.0753712025133
 31
0.0
  0
INSERT
  5
157B
330
1E
100
AcDbEntity
  8
STEMPEL
100
AcDbBlockReference
  2
8DI931D
 10
420.2128067205972
 20
244.7692392370484
 30
0.0
  0
LINE
  5
157C
330
1E
100
AcDbEntity
  8
MITTEL
100
AcDbLine
 10
733.7128067205971
 20
244.5508402913029
 30
0.0
 11
141.1895216404571
 21
244.5508402913031
 31
0.0
  0
CIRCLE
  5
157D
330
1E
100
AcDbEntity
  8
STEMPEL
100
AcDbCircle
 10
420.2128067205972
 20
244.7692392370484
 30
0.0
 40
5.65
  0
LINE
  5
17D0
330
1E
100
AcDbEntity
  8
STEMPEL
100
AcDbLine
 10
427.4139492362343
 20
494.575371202513
 30
0.0
 11
423.7128067205971
 21
494.5753712025131
 31
0.0
  0
LINE
  5
17D1
330
1E
100
AcDbEntity
  8
STEMPEL
100
AcDbLine
 10
424.2128067205973
 20
496.575371202513
 30
0.0
 11
424.2128067205973
 21
494.5753712025128
 31
0.0
  0
LINE
  5
17D2
330
1E
100
AcDbEntity
  8
STEMPEL
100
AcDbLine
 10
426.9016146754132
 20
502.4894460134469
 30
0.0
 11
426.6323983583594
 21
502.6448781265682
 31
0.0
  0
LINE
  5
17D3
330
1E
100
AcDbEntity
  8
STEMPEL
100
AcDbLine
 10
425.0992574453561
 20
503.0753712025136
 30
0.0
 11
425.1038869154029
 21
503.0753712025136
 31
0.0
  0
LINE
  5
17D4
330
1E
100
AcDbEntity
  8
STEMPEL
100
AcDbLine
 10
426.9016146754132
 20
497.16129639158
 30
0.0
 11
426.6323983583286
 21
497.005864278441
 31
0.0
  0
LINE
  5
17D5
330
1E
100
AcDbEntity
  8
STEMPEL
100
AcDbLine
 10
425.0992574453561
 20
496.5753712025135
 30
0.0
 11
425.1038869154029
 21
496.5753712025135
 31
0.0
  0
LINE
  5
17D6
330
1E
100
AcDbEntity
  8
STEMPEL
100
AcDbLine
 10
426.9016146754132
 20
502.4894460134469
 30
0.0
 11
426.9016146754132
 21
497.16129639158
 31
0.0
  0
LINE
  5
17D7
330
1E
100
AcDbEntity
  8
STEMPEL
100
AcDbLine
 10
423.3072106980052
 20
502.4586382372437
 30
0.0
 11
423.3072106980051
 21
497.1921041677837
 31
0.0
  0
ARC
  5
17D8
330
1E
100
AcDbEntity
  8
STEMPEL
100
AcDbCircle
 10
425.1044126867092
 20
499.5023221403769
 30
0.0
 40
2.926950985085932
100
AcDbArc
 50
232.1193642828211
 51
301.4691945241464
  0
ARC
  5
17D9
330
1E
100
AcDbEntity
  8
STEMPEL
100
AcDbCircle
 10
425.1044126867092
 20
500.14842026465
 30
0.0
 40
2.926950985085932
100
AcDbArc
 50
58.53080547515485
 51
127.8806357171789
  0
ARC
  5
17DA
330
1E
100
AcDbEntity
  8
STEMPEL
100
AcDbCircle
 10
427.4139492362343
 20
493.575371202513
 30
0.0
 40
3.0
100
AcDbArc
 50
4.999999999999743
 51
90.0
  0
ARC
  5
17DB
330
1E
100
AcDbEntity
  8
STEMPEL
100
AcDbCircle
 10
427.4139492362343
 20
493.575371202513
 30
0.0
 40
1.0
100
AcDbArc
 50
4.999999999999743
 51
90.0
  0
LINE
  5
17DC
330
1E
100
AcDbEntity
  8
STEMPEL
100
AcDbLine
 10
425.3628067205971
 20
505.5253712025135
 30
0.0
 11
425.3628067205971
 21
503.0639433038913
 31
0.0
  0
LINE
  5
17DD
330
1E
100
AcDbEntity
  8
STEMPEL
100
AcDbLine
 10
410.7128067205972
 20
494.5753712025133
 30
0.0
 11
410.7128067205972
 21
489.5753712025133
 31
0.0
  0
LINE
  5
17DE
330
1E
100
AcDbEntity
  8
STEMPEL
100
AcDbLine
 10
415.2128067205973
 20
496.575371202513
 30
0.0
 11
415.2128067205973
 21
494.575371202513
 31
0.0
  0
LINE
  5
17DF
330
1E
100
AcDbEntity
  8
STEMPEL
100
AcDbLine
 10
416.1184027431891
 20
502.4586382372437
 30
0.0
 11
416.1184027431891
 21
497.1921041677837
 31
0.0
  0
LINE
  5
17E0
330
1E
100
AcDbEntity
  8
STEMPEL
100
AcDbLine
 10
412.5239987657812
 20
502.4894460134469
 30
0.0
 11
412.7932150828798
 21
502.6448781265941
 31
0.0
  0
LINE
  5
17E1
330
1E
100
AcDbEntity
  8
STEMPEL
100
AcDbLine
 10
412.5239987657812
 20
497.16129639158
 30
0.0
 11
412.7932150829097
 21
497.0058642784157
 31
0.0
  0
LINE
  5
17E2
330
1E
100
AcDbEntity
  8
STEMPEL
100
AcDbLine
 10
412.5239987657812
 20
502.4894460134469
 30
0.0
 11
412.5239987657812
 21
497.16129639158
 31
0.0
  0
ARC
  5
17E3
330
1E
100
AcDbEntity
  8
STEMPEL
100
AcDbCircle
 10
414.3212007544851
 20
499.5023221403769
 30
0.0
 40
2.926950985085932
100
AcDbArc
 50
238.5308054768418
 51
307.880635717179
  0
ARC
  5
17E4
330
1E
100
AcDbEntity
  8
STEMPEL
100
AcDbCircle
 10
414.3212007544851
 20
500.14842026465
 30
0.0
 40
2.926950985085932
100
AcDbArc
 50
52.11936428282104
 51
121.4691945238308
  0
LINE
  5
17E5
330
1E
100
AcDbEntity
  8
STEMPEL
  6
Continuous
100
AcDbLine
 10
402.7128067205971
 20
489.5753712025133
 30
0.0
 11
402.7128067205971
 21
488.0753712025134
 31
0.0
  0
LINE
  5
17E6
330
1E
100
AcDbEntity
  8
STEMPEL
  6
Continuous
100
AcDbLine
 10
405.2128067205972
 20
489.5753712025133
 30
0.0
 11
405.2128067205972
 21
488.0753712025134
 31
0.0
  0
LINE
  5
17E7
330
1E
100
AcDbEntity
  8
STEMPEL
100
AcDbLine
 10
414.0628067205971
 20
505.5253712025135
 30
0.0
 11
414.0628067205971
 21
503.0639433038913
 31
0.0
  0
ARC
  5
17E8
330
1E
100
AcDbEntity
  8
STEMPEL
100
AcDbCircle
 10
419.7128067205971
 20
505.5253712025135
 30
0.0
 40
5.65
100
AcDbArc
 50
0.0
 51
180.0
  0
ARC
  5
17E9
330
1E
100
AcDbEntity
  8
STEMPEL
100
AcDbCircle
 10
419.7128067205971
 20
507.3580764025135
 30
0.0
 40
10.7827052
100
AcDbArc
 50
250.5278273813862
 51
289.4721726186137
  0
ARC
  5
17EA
330
1E
100
AcDbEntity
  8
STEMPEL
100
AcDbCircle
 10
419.7128067205971
 20
492.2926660025136
 30
0.0
 40
10.7827052
100
AcDbArc
 50
70.52782738138624
 51
109.4721726186137
  0
LINE
  5
17EB
330
1E
100
AcDbEntity
  8
STEMPEL
100
AcDbLine
 10
414.3217265257718
 20
496.5753712025135
 30
0.0
 11
425.1038869154132
 21
496.5753712025135
 31
0.0
  0
LINE
  5
17EC
330
1E
100
AcDbEntity
  8
STEMPEL
100
AcDbLine
 10
414.3217265257718
 20
503.0753712025135
 30
0.0
 11
425.1038869154132
 21
503.0753712025136
 31
0.0
  0
LINE
  5
17ED
330
1E
100
AcDbEntity
  8
STEMPEL
100
AcDbLine
 10
423.7128067205971
 20
484.5753712025131
 30
0.0
 11
431.2128067205978
 21
484.575371202513
 31
0.0
  0
LINE
  5
17EE
330
1E
100
AcDbEntity
  8
STEMPEL
100
AcDbLine
 10
406.3394095481929
 20
484.5753712025131
 30
0.0
 11
415.7128067205971
 21
484.5753712025131
 31
0.0
  0
LINE
  5
17EF
330
1E
100
AcDbEntity
  8
STEMPEL
  6
Continuous
100
AcDbLine
 10
429.3882406246989
 20
479.5753712025134
 30
0.0
 11
411.2128067205971
 21
479.5753712025134
 31
0.0
  0
ARC
  5
17F0
330
1E
100
AcDbEntity
  8
STEMPEL
  6
Continuous
100
AcDbCircle
 10
411.2128067205971
 20
488.0753712025134
 30
0.0
 40
6.0
100
AcDbArc
 50
180.0
 51
270.0
  0
ARC
  5
17F1
330
1E
100
AcDbEntity
  8
STEMPEL
  6
Continuous
100
AcDbCircle
 10
411.2128067205971
 20
488.0753712025134
 30
0.0
 40
8.5
100
AcDbArc
 50
180.0
 51
270.0
  0
LINE
  5
17F2
330
1E
100
AcDbEntity
  8
STEMPEL
100
AcDbLine
 10
415.7128067205971
 20
496.5753712025134
 30
0.0
 11
415.7128067205972
 21
482.0753712025133
 31
0.0
  0
LINE
  5
17F3
330
1E
100
AcDbEntity
  8
HILF
100
AcDbLine
 10
416.7128067205972
 20
496.5753712025135
 30
0.0
 11
416.7128067205972
 21
482.0753712025133
 31
0.0
  0
LINE
  5
17F4
330
1E
100
AcDbEntity
  8
HILF
100
AcDbLine
 10
422.7128067205971
 20
496.5753712025135
 30
0.0
 11
422.7128067205971
 21
482.0753712025133
 31
0.0
  0
LINE
  5
17F5
330
1E
100
AcDbEntity
  8
STEMPEL
100
AcDbLine
 10
423.7128067205971
 20
496.5753712025135
 30
0.0
 11
423.7128067205971
 21
482.0753712025133
 31
0.0
  0
LINE
  5
17F6
330
1E
100
AcDbEntity
  8
STEMPEL
100
AcDbLine
 10
431.2128067205978
 20
484.575371202513
 30
0.0
 11
430.4025333305095
 21
493.836838430756
 31
0.0
  0
LINE
  5
17F7
330
1E
100
AcDbEntity
  8
STEMPEL
100
AcDbLine
 10
429.2051670455109
 20
484.575371202513
 30
0.0
 11
428.4101439343264
 21
493.6625269452607
 31
0.0
  0
LINE
  5
17F8
330
1E
100
AcDbEntity
  8
MITTEL
100
AcDbLine
 10
419.7128067205971
 20
516.1753712025122
 30
0.0
 11
419.7128067205971
 21
482.0753712025133
 31
0.0
  0
LINE
  5
17F9
330
1E
100
AcDbEntity
  8
STEMPEL
100
AcDbLine
 10
393.7128067205973
 20
494.5753712025133
 30
0.0
 11
393.7128067205973
 21
489.5753712025133
 31
0.0
  0
ARC
  5
17FA
330
1E
100
AcDbEntity
  8
STEMPEL
100
AcDbCircle
 10
393.4354135369633
 20
493.5753712025133
 30
0.0
 40
3.0
100
AcDbArc
 50
90.0
 51
170.0000000000014
  0
LINE
  5
17FB
330
1E
100
AcDbEntity
  8
STEMPEL
100
AcDbLine
 10
392.328130348457
 20
493.0544266695129
 30
0.0
 11
392.596313905786
 21
494.5753712025135
 31
0.0
  0
ARC
  5
17FC
330
1E
100
AcDbEntity
  8
STEMPEL
100
AcDbCircle
 10
389.3737070894201
 20
493.5753712025134
 30
0.0
 40
3.0
100
AcDbArc
 50
270.0
 51
350.0000000000046
  0
LINE
  5
17FD
330
1E
100
AcDbEntity
  8
STEMPEL
100
AcDbLine
 10
390.2128067205974
 20
492.5753712025135
 30
0.0
 11
390.4809902779268
 21
494.0963157355141
 31
0.0
  0
ARC
  5
17FE
330
1E
100
AcDbEntity
  8
SCHRAFF
100
AcDbCircle
 10
386.9934350920946
 20
493.1491428264287
 30
0.0
 40
4.535652800321292
100
AcDbArc
 50
246.1022399299692
 51
332.7243948674184
  0
INSERT
  5
17FF
330
1E
100
AcDbEntity
  8
SCHRAFF
100
AcDbBlockReference
  2
*X12
 10
569.6233063005498
 20
20.34736968344276
 30
0.0
 41
-1.0
1001
ACAD
1000
HATCH
1002
{
1070
    16
1000
_U,I
1040
0.1
1040
0.0
1070
     0
1002
}
  0
ARC
  5
1800
330
1E
100
AcDbEntity
  8
STEMPEL
100
AcDbCircle
 10
383.5800373465387
 20
478.3736792931438
 30
0.0
 40
10.0
100
AcDbArc
 50
123.9133498275136
 51
134.4046590786533
  0
ARC
  5
1801
330
1E
100
AcDbEntity
  8
STEMPEL
100
AcDbCircle
 10
380.9588129619566
 20
495.5753712025137
 30
0.0
 40
3.0
100
AcDbArc
 50
242.2762794131777
 51
270.0
  0
ARC
  5
1802
330
1E
100
AcDbEntity
  8
STEMPEL
100
AcDbCircle
 10
429.3275380108499
 20
415.7209454134013
 30
0.0
 40
85.56450829218173
100
AcDbArc
 50
118.9751001112541
 51
125.7929412992048
  0
LINE
  5
1803
330
1E
100
AcDbEntity
  8
STEMPEL
100
AcDbLine
 10
390.2128067205974
 20
492.5753712025137
 30
0.0
 11
380.9588129619566
 21
492.5753712025137
 31
0.0
  0
ARC
  5
1804
330
1E
100
AcDbEntity
  8
STEMPEL
100
AcDbCircle
 10
428.1062136445204
 20
419.884419550331
 30
0.0
 40
83.49380376178849
100
AcDbArc
 50
122.1496570718503
 51
126.8778573565973
  0
LINE
  5
1805
330
1E
100
AcDbEntity
  8
STEMPEL
100
AcDbLine
 10
343.2370887448294
 20
492.5753712025137
 30
0.0
 11
345.2128067205976
 21
503.7802246391798
 31
0.0
  0
LINE
  5
1806
330
1E
100
AcDbEntity
  8
STEMPEL
100
AcDbLine
 10
343.2370887448294
 20
492.5753712025137
 30
0.0
 11
343.2370887448294
 21
490.5753712025137
 31
0.0
  0
ARC
  5
1807
330
1E
100
AcDbEntity
  8
STEMPEL
100
AcDbCircle
 10
330.0128067205975
 20
491.7953712025139
 30
0.0
 40
1.780000000000033
100
AcDbArc
 50
25.98923358382723
 51
154.0107664161727
  0
LINE
  5
1808
330
1E
100
AcDbEntity
  8
STEMPEL
100
AcDbLine
 10
343.2370887448294
 20
492.5753712025137
 30
0.0
 11
331.6128067205974
 21
492.5753712025137
 31
0.0
  0
ARC
  5
1809
330
1E
100
AcDbEntity
  8
STEMPEL
100
AcDbCircle
 10
325.1128067205975
 20
491.7953712025139
 30
0.0
 40
1.780000000000033
100
AcDbArc
 50
25.98923358382723
 51
154.0107664161727
  0
LINE
  5
180A
330
1E
100
AcDbEntity
  8
STEMPEL
100
AcDbLine
 10
326.7128067205974
 20
493.5753712025139
 30
0.0
 11
323.5128067205973
 21
493.5753712025139
 31
0.0
  0
ARC
  5
180B
330
1E
100
AcDbEntity
  8
STEMPEL
100
AcDbCircle
 10
318.8128067205973
 20
491.7953712025139
 30
0.0
 40
1.780000000000033
100
AcDbArc
 50
90.0
 51
154.0107664161727
  0
LINE
  5
180C
330
1E
100
AcDbEntity
  8
STEMPEL
100
AcDbLine
 10
323.5128067205973
 20
493.5753712025139
 30
0.0
 11
318.8128067205973
 21
493.5753712025139
 31
0.0
  0
LINE
  5
180D
330
1E
100
AcDbEntity
  8
STEMPEL
100
AcDbLine
 10
307.2128067205974
 20
492.5753712025135
 30
0.0
 11
306.9446231632689
 21
494.0963157355141
 31
0.0
  0
LINE
  5
180E
330
1E
100
AcDbEntity
  8
STEMPEL
100
AcDbLine
 10
307.2128067205974
 20
492.5753712025137
 30
0.0
 11
323.5128067205973
 21
492.5753712025139
 31
0.0
  0
LINE
  5
180F
330
1E
100
AcDbEntity
  8
STEMPEL
100
AcDbLine
 10
330.0128067205975
 20
493.5753712025139
 30
0.0
 11
326.8128067205973
 21
493.5753712025139
 31
0.0
  0
LINE
  5
1810
330
1E
100
AcDbEntity
  8
STEMPEL
100
AcDbLine
 10
326.7128067205974
 20
492.5753712025139
 30
0.0
 11
328.4128067205974
 21
492.5753712025139
 31
0.0
  0
LINE
  5
1811
330
1E
100
AcDbEntity
  8
STEMPEL
100
AcDbLine
 10
328.4128067205974
 20
492.5753712025137
 30
0.0
 11
326.7128067205976
 21
492.5753712025137
 31
0.0
  0
LINE
  5
1812
330
1E
100
AcDbEntity
  8
STEMPEL
100
AcDbLine
 10
328.4128067205974
 20
492.5753712025137
 30
0.0
 11
326.7128067205976
 21
492.5753712025137
 31
0.0
  0
LINE
  5
1813
330
1E
100
AcDbEntity
  8
STEMPEL
100
AcDbLine
 10
341.7306602739629
 20
490.2135659512913
 30
0.0
 11
345.2128067205976
 21
470.4653321152453
 31
0.0
  0
LINE
  5
1814
330
1E
100
AcDbEntity
  8
STEMPEL
100
AcDbLine
 10
308.0519063517751
 20
490.5753712025135
 30
0.0
 11
389.3737070894201
 21
490.5753712025135
 31
0.0
  0
ARC
  5
1815
330
1E
100
AcDbEntity
  8
STEMPEL
100
AcDbCircle
 10
332.0238561777377
 20
402.6767847488742
 30
0.0
 40
99.9567591504449
100
AcDbArc
 50
61.7101127139323
 51
82.61922809962126
  0
ARC
  5
1816
330
1E
100
AcDbEntity
  8
STEMPEL
100
AcDbCircle
 10
332.1428969940111
 20
402.6882097278165
 30
0.0
 40
101.9333999192632
100
AcDbArc
 50
62.27627941317772
 51
82.63324978087428
  0
INSERT
  5
1817
330
1E
100
AcDbEntity
  8
SCHRAFF
100
AcDbBlockReference
  2
*X11
 10
569.6233063005498
 20
20.34736968344276
 30
0.0
 41
-1.0
1001
ACAD
1000
HATCH
1002
{
1070
    16
1000
_U,I
1040
2.0
1040
2.356194490192344
1070
     0
1002
}
  0
ARC
  5
1818
330
1E
100
AcDbEntity
  8
STEMPEL
100
AcDbCircle
 10
344.592473055769
 20
518.179993391057
 30
0.0
 40
47.71869355421593
100
AcDbArc
 50
270.7448548859336
 51
314.2197209617596
  0
ARC
  5
1819
330
1E
100
AcDbEntity
  8
STEMPEL
100
AcDbCircle
 10
344.592473055769
 20
518.179993391057
 30
0.0
 40
45.71869355421593
100
AcDbArc
 50
270.3361817847361
 51
314.4046590786534
  0
LINE
  5
181A
330
1E
100
AcDbEntity
  8
STEMPEL
100
AcDbLine
 10
303.7128067205973
 20
494.5753712025133
 30
0.0
 11
303.7128067205973
 21
489.5753712025133
 31
0.0
  0
LINE
  5
181B
330
1E
100
AcDbEntity
  8
STEMPEL
  6
Continuous
100
AcDbLine
 10
294.7128067205972
 20
489.5753712025133
 30
0.0
 11
294.7128067205972
 21
488.0753712025134
 31
0.0
  0
LINE
  5
181C
330
1E
100
AcDbEntity
  8
STEMPEL
100
AcDbLine
 10
286.7128067205972
 20
494.5753712025133
 30
0.0
 11
286.7128067205972
 21
489.5753712025133
 31
0.0
  0
LINE
  5
181D
330
1E
100
AcDbEntity
  8
STEMPEL
  6
Continuous
100
AcDbLine
 10
292.2128067205972
 20
489.5753712025133
 30
0.0
 11
292.2128067205973
 21
488.0753712025134
 31
0.0
  0
LINE
  5
181E
330
1E
100
AcDbEntity
  8
STEMPEL
100
AcDbLine
 10
284.9016146754132
 20
502.4894460134469
 30
0.0
 11
284.9016146754132
 21
497.16129639158
 31
0.0
  0
LINE
  5
181F
330
1E
100
AcDbEntity
  8
STEMPEL
100
AcDbLine
 10
283.0992574453561
 20
496.5753712025135
 30
0.0
 11
283.1038869154029
 21
496.5753712025135
 31
0.0
  0
LINE
  5
1820
330
1E
100
AcDbEntity
  8
STEMPEL
100
AcDbLine
 10
284.9016146754132
 20
497.16129639158
 30
0.0
 11
284.6323983583287
 21
497.005864278441
 31
0.0
  0
LINE
  5
1821
330
1E
100
AcDbEntity
  8
STEMPEL
100
AcDbLine
 10
283.0992574453561
 20
503.0753712025136
 30
0.0
 11
283.1038869154029
 21
503.0753712025136
 31
0.0
  0
LINE
  5
1822
330
1E
100
AcDbEntity
  8
STEMPEL
100
AcDbLine
 10
284.9016146754132
 20
502.4894460134469
 30
0.0
 11
284.6323983583594
 21
502.6448781265682
 31
0.0
  0
LINE
  5
1823
330
1E
100
AcDbEntity
  8
STEMPEL
100
AcDbLine
 10
283.3628067205972
 20
505.5253712025135
 30
0.0
 11
283.3628067205972
 21
503.0639433038913
 31
0.0
  0
LINE
  5
1824
330
1E
100
AcDbEntity
  8
STEMPEL
100
AcDbLine
 10
282.2128067205978
 20
496.5753712025132
 30
0.0
 11
282.2128067205978
 21
494.5753712025132
 31
0.0
  0
LINE
  5
1825
330
1E
100
AcDbEntity
  8
STEMPEL
100
AcDbLine
 10
273.2128067205978
 20
496.5753712025135
 30
0.0
 11
273.2128067205974
 21
494.5753712025132
 31
0.0
  0
ARC
  5
1826
330
1E
100
AcDbEntity
  8
STEMPEL
100
AcDbCircle
 10
277.7128067205972
 20
492.2926660025136
 30
0.0
 40
10.7827052
100
AcDbArc
 50
70.52782738138624
 51
109.4721726186137
  0
ARC
  5
1827
330
1E
100
AcDbEntity
  8
STEMPEL
100
AcDbCircle
 10
277.7128067205972
 20
507.3580764025135
 30
0.0
 40
10.7827052
100
AcDbArc
 50
250.5278273813862
 51
289.4721726186137
  0
LINE
  5
1828
330
1E
100
AcDbEntity
  8
STEMPEL
100
AcDbLine
 10
274.1184027431892
 20
502.4586382372437
 30
0.0
 11
274.1184027431892
 21
497.1921041677837
 31
0.0
  0
LINE
  5
1829
330
1E
100
AcDbEntity
  8
STEMPEL
100
AcDbLine
 10
281.3072106980052
 20
502.4586382372437
 30
0.0
 11
281.3072106980052
 21
497.1921041677837
 31
0.0
  0
ARC
  5
182A
330
1E
100
AcDbEntity
  8
STEMPEL
100
AcDbCircle
 10
270.0116642049604
 20
493.5753712025134
 30
0.0
 40
3.0
100
AcDbArc
 50
90.0
 51
175.0000000000002
  0
ARC
  5
182B
330
1E
100
AcDbEntity
  8
STEMPEL
100
AcDbCircle
 10
270.0116642049604
 20
493.5753712025134
 30
0.0
 40
1.0
100
AcDbArc
 50
90.0
 51
175.0000000000002
  0
LINE
  5
182C
330
1E
100
AcDbEntity
  8
STEMPEL
100
AcDbLine
 10
270.5239987657812
 20
502.4894460134469
 30
0.0
 11
270.5239987657812
 21
497.16129639158
 31
0.0
  0
LINE
  5
182D
330
1E
100
AcDbEntity
  8
STEMPEL
100
AcDbLine
 10
270.5239987657812
 20
497.16129639158
 30
0.0
 11
270.7932150829097
 21
497.0058642784157
 31
0.0
  0
LINE
  5
182E
330
1E
100
AcDbEntity
  8
STEMPEL
100
AcDbLine
 10
270.5239987657812
 20
502.4894460134469
 30
0.0
 11
270.7932150828798
 21
502.6448781265941
 31
0.0
  0
LINE
  5
182F
330
1E
100
AcDbEntity
  8
STEMPEL
100
AcDbLine
 10
270.0116642049604
 20
494.5753712025135
 30
0.0
 11
273.7128067205972
 21
494.5753712025134
 31
0.0
  0
ARC
  5
1830
330
1E
100
AcDbEntity
  8
STEMPEL
100
AcDbCircle
 10
272.3212007544852
 20
500.14842026465
 30
0.0
 40
2.926950985085932
100
AcDbArc
 50
52.11936428282104
 51
121.4691945238308
  0
ARC
  5
1831
330
1E
100
AcDbEntity
  8
STEMPEL
100
AcDbCircle
 10
272.3212007544852
 20
499.5023221403769
 30
0.0
 40
2.926950985085932
100
AcDbArc
 50
238.5308054768418
 51
307.880635717179
  0
LINE
  5
1832
330
1E
100
AcDbEntity
  8
STEMPEL
100
AcDbLine
 10
272.0628067205971
 20
505.5253712025135
 30
0.0
 11
272.0628067205971
 21
503.0639433038913
 31
0.0
  0
LINE
  5
1833
330
1E
100
AcDbEntity
  8
STEMPEL
100
AcDbLine
 10
281.7128067205972
 20
494.5753712025134
 30
0.0
 11
304.8292995354092
 21
494.5753712025135
 31
0.0
  0
LINE
  5
1834
330
1E
100
AcDbEntity
  8
STEMPEL
100
AcDbLine
 10
272.3217265257718
 20
503.0753712025135
 30
0.0
 11
283.1038869154132
 21
503.0753712025136
 31
0.0
  0
LINE
  5
1835
330
1E
100
AcDbEntity
  8
STEMPEL
100
AcDbLine
 10
272.3217265257718
 20
496.5753712025135
 30
0.0
 11
283.1038869154132
 21
496.5753712025135
 31
0.0
  0
ARC
  5
1836
330
1E
100
AcDbEntity
  8
STEMPEL
100
AcDbCircle
 10
277.7128067205972
 20
505.5253712025135
 30
0.0
 40
5.65
100
AcDbArc
 50
0.0
 51
180.0
  0
ARC
  5
1837
330
1E
100
AcDbEntity
  8
STEMPEL
100
AcDbCircle
 10
283.1044126867092
 20
500.14842026465
 30
0.0
 40
2.926950985085932
100
AcDbArc
 50
58.53080547515485
 51
127.8806357171789
  0
ARC
  5
1838
330
1E
100
AcDbEntity
  8
STEMPEL
100
AcDbCircle
 10
283.1044126867092
 20
499.5023221403769
 30
0.0
 40
2.926950985085932
100
AcDbArc
 50
232.1193642828211
 51
301.4691945241464
  0
LINE
  5
1839
330
1E
100
AcDbEntity
  8
STEMPEL
100
AcDbLine
 10
266.2128067205974
 20
484.5753712025135
 30
0.0
 11
273.7128067205972
 21
484.5753712025135
 31
0.0
  0
LINE
  5
183A
330
1E
100
AcDbEntity
  8
STEMPEL
100
AcDbLine
 10
281.7128067205972
 20
484.5753712025135
 30
0.0
 11
291.0862038930018
 21
484.5753712025135
 31
0.0
  0
LINE
  5
183B
330
1E
100
AcDbEntity
  8
STEMPEL
100
AcDbLine
 10
266.2128067205974
 20
484.5753712025135
 30
0.0
 11
267.0230801106856
 21
493.8368384307564
 31
0.0
  0
LINE
  5
183C
330
1E
100
AcDbEntity
  8
STEMPEL
100
AcDbLine
 10
268.2204463956838
 20
484.5753712025135
 30
0.0
 11
269.0154695068688
 21
493.6625269452611
 31
0.0
  0
LINE
  5
183D
330
1E
100
AcDbEntity
  8
STEMPEL
100
AcDbLine
 10
281.7128067205972
 20
496.5753712025132
 30
0.0
 11
281.7128067205972
 21
482.0753712025133
 31
0.0
  0
LINE
  5
183E
330
1E
100
AcDbEntity
  8
HILF
100
AcDbLine
 10
280.7128067205972
 20
496.5753712025132
 30
0.0
 11
280.7128067205972
 21
482.0753712025133
 31
0.0
  0
LINE
  5
183F
330
1E
100
AcDbEntity
  8
STEMPEL
100
AcDbLine
 10
273.7128067205972
 20
496.5753712025132
 30
0.0
 11
273.7128067205972
 21
482.0753712025133
 31
0.0
  0
LINE
  5
1840
330
1E
100
AcDbEntity
  8
HILF
100
AcDbLine
 10
274.7128067205972
 20
496.5753712025132
 30
0.0
 11
274.7128067205972
 21
482.0753712025133
 31
0.0
  0
ARC
  5
1841
330
1E
100
AcDbEntity
  8
STEMPEL
  6
Continuous
100
AcDbCircle
 10
286.2128067205972
 20
488.0753712025134
 30
0.0
 40
8.5
100
AcDbArc
 50
270.0
 51
0.0
  0
ARC
  5
1842
330
1E
100
AcDbEntity
  8
STEMPEL
  6
Continuous
100
AcDbCircle
 10
286.2128067205972
 20
488.0753712025134
 30
0.0
 40
6.0
100
AcDbArc
 50
270.0
 51
0.0
  0
LINE
  5
1843
330
1E
100
AcDbEntity
  8
MITTEL
100
AcDbLine
 10
277.7128067205972
 20
516.1753712025122
 30
0.0
 11
277.7128067205972
 21
482.0753712025133
 31
0.0
  0
LINE
  5
1844
330
1E
100
AcDbEntity
  8
STEMPEL
  6
Continuous
100
AcDbLine
 10
286.2128067205972
 20
479.5753712025134
 30
0.0
 11
255.4303215594423
 21
479.5753712025134
 31
0.0
  0
LINE
  5
1845
330
1E
100
AcDbEntity
  8
STEMPEL
100
AcDbLine
 10
270.0116642049604
 20
496.5753712025132
 30
0.0
 11
343.9423966676631
 21
496.5753712025133
 31
0.0
  0
LINE
  5
1846
330
1E
100
AcDbEntity
  8
STEMPEL
100
AcDbLine
 10
305.0974830927386
 20
493.0544266695129
 30
0.0
 11
304.8292995354092
 21
494.5753712025135
 31
0.0
  0
ARC
  5
1847
330
1E
100
AcDbEntity
  8
STEMPEL
100
AcDbCircle
 10
303.9901999042319
 20
493.5753712025133
 30
0.0
 40
3.0
100
AcDbArc
 50
9.999999999998609
 51
90.0
  0
ARC
  5
1848
330
1E
100
AcDbEntity
  8
STEMPEL
100
AcDbCircle
 10
308.0519063517751
 20
493.5753712025134
 30
0.0
 40
3.0
100
AcDbArc
 50
189.9999999999954
 51
270.0
  0
LINE
  5
1849
330
1E
100
AcDbEntity
  8
HILF
100
AcDbLine
 10
293.7069132018744
 20
480.0231436816787
 30
0.0
 11
328.1703378774686
 21
439.6439986435286
 31
0.0
  0
INSERT
  5
184A
330
1E
100
AcDbEntity
  8
SCHRAFF
100
AcDbBlockReference
  2
*X9
 10
0.0000000000001137
 20
-0.0000000000001137
 30
0.0
1001
ACAD
1000
HATCH
1002
{
1070
    16
1000
NET,I
1040
10.0
1040
0.7853981633974483
1002
}
  0
LINE
  5
184B
330
1E
100
AcDbEntity
  8
STEMPEL
100
AcDbLine
 10
415.7128067205971
 20
494.5753712025132
 30
0.0
 11
392.596313905786
 21
494.5753712025135
 31
0.0
  0
LINE
  5
184C
330
1E
100
AcDbEntity
  8
STEMPEL
100
AcDbLine
 10
410.7128067205971
 20
489.5753712025133
 30
0.0
 11
286.7128067205972
 21
489.5753712025133
 31
0.0
  0
INSERT
  5
184D
330
1E
100
AcDbEntity
  8
SCHRAFF
100
AcDbBlockReference
  2
*X8
 10
180.2321648241858
 20
193.2653705428197
 30
0.0
 41
-1.0
 50
270.0
1001
ACAD
1000
HATCH
1002
{
1070
    16
1000
ANSI31,I
1040
15.0
1040
0.0
1002
}
  0
LINE
  5
184E
330
1E
100
AcDbEntity
  8
HILF
100
AcDbLine
 10
370.8452389689437
 20
441.5068826589441
 30
0.0
 11
403.7187002393199
 21
480.0231436816786
 31
0.0
  0
POLYLINE
  5
184F
330
1E
100
AcDbEntity
  8
HILF
100
AcDb2dPolyline
 66
     1
 10
0.0
 20
0.0
 30
0.0
 70
     4
 75
     6
  0
VERTEX
  5
1850
330
184F
100
AcDbEntity
  8
HILF
100
AcDbVertex
100
AcDb2dVertex
 10
430.4719902814857
 20
482.0753712025133
 30
0.0
 70
    16
  0
VERTEX
  5
1851
330
184F
100
AcDbEntity
  8
HILF
100
AcDbVertex
100
AcDb2dVertex
 10
430.4719902814858
 20
482.0753712025133
 30
0.0
 70
     8
  0
VERTEX
  5
1852
330
184F
100
AcDbEntity
  8
HILF
100
AcDbVertex
100
AcDb2dVertex
 10
427.7476792004401
 20
475.7909145847301
 30
0.0
 70
     8
  0
VERTEX
  5
1853
330
184F
100
AcDbEntity
  8
HILF
100
AcDbVertex
100
AcDb2dVertex
 10
424.5177161914552
 20
470.3701936896093
 30
0.0
 70
     8
  0
VERTEX
  5
1854
330
184F
100
AcDbEntity
  8
HILF
100
AcDbVertex
100
AcDb2dVertex
 10
420.8385213591116
 20
465.7134019819833
 30
0.0
 70
     8
  0
VERTEX
  5
1855
330
184F
100
AcDbEntity
  8
HILF
100
AcDbVertex
100
AcDb2dVertex
 10
416.7665148079896
 20
461.7207329266848
 30
0.0
 70
     8
  0
VERTEX
  5
1856
330
184F
100
AcDbEntity
  8
HILF
100
AcDbVertex
100
AcDb2dVertex
 10
412.3581166426699
 20
458.2923799885461
 30
0.0
 70
     8
  0
VERTEX
  5
1857
330
184F
100
AcDbEntity
  8
HILF
100
AcDbVertex
100
AcDb2dVertex
 10
407.669746967733
 20
455.3285366323999
 30
0.0
 70
     8
  0
VERTEX
  5
1858
330
184F
100
AcDbEntity
  8
HILF
100
AcDbVertex
100
AcDb2dVertex
 10
402.7578258877591
 20
452.7293963230787
 30
0.0
 70
     8
  0
VERTEX
  5
1859
330
184F
100
AcDbEntity
  8
HILF
100
AcDbVertex
100
AcDb2dVertex
 10
397.678773507329
 20
450.395152525415
 30
0.0
 70
     8
  0
VERTEX
  5
185A
330
184F
100
AcDbEntity
  8
HILF
100
AcDbVertex
100
AcDb2dVertex
 10
392.4833324370104
 20
448.2447496652723
 30
0.0
 70
     8
  0
VERTEX
  5
185B
330
184F
100
AcDbEntity
  8
HILF
100
AcDbVertex
100
AcDb2dVertex
 10
387.1995353113195
 20
446.2721360126383
 30
0.0
 70
     8
  0
VERTEX
  5
185C
330
184F
100
AcDbEntity
  8
HILF
100
AcDbVertex
100
AcDb2dVertex
 10
381.8497372707602
 20
444.4900107985314
 30
0.0
 70
     8
  0
VERTEX
  5
185D
330
184F
100
AcDbEntity
  8
HILF
100
AcDbVertex
100
AcDb2dVertex
 10
376.4562934558362
 20
442.9110732539703
 30
0.0
 70
     8
  0
VERTEX
  5
185E
330
184F
100
AcDbEntity
  8
HILF
100
AcDbVertex
100
AcDb2dVertex
 10
371.041559007051
 20
441.5480226099735
 30
0.0
 70
     8
  0
VERTEX
  5
185F
330
184F
100
AcDbEntity
  8
HILF
100
AcDbVertex
100
AcDb2dVertex
 10
365.6278890649085
 20
440.4135580975595
 30
0.0
 70
     8
  0
VERTEX
  5
1860
330
184F
100
AcDbEntity
  8
HILF
100
AcDbVertex
100
AcDb2dVertex
 10
360.2376387699122
 20
439.5203789477472
 30
0.0
 70
     8
  0
VERTEX
  5
1861
330
184F
100
AcDbEntity
  8
HILF
100
AcDbVertex
100
AcDb2dVertex
 10
354.8931632625659
 20
438.8811843915547
 30
0.0
 70
     8
  0
VERTEX
  5
1862
330
184F
100
AcDbEntity
  8
HILF
100
AcDbVertex
100
AcDb2dVertex
 10
349.6111756727411
 20
438.505300427129
 30
0.0
 70
     8
  0
VERTEX
  5
1863
330
184F
100
AcDbEntity
  8
HILF
100
AcDbVertex
100
AcDb2dVertex
 10
344.3858210877816
 20
438.3885601211285
 30
0.0
 70
     8
  0
VERTEX
  5
1864
330
184F
100
AcDbEntity
  8
HILF
100
AcDbVertex
100
AcDb2dVertex
 10
339.2056025843989
 20
438.52342330734
 30
0.0
 70
     8
  0
VERTEX
  5
1865
330
184F
100
AcDbEntity
  8
HILF
100
AcDbVertex
100
AcDb2dVertex
 10
334.0590232393048
 20
438.9023498195501
 30
0.0
 70
     8
  0
VERTEX
  5
1866
330
184F
100
AcDbEntity
  8
HILF
100
AcDbVertex
100
AcDb2dVertex
 10
328.9345861292107
 20
439.5177994915455
 30
0.0
 70
     8
  0
VERTEX
  5
1867
330
184F
100
AcDbEntity
  8
HILF
100
AcDbVertex
100
AcDb2dVertex
 10
323.8207943308283
 20
440.3622321571129
 30
0.0
 70
     8
  0
VERTEX
  5
1868
330
184F
100
AcDbEntity
  8
HILF
100
AcDbVertex
100
AcDb2dVertex
 10
318.7061509208692
 20
441.4281076500389
 30
0.0
 70
     8
  0
VERTEX
  5
1869
330
184F
100
AcDbEntity
  8
HILF
100
AcDbVertex
100
AcDb2dVertex
 10
313.579158976045
 20
442.7078858041103
 30
0.0
 70
     8
  0
VERTEX
  5
186A
330
184F
100
AcDbEntity
  8
HILF
100
AcDbVertex
100
AcDb2dVertex
 10
308.4372281438875
 20
444.1929681836596
 30
0.0
 70
     8
  0
VERTEX
  5
186B
330
184F
100
AcDbEntity
  8
HILF
100
AcDbVertex
100
AcDb2dVertex
 10
303.3133943552089
 20
445.8705232752022
 30
0.0
 70
     8
  0
VERTEX
  5
186C
330
184F
100
AcDbEntity
  8
HILF
100
AcDbVertex
100
AcDb2dVertex
 10
298.2496001116416
 20
447.7266612957996
 30
0.0
 70
     8
  0
VERTEX
  5
186D
330
184F
100
AcDbEntity
  8
HILF
100
AcDbVertex
100
AcDb2dVertex
 10
293.2877879148178
 20
449.7474924625132
 30
0.0
 70
     8
  0
VERTEX
  5
186E
330
184F
100
AcDbEntity
  8
HILF
100
AcDbVertex
100
AcDb2dVertex
 10
288.46990026637
 20
451.9191269924045
 30
0.0
 70
     8
  0
VERTEX
  5
186F
330
184F
100
AcDbEntity
  8
HILF
100
AcDbVertex
100
AcDb2dVertex
 10
283.8378796679304
 20
454.2276751025349
 30
0.0
 70
     8
  0
VERTEX
  5
1870
330
184F
100
AcDbEntity
  8
HILF
100
AcDbVertex
100
AcDb2dVertex
 10
279.4336686211315
 20
456.6592470099658
 30
0.0
 70
     8
  0
VERTEX
  5
1871
330
184F
100
AcDbEntity
  8
HILF
100
AcDbVertex
100
AcDb2dVertex
 10
275.2992096276056
 20
459.1999529317586
 30
0.0
 70
     8
  0
VERTEX
  5
1872
330
184F
100
AcDbEntity
  8
HILF
100
AcDbVertex
100
AcDb2dVertex
 10
271.4712644683919
 20
461.8364650387482
 30
0.0
 70
     8
  0
VERTEX
  5
1873
330
184F
100
AcDbEntity
  8
HILF
100
AcDbVertex
100
AcDb2dVertex
 10
267.9658720421575
 20
464.5577033168633
 30
0.0
 70
     8
  0
VERTEX
  5
1874
330
184F
100
AcDbEntity
  8
HILF
100
AcDbVertex
100
AcDb2dVertex
 10
264.7938905269763
 20
467.3531497058061
 30
0.0
 70
     8
  0
VERTEX
  5
1875
330
184F
100
AcDbEntity
  8
HILF
100
AcDbVertex
100
AcDb2dVertex
 10
261.9661781009223
 20
470.2122861452789
 30
0.0
 70
     8
  0
VERTEX
  5
1876
330
184F
100
AcDbEntity
  8
HILF
100
AcDbVertex
100
AcDb2dVertex
 10
259.4935929420692
 20
473.1245945749837
 30
0.0
 70
     8
  0
VERTEX
  5
1877
330
184F
100
AcDbEntity
  8
HILF
100
AcDbVertex
100
AcDb2dVertex
 10
257.3869932284913
 20
476.079556934623
 30
0.0
 70
     8
  0
VERTEX
  5
1878
330
184F
100
AcDbEntity
  8
HILF
100
AcDbVertex
100
AcDb2dVertex
 10
255.6572371382622
 20
479.0666551638988
 30
0.0
 70
     8
  0
VERTEX
  5
1879
330
184F
100
AcDbEntity
  8
HILF
100
AcDbVertex
100
AcDb2dVertex
 10
254.3151828494561
 20
482.0753712025133
 30
0.0
 70
     8
  0
VERTEX
  5
187A
330
184F
100
AcDbEntity
  8
HILF
100
AcDbVertex
100
AcDb2dVertex
 10
423.9315145066878
 20
464.0764556713928
 30
0.0
 70
    16
  0
VERTEX
  5
187B
330
184F
100
AcDbEntity
  8
HILF
100
AcDbVertex
100
AcDb2dVertex
 10
398.8596929300044
 20
448.634192776188
 30
0.0
 70
    16
  0
VERTEX
  5
187C
330
184F
100
AcDbEntity
  8
HILF
100
AcDbVertex
100
AcDb2dVertex
 10
354.1664440289272
 20
436.0365569287429
 30
0.0
 70
    16
  0
VERTEX
  5
187D
330
184F
100
AcDbEntity
  8
HILF
100
AcDbVertex
100
AcDb2dVertex
 10
313.8335105296818
 20
440.5066858581689
 30
0.0
 70
    16
  0
VERTEX
  5
187E
330
184F
100
AcDbEntity
  8
HILF
100
AcDbVertex
100
AcDb2dVertex
 10
271.9744677086154
 20
458.1840144632432
 30
0.0
 70
    16
  0
VERTEX
  5
187F
330
184F
100
AcDbEntity
  8
HILF
100
AcDbVertex
100
AcDb2dVertex
 10
257.3674068371985
 20
474.032654074021
 30
0.0
 70
    16
  0
VERTEX
  5
1880
330
184F
100
AcDbEntity
  8
HILF
100
AcDbVertex
100
AcDb2dVertex
 10
254.3151828494561
 20
482.0753712025133
 30
0.0
 70
    16
  0
SEQEND
  5
1881
330
184F
100
AcDbEntity
  8
HILF
  0
INSERT
  5
1882
330
1E
100
AcDbEntity
  8
SCHRAFF
100
AcDbBlockReference
  2
*X7
 10
3.556308901845341
 20
-30.49274479822685
 30
0.0
1001
ACAD
1000
HATCH
1002
{
1070
    16
1000
_U,I
1040
2.0
1040
2.356194490192344
1070
     0
1002
}
  0
INSERT
  5
1883
330
1E
100
AcDbEntity
  8
SCHRAFF
100
AcDbBlockReference
  2
*X10
 10
569.6233063005498
 20
20.34736968344276
 30
0.0
 41
-1.0
1001
ACAD
1000
HATCH
1002
{
1070
    16
1000
_U,I
1040
2.0
1040
0.7853981633974483
1070
     0
1002
}
  0
LINE
  5
1884
330
1E
100
AcDbEntity
  8
STEMPEL
100
AcDbLine
 10
371.8369636705893
 20
496.5753712025134
 30
0.0
 11
427.4139492362343
 21
496.5753712025135
 31
0.0
  0
ARC
  5
18B4
330
1E
100
AcDbEntity
  8
STEMPEL
100
AcDbCircle
 10
331.1378067205974
 20
267.4508402913033
 30
0.0
 40
1.600000000000022
100
AcDbArc
 50
270.0
 51
90.0
  0
ARC
  5
18B5
330
1E
100
AcDbEntity
  8
STEMPEL
100
AcDbCircle
 10
331.7378067205973
 20
245.970840291303
 30
0.0
 40
1.0
100
AcDbArc
 50
359.9999999999984
 51
90.0
  0
LINE
  5
18B6
330
1E
100
AcDbEntity
  8
STEMPEL
100
AcDbLine
 10
331.7378067205973
 20
246.970840291303
 30
0.0
 11
328.8274470899839
 21
246.970840291303
 31
0.0
  0
LINE
  5
18B7
330
1E
100
AcDbEntity
  8
STEMPEL
100
AcDbLine
 10
332.7378067205973
 20
245.970840291303
 30
0.0
 11
332.7378067205973
 21
239.970840291303
 31
0.0
  0
LINE
  5
18B8
330
1E
100
AcDbEntity
  8
STEMPEL
100
AcDbLine
 10
329.537806720597
 20
243.770840291303
 30
0.0
 11
329.537806720597
 21
239.970840291303
 31
0.0
  0
LINE
  5
18B9
330
1E
100
AcDbEntity
  8
STEMPEL
100
AcDbLine
 10
329.537806720597
 20
243.770840291303
 30
0.0
 11
327.3378067205972
 21
243.770840291303
 31
0.0
  0
ARC
  5
18BA
330
1E
100
AcDbEntity
  8
STEMPEL
100
AcDbCircle
 10
328.4378067205971
 20
239.970840291303
 30
0.0
 40
1.099999999999931
100
AcDbArc
 50
180.0
 51
0.0
  0
LINE
  5
18BB
330
1E
100
AcDbEntity
  8
STEMPEL
100
AcDbLine
 10
327.3378067205972
 20
239.970840291303
 30
0.0
 11
327.3378067205972
 21
243.770840291303
 31
0.0
  0
ARC
  5
18BC
330
1E
100
AcDbEntity
  8
STEMPEL
100
AcDbCircle
 10
320.6378067205974
 20
266.1008402913032
 30
0.0
 40
2.95
100
AcDbArc
 50
90.0
 51
180.0
  0
LINE
  5
18BD
330
1E
100
AcDbEntity
  8
STEMPEL
100
AcDbLine
 10
320.8878067205974
 20
265.3508402913031
 30
0.0
 11
320.8878067205974
 21
259.7287620186384
 31
0.0
  0
ARC
  5
18BE
330
1E
100
AcDbEntity
  8
STEMPEL
100
AcDbCircle
 10
321.3878067205974
 20
265.3508402913031
 30
0.0
 40
0.5
100
AcDbArc
 50
90.0
 51
180.0
  0
ARC
  5
18BF
330
1E
100
AcDbEntity
  8
STEMPEL
100
AcDbCircle
 10
319.2878067205973
 20
245.3708402913031
 30
0.0
 40
1.600000000000022
100
AcDbArc
 50
90.0
 51
270.0
  0
ARC
  5
18C0
330
1E
100
AcDbEntity
  8
STEMPEL
100
AcDbCircle
 10
325.2128067205972
 20
253.5708402913032
 30
0.0
 40
7.524999999999954
100
AcDbArc
 50
180.0
 51
241.2916789772538
  0
LINE
  5
18C1
330
1E
100
AcDbEntity
  8
STEMPEL
100
AcDbLine
 10
321.5981663512107
 20
246.970840291303
 30
0.0
 11
319.2878067205973
 21
246.970840291303
 31
0.0
  0
LINE
  5
18C2
330
1E
100
AcDbEntity
  8
STEMPEL
100
AcDbLine
 10
324.1378067205971
 20
243.770840291303
 30
0.0
 11
324.1378067205971
 21
239.4792109846299
 31
0.0
  0
LINE
  5
18C3
330
1E
100
AcDbEntity
  8
STEMPEL
100
AcDbLine
 10
324.1378067205971
 20
243.770840291303
 30
0.0
 11
319.2878067205973
 21
243.770840291303
 31
0.0
  0
LINE
  5
18C4
330
1E
100
AcDbEntity
  8
STEMPEL
100
AcDbLine
 10
324.1378067205971
 20
239.4792109846299
 30
0.0
 11
320.12554459648
 21
238.3420109098608
 31
0.0
  0
LINE
  5
18C5
330
1E
100
AcDbEntity
  8
STEMPEL
100
AcDbLine
 10
317.6878067205973
 20
266.1008402913032
 30
0.0
 11
317.6878067205973
 21
253.5708402913032
 31
0.0
  0
ARC
  5
18C6
330
1E
100
AcDbEntity
  8
STEMPEL
100
AcDbCircle
 10
325.2128067205972
 20
253.5708402913032
 30
0.0
 40
7.524999999999954
100
AcDbArc
 50
298.7083210227462
 51
125.0821845754639
  0
CIRCLE
  5
18C7
330
1E
100
AcDbEntity
  8
STEMPEL
100
AcDbCircle
 10
325.2128067205972
 20
253.5708402913032
 30
0.0
 40
4.324999999999954
  0
LINE
  5
18C8
330
1E
100
AcDbEntity
  8
STEMPEL
100
AcDbLine
 10
331.1378067205974
 20
265.8508402913032
 30
0.0
 11
321.3878067205974
 21
265.8508402913032
 31
0.0
  0
LINE
  5
18C9
330
1E
100
AcDbEntity
  8
STEMPEL
100
AcDbLine
 10
331.1378067205974
 20
269.0508402913032
 30
0.0
 11
320.6378067205974
 21
269.0508402913032
 31
0.0
  0
LINE
  5
18CA
330
1E
100
AcDbEntity
  8
STEMPEL
100
AcDbLine
 10
325.8196539057121
 20
236.559788277934
 30
0.0
 11
321.3048095501893
 21
235.2801407424925
 31
0.0
  0
LINE
  5
18CB
330
1E
100
AcDbEntity
  8
STEMPEL
100
AcDbLine
 10
317.6878067205973
 20
235.4368280384748
 30
0.0
 11
317.6878067205973
 21
227.5708402913032
 31
0.0
  0
LINE
  5
18CC
330
1E
100
AcDbEntity
  8
STEMPEL
100
AcDbLine
 10
320.8878067205974
 20
234.787077389865
 30
0.0
 11
320.8878067205974
 21
233.7287620186393
 31
0.0
  0
ARC
  5
18CD
330
1E
100
AcDbEntity
  8
STEMPEL
100
AcDbCircle
 10
321.3878067205974
 20
234.787077389865
 30
0.0
 40
0.5
100
AcDbArc
 50
99.55500261065868
 51
180.0
  0
CIRCLE
  5
18CE
330
1E
100
AcDbEntity
  8
STEMPEL
100
AcDbCircle
 10
325.2128067205972
 20
227.5708402913032
 30
0.0
 40
4.324999999999954
  0
ARC
  5
18CF
330
1E
100
AcDbEntity
  8
STEMPEL
100
AcDbCircle
 10
325.2128067205972
 20
227.5708402913032
 30
0.0
 40
7.524999999999954
100
AcDbArc
 50
180.0
 51
125.0821845754603
  0
LWPOLYLINE
  5
18D0
330
1E
100
AcDbEntity
  8
STEMPEL
100
AcDbPolyline
 90
        5
 70
     0
 43
0.0
 10
343.2370887448292
 20
213.8786456981236
 42
0.3702012931971291
 10
343.3462770937965
 20
213.9723281154844
 42
0.0222445451568373
 10
344.2866101723891
 20
222.6382243119123
 42
0.0093076339291929
 10
344.6953122784116
 20
231.7163336424927
 42
0.0225977400204118
 10
343.8682317913372
 20
275.676072720231
 42
0.006593972903263
  0
LWPOLYLINE
  5
18D1
330
1E
100
AcDbEntity
  8
STEMPEL
100
AcDbPolyline
 90
        5
 70
     0
 43
0.0
 10
343.2370887448292
 20
213.5304193939354
 42
0.3702012931971097
 10
343.6904583971132
 20
213.9194056308892
 42
0.0222445451568374
 10
344.6341323232068
 20
222.6160903195136
 42
0.0093076339291955
 10
345.0434174647612
 20
231.7071500612283
 42
0.0226129538163931
 10
344.2138497519215
 20
275.7279053583361
 42
0.0065939729032622
  0
LINE
  5
18D2
330
1E
100
AcDbEntity
  8
STEMPEL
100
AcDbLine
 10
343.2370887448292
 20
213.5304193939354
 30
0.0
 11
343.2370887448292
 21
275.571261188671
 31
0.0
  0
LINE
  5
18D3
330
1E
100
AcDbEntity
  8
MITTEL
100
AcDbLine
 10
325.2128067205972
 20
274.0508402913032
 30
0.0
 11
325.2128067205972
 21
215.0458402913032
 31
0.0
  0
ARC
  5
18D4
330
1E
100
AcDbEntity
  8
STEMPEL
100
AcDbCircle
 10
328.4378067205971
 20
239.970840291303
 30
0.0
 40
4.299999999999931
100
AcDbArc
 50
232.4919601629154
 51
0.0
  0
ARC
  5
18D5
330
1E
100
AcDbEntity
  8
STEMPEL
100
AcDbCircle
 10
320.6378067205974
 20
235.4368280384748
 30
0.0
 40
2.95
100
AcDbArc
 50
99.99999999999861
 51
180.0
  0
ARC
  5
18D6
330
1E
100
AcDbEntity
  8
HILF
100
AcDbCircle
 10
348.7128067205972
 20
244.5508402913032
 30
0.0
 40
31.5
100
AcDbArc
 50
259.9892866776464
 51
100.0107133223536
  0
ARC
  5
18D7
330
1E
100
AcDbEntity
  8
STEMPEL
100
AcDbCircle
 10
348.7128067205972
 20
244.5508402913032
 30
0.0
 40
41.5
100
AcDbArc
 50
90.0
 51
180.0
  0
ARC
  5
18D8
330
1E
100
AcDbEntity
  8
HILF
100
AcDbCircle
 10
348.7128067205972
 20
244.5508402913032
 30
0.0
 40
45.0
100
AcDbArc
 50
90.0
 51
180.0
  0
ARC
  5
18D9
330
1E
100
AcDbEntity
  8
HILF
100
AcDbCircle
 10
348.7128067205972
 20
244.5508402913032
 30
0.0
 40
45.0
100
AcDbArc
 50
0.0
 51
90.0
  0
ARC
  5
18DA
330
1E
100
AcDbEntity
  8
STEMPEL
100
AcDbCircle
 10
348.7128067205972
 20
244.5508402913032
 30
0.0
 40
41.5
100
AcDbArc
 50
0.0
 51
90.0
  0
ARC
  5
18DB
330
1E
100
AcDbEntity
  8
STEMPEL
100
AcDbCircle
 10
348.7128067205972
 20
244.5508402913032
 30
0.0
 40
41.5
100
AcDbArc
 50
270.0
 51
0.0
  0
ARC
  5
18DC
330
1E
100
AcDbEntity
  8
HILF
100
AcDbCircle
 10
348.7128067205972
 20
244.5508402913032
 30
0.0
 40
45.0
100
AcDbArc
 50
270.0
 51
0.0
  0
ARC
  5
18DD
330
1E
100
AcDbEntity
  8
HILF
100
AcDbCircle
 10
348.7128067205972
 20
244.5508402913032
 30
0.0
 40
45.0
100
AcDbArc
 50
180.0
 51
270.0
  0
ARC
  5
18DE
330
1E
100
AcDbEntity
  8
STEMPEL
100
AcDbCircle
 10
348.7128067205972
 20
244.5508402913032
 30
0.0
 40
41.5
100
AcDbArc
 50
180.0
 51
270.0
  0
POLYLINE
  5
190B
330
1E
100
AcDbEntity
  8
HILF
100
AcDb2dPolyline
 66
     1
 10
0.0
 20
0.0
 30
0.0
 70
     4
 75
     6
  0
VERTEX
  5
190C
330
190B
100
AcDbEntity
  8
HILF
100
AcDbVertex
100
AcDb2dVertex
 10
516.5524695547912
 20
482.0753712025133
 30
0.0
 70
    16
  0
VERTEX
  5
190D
330
190B
100
AcDbEntity
  8
HILF
100
AcDbVertex
100
AcDb2dVertex
 10
516.5524695547912
 20
482.0753712025133
 30
0.0
 70
     8
  0
VERTEX
  5
190E
330
190B
100
AcDbEntity
  8
HILF
100
AcDbVertex
100
AcDb2dVertex
 10
518.9467237712943
 20
472.222112746927
 30
0.0
 70
     8
  0
VERTEX
  5
190F
330
190B
100
AcDbEntity
  8
HILF
100
AcDbVertex
100
AcDb2dVertex
 10
520.724255384623
 20
463.7929883767784
 30
0.0
 70
     8
  0
VERTEX
  5
1910
330
190B
100
AcDbEntity
  8
HILF
100
AcDbVertex
100
AcDb2dVertex
 10
521.9493530598843
 20
456.6126638249724
 30
0.0
 70
     8
  0
VERTEX
  5
1911
330
190B
100
AcDbEntity
  8
HILF
100
AcDbVertex
100
AcDb2dVertex
 10
522.6863054621857
 20
450.5058048244129
 30
0.0
 70
     8
  0
VERTEX
  5
1912
330
190B
100
AcDbEntity
  8
HILF
100
AcDbVertex
100
AcDb2dVertex
 10
522.9994012566341
 20
445.2970771080044
 30
0.0
 70
     8
  0
VERTEX
  5
1913
330
190B
100
AcDbEntity
  8
HILF
100
AcDbVertex
100
AcDb2dVertex
 10
522.9529291083366
 20
440.8111464086513
 30
0.0
 70
     8
  0
VERTEX
  5
1914
330
190B
100
AcDbEntity
  8
HILF
100
AcDbVertex
100
AcDb2dVertex
 10
522.6111776824003
 20
436.8726784592579
 30
0.0
 70
     8
  0
VERTEX
  5
1915
330
190B
100
AcDbEntity
  8
HILF
100
AcDbVertex
100
AcDb2dVertex
 10
522.0384356439325
 20
433.3063389927287
 30
0.0
 70
     8
  0
VERTEX
  5
1916
330
190B
100
AcDbEntity
  8
HILF
100
AcDbVertex
100
AcDb2dVertex
 10
521.2901291243825
 20
429.9604057584025
 30
0.0
 70
     8
  0
VERTEX
  5
1917
330
190B
100
AcDbEntity
  8
HILF
100
AcDbVertex
100
AcDb2dVertex
 10
520.3862341205698
 20
426.7776045713583
 30
0.0
 70
     8
  0
VERTEX
  5
1918
330
190B
100
AcDbEntity
  8
HILF
100
AcDbVertex
100
AcDb2dVertex
 10
519.3378640956558
 20
423.7242732631091
 30
0.0
 70
     8
  0
VERTEX
  5
1919
330
190B
100
AcDbEntity
  8
HILF
100
AcDbVertex
100
AcDb2dVertex
 10
518.1561325128021
 20
420.7667496651681
 30
0.0
 70
     8
  0
VERTEX
  5
191A
330
190B
100
AcDbEntity
  8
HILF
100
AcDbVertex
100
AcDb2dVertex
 10
516.8521528351706
 20
417.8713716090487
 30
0.0
 70
     8
  0
VERTEX
  5
191B
330
190B
100
AcDbEntity
  8
HILF
100
AcDbVertex
100
AcDb2dVertex
 10
515.4370385259227
 20
415.0044769262642
 30
0.0
 70
     8
  0
VERTEX
  5
191C
330
190B
100
AcDbEntity
  8
HILF
100
AcDbVertex
100
AcDb2dVertex
 10
513.9219030482201
 20
412.132403448328
 30
0.0
 70
     8
  0
VERTEX
  5
191D
330
190B
100
AcDbEntity
  8
HILF
100
AcDbVertex
100
AcDb2dVertex
 10
512.3178598652244
 20
409.2214890067531
 30
0.0
 70
     8
  0
VERTEX
  5
191E
330
190B
100
AcDbEntity
  8
HILF
100
AcDbVertex
100
AcDb2dVertex
 10
510.6426210588495
 20
406.241955529417
 30
0.0
 70
     8
  0
VERTEX
  5
191F
330
190B
100
AcDbEntity
  8
HILF
100
AcDbVertex
100
AcDb2dVertex
 10
508.9402931860182
 20
403.1795613296521
 30
0.0
 70
     8
  0
VERTEX
  5
1920
330
190B
100
AcDbEntity
  8
HILF
100
AcDbVertex
100
AcDb2dVertex
 10
507.2615814224053
 20
400.0239488171548
 30
0.0
 70
     8
  0
VERTEX
  5
1921
330
190B
100
AcDbEntity
  8
HILF
100
AcDbVertex
100
AcDb2dVertex
 10
505.6571909436859
 20
396.7647604016215
 30
0.0
 70
     8
  0
VERTEX
  5
1922
330
190B
100
AcDbEntity
  8
HILF
100
AcDbVertex
100
AcDb2dVertex
 10
504.1778269255347
 20
393.3916384927485
 30
0.0
 70
     8
  0
VERTEX
  5
1923
330
190B
100
AcDbEntity
  8
HILF
100
AcDbVertex
100
AcDb2dVertex
 10
502.874194543627
 20
389.8942255002322
 30
0.0
 70
     8
  0
VERTEX
  5
1924
330
190B
100
AcDbEntity
  8
HILF
100
AcDbVertex
100
AcDb2dVertex
 10
501.7969989736375
 20
386.2621638337692
 30
0.0
 70
     8
  0
VERTEX
  5
1925
330
190B
100
AcDbEntity
  8
HILF
100
AcDbVertex
100
AcDb2dVertex
 10
500.9969453912413
 20
382.4850959030557
 30
0.0
 70
     8
  0
VERTEX
  5
1926
330
190B
100
AcDbEntity
  8
HILF
100
AcDbVertex
100
AcDb2dVertex
 10
500.5362511209185
 20
378.5590507488324
 30
0.0
 70
     8
  0
VERTEX
  5
1927
330
190B
100
AcDbEntity
  8
HILF
100
AcDbVertex
100
AcDb2dVertex
 10
500.5231820823714
 20
374.5056039360164
 30
0.0
 70
     8
  0
VERTEX
  5
1928
330
190B
100
AcDbEntity
  8
HILF
100
AcDbVertex
100
AcDb2dVertex
 10
501.0775163441072
 20
370.3527176605692
 30
0.0
 70
     8
  0
VERTEX
  5
1929
330
190B
100
AcDbEntity
  8
HILF
100
AcDbVertex
100
AcDb2dVertex
 10
502.3190319746336
 20
366.1283541184521
 30
0.0
 70
     8
  0
VERTEX
  5
192A
330
190B
100
AcDbEntity
  8
HILF
100
AcDbVertex
100
AcDb2dVertex
 10
504.3675070424577
 20
361.8604755056267
 30
0.0
 70
     8
  0
VERTEX
  5
192B
330
190B
100
AcDbEntity
  8
HILF
100
AcDbVertex
100
AcDb2dVertex
 10
507.342719616087
 20
357.577044018054
 30
0.0
 70
     8
  0
VERTEX
  5
192C
330
190B
100
AcDbEntity
  8
HILF
100
AcDbVertex
100
AcDb2dVertex
 10
511.3644477640291
 20
353.3060218516957
 30
0.0
 70
     8
  0
VERTEX
  5
192D
330
190B
100
AcDbEntity
  8
HILF
100
AcDbVertex
100
AcDb2dVertex
 10
516.5524695547912
 20
349.0753712025132
 30
0.0
 70
     8
  0
VERTEX
  5
192E
330
190B
100
AcDbEntity
  8
HILF
100
AcDbVertex
100
AcDb2dVertex
 10
523.8165897497936
 20
453.7453171918362
 30
0.0
 70
    16
  0
VERTEX
  5
192F
330
190B
100
AcDbEntity
  8
HILF
100
AcDbVertex
100
AcDb2dVertex
 10
523.8165897497936
 20
431.2072006911987
 30
0.0
 70
    16
  0
VERTEX
  5
1930
330
190B
100
AcDbEntity
  8
HILF
100
AcDbVertex
100
AcDb2dVertex
 10
513.1476651146264
 20
409.994855749422
 30
0.0
 70
    16
  0
VERTEX
  5
1931
330
190B
100
AcDbEntity
  8
HILF
100
AcDbVertex
100
AcDb2dVertex
 10
497.4999089830475
 20
384.142310351632
 30
0.0
 70
    16
  0
VERTEX
  5
1932
330
190B
100
AcDbEntity
  8
HILF
100
AcDbVertex
100
AcDb2dVertex
 10
501.05621719477
 20
360.2784222921334
 30
0.0
 70
    16
  0
VERTEX
  5
1933
330
190B
100
AcDbEntity
  8
HILF
100
AcDbVertex
100
AcDb2dVertex
 10
516.5524695547912
 20
349.0753712025132
 30
0.0
 70
    16
  0
SEQEND
  5
1934
330
190B
100
AcDbEntity
  8
HILF
  0
POLYLINE
  5
1935
330
1E
100
AcDbEntity
  8
HILF
100
AcDb2dPolyline
 66
     1
 10
0.0
 20
0.0
 30
0.0
 70
     4
 75
     6
  0
VERTEX
  5
1936
330
1935
100
AcDbEntity
  8
HILF
100
AcDbVertex
100
AcDb2dVertex
 10
521.5524695547911
 20
482.0753712025133
 30
0.0
 70
    16
  0
VERTEX
  5
1937
330
1935
100
AcDbEntity
  8
HILF
100
AcDbVertex
100
AcDb2dVertex
 10
521.5524695547911
 20
482.0753712025133
 30
0.0
 70
     8
  0
VERTEX
  5
1938
330
1935
100
AcDbEntity
  8
HILF
100
AcDbVertex
100
AcDb2dVertex
 10
523.9467237712942
 20
472.222112746927
 30
0.0
 70
     8
  0
VERTEX
  5
1939
330
1935
100
AcDbEntity
  8
HILF
100
AcDbVertex
100
AcDb2dVertex
 10
525.7242553846229
 20
463.7929883767784
 30
0.0
 70
     8
  0
VERTEX
  5
193A
330
1935
100
AcDbEntity
  8
HILF
100
AcDbVertex
100
AcDb2dVertex
 10
526.9493530598843
 20
456.6126638249724
 30
0.0
 70
     8
  0
VERTEX
  5
193B
330
1935
100
AcDbEntity
  8
HILF
100
AcDbVertex
100
AcDb2dVertex
 10
527.6863054621856
 20
450.5058048244129
 30
0.0
 70
     8
  0
VERTEX
  5
193C
330
1935
100
AcDbEntity
  8
HILF
100
AcDbVertex
100
AcDb2dVertex
 10
527.9994012566341
 20
445.2970771080044
 30
0.0
 70
     8
  0
VERTEX
  5
193D
330
1935
100
AcDbEntity
  8
HILF
100
AcDbVertex
100
AcDb2dVertex
 10
527.9529291083366
 20
440.8111464086513
 30
0.0
 70
     8
  0
VERTEX
  5
193E
330
1935
100
AcDbEntity
  8
HILF
100
AcDbVertex
100
AcDb2dVertex
 10
527.6111776824003
 20
436.8726784592579
 30
0.0
 70
     8
  0
VERTEX
  5
193F
330
1935
100
AcDbEntity
  8
HILF
100
AcDbVertex
100
AcDb2dVertex
 10
527.0384356439325
 20
433.3063389927287
 30
0.0
 70
     8
  0
VERTEX
  5
1940
330
1935
100
AcDbEntity
  8
HILF
100
AcDbVertex
100
AcDb2dVertex
 10
526.2901291243825
 20
429.9604057584025
 30
0.0
 70
     8
  0
VERTEX
  5
1941
330
1935
100
AcDbEntity
  8
HILF
100
AcDbVertex
100
AcDb2dVertex
 10
525.3862341205698
 20
426.7776045713583
 30
0.0
 70
     8
  0
VERTEX
  5
1942
330
1935
100
AcDbEntity
  8
HILF
100
AcDbVertex
100
AcDb2dVertex
 10
524.3378640956558
 20
423.7242732631091
 30
0.0
 70
     8
  0
VERTEX
  5
1943
330
1935
100
AcDbEntity
  8
HILF
100
AcDbVertex
100
AcDb2dVertex
 10
523.1561325128021
 20
420.7667496651681
 30
0.0
 70
     8
  0
VERTEX
  5
1944
330
1935
100
AcDbEntity
  8
HILF
100
AcDbVertex
100
AcDb2dVertex
 10
521.8521528351706
 20
417.8713716090487
 30
0.0
 70
     8
  0
VERTEX
  5
1945
330
1935
100
AcDbEntity
  8
HILF
100
AcDbVertex
100
AcDb2dVertex
 10
520.4370385259227
 20
415.0044769262642
 30
0.0
 70
     8
  0
VERTEX
  5
1946
330
1935
100
AcDbEntity
  8
HILF
100
AcDbVertex
100
AcDb2dVertex
 10
518.9219030482201
 20
412.132403448328
 30
0.0
 70
     8
  0
VERTEX
  5
1947
330
1935
100
AcDbEntity
  8
HILF
100
AcDbVertex
100
AcDb2dVertex
 10
517.3178598652245
 20
409.2214890067531
 30
0.0
 70
     8
  0
VERTEX
  5
1948
330
1935
100
AcDbEntity
  8
HILF
100
AcDbVertex
100
AcDb2dVertex
 10
515.6426210588496
 20
406.241955529417
 30
0.0
 70
     8
  0
VERTEX
  5
1949
330
1935
100
AcDbEntity
  8
HILF
100
AcDbVertex
100
AcDb2dVertex
 10
513.9402931860182
 20
403.1795613296521
 30
0.0
 70
     8
  0
VERTEX
  5
194A
330
1935
100
AcDbEntity
  8
HILF
100
AcDbVertex
100
AcDb2dVertex
 10
512.2615814224054
 20
400.0239488171548
 30
0.0
 70
     8
  0
VERTEX
  5
194B
330
1935
100
AcDbEntity
  8
HILF
100
AcDbVertex
100
AcDb2dVertex
 10
510.6571909436858
 20
396.7647604016215
 30
0.0
 70
     8
  0
VERTEX
  5
194C
330
1935
100
AcDbEntity
  8
HILF
100
AcDbVertex
100
AcDb2dVertex
 10
509.1778269255347
 20
393.3916384927485
 30
0.0
 70
     8
  0
VERTEX
  5
194D
330
1935
100
AcDbEntity
  8
HILF
100
AcDbVertex
100
AcDb2dVertex
 10
507.874194543627
 20
389.8942255002322
 30
0.0
 70
     8
  0
VERTEX
  5
194E
330
1935
100
AcDbEntity
  8
HILF
100
AcDbVertex
100
AcDb2dVertex
 10
506.7969989736375
 20
386.2621638337692
 30
0.0
 70
     8
  0
VERTEX
  5
194F
330
1935
100
AcDbEntity
  8
HILF
100
AcDbVertex
100
AcDb2dVertex
 10
505.9969453912413
 20
382.4850959030557
 30
0.0
 70
     8
  0
VERTEX
  5
1950
330
1935
100
AcDbEntity
  8
HILF
100
AcDbVertex
100
AcDb2dVertex
 10
505.5362511209185
 20
378.5590507488324
 30
0.0
 70
     8
  0
VERTEX
  5
1951
330
1935
100
AcDbEntity
  8
HILF
100
AcDbVertex
100
AcDb2dVertex
 10
505.5231820823714
 20
374.5056039360164
 30
0.0
 70
     8
  0
VERTEX
  5
1952
330
1935
100
AcDbEntity
  8
HILF
100
AcDbVertex
100
AcDb2dVertex
 10
506.0775163441072
 20
370.3527176605692
 30
0.0
 70
     8
  0
VERTEX
  5
1953
330
1935
100
AcDbEntity
  8
HILF
100
AcDbVertex
100
AcDb2dVertex
 10
507.3190319746336
 20
366.1283541184521
 30
0.0
 70
     8
  0
VERTEX
  5
1954
330
1935
100
AcDbEntity
  8
HILF
100
AcDbVertex
100
AcDb2dVertex
 10
509.3675070424577
 20
361.8604755056267
 30
0.0
 70
     8
  0
VERTEX
  5
1955
330
1935
100
AcDbEntity
  8
HILF
100
AcDbVertex
100
AcDb2dVertex
 10
512.342719616087
 20
357.577044018054
 30
0.0
 70
     8
  0
VERTEX
  5
1956
330
1935
100
AcDbEntity
  8
HILF
100
AcDbVertex
100
AcDb2dVertex
 10
516.3644477640291
 20
353.3060218516957
 30
0.0
 70
     8
  0
VERTEX
  5
1957
330
1935
100
AcDbEntity
  8
HILF
100
AcDbVertex
100
AcDb2dVertex
 10
521.5524695547911
 20
349.0753712025132
 30
0.0
 70
     8
  0
VERTEX
  5
1958
330
1935
100
AcDbEntity
  8
HILF
100
AcDbVertex
100
AcDb2dVertex
 10
528.8165897497937
 20
453.7453171918362
 30
0.0
 70
    16
  0
VERTEX
  5
1959
330
1935
100
AcDbEntity
  8
HILF
100
AcDbVertex
100
AcDb2dVertex
 10
528.8165897497937
 20
431.2072006911987
 30
0.0
 70
    16
  0
VERTEX
  5
195A
330
1935
100
AcDbEntity
  8
HILF
100
AcDbVertex
100
AcDb2dVertex
 10
518.1476651146263
 20
409.994855749422
 30
0.0
 70
    16
  0
VERTEX
  5
195B
330
1935
100
AcDbEntity
  8
HILF
100
AcDbVertex
100
AcDb2dVertex
 10
502.4999089830474
 20
384.142310351632
 30
0.0
 70
    16
  0
VERTEX
  5
195C
330
1935
100
AcDbEntity
  8
HILF
100
AcDbVertex
100
AcDb2dVertex
 10
506.05621719477
 20
360.2784222921334
 30
0.0
 70
    16
  0
VERTEX
  5
195D
330
1935
100
AcDbEntity
  8
HILF
100
AcDbVertex
100
AcDb2dVertex
 10
521.5524695547911
 20
349.0753712025132
 30
0.0
 70
    16
  0
SEQEND
  5
195E
330
1935
100
AcDbEntity
  8
HILF
  0
POLYLINE
  5
195F
330
1E
100
AcDbEntity
  8
HILF
100
AcDb2dPolyline
 66
     1
 10
0.0
 20
0.0
 30
0.0
 70
     4
 75
     6
  0
VERTEX
  5
1960
330
195F
100
AcDbEntity
  8
HILF
100
AcDbVertex
100
AcDb2dVertex
 10
516.5524695547912
 20
311.0508402913031
 30
0.0
 70
    16
  0
VERTEX
  5
1961
330
195F
100
AcDbEntity
  8
HILF
100
AcDbVertex
100
AcDb2dVertex
 10
516.5524695547912
 20
311.0508402913031
 30
0.0
 70
     8
  0
VERTEX
  5
1962
330
195F
100
AcDbEntity
  8
HILF
100
AcDbVertex
100
AcDb2dVertex
 10
518.9467237712943
 20
301.1975818357167
 30
0.0
 70
     8
  0
VERTEX
  5
1963
330
195F
100
AcDbEntity
  8
HILF
100
AcDbVertex
100
AcDb2dVertex
 10
520.724255384623
 20
292.7684574655682
 30
0.0
 70
     8
  0
VERTEX
  5
1964
330
195F
100
AcDbEntity
  8
HILF
100
AcDbVertex
100
AcDb2dVertex
 10
521.9493530598843
 20
285.5881329137621
 30
0.0
 70
     8
  0
VERTEX
  5
1965
330
195F
100
AcDbEntity
  8
HILF
100
AcDbVertex
100
AcDb2dVertex
 10
522.6863054621857
 20
279.4812739132026
 30
0.0
 70
     8
  0
VERTEX
  5
1966
330
195F
100
AcDbEntity
  8
HILF
100
AcDbVertex
100
AcDb2dVertex
 10
522.9994012566341
 20
274.2725461967942
 30
0.0
 70
     8
  0
VERTEX
  5
1967
330
195F
100
AcDbEntity
  8
HILF
100
AcDbVertex
100
AcDb2dVertex
 10
522.9529291083366
 20
269.786615497441
 30
0.0
 70
     8
  0
VERTEX
  5
1968
330
195F
100
AcDbEntity
  8
HILF
100
AcDbVertex
100
AcDb2dVertex
 10
522.6111776824003
 20
265.8481475480477
 30
0.0
 70
     8
  0
VERTEX
  5
1969
330
195F
100
AcDbEntity
  8
HILF
100
AcDbVertex
100
AcDb2dVertex
 10
522.0384356439325
 20
262.2818080815184
 30
0.0
 70
     8
  0
VERTEX
  5
196A
330
195F
100
AcDbEntity
  8
HILF
100
AcDbVertex
100
AcDb2dVertex
 10
521.2901291243825
 20
258.9358748471923
 30
0.0
 70
     8
  0
VERTEX
  5
196B
330
195F
100
AcDbEntity
  8
HILF
100
AcDbVertex
100
AcDb2dVertex
 10
520.3862341205698
 20
255.7530736601481
 30
0.0
 70
     8
  0
VERTEX
  5
196C
330
195F
100
AcDbEntity
  8
HILF
100
AcDbVertex
100
AcDb2dVertex
 10
519.3378640956558
 20
252.6997423518988
 30
0.0
 70
     8
  0
VERTEX
  5
196D
330
195F
100
AcDbEntity
  8
HILF
100
AcDbVertex
100
AcDb2dVertex
 10
518.1561325128021
 20
249.7422187539578
 30
0.0
 70
     8
  0
VERTEX
  5
196E
330
195F
100
AcDbEntity
  8
HILF
100
AcDbVertex
100
AcDb2dVertex
 10
516.8521528351706
 20
246.8468406978384
 30
0.0
 70
     8
  0
VERTEX
  5
196F
330
195F
100
AcDbEntity
  8
HILF
100
AcDbVertex
100
AcDb2dVertex
 10
515.4370385259227
 20
243.9799460150539
 30
0.0
 70
     8
  0
VERTEX
  5
1970
330
195F
100
AcDbEntity
  8
HILF
100
AcDbVertex
100
AcDb2dVertex
 10
513.9219030482201
 20
241.1078725371177
 30
0.0
 70
     8
  0
VERTEX
  5
1971
330
195F
100
AcDbEntity
  8
HILF
100
AcDbVertex
100
AcDb2dVertex
 10
512.3178598652244
 20
238.1969580955429
 30
0.0
 70
     8
  0
VERTEX
  5
1972
330
195F
100
AcDbEntity
  8
HILF
100
AcDbVertex
100
AcDb2dVertex
 10
510.6426210588495
 20
235.2174246182068
 30
0.0
 70
     8
  0
VERTEX
  5
1973
330
195F
100
AcDbEntity
  8
HILF
100
AcDbVertex
100
AcDb2dVertex
 10
508.9402931860182
 20
232.1550304184419
 30
0.0
 70
     8
  0
VERTEX
  5
1974
330
195F
100
AcDbEntity
  8
HILF
100
AcDbVertex
100
AcDb2dVertex
 10
507.2615814224053
 20
228.9994179059445
 30
0.0
 70
     8
  0
VERTEX
  5
1975
330
195F
100
AcDbEntity
  8
HILF
100
AcDbVertex
100
AcDb2dVertex
 10
505.6571909436859
 20
225.7402294904111
 30
0.0
 70
     8
  0
VERTEX
  5
1976
330
195F
100
AcDbEntity
  8
HILF
100
AcDbVertex
100
AcDb2dVertex
 10
504.1778269255347
 20
222.3671075815381
 30
0.0
 70
     8
  0
VERTEX
  5
1977
330
195F
100
AcDbEntity
  8
HILF
100
AcDbVertex
100
AcDb2dVertex
 10
502.874194543627
 20
218.869694589022
 30
0.0
 70
     8
  0
VERTEX
  5
1978
330
195F
100
AcDbEntity
  8
HILF
100
AcDbVertex
100
AcDb2dVertex
 10
501.7969989736375
 20
215.2376329225589
 30
0.0
 70
     8
  0
VERTEX
  5
1979
330
195F
100
AcDbEntity
  8
HILF
100
AcDbVertex
100
AcDb2dVertex
 10
500.9969453912413
 20
211.4605649918455
 30
0.0
 70
     8
  0
VERTEX
  5
197A
330
195F
100
AcDbEntity
  8
HILF
100
AcDbVertex
100
AcDb2dVertex
 10
500.5362511209185
 20
207.5345198376221
 30
0.0
 70
     8
  0
VERTEX
  5
197B
330
195F
100
AcDbEntity
  8
HILF
100
AcDbVertex
100
AcDb2dVertex
 10
500.5231820823714
 20
203.4810730248062
 30
0.0
 70
     8
  0
VERTEX
  5
197C
330
195F
100
AcDbEntity
  8
HILF
100
AcDbVertex
100
AcDb2dVertex
 10
501.0775163441072
 20
199.3281867493589
 30
0.0
 70
     8
  0
VERTEX
  5
197D
330
195F
100
AcDbEntity
  8
HILF
100
AcDbVertex
100
AcDb2dVertex
 10
502.3190319746336
 20
195.1038232072418
 30
0.0
 70
     8
  0
VERTEX
  5
197E
330
195F
100
AcDbEntity
  8
HILF
100
AcDbVertex
100
AcDb2dVertex
 10
504.3675070424577
 20
190.8359445944163
 30
0.0
 70
     8
  0
VERTEX
  5
197F
330
195F
100
AcDbEntity
  8
HILF
100
AcDbVertex
100
AcDb2dVertex
 10
507.342719616087
 20
186.5525131068437
 30
0.0
 70
     8
  0
VERTEX
  5
1980
330
195F
100
AcDbEntity
  8
HILF
100
AcDbVertex
100
AcDb2dVertex
 10
511.3644477640291
 20
182.2814909404854
 30
0.0
 70
     8
  0
VERTEX
  5
1981
330
195F
100
AcDbEntity
  8
HILF
100
AcDbVertex
100
AcDb2dVertex
 10
516.5524695547912
 20
178.0508402913028
 30
0.0
 70
     8
  0
VERTEX
  5
1982
330
195F
100
AcDbEntity
  8
HILF
100
AcDbVertex
100
AcDb2dVertex
 10
523.8165897497936
 20
282.720786280626
 30
0.0
 70
    16
  0
VERTEX
  5
1983
330
195F
100
AcDbEntity
  8
HILF
100
AcDbVertex
100
AcDb2dVertex
 10
523.8165897497936
 20
260.1826697799884
 30
0.0
 70
    16
  0
VERTEX
  5
1984
330
195F
100
AcDbEntity
  8
HILF
100
AcDbVertex
100
AcDb2dVertex
 10
513.1476651146264
 20
238.9703248382119
 30
0.0
 70
    16
  0
VERTEX
  5
1985
330
195F
100
AcDbEntity
  8
HILF
100
AcDbVertex
100
AcDb2dVertex
 10
497.4999089830475
 20
213.1177794404217
 30
0.0
 70
    16
  0
VERTEX
  5
1986
330
195F
100
AcDbEntity
  8
HILF
100
AcDbVertex
100
AcDb2dVertex
 10
501.05621719477
 20
189.2538913809231
 30
0.0
 70
    16
  0
VERTEX
  5
1987
330
195F
100
AcDbEntity
  8
HILF
100
AcDbVertex
100
AcDb2dVertex
 10
516.5524695547912
 20
178.0508402913028
 30
0.0
 70
    16
  0
SEQEND
  5
1988
330
195F
100
AcDbEntity
  8
HILF
  0
POLYLINE
  5
1989
330
1E
100
AcDbEntity
  8
HILF
100
AcDb2dPolyline
 66
     1
 10
0.0
 20
0.0
 30
0.0
 70
     4
 75
     6
  0
VERTEX
  5
198A
330
1989
100
AcDbEntity
  8
HILF
100
AcDbVertex
100
AcDb2dVertex
 10
521.5524695547911
 20
311.0508402913031
 30
0.0
 70
    16
  0
VERTEX
  5
198B
330
1989
100
AcDbEntity
  8
HILF
100
AcDbVertex
100
AcDb2dVertex
 10
521.5524695547911
 20
311.0508402913031
 30
0.0
 70
     8
  0
VERTEX
  5
198C
330
1989
100
AcDbEntity
  8
HILF
100
AcDbVertex
100
AcDb2dVertex
 10
523.9467237712942
 20
301.1975818357167
 30
0.0
 70
     8
  0
VERTEX
  5
198D
330
1989
100
AcDbEntity
  8
HILF
100
AcDbVertex
100
AcDb2dVertex
 10
525.7242553846229
 20
292.7684574655682
 30
0.0
 70
     8
  0
VERTEX
  5
198E
330
1989
100
AcDbEntity
  8
HILF
100
AcDbVertex
100
AcDb2dVertex
 10
526.9493530598843
 20
285.5881329137621
 30
0.0
 70
     8
  0
VERTEX
  5
198F
330
1989
100
AcDbEntity
  8
HILF
100
AcDbVertex
100
AcDb2dVertex
 10
527.6863054621856
 20
279.4812739132026
 30
0.0
 70
     8
  0
VERTEX
  5
1990
330
1989
100
AcDbEntity
  8
HILF
100
AcDbVertex
100
AcDb2dVertex
 10
527.9994012566341
 20
274.2725461967942
 30
0.0
 70
     8
  0
VERTEX
  5
1991
330
1989
100
AcDbEntity
  8
HILF
100
AcDbVertex
100
AcDb2dVertex
 10
527.9529291083366
 20
269.786615497441
 30
0.0
 70
     8
  0
VERTEX
  5
1992
330
1989
100
AcDbEntity
  8
HILF
100
AcDbVertex
100
AcDb2dVertex
 10
527.6111776824003
 20
265.8481475480477
 30
0.0
 70
     8
  0
VERTEX
  5
1993
330
1989
100
AcDbEntity
  8
HILF
100
AcDbVertex
100
AcDb2dVertex
 10
527.0384356439325
 20
262.2818080815184
 30
0.0
 70
     8
  0
VERTEX
  5
1994
330
1989
100
AcDbEntity
  8
HILF
100
AcDbVertex
100
AcDb2dVertex
 10
526.2901291243825
 20
258.9358748471923
 30
0.0
 70
     8
  0
VERTEX
  5
1995
330
1989
100
AcDbEntity
  8
HILF
100
AcDbVertex
100
AcDb2dVertex
 10
525.3862341205698
 20
255.7530736601481
 30
0.0
 70
     8
  0
VERTEX
  5
1996
330
1989
100
AcDbEntity
  8
HILF
100
AcDbVertex
100
AcDb2dVertex
 10
524.3378640956558
 20
252.6997423518988
 30
0.0
 70
     8
  0
VERTEX
  5
1997
330
1989
100
AcDbEntity
  8
HILF
100
AcDbVertex
100
AcDb2dVertex
 10
523.1561325128021
 20
249.7422187539578
 30
0.0
 70
     8
  0
VERTEX
  5
1998
330
1989
100
AcDbEntity
  8
HILF
100
AcDbVertex
100
AcDb2dVertex
 10
521.8521528351706
 20
246.8468406978384
 30
0.0
 70
     8
  0
VERTEX
  5
1999
330
1989
100
AcDbEntity
  8
HILF
100
AcDbVertex
100
AcDb2dVertex
 10
520.4370385259227
 20
243.9799460150539
 30
0.0
 70
     8
  0
VERTEX
  5
199A
330
1989
100
AcDbEntity
  8
HILF
100
AcDbVertex
100
AcDb2dVertex
 10
518.9219030482201
 20
241.1078725371177
 30
0.0
 70
     8
  0
VERTEX
  5
199B
330
1989
100
AcDbEntity
  8
HILF
100
AcDbVertex
100
AcDb2dVertex
 10
517.3178598652245
 20
238.1969580955429
 30
0.0
 70
     8
  0
VERTEX
  5
199C
330
1989
100
AcDbEntity
  8
HILF
100
AcDbVertex
100
AcDb2dVertex
 10
515.6426210588496
 20
235.2174246182068
 30
0.0
 70
     8
  0
VERTEX
  5
199D
330
1989
100
AcDbEntity
  8
HILF
100
AcDbVertex
100
AcDb2dVertex
 10
513.9402931860182
 20
232.1550304184419
 30
0.0
 70
     8
  0
VERTEX
  5
199E
330
1989
100
AcDbEntity
  8
HILF
100
AcDbVertex
100
AcDb2dVertex
 10
512.2615814224054
 20
228.9994179059445
 30
0.0
 70
     8
  0
VERTEX
  5
199F
330
1989
100
AcDbEntity
  8
HILF
100
AcDbVertex
100
AcDb2dVertex
 10
510.6571909436858
 20
225.7402294904111
 30
0.0
 70
     8
  0
VERTEX
  5
19A0
330
1989
100
AcDbEntity
  8
HILF
100
AcDbVertex
100
AcDb2dVertex
 10
509.1778269255347
 20
222.3671075815381
 30
0.0
 70
     8
  0
VERTEX
  5
19A1
330
1989
100
AcDbEntity
  8
HILF
100
AcDbVertex
100
AcDb2dVertex
 10
507.874194543627
 20
218.869694589022
 30
0.0
 70
     8
  0
VERTEX
  5
19A2
330
1989
100
AcDbEntity
  8
HILF
100
AcDbVertex
100
AcDb2dVertex
 10
506.7969989736375
 20
215.2376329225589
 30
0.0
 70
     8
  0
VERTEX
  5
19A3
330
1989
100
AcDbEntity
  8
HILF
100
AcDbVertex
100
AcDb2dVertex
 10
505.9969453912413
 20
211.4605649918455
 30
0.0
 70
     8
  0
VERTEX
  5
19A4
330
1989
100
AcDbEntity
  8
HILF
100
AcDbVertex
100
AcDb2dVertex
 10
505.5362511209185
 20
207.5345198376221
 30
0.0
 70
     8
  0
VERTEX
  5
19A5
330
1989
100
AcDbEntity
  8
HILF
100
AcDbVertex
100
AcDb2dVertex
 10
505.5231820823714
 20
203.4810730248062
 30
0.0
 70
     8
  0
VERTEX
  5
19A6
330
1989
100
AcDbEntity
  8
HILF
100
AcDbVertex
100
AcDb2dVertex
 10
506.0775163441072
 20
199.3281867493589
 30
0.0
 70
     8
  0
VERTEX
  5
19A7
330
1989
100
AcDbEntity
  8
HILF
100
AcDbVertex
100
AcDb2dVertex
 10
507.3190319746336
 20
195.1038232072418
 30
0.0
 70
     8
  0
VERTEX
  5
19A8
330
1989
100
AcDbEntity
  8
HILF
100
AcDbVertex
100
AcDb2dVertex
 10
509.3675070424577
 20
190.8359445944163
 30
0.0
 70
     8
  0
VERTEX
  5
19A9
330
1989
100
AcDbEntity
  8
HILF
100
AcDbVertex
100
AcDb2dVertex
 10
512.342719616087
 20
186.5525131068437
 30
0.0
 70
     8
  0
VERTEX
  5
19AA
330
1989
100
AcDbEntity
  8
HILF
100
AcDbVertex
100
AcDb2dVertex
 10
516.3644477640291
 20
182.2814909404854
 30
0.0
 70
     8
  0
VERTEX
  5
19AB
330
1989
100
AcDbEntity
  8
HILF
100
AcDbVertex
100
AcDb2dVertex
 10
521.5524695547911
 20
178.0508402913028
 30
0.0
 70
     8
  0
VERTEX
  5
19AC
330
1989
100
AcDbEntity
  8
HILF
100
AcDbVertex
100
AcDb2dVertex
 10
528.8165897497937
 20
282.720786280626
 30
0.0
 70
    16
  0
VERTEX
  5
19AD
330
1989
100
AcDbEntity
  8
HILF
100
AcDbVertex
100
AcDb2dVertex
 10
528.8165897497937
 20
260.1826697799884
 30
0.0
 70
    16
  0
VERTEX
  5
19AE
330
1989
100
AcDbEntity
  8
HILF
100
AcDbVertex
100
AcDb2dVertex
 10
518.1476651146263
 20
238.9703248382119
 30
0.0
 70
    16
  0
VERTEX
  5
19AF
330
1989
100
AcDbEntity
  8
HILF
100
AcDbVertex
100
AcDb2dVertex
 10
502.4999089830474
 20
213.1177794404217
 30
0.0
 70
    16
  0
VERTEX
  5
19B0
330
1989
100
AcDbEntity
  8
HILF
100
AcDbVertex
100
AcDb2dVertex
 10
506.05621719477
 20
189.2538913809231
 30
0.0
 70
    16
  0
VERTEX
  5
19B1
330
1989
100
AcDbEntity
  8
HILF
100
AcDbVertex
100
AcDb2dVertex
 10
521.5524695547911
 20
178.0508402913028
 30
0.0
 70
    16
  0
SEQEND
  5
19B2
330
1989
100
AcDbEntity
  8
HILF
  0
LINE
  5
19B3
330
1E
100
AcDbEntity
  8
STEMPEL
100
AcDbLine
 10
516.552469554791
 20
482.0753712025133
 30
0.0
 11
411.2128067205971
 21
482.0753712025133
 31
0.0
  0
LINE
  5
19B4
330
1E
100
AcDbEntity
  8
STEMPEL
100
AcDbLine
 10
516.5524695547912
 20
349.0753712025132
 30
0.0
 11
210.7587424490549
 21
349.0753712025132
 31
0.0
  0
LINE
  5
19B5
330
1E
100
AcDbEntity
  8
STEMPEL
100
AcDbLine
 10
516.552469554791
 20
311.050840291303
 30
0.0
 11
210.7587424490549
 21
311.0508402913031
 31
0.0
  0
LINE
  5
19B6
330
1E
100
AcDbEntity
  8
STEMPEL
100
AcDbLine
 10
516.5524695547913
 20
178.0508402913028
 30
0.0
 11
210.7587424490549
 21
178.0508402913028
 31
0.0
  0
TEXT
  5
19C6
330
1E
100
AcDbEntity
  8
TEXT
100
AcDbText
 10
654.3410940884991
 20
72.10021383107516
 30
0.0
 40
5.0
  1
1500mm lang mit
 41
0.8
  7
GREEKS
100
AcDbText
  0
TEXT
  5
19C7
330
1E
100
AcDbEntity
  8
TEXT
100
AcDbText
 10
654.3410940884991
 20
62.10021383107516
 30
0.0
 40
5.0
  1
Reinigungsöffnung und Überlauf
 41
0.75
  7
GREEKS
100
AcDbText
  0
ENDSEC
  0
SECTION
  2
OBJECTS
  0
DICTIONARY
  5
C
330
0
100
AcDbDictionary
281
     1
  3
ACAD_CIP_PREVIOUS_PRODUCT_INFO
350
1A43
  3
ACAD_COLOR
350
11A
  3
ACAD_DETAILVIEWSTYLE
350
1A40
  3
ACAD_GROUP
350
D
  3
ACAD_LAYOUT
350
19
  3
ACAD_MATERIAL
350
119
  3
ACAD_MLEADERSTYLE
350
1A3C
  3
ACAD_MLINESTYLE
350
16
  3
ACAD_PLOTSETTINGS
350
18
  3
ACAD_PLOTSTYLENAME
350
E
  3
ACAD_RENDER_ACTIVE_RAPIDRT_SETTINGS
350
1A4E
  3
ACAD_RENDER_ACTIVE_SETTINGS
350
1A70
  3
ACAD_RENDER_RAPIDRT_SETTINGS
350
1A47
  3
ACAD_SCALELIST
350
1A2A
  3
ACAD_SECTIONVIEWSTYLE
350
1A3E
  3
ACAD_TABLESTYLE
350
1A28
  3
ACAD_VISUALSTYLE
350
1A0F
  3
ACDB_RECOMPOSE_DATA
350
1A6B
  3
AcDbVariableDictionary
350
125
  0
DICTIONARY
  5
1A4F
330
10
100
AcDbDictionary
280
     1
281
     1
  3
ADSK_XREC_LAYER_RECONCILED
360
1A50
  0
DICTIONARY
  5
1A51
330
2B
100
AcDbDictionary
280
     1
281
     1
  3
ADSK_XREC_LAYER_RECONCILED
360
1A52
  0
DICTIONARY
  5
1A53
330
2C
100
AcDbDictionary
280
     1
281
     1
  3
ADSK_XREC_LAYER_RECONCILED
360
1A54
  0
DICTIONARY
  5
1A55
330
2D
100
AcDbDictionary
280
     1
281
     1
  3
ADSK_XREC_LAYER_RECONCILED
360
1A56
  0
DICTIONARY
  5
1A57
330
2F
100
AcDbDictionary
280
     1
281
     1
  3
ADSK_XREC_LAYER_RECONCILED
360
1A58
  0
DICTIONARY
  5
1A59
330
30
100
AcDbDictionary
280
     1
281
     1
  3
ADSK_XREC_LAYER_RECONCILED
360
1A5A
  0
DICTIONARY
  5
1A5B
330
33
100
AcDbDictionary
280
     1
281
     1
  3
ADSK_XREC_LAYER_RECONCILED
360
1A5C
  0
DICTIONARY
  5
1A5D
330
239
100
AcDbDictionary
280
     1
281
     1
  3
ADSK_XREC_LAYER_RECONCILED
360
1A5E
  0
DICTIONARY
  5
DB
330
1E
100
AcDbDictionary
280
     1
281
     1
  3
ACAD_LAYOUTSELFREF
360
10F
  0
DICTIONARY
  5
DD
330
1A
100
AcDbDictionary
280
     1
281
     1
  3
ACAD_LAYOUTSELFREF
360
10E
  0
XRECORD
  5
1A43
102
{ACAD_REACTORS
330
C
102
}
330
C
100
AcDbXrecord
280
     1
300
ACD
300
2018
300

  0
DICTIONARY
  5
11A
102
{ACAD_REACTORS
330
C
102
}
330
C
100
AcDbDictionary
281
     1
  0
DICTIONARY
  5
1A40
102
{ACAD_REACTORS
330
C
102
}
330
C
100
AcDbDictionary
281
     1
  3
Imperial24
350
1A41
  0
DICTIONARY
  5
D
102
{ACAD_REACTORS
330
C
102
}
330
C
100
AcDbDictionary
281
     1
  0
DICTIONARY
  5
19
102
{ACAD_REACTORS
330
C
102
}
330
C
100
AcDbDictionary
281
     1
  3
Layout1
350
1D
  3
Model
350
21
  0
DICTIONARY
  5
119
102
{ACAD_REACTORS
330
C
102
}
330
C
100
AcDbDictionary
281
     1
  3
ByBlock
350
19FF
  3
ByLayer
350
19F7
  3
Global
350
1A07
  0
DICTIONARY
  5
1A3C
102
{ACAD_REACTORS
330
C
102
}
330
C
100
AcDbDictionary
281
     1
  3
Standard
350
1A3D
  0
DICTIONARY
  5
16
102
{ACAD_REACTORS
330
C
102
}
330
C
100
AcDbDictionary
281
     1
  3
Standard
350
17
  0
DICTIONARY
  5
18
102
{ACAD_REACTORS
330
C
102
}
330
C
100
AcDbDictionary
281
     1
  0
ACDBDICTIONARYWDFLT
  5
E
102
{ACAD_REACTORS
330
C
102
}
330
C
100
AcDbDictionary
281
     1
  3
Normal
350
F
100
AcDbDictionaryWithDefault
340
F
  0
RAPIDRTRENDERSETTINGS
  5
1A4E
102
{ACAD_REACTORS
330
C
102
}
330
C
100
AcDbRenderSettings
 90
        2
  1
Mittel
290
     1
290
     0
290
     1
290
     1
  1

  1
Wendet 5 Render-Ebenen an
 90
        0
100
AcDbRapidRTRenderSettings
 90
        3
 70
     0
 90
        5
 90
        1
 70
     1
 70
     2
 40
3.0
 40
3.0
290
     1
  0
MENTALRAYRENDERSETTINGS
  5
1A70
102
{ACAD_XDICTIONARY
360
1A71
102
}
102
{ACAD_REACTORS
330
C
102
}
330
C
100
AcDbRenderSettings
 90
        2
  1
Mittel
290
     1
290
     1
290
     1
290
     1
  1

  1

 90
        0
100
AcDbMentalRayRenderSettings
 90
        2
 90
        0
 90
        1
 70
     2
 40
3.0
 40
3.0
 40
0.0500000007450581
 40
0.0500000007450581
 40
0.0500000007450581
 40
0.0500000007450581
 70
     0
290
     0
290
     1
 90
        5
 90
        5
 90
        5
290
     0
 90
      500
290
     0
 40
1.0
 90
    10000
 90
        5
 90
        5
 90
        5
290
     0
 90
      200
290
     0
290
     0
290
     0
 40
1.0
 40
1.0
 40
1500.0
 70
     0
 70
     0
 40
10.0
 70
     0
 70
     0
290
     0
  1

 90
       32
 70
     0
 90
     1048
290
     0
 40
1.0
  0
DICTIONARY
  5
1A47
102
{ACAD_REACTORS
330
C
102
}
330
C
100
AcDbDictionary
281
     1
  3
Hoch
350
1A4A
  3
Mittagsqualität
350
1A4C
  3
Mittel
350
1A49
  3
Morgenqualität
350
1A4B
  3
Nachtqualität
350
1A4D
  3
Niedrig
350
1A48
  0
DICTIONARY
  5
1A2A
102
{ACAD_REACTORS
330
C
102
}
330
C
100
AcDbDictionary
281
     1
  3
A0
350
1A2B
  3
A1
350
1A2C
  3
A2
350
1A2D
  3
A3
350
1A2E
  3
A4
350
1A2F
  3
A5
350
1A30
  3
A6
350
1A31
  3
A7
350
1A32
  3
A8
350
1A33
  3
A9
350
1A34
  3
B0
350
1A35
  3
B1
350
1A36
  3
B2
350
1A37
  3
B3
350
1A38
  3
B4
350
1A39
  3
B5
350
1A3A
  3
B6
350
1A3B
  0
DICTIONARY
  5
1A3E
102
{ACAD_REACTORS
330
C
102
}
330
C
100
AcDbDictionary
281
     1
  3
Imperial24
350
1A3F
  0
DICTIONARY
  5
1A28
102
{ACAD_REACTORS
330
C
102
}
330
C
100
AcDbDictionary
281
     1
  3
Standard
350
1A29
  0
DICTIONARY
  5
1A0F
102
{ACAD_REACTORS
330
C
102
}
330
C
100
AcDbDictionary
281
     1
  3
2dWireframe
350
1A15
  3
Basic
350
1A14
  3
Brighten
350
1A1B
  3
ColorChange
350
1A1F
  3
Conceptual
350
1A18
  3
Dim
350
1A1A
  3
EdgeColorOff
350
1A27
  3
Facepattern
350
1A1E
  3
Flat
350
1A10
  3
FlatWithEdges
350
1A11
  3
Gouraud
350
1A12
  3
GouraudWithEdges
350
1A13
  3
Hidden
350
1A17
  3
JitterOff
350
1A25
  3
Linepattern
350
1A1D
  3
OverhangOff
350
1A26
  3
Realistic
350
1A19
  3
Shaded
350
1A24
  3
Shaded with edges
350
1A23
  3
Shades of Gray
350
1A20
  3
Sketchy
350
1A21
  3
Thicken
350
1A1C
  3
Wireframe
350
1A16
  3
X-Ray
350
1A22
  0
XRECORD
  5
1A6B
102
{ACAD_REACTORS
330
C
102
}
330
C
100
AcDbXrecord
280
     1
 90
        1
330
1A29
  0
DICTIONARY
  5
125
102
{ACAD_REACTORS
330
C
102
}
330
C
100
AcDbDictionary
281
     1
  3
CANNOSCALE
350
1A64
  3
CMLEADERSTYLE
350
1A60
  3
CTABLESTYLE
350
1A5F
  3
CVIEWDETAILSTYLE
350
1A61
  3
CVIEWSECTIONSTYLE
350
1A62
  3
DIMASSOC
350
126
  3
LAYEREVAL
350
1A66
  3
LAYERNOTIFY
350
1A67
  3
LIGHTINGUNITS
350
1A65
  3
MSLTSCALE
350
1A63
  3
PROJECTNAME
350
127
  0
XRECORD
  5
1A50
102
{ACAD_REACTORS
330
1A4F
102
}
330
1A4F
100
AcDbXrecord
280
     1
290
     1
  0
XRECORD
  5
1A52
102
{ACAD_REACTORS
330
1A51
102
}
330
1A51
100
AcDbXrecord
280
     1
290
     1
  0
XRECORD
  5
1A54
102
{ACAD_REACTORS
330
1A53
102
}
330
1A53
100
AcDbXrecord
280
     1
290
     1
  0
XRECORD
  5
1A56
102
{ACAD_REACTORS
330
1A55
102
}
330
1A55
100
AcDbXrecord
280
     1
290
     1
  0
XRECORD
  5
1A58
102
{ACAD_REACTORS
330
1A57
102
}
330
1A57
100
AcDbXrecord
280
     1
290
     1
  0
XRECORD
  5
1A5A
102
{ACAD_REACTORS
330
1A59
102
}
330
1A59
100
AcDbXrecord
280
     1
290
     1
  0
XRECORD
  5
1A5C
102
{ACAD_REACTORS
330
1A5B
102
}
330
1A5B
100
AcDbXrecord
280
     1
290
     1
  0
XRECORD
  5
1A5E
102
{ACAD_REACTORS
330
1A5D
102
}
330
1A5D
100
AcDbXrecord
280
     1
290
     1
  0
XRECORD
  5
10F
102
{ACAD_REACTORS
330
DB
102
}
330
DB
100
AcDbXrecord
280
     1
340
1E
  0
XRECORD
  5
10E
102
{ACAD_REACTORS
330
DD
102
}
330
DD
100
AcDbXrecord
280
     1
340
1A
  0
ACDBDETAILVIEWSTYLE
  5
1A41
102
{ACAD_XDICTIONARY
360
1A6E
102
}
102
{ACAD_REACTORS
330
1A40
102
}
330
1A40
100
AcDbModelDocViewStyle
 70
     0
  3
Imperial24
290
     0
100
AcDbDetailViewStyle
 70
     0
 71
     0
 90
        3
 71
     1
340
11
 62
   256
 40
0.24
340
0
 62
   256
 40
0.24
300

 40
0.36
280
     3
 71
     2
340
15
 90
       25
 62
   256
 71
     3
340
11
 62
   256
 40
0.24
 90
        1
 40
0.75
 90
        1
300
%<\AcVar ViewType \f "%tc1">% %<\AcVar ViewDetailId>%\PVARIA %<\AcVar ViewScale \f "%sn">%
 71
     4
340
15
 90
       25
 62
   256
340
15
 90
       25
 62
   256
280
     0
  0
LAYOUT
  5
1D
102
{ACAD_REACTORS
330
19
102
}
330
19
100
AcDbPlotSettings
  1

  2
\\NT_WORK01\HP LaserJet 5000 PCL 6
  4

  6

 40
0.0
 41
0.0
 42
0.0
 43
0.0
 44
0.0
 45
0.0
 46
0.0
 47
0.0
 48
0.0
 49
0.0
140
0.0
141
0.0
142
1.0
143
1.0
 70
   688
 72
     0
 73
     0
 74
     5
  7

 75
    16
147
1.0
 76
     0
 77
     2
 78
   300
148
0.0
149
0.0
100
AcDbLayout
  1
Layout1
 70
     0
 71
     1
 10
0.0
 20
0.0
 11
12.0
 21
9.0
 12
0.0
 22
0.0
 32
0.0
 14
1.000000000000000E+20
 24
1.000000000000000E+20
 34
1.000000000000000E+20
 15
-1.000000000000000E+20
 25
-1.000000000000000E+20
 35
-1.000000000000000E+20
146
0.0
 13
0.0
 23
0.0
 33
0.0
 16
1.0
 26
0.0
 36
0.0
 17
0.0
 27
1.0
 37
0.0
 76
     0
330
1A
  0
LAYOUT
  5
21
102
{ACAD_REACTORS
330
19
102
}
330
19
100
AcDbPlotSettings
  1

  2
\\NT_WORK01\HP LaserJet 5000 PCL 6
  4

  6

 40
0.0
 41
0.0
 42
0.0
 43
0.0
 44
0.0
 45
0.0
 46
0.0
 47
0.0
 48
0.0
 49
0.0
140
0.0
141
0.0
142
1.0
143
1.0
 70
  1712
 72
     0
 73
     0
 74
     0
  7

 75
     0
147
1.0
 76
     0
 77
     2
 78
   300
148
0.0
149
0.0
100
AcDbLayout
  1
Model
 70
     1
 71
     0
 10
0.0
 20
0.0
 11
12.0
 21
9.0
 12
0.0
 22
0.0
 32
0.0
 14
0.0
 24
0.0
 34
0.0
 15
0.0
 25
0.0
 35
0.0
146
0.0
 13
0.0
 23
0.0
 33
0.0
 16
1.0
 26
0.0
 36
0.0
 17
0.0
 27
1.0
 37
0.0
 76
     0
330
1E
331
19EE
  0
MATERIAL
  5
19FF
102
{ACAD_XDICTIONARY
360
1A00
102
}
102
{ACAD_REACTORS
330
119
102
}
330
119
100
AcDbMaterial
  1
ByBlock
 72
     0
 43
0.0208333333333333
 43
0.0
 43
0.0
 43
0.0
 43
0.0
 43
0.0208333333333333
 43
0.0
 43
0.0
 43
0.0
 43
0.0
 43
1.0
 43
0.0
 43
0.0
 43
0.0
 43
0.0
 43
1.0
 77
     0
 47
0.0208333333333333
 47
0.0
 47
0.0
 47
0.0
 47
0.0
 47
0.0208333333333333
 47
0.0
 47
0.0
 47
0.0
 47
0.0
 47
1.0
 47
0.0
 47
0.0
 47
0.0
 47
0.0
 47
1.0
171
     0
 49
0.0208333333333333
 49
0.0
 49
0.0
 49
0.0
 49
0.0
 49
0.0208333333333333
 49
0.0
 49
0.0
 49
0.0
 49
0.0
 49
1.0
 49
0.0
 49
0.0
 49
0.0
 49
0.0
 49
1.0
175
     0
142
0.0208333333333333
142
0.0
142
0.0
142
0.0
142
0.0
142
0.0208333333333333
142
0.0
142
0.0
142
0.0
142
0.0
142
1.0
142
0.0
142
0.0
142
0.0
142
0.0
142
1.0
179
     0
144
0.0208333333333333
144
0.0
144
0.0
144
0.0
144
0.0
144
0.0208333333333333
144
0.0
144
0.0
144
0.0
144
0.0
144
1.0
144
0.0
144
0.0
144
0.0
144
0.0
144
1.0
147
0.0208333333333333
147
0.0
147
0.0
147
0.0
147
0.0
147
0.0208333333333333
147
0.0
147
0.0
147
0.0
147
0.0
147
1.0
147
0.0
147
0.0
147
0.0
147
0.0
147
1.0
  0
MATERIAL
  5
19F7
102
{ACAD_XDICTIONARY
360
19F8
102
}
102
{ACAD_REACTORS
330
119
102
}
330
119
100
AcDbMaterial
  1
ByLayer
 72
     0
 43
0.0208333333333333
 43
0.0
 43
0.0
 43
0.0
 43
0.0
 43
0.0208333333333333
 43
0.0
 43
0.0
 43
0.0
 43
0.0
 43
1.0
 43
0.0
 43
0.0
 43
0.0
 43
0.0
 43
1.0
 77
     0
 47
0.0208333333333333
 47
0.0
 47
0.0
 47
0.0
 47
0.0
 47
0.0208333333333333
 47
0.0
 47
0.0
 47
0.0
 47
0.0
 47
1.0
 47
0.0
 47
0.0
 47
0.0
 47
0.0
 47
1.0
171
     0
 49
0.0208333333333333
 49
0.0
 49
0.0
 49
0.0
 49
0.0
 49
0.0208333333333333
 49
0.0
 49
0.0
 49
0.0
 49
0.0
 49
1.0
 49
0.0
 49
0.0
 49
0.0
 49
0.0
 49
1.0
175
     0
142
0.0208333333333333
142
0.0
142
0.0
142
0.0
142
0.0
142
0.0208333333333333
142
0.0
142
0.0
142
0.0
142
0.0
142
1.0
142
0.0
142
0.0
142
0.0
142
0.0
142
1.0
179
     0
144
0.0208333333333333
144
0.0
144
0.0
144
0.0
144
0.0
144
0.0208333333333333
144
0.0
144
0.0
144
0.0
144
0.0
144
1.0
144
0.0
144
0.0
144
0.0
144
0.0
144
1.0
147
0.0208333333333333
147
0.0
147
0.0
147
0.0
147
0.0
147
0.0208333333333333
147
0.0
147
0.0
147
0.0
147
0.0
147
1.0
147
0.0
147
0.0
147
0.0
147
0.0
147
1.0
  0
MATERIAL
  5
1A07
102
{ACAD_XDICTIONARY
360
1A08
102
}
102
{ACAD_REACTORS
330
119
102
}
330
119
100
AcDbMaterial
  1
Global
 72
     0
 43
0.0208333333333333
 43
0.0
 43
0.0
 43
0.0
 43
0.0
 43
0.0208333333333333
 43
0.0
 43
0.0
 43
0.0
 43
0.0
 43
1.0
 43
0.0
 43
0.0
 43
0.0
 43
0.0
 43
1.0
 77
     0
 47
0.0208333333333333
 47
0.0
 47
0.0
 47
0.0
 47
0.0
 47
0.0208333333333333
 47
0.0
 47
0.0
 47
0.0
 47
0.0
 47
1.0
 47
0.0
 47
0.0
 47
0.0
 47
0.0
 47
1.0
171
     0
 49
0.0208333333333333
 49
0.0
 49
0.0
 49
0.0
 49
0.0
 49
0.0208333333333333
 49
0.0
 49
0.0
 49
0.0
 49
0.0
 49
1.0
 49
0.0
 49
0.0
 49
0.0
 49
0.0
 49
1.0
175
     0
142
0.0208333333333333
142
0.0
142
0.0
142
0.0
142
0.0
142
0.0208333333333333
142
0.0
142
0.0
142
0.0
142
0.0
142
1.0
142
0.0
142
0.0
142
0.0
142
0.0
142
1.0
179
     0
144
0.0208333333333333
144
0.0
144
0.0
144
0.0
144
0.0
144
0.0208333333333333
144
0.0
144
0.0
144
0.0
144
0.0
144
1.0
144
0.0
144
0.0
144
0.0
144
0.0
144
1.0
147
0.0208333333333333
147
0.0
147
0.0
147
0.0
147
0.0
147
0.0208333333333333
147
0.0
147
0.0
147
0.0
147
0.0
147
1.0
147
0.0
147
0.0
147
0.0
147
0.0
147
1.0
  0
MLEADERSTYLE
  5
1A3D
102
{ACAD_REACTORS
330
1A3C
102
}
330
1A3C
100
AcDbMLeaderStyle
179
     2
170
     2
171
     1
172
     0
 90
        2
 40
0.0
 41
0.0
173
     1
 91
-1056964608
340
13
 92
       -2
290
     1
 42
0.09
291
     1
 43
0.36
  3
Standard
 44
0.18
300

342
11
174
     1
178
     6
175
     1
176
     0
 93
-1056964608
 45
0.18
292
     0
297
     0
 46
0.18
 94
-1056964608
 47
1.0
 49
1.0
140
1.0
293
     1
141
0.0
294
     1
177
     0
142
1.0
295
     0
296
     0
143
0.125
271
     0
272
     9
273
     9
298
     1
  0
MLINESTYLE
  5
17
102
{ACAD_REACTORS
330
16
102
}
330
16
100
AcDbMlineStyle
  2
STANDARD
 70
     0
  3

 62
   256
 51
90.0
 52
90.0
 71
     2
 49
0.5
 62
   256
  6
BYLAYER
 49
-0.5
 62
   256
  6
BYLAYER
  0
ACDBPLACEHOLDER
  5
F
102
{ACAD_REACTORS
330
E
102
}
330
E
  0
DICTIONARY
  5
1A71
330
1A70
100
AcDbDictionary
280
     1
281
     1
  3
ACAD_XREC_ROUNDTRIP
360
1A73
  3
ADSK_XREC_MENTALRAYSETTINGSINFO
360
1A72
  0
RAPIDRTRENDERSETTINGS
  5
1A4A
102
{ACAD_REACTORS
330
1A47
102
}
330
1A47
100
AcDbRenderSettings
 90
        2
  1
Hoch
290
     1
290
     0
290
     1
290
     1
  1

  1
Wendet 10 Render-Ebenen an
 90
        2
100
AcDbRapidRTRenderSettings
 90
        3
 70
     0
 90
       10
 90
        1
 70
     2
 70
     2
 40
3.0
 40
3.0
290
     1
  0
RAPIDRTRENDERSETTINGS
  5
1A4C
102
{ACAD_REACTORS
330
1A47
102
}
330
1A47
100
AcDbRenderSettings
 90
        2
  1
Mittagsqualität
290
     1
290
     0
290
     1
290
     1
  1

  1
Rendert für 60 Minuten
 90
        4
100
AcDbRapidRTRenderSettings
 90
        3
 70
     1
 90
        1
 90
       60
 70
     2
 70
     2
 40
3.0
 40
3.0
290
     1
  0
RAPIDRTRENDERSETTINGS
  5
1A49
102
{ACAD_REACTORS
330
1A47
102
}
330
1A47
100
AcDbRenderSettings
 90
        2
  1
Mittel
290
     1
290
     0
290
     1
290
     1
  1

  1
Wendet 5 Render-Ebenen an
 90
        1
100
AcDbRapidRTRenderSettings
 90
        3
 70
     0
 90
        5
 90
        1
 70
     1
 70
     2
 40
3.0
 40
3.0
290
     1
  0
RAPIDRTRENDERSETTINGS
  5
1A4B
102
{ACAD_REACTORS
330
1A47
102
}
330
1A47
100
AcDbRenderSettings
 90
        2
  1
Morgenqualität
290
     1
290
     0
290
     1
290
     1
  1

  1
Rendert für 10 Minuten
 90
        3
100
AcDbRapidRTRenderSettings
 90
        3
 70
     1
 90
        1
 90
       10
 70
     1
 70
     2
 40
3.0
 40
3.0
290
     1
  0
RAPIDRTRENDERSETTINGS
  5
1A4D
102
{ACAD_REACTORS
330
1A47
102
}
330
1A47
100
AcDbRenderSettings
 90
        2
  1
Nachtqualität
290
     1
290
     0
290
     1
290
     1
  1

  1
Rendert für 12 Stunden
 90
        5
100
AcDbRapidRTRenderSettings
 90
        3
 70
     1
 90
        1
 90
      720
 70
     2
 70
     2
 40
3.0
 40
3.0
290
     1
  0
RAPIDRTRENDERSETTINGS
  5
1A48
102
{ACAD_REACTORS
330
1A47
102
}
330
1A47
100
AcDbRenderSettings
 90
        2
  1
Niedrig
290
     1
290
     0
290
     1
290
     1
  1

  1
Wendet 1 Render-Ebene an
 90
        0
100
AcDbRapidRTRenderSettings
 90
        3
 70
     0
 90
        1
 90
        1
 70
     0
 70
     2
 40
3.0
 40
3.0
290
     1
  0
SCALE
  5
1A2B
102
{ACAD_REACTORS
330
1A2A
102
}
330
1A2A
100
AcDbScale
 70
     0
300
1:1
140
1.0
141
1.0
290
     1
  0
SCALE
  5
1A2C
102
{ACAD_REACTORS
330
1A2A
102
}
330
1A2A
100
AcDbScale
 70
     0
300
1/128" = 1'-0"
140
0.0078125
141
12.0
290
     0
  0
SCALE
  5
1A2D
102
{ACAD_REACTORS
330
1A2A
102
}
330
1A2A
100
AcDbScale
 70
     0
300
1/64" = 1'-0"
140
0.015625
141
12.0
290
     0
  0
SCALE
  5
1A2E
102
{ACAD_REACTORS
330
1A2A
102
}
330
1A2A
100
AcDbScale
 70
     0
300
1/32" = 1'-0"
140
0.03125
141
12.0
290
     0
  0
SCALE
  5
1A2F
102
{ACAD_REACTORS
330
1A2A
102
}
330
1A2A
100
AcDbScale
 70
     0
300
1/16" = 1'-0"
140
0.0625
141
12.0
290
     0
  0
SCALE
  5
1A30
102
{ACAD_REACTORS
330
1A2A
102
}
330
1A2A
100
AcDbScale
 70
     0
300
3/32" = 1'-0"
140
0.09375
141
12.0
290
     0
  0
SCALE
  5
1A31
102
{ACAD_REACTORS
330
1A2A
102
}
330
1A2A
100
AcDbScale
 70
     0
300
1/8" = 1'-0"
140
0.125
141
12.0
290
     0
  0
SCALE
  5
1A32
102
{ACAD_REACTORS
330
1A2A
102
}
330
1A2A
100
AcDbScale
 70
     0
300
3/16" = 1'-0"
140
0.1875
141
12.0
290
     0
  0
SCALE
  5
1A33
102
{ACAD_REACTORS
330
1A2A
102
}
330
1A2A
100
AcDbScale
 70
     0
300
1/4" = 1'-0"
140
0.25
141
12.0
290
     0
  0
SCALE
  5
1A34
102
{ACAD_REACTORS
330
1A2A
102
}
330
1A2A
100
AcDbScale
 70
     0
300
3/8" = 1'-0"
140
0.375
141
12.0
290
     0
  0
SCALE
  5
1A35
102
{ACAD_REACTORS
330
1A2A
102
}
330
1A2A
100
AcDbScale
 70
     0
300
1/2" = 1'-0"
140
0.5
141
12.0
290
     0
  0
SCALE
  5
1A36
102
{ACAD_REACTORS
330
1A2A
102
}
330
1A2A
100
AcDbScale
 70
     0
300
3/4" = 1'-0"
140
0.75
141
12.0
290
     0
  0
SCALE
  5
1A37
102
{ACAD_REACTORS
330
1A2A
102
}
330
1A2A
100
AcDbScale
 70
     0
300
1" = 1'-0"
140
1.0
141
12.0
290
     0
  0
SCALE
  5
1A38
102
{ACAD_REACTORS
330
1A2A
102
}
330
1A2A
100
AcDbScale
 70
     0
300
1-1/2" = 1'-0"
140
1.5
141
12.0
290
     0
  0
SCALE
  5
1A39
102
{ACAD_REACTORS
330
1A2A
102
}
330
1A2A
100
AcDbScale
 70
     0
300
3" = 1'-0"
140
3.0
141
12.0
290
     0
  0
SCALE
  5
1A3A
102
{ACAD_REACTORS
330
1A2A
102
}
330
1A2A
100
AcDbScale
 70
     0
300
6" = 1'-0"
140
6.0
141
12.0
290
     0
  0
SCALE
  5
1A3B
102
{ACAD_REACTORS
330
1A2A
102
}
330
1A2A
100
AcDbScale
 70
     0
300
1'-0" = 1'-0"
140
12.0
141
12.0
290
     0
  0
ACDBSECTIONVIEWSTYLE
  5
1A3F
102
{ACAD_XDICTIONARY
360
1A6C
102
}
102
{ACAD_REACTORS
330
1A3E
102
}
330
1A3E
100
AcDbModelDocViewStyle
 70
     0
  3
Imperial24
290
     0
100
AcDbSectionViewStyle
 70
     0
 71
     0
 90
       78
 71
     1
340
11
 62
   256
 40
0.24
340
0
340
0
 62
   256
 40
0.24
300
I, O, Q, S, X, Z
 40
0.48
 90
        3
 40
0.18
 90
        1
 71
     2
340
15
 90
       25
 62
   256
340
15
 90
       50
 62
   256
 40
0.24
 40
0.0
 40
0.24
 71
     3
340
11
 62
   256
 40
0.24
 90
        1
 40
0.75
 90
        1
300
%<\AcVar ViewType \f "%tc1">% %<\AcVar ViewSectionStartId>%-%<\AcVar ViewSectionEndId>%\PVARIA %<\AcVar ViewScale \f "%sn">%
 71
     4
 62
   256
 62
   257
300
ANSI31
 40
1.0
 90
        0
290
     0
290
     0
 90
        6
 40
0.0
 40
1.570796326794896
 40
0.2617993877991494
 40
1.308996938995747
 40
-0.2617993877991494
 40
1.832595714594046
  0
TABLESTYLE
  5
1A29
102
{ACAD_XDICTIONARY
360
1A69
102
}
102
{ACAD_REACTORS
330
1A28
102
}
330
1A28
100
AcDbTableStyle
280
     0
  3
Standard
 70
     0
 71
     0
 40
0.06
 41
0.06
280
     0
281
     0
  7
STANDARD
140
0.18
170
     2
 62
     0
 63
     7
283
     0
 90
      512
 91
        0
  1

274
    -2
284
     1
 64
     0
275
    -2
285
     1
 65
     0
276
    -2
286
     1
 66
     0
277
    -2
287
     1
 67
     0
278
    -2
288
     1
 68
     0
279
    -2
289
     1
 69
     0
  7
STANDARD
140
0.25
170
     5
 62
     0
 63
     7
283
     0
 90
      512
 91
        0
  1

274
    -2
284
     1
 64
     0
275
    -2
285
     1
 65
     0
276
    -2
286
     1
 66
     0
277
    -2
287
     1
 67
     0
278
    -2
288
     1
 68
     0
279
    -2
289
     1
 69
     0
  7
STANDARD
140
0.18
170
     5
 62
     0
 63
     7
283
     0
 90
      512
 91
        0
  1

274
    -2
284
     1
 64
     0
275
    -2
285
     1
 65
     0
276
    -2
286
     1
 66
     0
277
    -2
287
     1
 67
     0
278
    -2
288
     1
 68
     0
279
    -2
289
     1
 69
     0
  0
VISUALSTYLE
  5
1A15
102
{ACAD_REACTORS
330
1A0F
102
}
330
1A0F
100
AcDbVisualStyle
  2
2dWireframe
 70
     4
177
     3
291
     0
 70
    58
 90
        0
176
     1
 90
        2
176
     1
 90
        0
176
     1
 90
        0
176
     1
 40
0.6
176
     1
 40
30.0
176
     1
 62
     7
420
 16777215
176
     1
 90
        1
176
     1
 90
        4
176
     1
 62
     7
176
     1
 62
   257
176
     1
 90
        1
176
     1
 90
        1
176
     1
 40
1.0
176
     1
 90
        0
176
     1
 62
   257
176
     1
 40
1.0
176
     1
 90
        1
176
     1
 90
        6
176
     1
 90
        2
176
     1
 62
     7
176
     1
 90
        5
176
     1
 90
        0
176
     1
 90
        0
176
     1
290
     0
176
     1
 90
        1
176
     1
 40
0.0
176
     1
 90
        0
176
     1
290
     1
176
     1
290
     1
176
     1
290
     0
176
     1
290
     0
176
     1
290
     0
176
     1
290
     0
176
     1
290
     0
176
     1
290
     0
176
     1
290
     0
176
     1
 90
       50
176
     1
 40
0.0
176
     1
 40
1.0
176
     1
 90
        0
176
     1
 62
    18
420
        0
176
     1
 90
       50
176
     1
 90
        3
176
     1
 62
     5
420
      255
176
     1
290
     0
176
     1
 90
       50
176
     1
 90
       50
176
     1
 90
       50
176
     1
290
     0
176
     1
 90
       50
176
     1
 62
   256
176
     0
 40
1.0
176
     0
 90
        2
176
     1
  1
strokes_ogs.tif
176
     1
290
     0
176
     1
 40
1.0
176
     1
 40
1.0
176
     1
1001
ACAD
1000
AcDbSavedByObjectVersion
1070
     0
  0
VISUALSTYLE
  5
1A14
102
{ACAD_REACTORS
330
1A0F
102
}
330
1A0F
100
AcDbVisualStyle
  2
Basic
 70
     7
177
     3
291
     1
 70
    58
 90
        1
176
     1
 90
        0
176
     1
 90
        1
176
     1
 90
        0
176
     1
 40
0.6
176
     1
 40
30.0
176
     1
 62
     7
420
 16777215
176
     1
 90
        0
176
     1
 90
        4
176
     1
 62
     7
176
     1
 62
   257
176
     1
 90
        1
176
     1
 90
        1
176
     1
 40
1.0
176
     1
 90
        8
176
     1
 62
     7
176
     1
 40
1.0
176
     1
 90
        1
176
     1
 90
        6
176
     1
 90
        2
176
     1
 62
     7
176
     1
 90
        5
176
     1
 90
        0
176
     1
 90
        0
176
     1
290
     0
176
     1
 90
        1
176
     1
 40
0.0
176
     1
 90
        0
176
     1
290
     0
176
     1
290
     1
176
     1
290
     1
176
     1
290
     0
176
     1
290
     0
176
     1
290
     0
176
     1
290
     0
176
     1
290
     0
176
     1
290
     0
176
     1
 90
       50
176
     1
 40
0.0
176
     1
 40
1.0
176
     1
 90
        0
176
     1
 62
    18
420
        0
176
     1
 90
       50
176
     1
 90
        3
176
     1
 62
     5
420
      255
176
     1
290
     0
176
     1
 90
       50
176
     1
 90
       50
176
     1
 90
       50
176
     1
290
     0
176
     1
 90
       50
176
     1
 62
   256
176
     0
 40
1.0
176
     0
 90
        2
176
     1
  1
strokes_ogs.tif
176
     1
290
     0
176
     1
 40
1.0
176
     1
 40
1.0
176
     1
1001
ACAD
1000
AcDbSavedByObjectVersion
1070
     0
  0
VISUALSTYLE
  5
1A1B
102
{ACAD_REACTORS
330
1A0F
102
}
330
1A0F
100
AcDbVisualStyle
  2
Brighten
 70
    12
177
     3
291
     1
 70
    58
 90
        2
176
     1
 90
        2
176
     1
 90
        0
176
     1
 90
        0
176
     1
 40
0.6
176
     1
 40
30.0
176
     1
 62
     7
420
 16777215
176
     1
 90
        1
176
     1
 90
        4
176
     1
 62
     7
176
     1
 62
   257
176
     1
 90
        1
176
     1
 90
        1
176
     1
 40
1.0
176
     1
 90
        8
176
     1
 62
     7
176
     1
 40
1.0
176
     1
 90
        1
176
     1
 90
        6
176
     1
 90
        2
176
     1
 62
     7
176
     1
 90
        5
176
     1
 90
        0
176
     1
 90
        0
176
     1
290
     0
176
     1
 90
        1
176
     1
 40
50.0
176
     1
 90
        0
176
     1
290
     0
176
     1
290
     1
176
     1
290
     1
176
     1
290
     0
176
     1
290
     0
176
     1
290
     0
176
     1
290
     0
176
     1
290
     0
176
     1
290
     0
176
     1
 90
       50
176
     1
 40
0.0
176
     1
 40
1.0
176
     1
 90
        0
176
     1
 62
    18
420
        0
176
     1
 90
       50
176
     1
 90
        3
176
     1
 62
     5
420
      255
176
     1
290
     0
176
     1
 90
       50
176
     1
 90
       50
176
     1
 90
       50
176
     1
290
     0
176
     1
 90
       50
176
     1
 62
   256
176
     0
 40
1.0
176
     0
 90
        2
176
     1
  1
strokes_ogs.tif
176
     1
290
     0
176
     1
 40
1.0
176
     1
 40
1.0
176
     1
1001
ACAD
1000
AcDbSavedByObjectVersion
1070
     0
  0
VISUALSTYLE
  5
1A1F
102
{ACAD_REACTORS
330
1A0F
102
}
330
1A0F
100
AcDbVisualStyle
  2
ColorChange
 70
    16
177
     3
291
     1
 70
    58
 90
        2
176
     1
 90
        2
176
     1
 90
        3
176
     1
 90
        0
176
     1
 40
0.6
176
     1
 40
30.0
176
     1
 62
     8
420
  8421504
176
     1
 90
        1
176
     1
 90
        4
176
     1
 62
     7
176
     1
 62
   257
176
     1
 90
        1
176
     1
 90
        1
176
     1
 40
1.0
176
     1
 90
        8
176
     1
 62
     8
420
  8421504
176
     1
 40
1.0
176
     1
 90
        1
176
     1
 90
        6
176
     1
 90
        2
176
     1
 62
     7
176
     1
 90
        5
176
     1
 90
        0
176
     1
 90
        0
176
     1
290
     0
176
     1
 90
        1
176
     1
 40
0.0
176
     1
 90
        0
176
     1
290
     0
176
     1
290
     1
176
     1
290
     1
176
     1
290
     0
176
     1
290
     0
176
     1
290
     0
176
     1
290
     0
176
     1
290
     0
176
     1
290
     0
176
     1
 90
       50
176
     1
 40
0.0
176
     1
 40
1.0
176
     1
 90
        0
176
     1
 62
    18
420
        0
176
     1
 90
       50
176
     1
 90
        3
176
     1
 62
     5
420
      255
176
     1
290
     0
176
     1
 90
       50
176
     1
 90
       50
176
     1
 90
       50
176
     1
290
     0
176
     1
 90
       50
176
     1
 62
   256
176
     0
 40
1.0
176
     0
 90
        2
176
     1
  1
strokes_ogs.tif
176
     1
290
     0
176
     1
 40
1.0
176
     1
 40
1.0
176
     1
1001
ACAD
1000
AcDbSavedByObjectVersion
1070
     0
  0
VISUALSTYLE
  5
1A18
102
{ACAD_REACTORS
330
1A0F
102
}
330
1A0F
100
AcDbVisualStyle
  2
Conceptual
 70
     9
177
     3
291
     0
 70
    58
 90
        3
176
     1
 90
        2
176
     1
 90
        0
176
     1
 90
        0
176
     1
 40
0.6
176
     1
 40
30.0
176
     1
 62
     7
420
 16777215
176
     1
 90
        2
176
     1
 90
        2
176
     1
 62
     7
176
     1
 62
   257
176
     1
 90
        1
176
     1
 90
        1
176
     1
 40
179.0
176
     1
 90
        8
176
     1
 62
     7
176
     1
 40
1.0
176
     1
 90
        1
176
     1
 90
        6
176
     1
 90
        2
176
     1
 62
     7
176
     1
 90
        3
176
     1
 90
        0
176
     1
 90
        0
176
     1
290
     0
176
     1
 90
        1
176
     1
 40
0.0
176
     1
 90
        0
176
     1
290
     0
176
     1
290
     1
176
     1
290
     1
176
     1
290
     0
176
     1
290
     0
176
     1
290
     0
176
     1
290
     0
176
     1
290
     0
176
     1
290
     0
176
     1
 90
       50
176
     1
 40
0.0
176
     1
 40
1.0
176
     1
 90
        0
176
     1
 62
    18
420
        0
176
     1
 90
       50
176
     1
 90
        3
176
     1
 62
     5
420
      255
176
     1
290
     0
176
     1
 90
       50
176
     1
 90
       50
176
     1
 90
       50
176
     1
290
     0
176
     1
 90
       50
176
     1
 62
   256
176
     0
 40
1.0
176
     0
 90
        2
176
     1
  1
strokes_ogs.tif
176
     1
290
     0
176
     1
 40
1.0
176
     1
 40
1.0
176
     1
1001
ACAD
1000
AcDbSavedByObjectVersion
1070
     0
  0
VISUALSTYLE
  5
1A1A
102
{ACAD_REACTORS
330
1A0F
102
}
330
1A0F
100
AcDbVisualStyle
  2
Dim
 70
    11
177
     3
291
     1
 70
    58
 90
        2
176
     1
 90
        2
176
     1
 90
        0
176
     1
 90
        0
176
     1
 40
0.6
176
     1
 40
30.0
176
     1
 62
     7
420
 16777215
176
     1
 90
        1
176
     1
 90
        4
176
     1
 62
     7
176
     1
 62
   257
176
     1
 90
        1
176
     1
 90
        1
176
     1
 40
1.0
176
     1
 90
        8
176
     1
 62
     7
176
     1
 40
1.0
176
     1
 90
        1
176
     1
 90
        6
176
     1
 90
        2
176
     1
 62
     7
176
     1
 90
        5
176
     1
 90
        0
176
     1
 90
        0
176
     1
290
     0
176
     1
 90
        1
176
     1
 40
-50.0
176
     1
 90
        0
176
     1
290
     0
176
     1
290
     1
176
     1
290
     1
176
     1
290
     0
176
     1
290
     0
176
     1
290
     0
176
     1
290
     0
176
     1
290
     0
176
     1
290
     0
176
     1
 90
       50
176
     1
 40
0.0
176
     1
 40
1.0
176
     1
 90
        0
176
     1
 62
    18
420
        0
176
     1
 90
       50
176
     1
 90
        3
176
     1
 62
     5
420
      255
176
     1
290
     0
176
     1
 90
       50
176
     1
 90
       50
176
     1
 90
       50
176
     1
290
     0
176
     1
 90
       50
176
     1
 62
   256
176
     0
 40
1.0
176
     0
 90
        2
176
     1
  1
strokes_ogs.tif
176
     1
290
     0
176
     1
 40
1.0
176
     1
 40
1.0
176
     1
1001
ACAD
1000
AcDbSavedByObjectVersion
1070
     0
  0
VISUALSTYLE
  5
1A27
102
{ACAD_REACTORS
330
1A0F
102
}
330
1A0F
100
AcDbVisualStyle
  2
EdgeColorOff
 70
    22
177
     3
291
     1
 70
    58
 90
        2
176
     0
 90
        2
176
     0
 90
        0
176
     0
 90
        0
176
     0
 40
0.6
176
     0
 40
30.0
176
     0
 62
     7
420
 16777215
176
     0
 90
        1
176
     0
 90
        4
176
     0
 62
     7
176
     0
 62
   257
176
     0
 90
        1
176
     0
 90
        1
176
     0
 40
1.0
176
     0
 90
        8
176
     2
 62
     7
176
     0
 40
1.0
176
     0
 90
        1
176
     0
 90
        6
176
     0
 90
        2
176
     0
 62
     7
176
     0
 90
        5
176
     0
 90
        0
176
     0
 90
        0
176
     0
290
     0
176
     0
 90
        1
176
     0
 40
0.0
176
     0
 90
        0
176
     0
290
     0
176
     0
290
     1
176
     0
290
     1
176
     0
290
     0
176
     0
290
     0
176
     0
290
     0
176
     0
290
     0
176
     0
290
     0
176
     0
290
     0
176
     0
 90
       50
176
     0
 40
0.0
176
     0
 40
1.0
176
     0
 90
        0
176
     0
 62
    18
420
        0
176
     0
 90
       50
176
     0
 90
        3
176
     0
 62
     5
420
      255
176
     0
290
     0
176
     0
 90
       50
176
     0
 90
       50
176
     0
 90
       50
176
     0
290
     0
176
     0
 90
       50
176
     0
 62
   256
176
     0
 40
1.0
176
     0
 90
        2
176
     0
  1
strokes_ogs.tif
176
     0
290
     0
176
     0
 40
1.0
176
     0
 40
1.0
176
     0
1001
ACAD
1000
AcDbSavedByObjectVersion
1070
     0
  0
VISUALSTYLE
  5
1A1E
102
{ACAD_REACTORS
330
1A0F
102
}
330
1A0F
100
AcDbVisualStyle
  2
Facepattern
 70
    15
177
     3
291
     1
 70
    58
 90
        2
176
     1
 90
        2
176
     1
 90
        0
176
     1
 90
        0
176
     1
 40
0.6
176
     1
 40
30.0
176
     1
 62
     7
420
 16777215
176
     1
 90
        1
176
     1
 90
        4
176
     1
 62
     7
176
     1
 62
   257
176
     1
 90
        1
176
     1
 90
        1
176
     1
 40
1.0
176
     1
 90
        8
176
     1
 62
     7
176
     1
 40
1.0
176
     1
 90
        1
176
     1
 90
        6
176
     1
 90
        2
176
     1
 62
     7
176
     1
 90
        5
176
     1
 90
        0
176
     1
 90
        0
176
     1
290
     0
176
     1
 90
        1
176
     1
 40
0.0
176
     1
 90
        0
176
     1
290
     0
176
     1
290
     1
176
     1
290
     1
176
     1
290
     0
176
     1
290
     0
176
     1
290
     0
176
     1
290
     0
176
     1
290
     0
176
     1
290
     0
176
     1
 90
       50
176
     1
 40
0.0
176
     1
 40
1.0
176
     1
 90
        0
176
     1
 62
    18
420
        0
176
     1
 90
       50
176
     1
 90
        3
176
     1
 62
     5
420
      255
176
     1
290
     0
176
     1
 90
       50
176
     1
 90
       50
176
     1
 90
       50
176
     1
290
     0
176
     1
 90
       50
176
     1
 62
   256
176
     0
 40
1.0
176
     0
 90
        2
176
     1
  1
strokes_ogs.tif
176
     1
290
     0
176
     1
 40
1.0
176
     1
 40
1.0
176
     1
1001
ACAD
1000
AcDbSavedByObjectVersion
1070
     0
  0
VISUALSTYLE
  5
1A10
102
{ACAD_REACTORS
330
1A0F
102
}
330
1A0F
100
AcDbVisualStyle
  2
Flat
 70
     0
177
     3
291
     1
 70
    58
 90
        2
176
     1
 90
        1
176
     1
 90
        1
176
     1
 90
        2
176
     1
 40
0.6
176
     1
 40
30.0
176
     1
 62
     7
420
 16777215
176
     1
 90
        0
176
     1
 90
        0
176
     1
 62
     7
176
     1
 62
   257
176
     1
 90
        1
176
     1
 90
        1
176
     1
 40
1.0
176
     1
 90
        8
176
     1
 62
     7
176
     1
 40
1.0
176
     1
 90
        1
176
     1
 90
        6
176
     1
 90
        2
176
     1
 62
     7
176
     1
 90
        5
176
     1
 90
        0
176
     1
 90
        0
176
     1
290
     0
176
     1
 90
       13
176
     1
 40
0.0
176
     1
 90
        0
176
     1
290
     0
176
     1
290
     1
176
     1
290
     1
176
     1
290
     0
176
     1
290
     0
176
     1
290
     0
176
     1
290
     0
176
     1
290
     0
176
     1
290
     0
176
     1
 90
       50
176
     1
 40
0.0
176
     1
 40
1.0
176
     1
 90
        0
176
     1
 62
    18
420
        0
176
     1
 90
       50
176
     1
 90
        3
176
     1
 62
     5
420
      255
176
     1
290
     0
176
     1
 90
       50
176
     1
 90
       50
176
     1
 90
       50
176
     1
290
     0
176
     1
 90
       50
176
     1
 62
   256
176
     0
 40
1.0
176
     0
 90
        2
176
     1
  1
strokes_ogs.tif
176
     1
290
     0
176
     1
 40
1.0
176
     1
 40
1.0
176
     1
1001
ACAD
1000
AcDbSavedByObjectVersion
1070
     0
  0
VISUALSTYLE
  5
1A11
102
{ACAD_REACTORS
330
1A0F
102
}
330
1A0F
100
AcDbVisualStyle
  2
FlatWithEdges
 70
     1
177
     3
291
     1
 70
    58
 90
        2
176
     1
 90
        1
176
     1
 90
        1
176
     1
 90
        2
176
     1
 40
0.6
176
     1
 40
30.0
176
     1
 62
     7
420
 16777215
176
     1
 90
        1
176
     1
 90
        0
176
     1
 62
     7
176
     1
 62
   257
176
     1
 90
        1
176
     1
 90
        1
176
     1
 40
1.0
176
     1
 90
        0
176
     1
 62
   257
176
     1
 40
1.0
176
     1
 90
        1
176
     1
 90
        6
176
     1
 90
        2
176
     1
 62
     7
176
     1
 90
        5
176
     1
 90
        0
176
     1
 90
        0
176
     1
290
     0
176
     1
 90
       13
176
     1
 40
0.0
176
     1
 90
        0
176
     1
290
     0
176
     1
290
     1
176
     1
290
     1
176
     1
290
     0
176
     1
290
     0
176
     1
290
     0
176
     1
290
     0
176
     1
290
     0
176
     1
290
     0
176
     1
 90
       50
176
     1
 40
0.0
176
     1
 40
1.0
176
     1
 90
        0
176
     1
 62
    18
420
        0
176
     1
 90
       50
176
     1
 90
        3
176
     1
 62
     5
420
      255
176
     1
290
     0
176
     1
 90
       50
176
     1
 90
       50
176
     1
 90
       50
176
     1
290
     0
176
     1
 90
       50
176
     1
 62
   256
176
     0
 40
1.0
176
     0
 90
        2
176
     1
  1
strokes_ogs.tif
176
     1
290
     0
176
     1
 40
1.0
176
     1
 40
1.0
176
     1
1001
ACAD
1000
AcDbSavedByObjectVersion
1070
     0
  0
VISUALSTYLE
  5
1A12
102
{ACAD_REACTORS
330
1A0F
102
}
330
1A0F
100
AcDbVisualStyle
  2
Gouraud
 70
     2
177
     3
291
     1
 70
    58
 90
        2
176
     1
 90
        2
176
     1
 90
        1
176
     1
 90
        2
176
     1
 40
0.6
176
     1
 40
30.0
176
     1
 62
     7
420
 16777215
176
     1
 90
        0
176
     1
 90
        0
176
     1
 62
     7
176
     1
 62
   257
176
     1
 90
        1
176
     1
 90
        1
176
     1
 40
1.0
176
     1
 90
        0
176
     1
 62
     7
176
     1
 40
1.0
176
     1
 90
        1
176
     1
 90
        6
176
     1
 90
        2
176
     1
 62
     7
176
     1
 90
        5
176
     1
 90
        0
176
     1
 90
        0
176
     1
290
     0
176
     1
 90
       13
176
     1
 40
0.0
176
     1
 90
        0
176
     1
290
     0
176
     1
290
     1
176
     1
290
     1
176
     1
290
     0
176
     1
290
     0
176
     1
290
     0
176
     1
290
     0
176
     1
290
     0
176
     1
290
     0
176
     1
 90
       50
176
     1
 40
0.0
176
     1
 40
1.0
176
     1
 90
        0
176
     1
 62
    18
420
        0
176
     1
 90
       50
176
     1
 90
        3
176
     1
 62
     5
420
      255
176
     1
290
     0
176
     1
 90
       50
176
     1
 90
       50
176
     1
 90
       50
176
     1
290
     0
176
     1
 90
       50
176
     1
 62
   256
176
     0
 40
1.0
176
     0
 90
        2
176
     1
  1
strokes_ogs.tif
176
     1
290
     0
176
     1
 40
1.0
176
     1
 40
1.0
176
     1
1001
ACAD
1000
AcDbSavedByObjectVersion
1070
     0
  0
VISUALSTYLE
  5
1A13
102
{ACAD_REACTORS
330
1A0F
102
}
330
1A0F
100
AcDbVisualStyle
  2
GouraudWithEdges
 70
     3
177
     3
291
     1
 70
    58
 90
        2
176
     1
 90
        2
176
     1
 90
        1
176
     1
 90
        2
176
     1
 40
0.6
176
     1
 40
30.0
176
     1
 62
     7
420
 16777215
176
     1
 90
        1
176
     1
 90
        0
176
     1
 62
     7
176
     1
 62
   257
176
     1
 90
        1
176
     1
 90
        1
176
     1
 40
1.0
176
     1
 90
        0
176
     1
 62
   257
176
     1
 40
1.0
176
     1
 90
        1
176
     1
 90
        6
176
     1
 90
        2
176
     1
 62
     7
176
     1
 90
        5
176
     1
 90
        0
176
     1
 90
        0
176
     1
290
     0
176
     1
 90
       13
176
     1
 40
0.0
176
     1
 90
        0
176
     1
290
     0
176
     1
290
     1
176
     1
290
     1
176
     1
290
     0
176
     1
290
     0
176
     1
290
     0
176
     1
290
     0
176
     1
290
     0
176
     1
290
     0
176
     1
 90
       50
176
     1
 40
0.0
176
     1
 40
1.0
176
     1
 90
        0
176
     1
 62
    18
420
        0
176
     1
 90
       50
176
     1
 90
        3
176
     1
 62
     5
420
      255
176
     1
290
     0
176
     1
 90
       50
176
     1
 90
       50
176
     1
 90
       50
176
     1
290
     0
176
     1
 90
       50
176
     1
 62
   256
176
     0
 40
1.0
176
     0
 90
        2
176
     1
  1
strokes_ogs.tif
176
     1
290
     0
176
     1
 40
1.0
176
     1
 40
1.0
176
     1
1001
ACAD
1000
AcDbSavedByObjectVersion
1070
     0
  0
VISUALSTYLE
  5
1A17
102
{ACAD_REACTORS
330
1A0F
102
}
330
1A0F
100
AcDbVisualStyle
  2
Hidden
 70
     6
177
     3
291
     0
 70
    58
 90
        1
176
     1
 90
        2
176
     1
 90
        2
176
     1
 90
        0
176
     1
 40
0.6
176
     1
 40
30.0
176
     1
 62
     7
420
 16777215
176
     1
 90
        2
176
     1
 90
        2
176
     1
 62
     7
176
     1
 62
   257
176
     1
 90
        2
176
     1
 90
        1
176
     1
 40
40.0
176
     1
 90
        0
176
     1
 62
   257
176
     1
 40
1.0
176
     1
 90
        1
176
     1
 90
        6
176
     1
 90
        2
176
     1
 62
     7
176
     1
 90
        3
176
     1
 90
        0
176
     1
 90
        0
176
     1
290
     0
176
     1
 90
        1
176
     1
 40
0.0
176
     1
 90
        0
176
     1
290
     0
176
     1
290
     1
176
     1
290
     1
176
     1
290
     0
176
     1
290
     0
176
     1
290
     0
176
     1
290
     0
176
     1
290
     0
176
     1
290
     0
176
     1
 90
       50
176
     1
 40
0.0
176
     1
 40
1.0
176
     1
 90
        0
176
     1
 62
    18
420
        0
176
     1
 90
       50
176
     1
 90
        3
176
     1
 62
     5
420
      255
176
     1
290
     0
176
     1
 90
       50
176
     1
 90
       50
176
     1
 90
       50
176
     1
290
     0
176
     1
 90
       50
176
     1
 62
   256
176
     0
 40
1.0
176
     0
 90
        2
176
     1
  1
strokes_ogs.tif
176
     1
290
     0
176
     1
 40
1.0
176
     1
 40
1.0
176
     1
1001
ACAD
1000
AcDbSavedByObjectVersion
1070
     0
  0
VISUALSTYLE
  5
1A25
102
{ACAD_REACTORS
330
1A0F
102
}
330
1A0F
100
AcDbVisualStyle
  2
JitterOff
 70
    20
177
     3
291
     1
 70
    58
 90
        2
176
     0
 90
        2
176
     0
 90
        0
176
     0
 90
        0
176
     0
 40
0.6
176
     0
 40
30.0
176
     0
 62
     7
420
 16777215
176
     0
 90
        1
176
     0
 90
        4
176
     0
 62
     7
176
     0
 62
   257
176
     0
 90
        1
176
     0
 90
        1
176
     0
 40
1.0
176
     0
 90
       10
176
     2
 62
     7
176
     0
 40
1.0
176
     0
 90
        1
176
     0
 90
        6
176
     0
 90
        2
176
     0
 62
     7
176
     0
 90
        5
176
     0
 90
        0
176
     0
 90
        0
176
     0
290
     0
176
     0
 90
        1
176
     0
 40
0.0
176
     0
 90
        0
176
     0
290
     0
176
     0
290
     1
176
     0
290
     1
176
     0
290
     0
176
     0
290
     0
176
     0
290
     0
176
     0
290
     0
176
     0
290
     0
176
     0
290
     0
176
     0
 90
       50
176
     0
 40
0.0
176
     0
 40
1.0
176
     0
 90
        0
176
     0
 62
    18
420
        0
176
     0
 90
       50
176
     0
 90
        3
176
     0
 62
     5
420
      255
176
     0
290
     0
176
     0
 90
       50
176
     0
 90
       50
176
     0
 90
       50
176
     0
290
     0
176
     0
 90
       50
176
     0
 62
   256
176
     0
 40
1.0
176
     0
 90
        2
176
     0
  1
strokes_ogs.tif
176
     0
290
     0
176
     0
 40
1.0
176
     0
 40
1.0
176
     0
1001
ACAD
1000
AcDbSavedByObjectVersion
1070
     0
  0
VISUALSTYLE
  5
1A1D
102
{ACAD_REACTORS
330
1A0F
102
}
330
1A0F
100
AcDbVisualStyle
  2
Linepattern
 70
    14
177
     3
291
     1
 70
    58
 90
        2
176
     1
 90
        2
176
     1
 90
        0
176
     1
 90
        0
176
     1
 40
0.6
176
     1
 40
30.0
176
     1
 62
     7
420
 16777215
176
     1
 90
        1
176
     1
 90
        4
176
     1
 62
     7
176
     1
 62
   257
176
     1
 90
        7
176
     1
 90
        7
176
     1
 40
1.0
176
     1
 90
        8
176
     1
 62
     7
176
     1
 40
1.0
176
     1
 90
        1
176
     1
 90
        6
176
     1
 90
        2
176
     1
 62
     7
176
     1
 90
        5
176
     1
 90
        0
176
     1
 90
        0
176
     1
290
     0
176
     1
 90
        1
176
     1
 40
0.0
176
     1
 90
        0
176
     1
290
     0
176
     1
290
     1
176
     1
290
     1
176
     1
290
     0
176
     1
290
     0
176
     1
290
     0
176
     1
290
     0
176
     1
290
     0
176
     1
290
     0
176
     1
 90
       50
176
     1
 40
0.0
176
     1
 40
1.0
176
     1
 90
        0
176
     1
 62
    18
420
        0
176
     1
 90
       50
176
     1
 90
        3
176
     1
 62
     5
420
      255
176
     1
290
     0
176
     1
 90
       50
176
     1
 90
       50
176
     1
 90
       50
176
     1
290
     0
176
     1
 90
       50
176
     1
 62
   256
176
     0
 40
1.0
176
     0
 90
        2
176
     1
  1
strokes_ogs.tif
176
     1
290
     0
176
     1
 40
1.0
176
     1
 40
1.0
176
     1
1001
ACAD
1000
AcDbSavedByObjectVersion
1070
     0
  0
VISUALSTYLE
  5
1A26
102
{ACAD_REACTORS
330
1A0F
102
}
330
1A0F
100
AcDbVisualStyle
  2
OverhangOff
 70
    21
177
     3
291
     1
 70
    58
 90
        2
176
     0
 90
        2
176
     0
 90
        0
176
     0
 90
        0
176
     0
 40
0.6
176
     0
 40
30.0
176
     0
 62
     7
420
 16777215
176
     0
 90
        1
176
     0
 90
        4
176
     0
 62
     7
176
     0
 62
   257
176
     0
 90
        1
176
     0
 90
        1
176
     0
 40
1.0
176
     0
 90
        9
176
     2
 62
     7
176
     0
 40
1.0
176
     0
 90
        1
176
     0
 90
        6
176
     0
 90
        2
176
     0
 62
     7
176
     0
 90
        5
176
     0
 90
        0
176
     0
 90
        0
176
     0
290
     0
176
     0
 90
        1
176
     0
 40
0.0
176
     0
 90
        0
176
     0
290
     0
176
     0
290
     1
176
     0
290
     1
176
     0
290
     0
176
     0
290
     0
176
     0
290
     0
176
     0
290
     0
176
     0
290
     0
176
     0
290
     0
176
     0
 90
       50
176
     0
 40
0.0
176
     0
 40
1.0
176
     0
 90
        0
176
     0
 62
    18
420
        0
176
     0
 90
       50
176
     0
 90
        3
176
     0
 62
     5
420
      255
176
     0
290
     0
176
     0
 90
       50
176
     0
 90
       50
176
     0
 90
       50
176
     0
290
     0
176
     0
 90
       50
176
     0
 62
   256
176
     0
 40
1.0
176
     0
 90
        2
176
     0
  1
strokes_ogs.tif
176
     0
290
     0
176
     0
 40
1.0
176
     0
 40
1.0
176
     0
1001
ACAD
1000
AcDbSavedByObjectVersion
1070
     0
  0
VISUALSTYLE
  5
1A19
102
{ACAD_REACTORS
330
1A0F
102
}
330
1A0F
100
AcDbVisualStyle
  2
Realistic
 70
     8
177
     3
291
     0
 70
    58
 90
        2
176
     1
 90
        3
176
     1
 90
        0
176
     1
 90
        2
176
     1
 40
0.6
176
     1
 40
30.0
176
     1
 62
     7
420
 16777215
176
     1
 90
        0
176
     1
 90
        0
176
     1
 62
     7
176
     1
 62
   257
176
     1
 90
        1
176
     1
 90
        1
176
     1
 40
1.0
176
     1
 90
        8
176
     1
 62
   257
176
     1
 40
1.0
176
     1
 90
        1
176
     1
 90
        6
176
     1
 90
        2
176
     1
 62
     7
176
     1
 90
        3
176
     1
 90
        0
176
     1
 90
        0
176
     1
290
     0
176
     1
 90
       13
176
     1
 40
0.0
176
     1
 90
        0
176
     1
290
     0
176
     1
290
     1
176
     1
290
     1
176
     1
290
     0
176
     1
290
     0
176
     1
290
     0
176
     1
290
     0
176
     1
290
     0
176
     1
290
     0
176
     1
 90
       50
176
     1
 40
0.0
176
     1
 40
1.0
176
     1
 90
        0
176
     1
 62
    18
420
        0
176
     1
 90
       50
176
     1
 90
        3
176
     1
 62
     5
420
      255
176
     1
290
     0
176
     1
 90
       50
176
     1
 90
       50
176
     1
 90
       50
176
     1
290
     0
176
     1
 90
       50
176
     1
 62
   256
176
     0
 40
1.0
176
     0
 90
        2
176
     1
  1
strokes_ogs.tif
176
     1
290
     0
176
     1
 40
1.0
176
     1
 40
1.0
176
     1
1001
ACAD
1000
AcDbSavedByObjectVersion
1070
     0
  0
VISUALSTYLE
  5
1A24
102
{ACAD_REACTORS
330
1A0F
102
}
330
1A0F
100
AcDbVisualStyle
  2
Shaded
 70
    27
177
     3
291
     0
 70
    58
 90
        2
176
     1
 90
        2
176
     1
 90
        1
176
     1
 90
        2
176
     1
 40
0.6
176
     1
 40
30.0
176
     1
 62
     7
420
 16777215
176
     1
 90
        0
176
     1
 90
        4
176
     1
 62
     7
176
     1
 62
   257
176
     1
 90
        1
176
     1
 90
        1
176
     1
 40
1.0
176
     1
 90
        8
176
     1
 62
   257
176
     1
 40
1.0
176
     1
 90
        1
176
     1
 90
        6
176
     1
 90
        2
176
     1
 62
     8
420
  7895160
176
     1
 90
        3
176
     1
 90
        0
176
     1
 90
        0
176
     1
290
     0
176
     1
 90
        5
176
     1
 40
0.0
176
     1
 90
        0
176
     1
290
     0
176
     1
290
     1
176
     1
290
     1
176
     1
290
     0
176
     1
290
     0
176
     1
290
     0
176
     1
290
     0
176
     1
290
     0
176
     1
290
     0
176
     1
 90
       50
176
     1
 40
0.0
176
     1
 40
1.0
176
     1
 90
        0
176
     1
 62
    18
420
        0
176
     1
 90
       50
176
     1
 90
        3
176
     1
 62
     5
420
      255
176
     1
290
     0
176
     1
 90
       50
176
     1
 90
       50
176
     1
 90
       50
176
     1
290
     0
176
     1
 90
       50
176
     1
 62
   256
176
     0
 40
1.0
176
     0
 90
        2
176
     1
  1
strokes_ogs.tif
176
     1
290
     0
176
     1
 40
1.0
176
     1
 40
1.0
176
     1
1001
ACAD
1000
AcDbSavedByObjectVersion
1070
     0
  0
VISUALSTYLE
  5
1A23
102
{ACAD_REACTORS
330
1A0F
102
}
330
1A0F
100
AcDbVisualStyle
  2
Shaded with edges
 70
    26
177
     3
291
     0
 70
    58
 90
        2
176
     1
 90
        2
176
     1
 90
        1
176
     1
 90
        2
176
     1
 40
0.6
176
     1
 40
30.0
176
     1
 62
     7
420
 16777215
176
     1
 90
        1
176
     1
 90
        2
176
     1
 62
     7
176
     1
 62
   257
176
     1
 90
        2
176
     1
 90
        1
176
     1
 40
1.0
176
     1
 90
        8
176
     1
 62
   257
176
     1
 40
1.0
176
     1
 90
        1
176
     1
 90
        6
176
     1
 90
        2
176
     1
 62
     7
176
     1
 90
        3
176
     1
 90
        0
176
     1
 90
        0
176
     1
290
     0
176
     1
 90
        5
176
     1
 40
0.0
176
     1
 90
        0
176
     1
290
     0
176
     1
290
     1
176
     1
290
     1
176
     1
290
     0
176
     1
290
     0
176
     1
290
     0
176
     1
290
     0
176
     1
290
     0
176
     1
290
     0
176
     1
 90
       50
176
     1
 40
0.0
176
     1
 40
1.0
176
     1
 90
        0
176
     1
 62
    18
420
        0
176
     1
 90
       50
176
     1
 90
        3
176
     1
 62
     5
420
      255
176
     1
290
     0
176
     1
 90
       50
176
     1
 90
       50
176
     1
 90
       50
176
     1
290
     0
176
     1
 90
       50
176
     1
 62
   256
176
     0
 40
1.0
176
     0
 90
        2
176
     1
  1
strokes_ogs.tif
176
     1
290
     0
176
     1
 40
1.0
176
     1
 40
1.0
176
     1
1001
ACAD
1000
AcDbSavedByObjectVersion
1070
     0
  0
VISUALSTYLE
  5
1A20
102
{ACAD_REACTORS
330
1A0F
102
}
330
1A0F
100
AcDbVisualStyle
  2
Shades of Gray
 70
    23
177
     3
291
     0
 70
    58
 90
        2
176
     1
 90
        2
176
     1
 90
        3
176
     1
 90
        0
176
     1
 40
0.6
176
     1
 40
30.0
176
     1
 62
     7
420
 16777215
176
     1
 90
        2
176
     1
 90
        2
176
     1
 62
     7
176
     1
 62
     7
176
     1
 90
        1
176
     1
 90
        1
176
     1
 40
40.0
176
     1
 90
        8
176
     1
 62
     7
176
     1
 40
1.0
176
     1
 90
        1
176
     1
 90
        6
176
     1
 90
        2
176
     1
 62
     7
176
     1
 90
        3
176
     1
 90
        0
176
     1
 90
        0
176
     1
290
     0
176
     1
 90
        1
176
     1
 40
0.0
176
     1
 90
        0
176
     1
290
     0
176
     1
290
     1
176
     1
290
     1
176
     1
290
     0
176
     1
290
     0
176
     1
290
     0
176
     1
290
     0
176
     1
290
     0
176
     1
290
     0
176
     1
 90
       50
176
     1
 40
0.0
176
     1
 40
1.0
176
     1
 90
        0
176
     1
 62
    18
420
        0
176
     1
 90
       50
176
     1
 90
        3
176
     1
 62
     5
420
      255
176
     1
290
     0
176
     1
 90
       50
176
     1
 90
       50
176
     1
 90
       50
176
     1
290
     0
176
     1
 90
       50
176
     1
 62
   256
176
     0
 40
1.0
176
     0
 90
        2
176
     1
  1
strokes_ogs.tif
176
     1
290
     0
176
     1
 40
1.0
176
     1
 40
1.0
176
     1
1001
ACAD
1000
AcDbSavedByObjectVersion
1070
     0
  0
VISUALSTYLE
  5
1A21
102
{ACAD_REACTORS
330
1A0F
102
}
330
1A0F
100
AcDbVisualStyle
  2
Sketchy
 70
    24
177
     3
291
     0
 70
    58
 90
        1
176
     1
 90
        2
176
     1
 90
        2
176
     1
 90
        0
176
     1
 40
0.6
176
     1
 40
30.0
176
     1
 62
     7
420
 16777215
176
     1
 90
        2
176
     1
 90
        2
176
     1
 62
     7
176
     1
 62
     7
176
     1
 90
        1
176
     1
 90
        1
176
     1
 40
40.0
176
     1
 90
       11
176
     1
 62
     7
176
     1
 40
1.0
176
     1
 90
        1
176
     1
 90
        6
176
     1
 90
        2
176
     1
 62
     7
176
     1
 90
        6
176
     1
 90
        0
176
     1
 90
        0
176
     1
290
     0
176
     1
 90
        1
176
     1
 40
0.0
176
     1
 90
        0
176
     1
290
     0
176
     1
290
     1
176
     1
290
     1
176
     1
290
     0
176
     1
290
     0
176
     1
290
     0
176
     1
290
     0
176
     1
290
     0
176
     1
290
     0
176
     1
 90
       50
176
     1
 40
0.0
176
     1
 40
1.0
176
     1
 90
        0
176
     1
 62
    18
420
        0
176
     1
 90
       50
176
     1
 90
        3
176
     1
 62
     5
420
      255
176
     1
290
     0
176
     1
 90
       50
176
     1
 90
       50
176
     1
 90
       50
176
     1
290
     0
176
     1
 90
       50
176
     1
 62
   256
176
     0
 40
1.0
176
     0
 90
        2
176
     1
  1
strokes_ogs.tif
176
     1
290
     0
176
     1
 40
1.0
176
     1
 40
1.0
176
     1
1001
ACAD
1000
AcDbSavedByObjectVersion
1070
     0
  0
VISUALSTYLE
  5
1A1C
102
{ACAD_REACTORS
330
1A0F
102
}
330
1A0F
100
AcDbVisualStyle
  2
Thicken
 70
    13
177
     3
291
     1
 70
    58
 90
        2
176
     1
 90
        2
176
     1
 90
        0
176
     1
 90
        0
176
     1
 40
0.6
176
     1
 40
30.0
176
     1
 62
     7
420
 16777215
176
     1
 90
        1
176
     1
 90
        4
176
     1
 62
     7
176
     1
 62
   257
176
     1
 90
        1
176
     1
 90
        1
176
     1
 40
1.0
176
     1
 90
       12
176
     1
 62
     7
176
     1
 40
1.0
176
     1
 90
        1
176
     1
 90
        6
176
     1
 90
        2
176
     1
 62
     7
176
     1
 90
        5
176
     1
 90
        0
176
     1
 90
        0
176
     1
290
     0
176
     1
 90
        1
176
     1
 40
0.0
176
     1
 90
        0
176
     1
290
     0
176
     1
290
     1
176
     1
290
     1
176
     1
290
     0
176
     1
290
     0
176
     1
290
     0
176
     1
290
     0
176
     1
290
     0
176
     1
290
     0
176
     1
 90
       50
176
     1
 40
0.0
176
     1
 40
1.0
176
     1
 90
        0
176
     1
 62
    18
420
        0
176
     1
 90
       50
176
     1
 90
        3
176
     1
 62
     5
420
      255
176
     1
290
     0
176
     1
 90
       50
176
     1
 90
       50
176
     1
 90
       50
176
     1
290
     0
176
     1
 90
       50
176
     1
 62
   256
176
     0
 40
1.0
176
     0
 90
        2
176
     1
  1
strokes_ogs.tif
176
     1
290
     0
176
     1
 40
1.0
176
     1
 40
1.0
176
     1
1001
ACAD
1000
AcDbSavedByObjectVersion
1070
     0
  0
VISUALSTYLE
  5
1A16
102
{ACAD_REACTORS
330
1A0F
102
}
330
1A0F
100
AcDbVisualStyle
  2
Wireframe
 70
     5
177
     3
291
     0
 70
    58
 90
        0
176
     1
 90
        2
176
     1
 90
        0
176
     1
 90
        0
176
     1
 40
0.6
176
     1
 40
30.0
176
     1
 62
     7
420
 16777215
176
     1
 90
        1
176
     1
 90
        4
176
     1
 62
     7
176
     1
 62
   257
176
     1
 90
        1
176
     1
 90
        1
176
     1
 40
1.0
176
     1
 90
        0
176
     1
 62
   257
176
     1
 40
1.0
176
     1
 90
        1
176
     1
 90
        6
176
     1
 90
        2
176
     1
 62
     7
176
     1
 90
        3
176
     1
 90
        0
176
     1
 90
        0
176
     1
290
     0
176
     1
 90
        1
176
     1
 40
0.0
176
     1
 90
        0
176
     1
290
     0
176
     1
290
     1
176
     1
290
     1
176
     1
290
     0
176
     1
290
     0
176
     1
290
     0
176
     1
290
     0
176
     1
290
     0
176
     1
290
     0
176
     1
 90
       50
176
     1
 40
0.0
176
     1
 40
1.0
176
     1
 90
        0
176
     1
 62
    18
420
        0
176
     1
 90
       50
176
     1
 90
        3
176
     1
 62
     5
420
      255
176
     1
290
     0
176
     1
 90
       50
176
     1
 90
       50
176
     1
 90
       50
176
     1
290
     0
176
     1
 90
       50
176
     1
 62
   256
176
     0
 40
1.0
176
     0
 90
        2
176
     1
  1
strokes_ogs.tif
176
     1
290
     0
176
     1
 40
1.0
176
     1
 40
1.0
176
     1
1001
ACAD
1000
AcDbSavedByObjectVersion
1070
     0
  0
VISUALSTYLE
  5
1A22
102
{ACAD_REACTORS
330
1A0F
102
}
330
1A0F
100
AcDbVisualStyle
  2
X-Ray
 70
    25
177
     3
291
     0
 70
    58
 90
        2
176
     1
 90
        2
176
     1
 90
        1
176
     1
 90
        1
176
     1
 40
0.5
176
     1
 40
30.0
176
     1
 62
     7
420
 16777215
176
     1
 90
        1
176
     1
 90
        0
176
     1
 62
     7
176
     1
 62
   257
176
     1
 90
        1
176
     1
 90
        1
176
     1
 40
1.0
176
     1
 90
        8
176
     1
 62
     7
176
     1
 40
1.0
176
     1
 90
        1
176
     1
 90
        6
176
     1
 90
        2
176
     1
 62
     7
176
     1
 90
        3
176
     1
 90
        0
176
     1
 90
        0
176
     1
290
     0
176
     1
 90
       13
176
     1
 40
0.0
176
     1
 90
        0
176
     1
290
     0
176
     1
290
     1
176
     1
290
     1
176
     1
290
     0
176
     1
290
     0
176
     1
290
     0
176
     1
290
     0
176
     1
290
     0
176
     1
290
     0
176
     1
 90
       50
176
     1
 40
0.0
176
     1
 40
1.0
176
     1
 90
        0
176
     1
 62
    18
420
        0
176
     1
 90
       50
176
     1
 90
        3
176
     1
 62
     5
420
      255
176
     1
290
     0
176
     1
 90
       50
176
     1
 90
       50
176
     1
 90
       50
176
     1
290
     0
176
     1
 90
       50
176
     1
 62
   256
176
     0
 40
1.0
176
     0
 90
        2
176
     1
  1
strokes_ogs.tif
176
     1
290
     0
176
     1
 40
1.0
176
     1
 40
1.0
176
     1
1001
ACAD
1000
AcDbSavedByObjectVersion
1070
     0
  0
DICTIONARYVAR
  5
1A64
102
{ACAD_REACTORS
330
125
102
}
330
125
100
DictionaryVariables
280
     0
  1
1:1
  0
DICTIONARYVAR
  5
1A60
102
{ACAD_REACTORS
330
125
102
}
330
125
100
DictionaryVariables
280
     0
  1
STANDARD
  0
DICTIONARYVAR
  5
1A5F
102
{ACAD_REACTORS
330
125
102
}
330
125
100
DictionaryVariables
280
     0
  1
STANDARD
  0
DICTIONARYVAR
  5
1A61
102
{ACAD_REACTORS
330
125
102
}
330
125
100
DictionaryVariables
280
     0
  1
Imperial24
  0
DICTIONARYVAR
  5
1A62
102
{ACAD_REACTORS
330
125
102
}
330
125
100
DictionaryVariables
280
     0
  1
Imperial24
  0
DICTIONARYVAR
  5
126
102
{ACAD_REACTORS
330
125
102
}
330
125
100
DictionaryVariables
280
     0
  1
1
  0
DICTIONARYVAR
  5
1A66
102
{ACAD_REACTORS
330
125
102
}
330
125
100
DictionaryVariables
280
     0
  1
1
  0
DICTIONARYVAR
  5
1A67
102
{ACAD_REACTORS
330
125
102
}
330
125
100
DictionaryVariables
280
     0
  1
15
  0
DICTIONARYVAR
  5
1A65
102
{ACAD_REACTORS
330
125
102
}
330
125
100
DictionaryVariables
280
     0
  1
0
  0
DICTIONARYVAR
  5
1A63
102
{ACAD_REACTORS
330
125
102
}
330
125
100
DictionaryVariables
280
     0
  1
0
  0
DICTIONARYVAR
  5
127
102
{ACAD_REACTORS
330
125
102
}
330
125
100
DictionaryVariables
280
     0
  1

  0
DICTIONARY
  5
1A6E
330
1A41
100
AcDbDictionary
280
     1
281
     1
  3
ACAD_XREC_ROUNDTRIP
360
1A6F
  0
DICTIONARY
  5
1A00
330
19FF
100
AcDbDictionary
280
     1
281
     1
  3
BUMPTILE
360
1A02
  3
DIFFUSETILE
360
1A01
  3
OPACITYTILE
360
1A05
  3
REFLECTIONTILE
360
1A04
  3
REFRACTIONTILE
360
1A06
  3
SPECULARTILE
360
1A03
  0
DICTIONARY
  5
19F8
330
19F7
100
AcDbDictionary
280
     1
281
     1
  3
BUMPTILE
360
19FA
  3
DIFFUSETILE
360
19F9
  3
OPACITYTILE
360
19FD
  3
REFLECTIONTILE
360
19FC
  3
REFRACTIONTILE
360
19FE
  3
SPECULARTILE
360
19FB
  0
DICTIONARY
  5
1A08
330
1A07
100
AcDbDictionary
280
     1
281
     1
  3
BUMPTILE
360
1A0A
  3
DIFFUSETILE
360
1A09
  3
OPACITYTILE
360
1A0D
  3
REFLECTIONTILE
360
1A0C
  3
REFRACTIONTILE
360
1A0E
  3
SPECULARTILE
360
1A0B
  0
XRECORD
  5
1A73
102
{ACAD_REACTORS
330
1A71
102
}
330
1A71
100
AcDbXrecord
280
     1
102
ACAD_MENTALRAY_SETTING_RT
330
1A4E
 70
     1
  0
XRECORD
  5
1A72
102
{ACAD_REACTORS
330
1A71
102
}
330
1A71
100
AcDbXrecord
280
     1
 70
     2
 71
     3
 72
     0
  0
DICTIONARY
  5
1A6C
330
1A3F
100
AcDbDictionary
280
     1
281
     1
  3
ACAD_XREC_ROUNDTRIP
360
1A6D
  0
DICTIONARY
  5
1A69
330
1A29
100
AcDbDictionary
280
     1
281
     1
  3
ACAD_ROUNDTRIP_2008_TABLESTYLE_CELLSTYLEMAP
360
1A6A
  0
XRECORD
  5
1A6F
102
{ACAD_REACTORS
330
1A6E
102
}
330
1A6E
100
AcDbXrecord
280
     1
102
DISPLAYNAME
  1
Imperial24
102
FLAGS
 90
        0
  0
XRECORD
  5
1A02
102
{ACAD_REACTORS
330
1A00
102
}
330
1A00
100
AcDbXrecord
280
     1
270
     1
271
     1
  0
XRECORD
  5
1A01
102
{ACAD_REACTORS
330
1A00
102
}
330
1A00
100
AcDbXrecord
280
     1
270
     1
271
     1
  0
XRECORD
  5
1A05
102
{ACAD_REACTORS
330
1A00
102
}
330
1A00
100
AcDbXrecord
280
     1
270
     1
271
     1
  0
XRECORD
  5
1A04
102
{ACAD_REACTORS
330
1A00
102
}
330
1A00
100
AcDbXrecord
280
     1
270
     1
271
     1
  0
XRECORD
  5
1A06
102
{ACAD_REACTORS
330
1A00
102
}
330
1A00
100
AcDbXrecord
280
     1
270
     1
271
     1
  0
XRECORD
  5
1A03
102
{ACAD_REACTORS
330
1A00
102
}
330
1A00
100
AcDbXrecord
280
     1
270
     1
271
     1
  0
XRECORD
  5
19FA
102
{ACAD_REACTORS
330
19F8
102
}
330
19F8
100
AcDbXrecord
280
     1
270
     1
271
     1
  0
XRECORD
  5
19F9
102
{ACAD_REACTORS
330
19F8
102
}
330
19F8
100
AcDbXrecord
280
     1
270
     1
271
     1
  0
XRECORD
  5
19FD
102
{ACAD_REACTORS
330
19F8
102
}
330
19F8
100
AcDbXrecord
280
     1
270
     1
271
     1
  0
XRECORD
  5
19FC
102
{ACAD_REACTORS
330
19F8
102
}
330
19F8
100
AcDbXrecord
280
     1
270
     1
271
     1
  0
XRECORD
  5
19FE
102
{ACAD_REACTORS
330
19F8
102
}
330
19F8
100
AcDbXrecord
280
     1
270
     1
271
     1
  0
XRECORD
  5
19FB
102
{ACAD_REACTORS
330
19F8
102
}
330
19F8
100
AcDbXrecord
280
     1
270
     1
271
     1
  0
XRECORD
  5
1A0A
102
{ACAD_REACTORS
330
1A08
102
}
330
1A08
100
AcDbXrecord
280
     1
270
     1
271
     1
  0
XRECORD
  5
1A09
102
{ACAD_REACTORS
330
1A08
102
}
330
1A08
100
AcDbXrecord
280
     1
270
     1
271
     1
  0
XRECORD
  5
1A0D
102
{ACAD_REACTORS
330
1A08
102
}
330
1A08
100
AcDbXrecord
280
     1
270
     1
271
     1
  0
XRECORD
  5
1A0C
102
{ACAD_REACTORS
330
1A08
102
}
330
1A08
100
AcDbXrecord
280
     1
270
     1
271
     1
  0
XRECORD
  5
1A0E
102
{ACAD_REACTORS
330
1A08
102
}
330
1A08
100
AcDbXrecord
280
     1
270
     1
271
     1
  0
XRECORD
  5
1A0B
102
{ACAD_REACTORS
330
1A08
102
}
330
1A08
100
AcDbXrecord
280
     1
270
     1
271
     1
  0
XRECORD
  5
1A6D
102
{ACAD_REACTORS
330
1A6C
102
}
330
1A6C
100
AcDbXrecord
280
     1
102
DISPLAYNAME
  1
Imperial24
102
FLAGS
 90
        0
  0
CELLSTYLEMAP
  5
1A6A
102
{ACAD_REACTORS
330
1A69
102
}
330
1A69
100
AcDbCellStyleMap
 90
        3
300
CELLSTYLE
  1
TABLEFORMAT_BEGIN
 90
        5
170
     1
 91
        0
 92
    32768
 62
   257
 93
        1
300
CONTENTFORMAT
  1
CONTENTFORMAT_BEGIN
 90
        0
 91
        0
 92
      512
 93
        0
300

 40
0.0
140
1.0
 94
        5
 62
     0
340
11
144
0.25
309
CONTENTFORMAT_END
171
     0
 94
        0
309
TABLEFORMAT_END
  1
CELLSTYLE_BEGIN
 90
        1
 91
        1
300
_TITLE
309
CELLSTYLE_END
300
CELLSTYLE
  1
TABLEFORMAT_BEGIN
 90
        5
170
     1
 91
        0
 92
        0
 62
   257
 93
        1
300
CONTENTFORMAT
  1
CONTENTFORMAT_BEGIN
 90
        0
 91
        0
 92
      512
 93
        0
300

 40
0.0
140
1.0
 94
        5
 62
     0
340
11
144
0.18
309
CONTENTFORMAT_END
171
     0
 94
        0
309
TABLEFORMAT_END
  1
CELLSTYLE_BEGIN
 90
        2
 91
        1
300
_HEADER
309
CELLSTYLE_END
300
CELLSTYLE
  1
TABLEFORMAT_BEGIN
 90
        5
170
     1
 91
        0
 92
        0
 62
   257
 93
        1
300
CONTENTFORMAT
  1
CONTENTFORMAT_BEGIN
 90
        0
 91
        0
 92
      512
 93
        0
300

 40
0.0
140
1.0
 94
        2
 62
     0
340
11
144
0.18
309
CONTENTFORMAT_END
171
     0
 94
        0
309
TABLEFORMAT_END
  1
CELLSTYLE_BEGIN
 90
        3
 91
        2
300
_DATA
309
CELLSTYLE_END
  0
ENDSEC
  0
EOF
