  0
SECTION
  2
HEADER
  9
$ACADVER
  1
AC1018
  9
$ACADMAINTVER
 70
   104
  9
$DWGCODEPAGE
  3
ANSI_1252
  9
$LASTSAVEDBY
  1
w.koehlhoff
  9
$INSBASE
 10
0.0
 20
0.0
 30
0.0
  9
$EXTMIN
 10
-0.0362150823168577
 20
-0.0059123545438524
 30
-0.0000000000000129
  9
$EXTMAX
 10
840.0406705278578
 20
594.0066048587307
 30
0.0000000000000023
  9
$LIMMIN
 10
0.0
 20
0.0
  9
$LIMMAX
 10
840.0000000000002
 20
593.9999999999998
  9
$ORTHOMODE
 70
     0
  9
$REGENMODE
 70
     1
  9
$FILLMODE
 70
     1
  9
$QTEXTMODE
 70
     0
  9
$MIRRTEXT
 70
     1
  9
$LTSCALE
 40
20.0
  9
$ATTMODE
 70
     1
  9
$TEXTSIZE
 40
3.5
  9
$TRACEWID
 40
1.0
  9
$TEXTSTYLE
  7
STANDARD
  9
$CLAYER
  8
VOLL
  9
$CELTYPE
  6
ByLayer
  9
$CECOLOR
 62
   256
  9
$CELTSCALE
 40
1.0
  9
$DISPSILH
 70
     0
  9
$DIMSCALE
 40
2.0
  9
$DIMASZ
 40
3.5
  9
$DIMEXO
 40
1.0
  9
$DIMDLI
 40
7.0
  9
$DIMRND
 40
0.0
  9
$DIMDLE
 40
0.0
  9
$DIMEXE
 40
1.0
  9
$DIMTP
 40
0.0
  9
$DIMTM
 40
0.0
  9
$DIMTXT
 40
3.5
  9
$DIMCEN
 40
1.5
  9
$DIMTSZ
 40
0.0
  9
$DIMTOL
 70
     0
  9
$DIMLIM
 70
     0
  9
$DIMTIH
 70
     0
  9
$DIMTOH
 70
     0
  9
$DIMSE1
 70
     0
  9
$DIMSE2
 70
     0
  9
$DIMTAD
 70
     1
  9
$DIMZIN
 70
     8
  9
$DIMBLK
  1

  9
$DIMASO
 70
     1
  9
$DIMSHO
 70
     0
  9
$DIMPOST
  1

  9
$DIMAPOST
  1

  9
$DIMALT
 70
     0
  9
$DIMALTD
 70
     2
  9
$DIMALTF
 40
25.4
  9
$DIMLFAC
 40
1.0
  9
$DIMTOFL
 70
     1
  9
$DIMTVP
 40
0.0
  9
$DIMTIX
 70
     0
  9
$DIMSOXD
 70
     0
  9
$DIMSAH
 70
     0
  9
$DIMBLK1
  1

  9
$DIMBLK2
  1

  9
$DIMSTYLE
  2
Standard
  9
$DIMCLRD
 70
     0
  9
$DIMCLRE
 70
     0
  9
$DIMCLRT
 70
     1
  9
$DIMTFAC
 40
0.5142857142857144
  9
$DIMGAP
 40
1.5
  9
$DIMJUST
 70
     0
  9
$DIMSD1
 70
     0
  9
$DIMSD2
 70
     0
  9
$DIMTOLJ
 70
     1
  9
$DIMTZIN
 70
     8
  9
$DIMALTZ
 70
     8
  9
$DIMALTTZ
 70
     8
  9
$DIMUPT
 70
     0
  9
$DIMDEC
 70
     2
  9
$DIMTDEC
 70
     2
  9
$DIMALTU
 70
     2
  9
$DIMALTTD
 70
     2
  9
$DIMTXSTY
  7
STANDARD
  9
$DIMAUNIT
 70
     0
  9
$DIMADEC
 70
     2
  9
$DIMALTRND
 40
0.0
  9
$DIMAZIN
 70
     2
  9
$DIMDSEP
 70
    46
  9
$DIMATFIT
 70
     3
  9
$DIMFRAC
 70
     0
  9
$DIMLDRBLK
  1

  9
$DIMLUNIT
 70
     2
  9
$DIMLWD
 70
    -2
  9
$DIMLWE
 70
    -2
  9
$DIMTMOVE
 70
     0
  9
$LUNITS
 70
     2
  9
$LUPREC
 70
     2
  9
$SKETCHINC
 40
1.0
  9
$FILLETRAD
 40
0.0
  9
$AUNITS
 70
     0
  9
$AUPREC
 70
     0
  9
$MENU
  1
ACAD
  9
$ELEVATION
 40
0.0
  9
$PELEVATION
 40
0.0
  9
$THICKNESS
 40
0.0
  9
$LIMCHECK
 70
     0
  9
$CHAMFERA
 40
0.0
  9
$CHAMFERB
 40
0.0
  9
$CHAMFERC
 40
0.0
  9
$CHAMFERD
 40
0.0
  9
$SKPOLY
 70
     0
  9
$TDCREATE
 40
2455397.825393172
  9
$TDUCREATE
 40
2455397.783726505
  9
$TDUPDATE
 40
2456722.497379583
  9
$TDUUPDATE
 40
2456722.455712917
  9
$TDINDWG
 40
0.1109123032
  9
$TDUSRTIMER
 40
0.1109123032
  9
$USRTIMER
 70
     1
  9
$ANGBASE
 50
0.0
  9
$ANGDIR
 70
     0
  9
$PDMODE
 70
     0
  9
$PDSIZE
 40
0.0
  9
$PLINEWID
 40
0.0
  9
$SPLFRAME
 70
     0
  9
$SPLINETYPE
 70
     6
  9
$SPLINESEGS
 70
     8
  9
$HANDSEED
  5
1FB2
  9
$SURFTAB1
 70
     6
  9
$SURFTAB2
 70
     6
  9
$SURFTYPE
 70
     6
  9
$SURFU
 70
     6
  9
$SURFV
 70
     6
  9
$UCSBASE
  2

  9
$UCSNAME
  2

  9
$UCSORG
 10
0.0
 20
0.0
 30
0.0
  9
$UCSXDIR
 10
1.0
 20
0.0
 30
0.0
  9
$UCSYDIR
 10
0.0
 20
1.0
 30
0.0
  9
$UCSORTHOREF
  2

  9
$UCSORTHOVIEW
 70
     0
  9
$UCSORGTOP
 10
0.0
 20
0.0
 30
0.0
  9
$UCSORGBOTTOM
 10
0.0
 20
0.0
 30
0.0
  9
$UCSORGLEFT
 10
0.0
 20
0.0
 30
0.0
  9
$UCSORGRIGHT
 10
0.0
 20
0.0
 30
0.0
  9
$UCSORGFRONT
 10
0.0
 20
0.0
 30
0.0
  9
$UCSORGBACK
 10
0.0
 20
0.0
 30
0.0
  9
$PUCSBASE
  2

  9
$PUCSNAME
  2

  9
$PUCSORG
 10
0.0
 20
0.0
 30
0.0
  9
$PUCSXDIR
 10
1.0
 20
0.0
 30
0.0
  9
$PUCSYDIR
 10
0.0
 20
1.0
 30
0.0
  9
$PUCSORTHOREF
  2

  9
$PUCSORTHOVIEW
 70
     0
  9
$PUCSORGTOP
 10
0.0
 20
0.0
 30
0.0
  9
$PUCSORGBOTTOM
 10
0.0
 20
0.0
 30
0.0
  9
$PUCSORGLEFT
 10
0.0
 20
0.0
 30
0.0
  9
$PUCSORGRIGHT
 10
0.0
 20
0.0
 30
0.0
  9
$PUCSORGFRONT
 10
0.0
 20
0.0
 30
0.0
  9
$PUCSORGBACK
 10
0.0
 20
0.0
 30
0.0
  9
$USERI1
 70
     0
  9
$USERI2
 70
     0
  9
$USERI3
 70
     0
  9
$USERI4
 70
     0
  9
$USERI5
 70
     0
  9
$USERR1
 40
0.0
  9
$USERR2
 40
0.0
  9
$USERR3
 40
0.0
  9
$USERR4
 40
0.0
  9
$USERR5
 40
0.0
  9
$WORLDVIEW
 70
     1
  9
$SHADEDGE
 70
     3
  9
$SHADEDIF
 70
    70
  9
$TILEMODE
 70
     1
  9
$MAXACTVP
 70
    16
  9
$PINSBASE
 10
0.0
 20
0.0
 30
0.0
  9
$PLIMCHECK
 70
     0
  9
$PEXTMIN
 10
1.000000000000000E+20
 20
1.000000000000000E+20
 30
1.000000000000000E+20
  9
$PEXTMAX
 10
-1.000000000000000E+20
 20
-1.000000000000000E+20
 30
-1.000000000000000E+20
  9
$PLIMMIN
 10
0.0
 20
0.0
  9
$PLIMMAX
 10
12.0
 20
9.0
  9
$UNITMODE
 70
     0
  9
$VISRETAIN
 70
     0
  9
$PLINEGEN
 70
     0
  9
$PSLTSCALE
 70
     0
  9
$TREEDEPTH
 70
  3020
  9
$CMLSTYLE
  2
Standard
  9
$CMLJUST
 70
     0
  9
$CMLSCALE
 40
1.0
  9
$PROXYGRAPHICS
 70
     1
  9
$MEASUREMENT
 70
     0
  9
$CELWEIGHT
370
    -1
  9
$ENDCAPS
280
     0
  9
$JOINSTYLE
280
     0
  9
$LWDISPLAY
290
     0
  9
$INSUNITS
 70
     0
  9
$HYPERLINKBASE
  1

  9
$STYLESHEET
  1
monochrome1.ctb
  9
$XEDIT
290
     1
  9
$CEPSNTYPE
380
     0
  9
$PSTYLEMODE
290
     1
  9
$FINGERPRINTGUID
  2
{D68B0D0D-A558-11D7-B632-000102183313}
  9
$VERSIONGUID
  2
{80C7C69E-6EF3-45D5-AE06-89A33364FB7C}
  9
$EXTNAMES
290
     1
  9
$PSVPSCALE
 40
0.0
  9
$OLESTARTUP
290
     0
  9
$SORTENTS
280
   127
  9
$INDEXCTL
280
     0
  9
$HIDETEXT
280
     0
  9
$XCLIPFRAME
290
     0
  9
$HALOGAP
280
     0
  9
$OBSCOLOR
 70
   257
  9
$OBSLTYPE
280
     0
  9
$INTERSECTIONDISPLAY
280
     0
  9
$INTERSECTIONCOLOR
 70
   257
  9
$DIMASSOC
280
     1
  9
$PROJECTNAME
  1

  0
ENDSEC
  0
SECTION
  2
CLASSES
  0
CLASS
  1
ACDBDICTIONARYWDFLT
  2
AcDbDictionaryWithDefault
  3
ObjectDBX Classes
 90
        0
 91
        1
280
     0
281
     0
  0
CLASS
  1
DICTIONARYVAR
  2
AcDbDictionaryVar
  3
ObjectDBX Classes
 90
        0
 91
       13
280
     0
281
     0
  0
CLASS
  1
MATERIAL
  2
AcDbMaterial
  3
ObjectDBX Classes
 90
     1153
 91
        3
280
     0
281
     0
  0
CLASS
  1
VISUALSTYLE
  2
AcDbVisualStyle
  3
ObjectDBX Classes
 90
     4095
 91
       24
280
     0
281
     0
  0
CLASS
  1
TABLESTYLE
  2
AcDbTableStyle
  3
ObjectDBX Classes
 90
     4095
 91
        1
280
     0
281
     0
  0
CLASS
  1
SCALE
  2
AcDbScale
  3
ObjectDBX Classes
 90
     1153
 91
       17
280
     0
281
     0
  0
CLASS
  1
MLEADERSTYLE
  2
AcDbMLeaderStyle
  3
ACDB_MLEADERSTYLE_CLASS
 90
     4095
 91
        1
280
     0
281
     0
  0
CLASS
  1
ACDBSECTIONVIEWSTYLE
  2
AcDbSectionViewStyle
  3
ObjectDBX Classes
 90
     1025
 91
        1
280
     0
281
     0
  0
CLASS
  1
ACDBDETAILVIEWSTYLE
  2
AcDbDetailViewStyle
  3
ObjectDBX Classes
 90
     1025
 91
        1
280
     0
281
     0
  0
CLASS
  1
CELLSTYLEMAP
  2
AcDbCellStyleMap
  3
ObjectDBX Classes
 90
     1152
 91
        2
280
     0
281
     0
  0
ENDSEC
  0
SECTION
  2
TABLES
  0
TABLE
  2
VPORT
  5
8
330
0
100
AcDbSymbolTable
 70
     1
  0
VPORT
  5
1E29
330
8
100
AcDbSymbolTableRecord
100
AcDbViewportTableRecord
  2
*Active
 70
     0
 10
0.0
 20
0.0
 11
1.0
 21
1.0
 12
420.0022277227705
 22
297.0003462520935
 13
0.0
 23
0.0
 14
1.0
 24
1.0
 15
10.0
 25
10.0
 16
0.0
 26
0.0
 36
1.0
 17
0.0
 27
0.0
 37
0.0
 40
598.0216005690447
 41
1.771396396396396
 42
50.0
 43
0.0
 44
0.0
 50
0.0
 51
0.0
 71
     0
 72
  1500
 73
     1
 74
     0
 75
     0
 76
     0
 77
     0
 78
     0
281
     0
 65
     1
110
0.0
120
0.0
130
0.0
111
1.0
121
0.0
131
0.0
112
0.0
122
1.0
132
0.0
 79
     0
146
0.0
1001
ACAD_NAV_VCDISPLAY
1070
     3
  0
ENDTAB
  0
TABLE
  2
LTYPE
  5
5
330
0
100
AcDbSymbolTable
 70
     3
  0
LTYPE
  5
13
330
5
100
AcDbSymbolTableRecord
100
AcDbLinetypeTableRecord
  2
ByBlock
 70
     0
  3

 72
    65
 73
     0
 40
0.0
  0
LTYPE
  5
14
330
5
100
AcDbSymbolTableRecord
100
AcDbLinetypeTableRecord
  2
ByLayer
 70
     0
  3

 72
    65
 73
     0
 40
0.0
  0
LTYPE
  5
15
330
5
100
AcDbSymbolTableRecord
100
AcDbLinetypeTableRecord
  2
Continuous
 70
     0
  3
Solid line
 72
    65
 73
     0
 40
0.0
  0
LTYPE
  5
25
330
5
100
AcDbSymbolTableRecord
100
AcDbLinetypeTableRecord
  2
STRICHPUNKT
 70
     0
  3
__ . __ . __ . __ . __ . __ . __ . __ . __ . __
 72
    65
 73
     4
 40
1.0
 49
0.5
 74
     0
 49
-0.25
 74
     0
 49
0.0
 74
     0
 49
-0.25
 74
     0
  0
ENDTAB
  0
TABLE
  2
LAYER
  5
2
102
{ACAD_XDICTIONARY
360
1E94
102
}
330
0
100
AcDbSymbolTable
 70
     9
  0
LAYER
  5
10
102
{ACAD_XDICTIONARY
360
1E81
102
}
330
2
100
AcDbSymbolTableRecord
100
AcDbLayerTableRecord
  2
0
 70
     0
 62
     7
  6
Continuous
370
    -3
390
F
  0
LAYER
  5
2B
102
{ACAD_XDICTIONARY
360
1E83
102
}
330
2
100
AcDbSymbolTableRecord
100
AcDbLayerTableRecord
  2
VOLL
 70
     0
 62
     1
  6
Continuous
370
    -3
390
F
  0
LAYER
  5
2C
102
{ACAD_XDICTIONARY
360
1E85
102
}
330
2
100
AcDbSymbolTableRecord
100
AcDbLayerTableRecord
  2
HILF
 70
     0
 62
     2
  6
Continuous
370
    -3
390
F
  0
LAYER
  5
2D
102
{ACAD_XDICTIONARY
360
1E87
102
}
330
2
100
AcDbSymbolTableRecord
100
AcDbLayerTableRecord
  2
MITTEL
 70
     0
 62
     2
  6
STRICHPUNKT
370
    -3
390
F
  0
LAYER
  5
2F
102
{ACAD_XDICTIONARY
360
1E89
102
}
330
2
100
AcDbSymbolTableRecord
100
AcDbLayerTableRecord
  2
BEM
 70
     0
 62
     7
  6
Continuous
370
    -3
390
F
  0
LAYER
  5
30
102
{ACAD_XDICTIONARY
360
1E8B
102
}
330
2
100
AcDbSymbolTableRecord
100
AcDbLayerTableRecord
  2
STEMPEL
 70
     0
 62
     3
  6
Continuous
370
    -3
390
F
  0
LAYER
  5
33
102
{ACAD_XDICTIONARY
360
1E8D
102
}
330
2
100
AcDbSymbolTableRecord
100
AcDbLayerTableRecord
  2
TEXT
 70
     0
 62
     7
  6
Continuous
370
    -3
390
F
  0
LAYER
  5
239
102
{ACAD_XDICTIONARY
360
1E8F
102
}
330
2
100
AcDbSymbolTableRecord
100
AcDbLayerTableRecord
  2
SCHRAFF
 70
     0
 62
     7
  6
Continuous
370
    -3
390
F
  0
LAYER
  5
23A
330
2
100
AcDbSymbolTableRecord
100
AcDbLayerTableRecord
  2
DEFPOINTS
 70
     0
 62
     7
  6
Continuous
290
     0
370
    -3
390
F
  0
ENDTAB
  0
TABLE
  2
STYLE
  5
3
330
0
100
AcDbSymbolTable
 70
     3
  0
STYLE
  5
11
330
3
100
AcDbSymbolTableRecord
100
AcDbTextStyleTableRecord
  2
STANDARD
 70
     0
 40
0.0
 41
0.8
 50
0.0
 71
     0
 42
3.5
  3
simplex.shx
  4

  0
STYLE
  5
24
330
3
100
AcDbSymbolTableRecord
100
AcDbTextStyleTableRecord
  2
GREEKS
 70
     0
 40
0.0
 41
0.8
 50
0.0
 71
     0
 42
2.5
  3
SIMPLEX.shx
  4

  0
ENDTAB
  0
TABLE
  2
VIEW
  5
6
330
0
100
AcDbSymbolTable
 70
     0
  0
ENDTAB
  0
TABLE
  2
UCS
  5
7
330
0
100
AcDbSymbolTable
 70
     0
  0
ENDTAB
  0
TABLE
  2
APPID
  5
9
330
0
100
AcDbSymbolTable
 70
     4
  0
APPID
  5
12
330
9
100
AcDbSymbolTableRecord
100
AcDbRegAppTableRecord
  2
ACAD
 70
     0
  0
APPID
  5
1E7F
330
9
100
AcDbSymbolTableRecord
100
AcDbRegAppTableRecord
  2
ACAD_EXEMPT_FROM_CAD_STANDARDS
 70
     0
  0
APPID
  5
1E9A
330
9
100
AcDbSymbolTableRecord
100
AcDbRegAppTableRecord
  2
ACAD_NAV_VCDISPLAY
 70
     0
  0
APPID
  5
1FAF
330
9
100
AcDbSymbolTableRecord
100
AcDbRegAppTableRecord
  2
ACAD_MLEADERVER
 70
     0
  0
ENDTAB
  0
TABLE
  2
DIMSTYLE
  5
A
330
0
100
AcDbSymbolTable
 70
     2
100
AcDbDimStyleTable
 71
     1
340
A2
  0
DIMSTYLE
105
A2
102
{ACAD_REACTORS
330
1D10
330
1CB7
330
1C7E
330
1C72
330
1C6F
330
1CB9
102
}
330
A
100
AcDbSymbolTableRecord
100
AcDbDimStyleTableRecord
  2
Standard
 70
     0
340
11
  0
ENDTAB
  0
TABLE
  2
BLOCK_RECORD
  5
1
330
0
100
AcDbSymbolTable
 70
    15
  0
BLOCK_RECORD
  5
1E
102
{ACAD_XDICTIONARY
360
DB
102
}
330
1
100
AcDbSymbolTableRecord
100
AcDbBlockTableRecord
  2
*Model_Space
340
21
  0
BLOCK_RECORD
  5
1A
102
{ACAD_XDICTIONARY
360
DD
102
}
330
1
100
AcDbSymbolTableRecord
100
AcDbBlockTableRecord
  2
*Paper_Space
340
1D
  0
BLOCK_RECORD
  5
22
330
1
100
AcDbSymbolTableRecord
100
AcDbBlockTableRecord
  2
LOGO
340
0
102
{BLKREFS
331
56
102
}
  0
BLOCK_RECORD
  5
23
330
1
100
AcDbSymbolTableRecord
100
AcDbBlockTableRecord
  2
LORO
340
0
102
{BLKREFS
331
9B
102
}
  0
BLOCK_RECORD
  5
187E
330
1
100
AcDbSymbolTableRecord
100
AcDbBlockTableRecord
  2
*X2
340
0
102
{BLKREFS
331
1C1C
102
}
  0
BLOCK_RECORD
  5
18D2
330
1
100
AcDbSymbolTableRecord
100
AcDbBlockTableRecord
  2
*X3
340
0
102
{BLKREFS
331
1C5E
102
}
  0
BLOCK_RECORD
  5
1904
330
1
100
AcDbSymbolTableRecord
100
AcDbBlockTableRecord
  2
*X4
340
0
102
{BLKREFS
331
1C19
102
}
  0
BLOCK_RECORD
  5
190C
330
1
100
AcDbSymbolTableRecord
100
AcDbBlockTableRecord
  2
*X5
340
0
102
{BLKREFS
331
1BBB
102
}
  0
BLOCK_RECORD
  5
191F
330
1
100
AcDbSymbolTableRecord
100
AcDbBlockTableRecord
  2
*X6
340
0
102
{BLKREFS
331
1C5D
102
}
  0
BLOCK_RECORD
  5
1949
330
1
100
AcDbSymbolTableRecord
100
AcDbBlockTableRecord
  2
8DI931D
340
0
102
{BLKREFS
331
1C81
331
1CAB
102
}
  0
BLOCK_RECORD
  5
1D14
330
1
100
AcDbSymbolTableRecord
100
AcDbBlockTableRecord
  2
*D8
340
0
  0
BLOCK_RECORD
  5
1D21
330
1
100
AcDbSymbolTableRecord
100
AcDbBlockTableRecord
  2
*D9
340
0
  0
BLOCK_RECORD
  5
1D2E
330
1
100
AcDbSymbolTableRecord
100
AcDbBlockTableRecord
  2
*D10
340
0
  0
BLOCK_RECORD
  5
1D3B
330
1
100
AcDbSymbolTableRecord
100
AcDbBlockTableRecord
  2
*D11
340
0
  0
BLOCK_RECORD
  5
1D48
330
1
100
AcDbSymbolTableRecord
100
AcDbBlockTableRecord
  2
*D12
340
0
  0
BLOCK_RECORD
  5
1D55
330
1
100
AcDbSymbolTableRecord
100
AcDbBlockTableRecord
  2
*D13
340
0
  0
ENDTAB
  0
ENDSEC
  0
SECTION
  2
BLOCKS
  0
BLOCK
  5
37
330
1E
100
AcDbEntity
  8
0
100
AcDbBlockBegin
  2
*Model_Space
 70
     0
 10
0.0
 20
0.0
 30
0.0
  3
*Model_Space
  1

  0
ENDBLK
  5
38
330
1E
100
AcDbEntity
  8
0
100
AcDbBlockEnd
  0
BLOCK
  5
35
330
1A
100
AcDbEntity
 67
     1
  8
0
100
AcDbBlockBegin
  2
*Paper_Space
 70
     0
 10
0.0
 20
0.0
 30
0.0
  3
*Paper_Space
  1

  0
ENDBLK
  5
36
330
1A
100
AcDbEntity
 67
     1
  8
0
100
AcDbBlockEnd
  0
BLOCK
  5
39
330
22
100
AcDbEntity
  8
0
100
AcDbBlockBegin
  2
LOGO
 70
     0
 10
0.0
 20
0.0
 30
0.0
  3
LOGO
  1

  0
ARC
  5
3A
330
22
100
AcDbEntity
  8
0
100
AcDbCircle
 10
11.59973089678112
 20
-9.271599258481501
 30
0.0
 40
4.5
100
AcDbArc
 50
270.0
 51
231.0575587310159
  0
LINE
  5
3B
330
22
100
AcDbEntity
  8
0
100
AcDbLine
 10
3.599730896781125
 20
-4.771599258481529
 30
0.0
 11
3.599730896781153
 21
-11.77159925848133
 31
0.0
  0
LINE
  5
3C
330
22
100
AcDbEntity
  8
0
100
AcDbLine
 10
2.599730896781125
 20
-4.771599258481529
 30
0.0
 11
2.599730896781153
 21
-11.77159925848133
 31
0.0
  0
CIRCLE
  5
3D
330
22
100
AcDbEntity
  8
0
100
AcDbCircle
 10
11.59973089678112
 20
-9.271599258481501
 30
0.0
 40
3.5
  0
ARC
  5
3E
330
22
100
AcDbEntity
  8
0
100
AcDbCircle
 10
31.59973089678115
 20
-9.271599258481472
 30
0.0
 40
4.5
100
AcDbArc
 50
270.0
 51
231.0575587310182
  0
LINE
  5
3F
330
22
100
AcDbEntity
  8
0
100
AcDbLine
 10
17.59973089678112
 20
-4.771599258481472
 30
0.0
 11
17.59973089678115
 21
-13.77159925848147
 31
0.0
  0
ARC
  5
40
330
22
100
AcDbEntity
  8
0
100
AcDbCircle
 10
22.59973089678116
 20
-7.271599258481472
 30
0.0
 40
2.5
100
AcDbArc
 50
293.1161887722295
 51
90.0
  0
CIRCLE
  5
41
330
22
100
AcDbEntity
  8
0
100
AcDbCircle
 10
31.59973089678115
 20
-9.271599258481472
 30
0.0
 40
3.5
  0
ARC
  5
42
330
22
100
AcDbEntity
  8
0
100
AcDbCircle
 10
4.599730896781153
 20
-11.77159925848133
 30
0.0
 40
1.0
100
AcDbArc
 50
180.0
 51
270.0
  0
ARC
  5
43
330
22
100
AcDbEntity
  8
0
100
AcDbCircle
 10
4.599730896781153
 20
-11.77159925848133
 30
0.0
 40
2.0
100
AcDbArc
 50
179.9999999999992
 51
270.0
  0
LINE
  5
44
330
22
100
AcDbEntity
  8
0
100
AcDbLine
 10
11.59973089678115
 20
-13.77159925848144
 30
0.0
 11
4.599730896781153
 21
-13.77159925848147
 31
0.0
  0
LINE
  5
45
330
22
100
AcDbEntity
  8
0
100
AcDbLine
 10
8.771303772034769
 20
-12.77159925848136
 30
0.0
 11
4.599730896781153
 21
-12.77159925848133
 31
0.0
  0
LINE
  5
46
330
22
100
AcDbEntity
  8
0
100
AcDbLine
 10
31.59973089678115
 20
-13.77159925848147
 30
0.0
 11
23.6715276665056
 21
-13.77159925848144
 31
0.0
  0
LINE
  5
47
330
22
100
AcDbEntity
  8
0
100
AcDbLine
 10
23.56565672307022
 20
-9.51278021337896
 30
0.0
 11
24.4388546544846
 21
-12.77159925848144
 31
0.0
  0
LINE
  5
48
330
22
100
AcDbEntity
  8
0
100
AcDbLine
 10
22.59973089678116
 20
-9.771599258481472
 30
0.0
 11
18.59973089678112
 21
-9.771599258481472
 31
0.0
  0
LINE
  5
49
330
22
100
AcDbEntity
  8
0
100
AcDbLine
 10
18.59973089678115
 20
-13.77159925848144
 30
0.0
 11
17.59973089678115
 21
-13.77159925848144
 31
0.0
  0
LINE
  5
4A
330
22
100
AcDbEntity
  8
0
100
AcDbLine
 10
18.59973089678115
 20
-9.771599258481472
 30
0.0
 11
18.59973089678115
 21
-13.77159925848144
 31
0.0
  0
LINE
  5
4B
330
22
100
AcDbEntity
  8
0
100
AcDbLine
 10
22.59973089678116
 20
-9.771599258481472
 30
0.0
 11
23.67152766650562
 21
-13.77159925848147
 31
0.0
  0
ARC
  5
4C
330
22
100
AcDbEntity
  8
0
100
AcDbCircle
 10
22.59973089678116
 20
-7.271599258481472
 30
0.0
 40
2.5
100
AcDbArc
 50
270.0
 51
270.0000000000007
  0
LINE
  5
4D
330
22
100
AcDbEntity
  8
0
100
AcDbLine
 10
28.77130377203494
 20
-12.77159925848147
 30
0.0
 11
24.43885465448463
 21
-12.77159925848144
 31
0.0
  0
LINE
  5
4E
330
22
100
AcDbEntity
  8
0
100
AcDbLine
 10
3.599730896781125
 20
-4.771599258481472
 30
0.0
 11
2.599730896781125
 21
-4.771599258481472
 31
0.0
  0
LINE
  5
4F
330
22
100
AcDbEntity
  8
0
100
AcDbLine
 10
22.59973089678116
 20
-8.771599258481472
 30
0.0
 11
18.59973089678115
 21
-8.771599258481472
 31
0.0
  0
LINE
  5
50
330
22
100
AcDbEntity
  8
0
100
AcDbLine
 10
22.59973089678116
 20
-5.771599258481472
 30
0.0
 11
18.59973089678115
 21
-5.771599258481472
 31
0.0
  0
LINE
  5
51
330
22
100
AcDbEntity
  8
0
100
AcDbLine
 10
22.59973089678116
 20
-4.771599258481472
 30
0.0
 11
17.59973089678115
 21
-4.771599258481472
 31
0.0
  0
LINE
  5
52
330
22
100
AcDbEntity
  8
0
100
AcDbLine
 10
18.59973089678115
 20
-5.771599258481472
 30
0.0
 11
18.59973089678115
 21
-8.771599258481472
 31
0.0
  0
ARC
  5
53
330
22
100
AcDbEntity
  8
0
100
AcDbCircle
 10
22.59973089678116
 20
-7.271599258481472
 30
0.0
 40
1.5
100
AcDbArc
 50
270.0
 51
90.0
  0
ENDBLK
  5
54
330
22
100
AcDbEntity
  8
0
100
AcDbBlockEnd
  0
BLOCK
  5
55
330
23
100
AcDbEntity
  8
0
100
AcDbBlockBegin
  2
LORO
 70
     0
 10
0.0
 20
0.0
 30
0.0
  3
LORO
  1

  0
INSERT
  5
56
330
23
100
AcDbEntity
  8
STEMPEL
100
AcDbBlockReference
  2
LOGO
 10
-1.748032802467321
 20
3.771489518552062
 30
0.0
  0
ENDBLK
  5
57
330
23
100
AcDbEntity
  8
0
100
AcDbBlockEnd
  0
BLOCK
  5
187F
330
187E
100
AcDbEntity
  8
0
100
AcDbBlockBegin
  2
*X2
 70
     1
 10
0.0
 20
0.0
 30
0.0
  3
*X2
  1

  0
LINE
  5
1880
330
187E
100
AcDbEntity
  8
0
 62
     0
100
AcDbLine
 10
326.8068927245358
 20
417.3165607164138
 30
0.0
 11
331.2231444320108
 21
421.7328124238888
 31
0.0
  0
LINE
  5
1881
330
187E
100
AcDbEntity
  8
0
 62
     0
100
AcDbLine
 10
323.4859975618283
 20
416.8240926784525
 30
0.0
 11
325.1814181270789
 21
418.5195132437032
 31
0.0
  0
LINE
  5
1882
330
187E
100
AcDbEntity
  8
0
 62
     0
100
AcDbLine
 10
330.0201919047215
 20
423.3582870213457
 30
0.0
 11
331.7156124699721
 21
425.0537075865963
 31
0.0
  0
LINE
  5
1883
330
187E
100
AcDbEntity
  8
0
 62
     0
100
AcDbLine
 10
320.6575704370821
 20
416.8240926784525
 30
0.0
 11
322.2575704370821
 21
418.4240926784524
 31
0.0
  0
LINE
  5
1884
330
187E
100
AcDbEntity
  8
0
 62
     0
100
AcDbLine
 10
317.8291433123359
 20
416.8240926784525
 30
0.0
 11
319.4291433123358
 21
418.4240926784524
 31
0.0
  0
LINE
  5
1885
330
187E
100
AcDbEntity
  8
0
 62
     0
100
AcDbLine
 10
315.0007161875897
 20
416.8240926784525
 30
0.0
 11
316.6007161875897
 21
418.4240926784524
 31
0.0
  0
LINE
  5
1886
330
187E
100
AcDbEntity
  8
0
 62
     0
100
AcDbLine
 10
312.1722890628435
 20
416.8240926784525
 30
0.0
 11
313.7722890628435
 21
418.4240926784524
 31
0.0
  0
LINE
  5
1887
330
187E
100
AcDbEntity
  8
0
 62
     0
100
AcDbLine
 10
309.3438619380973
 20
416.8240926784525
 30
0.0
 11
310.9438619380973
 21
418.4240926784524
 31
0.0
  0
LINE
  5
1888
330
187E
100
AcDbEntity
  8
0
 62
     0
100
AcDbLine
 10
307.4111528996841
 20
417.7198107647854
 30
0.0
 11
308.1154348133511
 21
418.4240926784524
 31
0.0
  0
LINE
  5
1889
330
187E
100
AcDbEntity
  8
0
 62
     0
100
AcDbLine
 10
411.8250847583787
 20
423.1387932573634
 30
0.0
 11
413.3156124699722
 21
424.6293209689569
 31
0.0
  0
LINE
  5
188A
330
187E
100
AcDbEntity
  8
0
 62
     0
100
AcDbLine
 10
412.5253197408659
 20
421.0106011151045
 30
0.0
 11
413.7350012720654
 21
422.2202826463039
 31
0.0
  0
LINE
  5
188B
330
187E
100
AcDbEntity
  8
0
 62
     0
100
AcDbLine
 10
413.674413107596
 20
419.3312673570884
 30
0.0
 11
414.8076539065287
 21
420.4645081560211
 31
0.0
  0
LINE
  5
188C
330
187E
100
AcDbEntity
  8
0
 62
     0
100
AcDbLine
 10
415.2039402882033
 20
418.0323674129495
 30
0.0
 11
416.3690341271165
 21
419.1974612518627
 31
0.0
  0
LINE
  5
188D
330
187E
100
AcDbEntity
  8
0
 62
     0
100
AcDbLine
 10
417.1416544512598
 20
417.1416544512598
 30
0.0
 11
418.4822490717504
 21
418.4822490717504
 31
0.0
  0
LINE
  5
188E
330
187E
100
AcDbEntity
  8
0
 62
     0
100
AcDbLine
 10
419.6525198031987
 20
416.8240926784525
 30
0.0
 11
421.2525198031986
 21
418.4240926784524
 31
0.0
  0
LINE
  5
188F
330
187E
100
AcDbEntity
  8
0
 62
     0
100
AcDbLine
 10
422.4809469279448
 20
416.8240926784525
 30
0.0
 11
424.0809469279448
 21
418.4240926784524
 31
0.0
  0
LINE
  5
1890
330
187E
100
AcDbEntity
  8
0
 62
     0
100
AcDbLine
 10
425.3093740526911
 20
416.8240926784525
 30
0.0
 11
426.909374052691
 21
418.4240926784524
 31
0.0
  0
LINE
  5
1891
330
187E
100
AcDbEntity
  8
0
 62
     0
100
AcDbLine
 10
428.1378011774373
 20
416.8240926784525
 30
0.0
 11
429.7378011774372
 21
418.4240926784524
 31
0.0
  0
LINE
  5
1892
330
187E
100
AcDbEntity
  8
0
 62
     0
100
AcDbLine
 10
430.9662283021834
 20
416.8240926784525
 30
0.0
 11
432.5662283021834
 21
418.4240926784524
 31
0.0
  0
LINE
  5
1893
330
187E
100
AcDbEntity
  8
0
 62
     0
100
AcDbLine
 10
433.7946554269296
 20
416.8240926784525
 30
0.0
 11
435.3946554269295
 21
418.4240926784524
 31
0.0
  0
LINE
  5
1894
330
187E
100
AcDbEntity
  8
0
 62
     0
100
AcDbLine
 10
436.6230825516758
 20
416.8240926784525
 30
0.0
 11
438.2230825516757
 21
418.4240926784524
 31
0.0
  0
LINE
  5
1895
330
187E
100
AcDbEntity
  8
0
 62
     0
100
AcDbLine
 10
439.451509676422
 20
416.8240926784525
 30
0.0
 11
441.051509676422
 21
418.4240926784524
 31
0.0
  0
LINE
  5
1896
330
187E
100
AcDbEntity
  8
0
 62
     0
100
AcDbLine
 10
442.2799368011682
 20
416.8240926784525
 30
0.0
 11
443.8799368011681
 21
418.4240926784524
 31
0.0
  0
LINE
  5
1897
330
187E
100
AcDbEntity
  8
0
 62
     0
100
AcDbLine
 10
445.1083639259144
 20
416.8240926784525
 30
0.0
 11
446.7083639259143
 21
418.4240926784524
 31
0.0
  0
LINE
  5
1898
330
187E
100
AcDbEntity
  8
0
 62
     0
100
AcDbLine
 10
447.9367910506606
 20
416.8240926784525
 30
0.0
 11
449.5367910506606
 21
418.4240926784524
 31
0.0
  0
ENDBLK
  5
1899
330
187E
100
AcDbEntity
  8
0
100
AcDbBlockEnd
  0
BLOCK
  5
18D3
330
18D2
100
AcDbEntity
  8
0
100
AcDbBlockBegin
  2
*X3
 70
     1
 10
0.0
 20
0.0
 30
0.0
  3
*X3
  1

  0
LINE
  5
18D4
330
18D2
100
AcDbEntity
  8
0
 62
     0
100
AcDbLine
 10
332.4100201311313
 20
512.7222493337009
 30
0.0
 11
333.1593029571798
 21
513.4715321597493
 31
0.0
  0
LINE
  5
18D5
330
18D2
100
AcDbEntity
  8
0
 62
     0
100
AcDbLine
 10
330.642253178165
 20
512.7222493337009
 30
0.0
 11
333.1593029571798
 21
515.2392991127157
 31
0.0
  0
LINE
  5
18D6
330
18D2
100
AcDbEntity
  8
0
 62
     0
100
AcDbLine
 10
328.8744862251986
 20
512.7222493337009
 30
0.0
 11
332.7629502492472
 21
516.6107133577495
 31
0.0
  0
LINE
  5
18D7
330
18D2
100
AcDbEntity
  8
0
 62
     0
100
AcDbLine
 10
327.1067192722322
 20
512.7222493337009
 30
0.0
 11
332.004621907878
 21
517.6201519693466
 31
0.0
  0
LINE
  5
18D8
330
18D2
100
AcDbEntity
  8
0
 62
     0
100
AcDbLine
 10
325.3389523192658
 20
512.7222493337009
 30
0.0
 11
330.3389523192659
 21
517.7222493337009
 31
0.0
  0
LINE
  5
18D9
330
18D2
100
AcDbEntity
  8
0
 62
     0
100
AcDbLine
 10
323.5711853662995
 20
512.7222493337009
 30
0.0
 11
328.5711853662995
 21
517.7222493337009
 31
0.0
  0
LINE
  5
18DA
330
18D2
100
AcDbEntity
  8
0
 62
     0
100
AcDbLine
 10
322.1593029571798
 20
513.0781338775475
 30
0.0
 11
326.8034184133331
 21
517.7222493337009
 31
0.0
  0
LINE
  5
18DB
330
18D2
100
AcDbEntity
  8
0
 62
     0
100
AcDbLine
 10
322.1593029571798
 20
514.8459008305139
 30
0.0
 11
325.0356514603667
 21
517.7222493337009
 31
0.0
  0
LINE
  5
18DC
330
18D2
100
AcDbEntity
  8
0
 62
     0
100
AcDbLine
 10
322.1593029571798
 20
516.6136677834803
 30
0.0
 11
323.2678845074004
 21
517.7222493337009
 31
0.0
  0
LINE
  5
18DD
330
18D2
100
AcDbEntity
  8
0
 62
     0
100
AcDbLine
 10
403.6531485949766
 20
516.7902335848242
 30
0.0
 11
404.5676055203802
 21
517.7046905102278
 31
0.0
  0
LINE
  5
18DE
330
18D2
100
AcDbEntity
  8
0
 62
     0
100
AcDbLine
 10
403.1593029571797
 20
514.5286209940609
 30
0.0
 11
406.3529312968197
 21
517.7222493337009
 31
0.0
  0
LINE
  5
18DF
330
18D2
100
AcDbEntity
  8
0
 62
     0
100
AcDbLine
 10
403.1593029571797
 20
512.7608540410945
 30
0.0
 11
408.120698249786
 21
517.7222493337009
 31
0.0
  0
LINE
  5
18E0
330
18D2
100
AcDbEntity
  8
0
 62
     0
100
AcDbLine
 10
404.8884652027523
 20
512.7222493337009
 30
0.0
 11
409.8884652027524
 21
517.7222493337009
 31
0.0
  0
LINE
  5
18E1
330
18D2
100
AcDbEntity
  8
0
 62
     0
100
AcDbLine
 10
406.6562321557188
 20
512.7222493337009
 30
0.0
 11
411.6562321557188
 21
517.7222493337009
 31
0.0
  0
LINE
  5
18E2
330
18D2
100
AcDbEntity
  8
0
 62
     0
100
AcDbLine
 10
408.4239991086851
 20
512.7222493337009
 30
0.0
 11
413.4239991086852
 21
517.7222493337009
 31
0.0
  0
LINE
  5
18E3
330
18D2
100
AcDbEntity
  8
0
 62
     0
100
AcDbLine
 10
410.1917660616515
 20
512.7222493337009
 30
0.0
 11
414.1593029571796
 21
516.689786229229
 31
0.0
  0
LINE
  5
18E4
330
18D2
100
AcDbEntity
  8
0
 62
     0
100
AcDbLine
 10
411.9595330146179
 20
512.7222493337009
 30
0.0
 11
414.1593029571797
 21
514.9220192762627
 31
0.0
  0
LINE
  5
18E5
330
18D2
100
AcDbEntity
  8
0
 62
     0
100
AcDbLine
 10
413.7272999675842
 20
512.7222493337009
 30
0.0
 11
414.1593029571797
 21
513.1542523232964
 31
0.0
  0
LINE
  5
18E6
330
18D2
100
AcDbEntity
  8
0
 62
     0
100
AcDbLine
 10
333.1593029571798
 20
515.3688344666772
 30
0.0
 11
330.8058880901561
 21
517.7222493337009
 31
0.0
  0
LINE
  5
18E7
330
18D2
100
AcDbEntity
  8
0
 62
     0
100
AcDbLine
 10
333.1593029571798
 20
513.6010675137108
 30
0.0
 11
329.0381211371897
 21
517.7222493337009
 31
0.0
  0
LINE
  5
18E8
330
18D2
100
AcDbEntity
  8
0
 62
     0
100
AcDbLine
 10
332.2703541842233
 20
512.7222493337009
 30
0.0
 11
327.2703541842234
 21
517.7222493337009
 31
0.0
  0
LINE
  5
18E9
330
18D2
100
AcDbEntity
  8
0
 62
     0
100
AcDbLine
 10
330.5025872312569
 20
512.7222493337009
 30
0.0
 11
325.502587231257
 21
517.7222493337009
 31
0.0
  0
LINE
  5
18EA
330
18D2
100
AcDbEntity
  8
0
 62
     0
100
AcDbLine
 10
328.7348202782906
 20
512.7222493337009
 30
0.0
 11
323.7348202782906
 21
517.7222493337009
 31
0.0
  0
LINE
  5
18EB
330
18D2
100
AcDbEntity
  8
0
 62
     0
100
AcDbLine
 10
326.9670533253242
 20
512.7222493337009
 30
0.0
 11
322.1593029571798
 21
517.5299997018453
 31
0.0
  0
LINE
  5
18EC
330
18D2
100
AcDbEntity
  8
0
 62
     0
100
AcDbLine
 10
325.1992863723578
 20
512.7222493337009
 30
0.0
 11
322.1593029571798
 21
515.7622327488789
 31
0.0
  0
LINE
  5
18ED
330
18D2
100
AcDbEntity
  8
0
 62
     0
100
AcDbLine
 10
323.4315194193915
 20
512.7222493337009
 30
0.0
 11
322.1593029571798
 21
513.9944657959126
 31
0.0
  0
LINE
  5
18EE
330
18D2
100
AcDbEntity
  8
0
 62
     0
100
AcDbLine
 10
404.7487992558443
 20
512.7222493337009
 30
0.0
 11
403.1593029571797
 21
514.3117456323655
 31
0.0
  0
LINE
  5
18EF
330
18D2
100
AcDbEntity
  8
0
 62
     0
100
AcDbLine
 10
406.5165662088108
 20
512.7222493337009
 30
0.0
 11
403.229209414673
 21
516.0096061278387
 31
0.0
  0
LINE
  5
18F0
330
18D2
100
AcDbEntity
  8
0
 62
     0
100
AcDbLine
 10
408.2843331617771
 20
512.7222493337009
 30
0.0
 11
403.851363183347
 21
517.1552193121311
 31
0.0
  0
LINE
  5
18F1
330
18D2
100
AcDbEntity
  8
0
 62
     0
100
AcDbLine
 10
410.0521001147434
 20
512.7222493337009
 30
0.0
 11
405.0521001147434
 21
517.7222493337009
 31
0.0
  0
LINE
  5
18F2
330
18D2
100
AcDbEntity
  8
0
 62
     0
100
AcDbLine
 10
411.8198670677099
 20
512.7222493337009
 30
0.0
 11
406.8198670677098
 21
517.7222493337009
 31
0.0
  0
LINE
  5
18F3
330
18D2
100
AcDbEntity
  8
0
 62
     0
100
AcDbLine
 10
413.5876340206762
 20
512.7222493337009
 30
0.0
 11
408.5876340206763
 21
517.7222493337009
 31
0.0
  0
LINE
  5
18F4
330
18D2
100
AcDbEntity
  8
0
 62
     0
100
AcDbLine
 10
414.1593029571797
 20
513.9183473501637
 30
0.0
 11
410.3554009736425
 21
517.7222493337009
 31
0.0
  0
LINE
  5
18F5
330
18D2
100
AcDbEntity
  8
0
 62
     0
100
AcDbLine
 10
414.1593029571796
 20
515.6861143031302
 30
0.0
 11
412.1231679266089
 21
517.7222493337009
 31
0.0
  0
LINE
  5
18F6
330
18D2
100
AcDbEntity
  8
0
 62
     0
100
AcDbLine
 10
414.1593029571796
 20
517.4538812560966
 30
0.0
 11
413.8909348795754
 21
517.7222493337009
 31
0.0
  0
ENDBLK
  5
18F7
330
18D2
100
AcDbEntity
  8
0
100
AcDbBlockEnd
  0
BLOCK
  5
1905
330
1904
100
AcDbEntity
  8
0
100
AcDbBlockBegin
  2
*X4
 70
     1
 10
0.0
 20
0.0
 30
0.0
  3
*X4
  1

  0
LINE
  5
1906
330
1904
100
AcDbEntity
  8
0
 62
     0
100
AcDbLine
 10
100.2106354484455
 20
227.8869110221125
 30
0.0
 11
95.35021802274465
 21
232.7473284478134
 31
0.0
  0
LINE
  5
1907
330
1904
100
AcDbEntity
  8
0
 62
     0
100
AcDbLine
 10
94.28530097754338
 20
230.9838183682685
 30
0.0
 11
82.89816773967791
 21
242.370951606134
 31
0.0
  0
LINE
  5
1908
330
1904
100
AcDbEntity
  8
0
 62
     0
100
AcDbLine
 10
104.8520991985117
 20
226.0738743967925
 30
0.0
 11
101.3026432919086
 21
229.6233303033957
 31
0.0
  0
LINE
  5
1909
330
1904
100
AcDbEntity
  8
0
 62
     0
100
AcDbLine
 10
108.8626583646953
 20
224.891742355355
 30
0.0
 11
105.9103293765347
 21
227.8440713435157
 31
0.0
  0
LINE
  5
190A
330
1904
100
AcDbEntity
  8
0
 62
     0
100
AcDbLine
 10
112.2107610849848
 20
224.3720667598118
 30
0.0
 11
109.8761004792256
 21
226.706727365571
 31
0.0
  0
ENDBLK
  5
190B
330
1904
100
AcDbEntity
  8
0
100
AcDbBlockEnd
  0
BLOCK
  5
190D
330
190C
100
AcDbEntity
  8
0
100
AcDbBlockBegin
  2
*X5
 70
     1
 10
0.0
 20
0.0
 30
0.0
  3
*X5
  1

  0
LINE
  5
190E
330
190C
100
AcDbEntity
  8
0
 62
     0
100
AcDbLine
 10
81.86199479457414
 20
240.7201187827288
 30
0.0
 11
80.06013669261156
 21
242.5219768846914
 31
0.0
  0
LINE
  5
190F
330
190C
100
AcDbEntity
  8
0
 62
     0
100
AcDbLine
 10
81.74188904747635
 20
240.6988031735893
 30
0.0
 11
79.83378537899572
 21
242.6069068420699
 31
0.0
  0
LINE
  5
1910
330
190C
100
AcDbEntity
  8
0
 62
     0
100
AcDbLine
 10
81.61582815734853
 20
240.6834427074798
 30
0.0
 11
79.560275377518
 21
242.7389954873104
 31
0.0
  0
LINE
  5
1911
330
190C
100
AcDbEntity
  8
0
 62
     0
100
AcDbLine
 10
81.48297737849842
 20
240.6748721300926
 30
0.0
 11
79.14333428276464
 21
243.0145152258264
 31
0.0
  0
LINE
  5
1912
330
190C
100
AcDbEntity
  8
0
 62
     0
100
AcDbLine
 10
81.34220118644297
 20
240.6742269659108
 30
0.0
 11
79.11392972528708
 21
242.9024984270667
 31
0.0
  0
LINE
  5
1913
330
190C
100
AcDbEntity
  8
0
 62
     0
100
AcDbLine
 10
81.19189055034707
 20
240.6831162457693
 30
0.0
 11
79.12281900514563
 21
242.7521877909708
 31
0.0
  0
LINE
  5
1914
330
190C
100
AcDbEntity
  8
0
 62
     0
100
AcDbLine
 10
81.02963408018462
 20
240.7039513596945
 30
0.0
 11
79.14365411907079
 21
242.5899313208083
 31
0.0
  0
LINE
  5
1915
330
190C
100
AcDbEntity
  8
0
 62
     0
100
AcDbLine
 10
80.85151462167507
 20
240.7406494619667
 30
0.0
 11
79.18035222134303
 21
242.4118118622988
 31
0.0
  0
LINE
  5
1916
330
190C
100
AcDbEntity
  8
0
 62
     0
100
AcDbLine
 10
80.65031974431372
 20
240.8004229830908
 30
0.0
 11
79.24012574246707
 21
242.2106169849374
 31
0.0
  0
LINE
  5
1917
330
190C
100
AcDbEntity
  8
0
 62
     0
100
AcDbLine
 10
80.40942104757737
 20
240.8999003235898
 30
0.0
 11
79.33960308296612
 21
241.9697182882011
 31
0.0
  0
LINE
  5
1918
330
190C
100
AcDbEntity
  8
0
 62
     0
100
AcDbLine
 10
80.05893558319771
 20
241.1089644317321
 30
0.0
 11
79.54866719110845
 21
241.6192328238214
 31
0.0
  0
LINE
  5
1919
330
190C
100
AcDbEntity
  8
0
 62
     0
100
AcDbLine
 10
81.97677806065202
 20
240.7467568728883
 30
0.0
 11
80.25984503300177
 21
242.4636899005385
 31
0.0
  0
LINE
  5
191A
330
190C
100
AcDbEntity
  8
0
 62
     0
100
AcDbLine
 10
82.08672953653648
 20
240.7782267532411
 30
0.0
 11
80.44157306405583
 21
242.4233832257218
 31
0.0
  0
LINE
  5
191B
330
190C
100
AcDbEntity
  8
0
 62
     0
100
AcDbLine
 10
82.19223643045735
 20
240.8141412155575
 30
0.0
 11
80.60996319568783
 21
242.3964144503271
 31
0.0
  0
LINE
  5
191C
330
190C
100
AcDbEntity
  8
0
 62
     0
100
AcDbLine
 10
82.29360811302976
 20
240.8541908892225
 30
0.0
 11
80.76785177629279
 21
242.3799472259594
 31
0.0
  0
LINE
  5
191D
330
190C
100
AcDbEntity
  8
0
 62
     0
100
AcDbLine
 10
81.46283066845942
 20
241.8263896900301
 30
0.0
 11
80.91712378948631
 21
242.3720965690032
 31
0.0
  0
ENDBLK
  5
191E
330
190C
100
AcDbEntity
  8
0
100
AcDbBlockEnd
  0
BLOCK
  5
1920
330
191F
100
AcDbEntity
  8
0
100
AcDbBlockBegin
  2
*X6
 70
     1
 10
0.0
 20
0.0
 30
0.0
  3
*X6
  1

  0
LINE
  5
1921
330
191F
100
AcDbEntity
  8
0
 62
     0
100
AcDbLine
 10
1032.150339503828
 20
443.8374975566209
 30
0.0
 11
1033.010175668554
 21
444.6973337213462
 31
0.0
  0
LINE
  5
1922
330
191F
100
AcDbEntity
  8
0
 62
     0
100
AcDbLine
 10
1029.319610809711
 20
443.8351959872495
 30
0.0
 11
1031.347842627981
 21
445.8634278055197
 31
0.0
  0
LINE
  5
1923
330
191F
100
AcDbEntity
  8
0
 62
     0
100
AcDbLine
 10
1026.185545986631
 20
443.5295582889158
 30
0.0
 11
1028.443276208898
 21
445.7872885111835
 31
0.0
  0
LINE
  5
1924
330
191F
100
AcDbEntity
  8
0
 62
     0
100
AcDbLine
 10
1022.605370956828
 20
442.777810383859
 30
0.0
 11
1025.229908571172
 21
445.4023479982029
 31
0.0
  0
LINE
  5
1925
330
191F
100
AcDbEntity
  8
0
 62
     0
100
AcDbLine
 10
1018.221191423824
 20
441.2220579756012
 30
0.0
 11
1021.560677514375
 21
444.5615440661519
 31
0.0
  0
LINE
  5
1926
330
191F
100
AcDbEntity
  8
0
 62
     0
100
AcDbLine
 10
1011.282251579199
 20
437.1115452557227
 30
0.0
 11
1017.066904149361
 21
442.8961978258844
 31
0.0
  0
LINE
  5
1927
330
191F
100
AcDbEntity
  8
0
 62
     0
100
AcDbLine
 10
1006.096331494289
 20
434.7540522955582
 30
0.0
 11
1010.034529145515
 21
438.6922499467848
 31
0.0
  0
LINE
  5
1928
330
191F
100
AcDbEntity
  8
0
 62
     0
100
AcDbLine
 10
1002.488128338399
 20
433.974276264415
 30
0.0
 11
1005.043570524516
 21
436.5297184505317
 31
0.0
  0
LINE
  5
1929
330
191F
100
AcDbEntity
  8
0
 62
     0
100
AcDbLine
 10
999.6142532085498
 20
433.9288282593119
 30
0.0
 11
1001.568478027082
 21
435.8830530778444
 31
0.0
  0
LINE
  5
192A
330
191F
100
AcDbEntity
  8
0
 62
     0
100
AcDbLine
 10
998.002397137286
 20
435.1453993127941
 30
0.0
 11
999.4696073419184
 21
436.6126095174265
 31
0.0
  0
LINE
  5
192B
330
191F
100
AcDbEntity
  8
0
 62
     0
100
AcDbLine
 10
996.9992490277764
 20
436.9706783280308
 30
0.0
 11
998.47416131204
 21
438.4455906122944
 31
0.0
  0
LINE
  5
192C
330
191F
100
AcDbEntity
  8
0
 62
     0
100
AcDbLine
 10
995.8783834979913
 20
438.6782399229919
 30
0.0
 11
997.314423435705
 21
440.1142798607057
 31
0.0
  0
LINE
  5
192D
330
191F
100
AcDbEntity
  8
0
 62
     0
100
AcDbLine
 10
993.1636414501042
 20
438.791924999851
 30
0.0
 11
995.1636414501042
 21
440.7919249998508
 31
0.0
  0
LINE
  5
192E
330
191F
100
AcDbEntity
  8
0
 62
     0
100
AcDbLine
 10
990.3352143253581
 20
438.791924999851
 30
0.0
 11
992.3352143253579
 21
440.7919249998508
 31
0.0
  0
LINE
  5
192F
330
191F
100
AcDbEntity
  8
0
 62
     0
100
AcDbLine
 10
987.5067872006118
 20
438.791924999851
 30
0.0
 11
989.5067872006118
 21
440.7919249998508
 31
0.0
  0
LINE
  5
1930
330
191F
100
AcDbEntity
  8
0
 62
     0
100
AcDbLine
 10
985.0101756685539
 20
439.1237405925393
 30
0.0
 11
986.6783600758655
 21
440.7919249998508
 31
0.0
  0
LINE
  5
1931
330
191F
100
AcDbEntity
  8
0
 62
     0
100
AcDbLine
 10
970.1208509075051
 20
432.719697205729
 30
0.0
 11
972.8695879912503
 21
435.4684342894742
 31
0.0
  0
LINE
  5
1932
330
191F
100
AcDbEntity
  8
0
 62
     0
100
AcDbLine
 10
971.0636599490873
 20
436.4909333720574
 30
0.0
 11
975.0101756685538
 21
440.4374490915239
 31
0.0
  0
LINE
  5
1933
330
191F
100
AcDbEntity
  8
0
 62
     0
100
AcDbLine
 10
1034.010175668554
 20
434.3836252223616
 30
0.0
 11
1035.418475446043
 21
435.7919249998509
 31
0.0
  0
LINE
  5
1934
330
191F
100
AcDbEntity
  8
0
 62
     0
100
AcDbLine
 10
1036.246902570789
 20
433.7919249998509
 30
0.0
 11
1038.246902570789
 21
435.7919249998509
 31
0.0
  0
LINE
  5
1935
330
191F
100
AcDbEntity
  8
0
 62
     0
100
AcDbLine
 10
1039.075329695535
 20
433.7919249998509
 30
0.0
 11
1041.991416992072
 21
436.7080122963879
 31
0.0
  0
LINE
  5
1936
330
191F
100
AcDbEntity
  8
0
 62
     0
100
AcDbLine
 10
1041.903756820282
 20
433.7919249998509
 30
0.0
 11
1044.903756820281
 21
436.7919249998508
 31
0.0
  0
LINE
  5
1937
330
191F
100
AcDbEntity
  8
0
 62
     0
100
AcDbLine
 10
1044.732183945028
 20
433.7919249998509
 30
0.0
 11
1046.732424230027
 21
435.7921652848506
 31
0.0
  0
LINE
  5
1938
330
191F
100
AcDbEntity
  8
0
 62
     0
100
AcDbLine
 10
1047.560611069774
 20
433.7919249998509
 30
0.0
 11
1049.560611069774
 21
435.791924999851
 31
0.0
  0
LINE
  5
1939
330
191F
100
AcDbEntity
  8
0
 62
     0
100
AcDbLine
 10
1050.38903819452
 20
433.7919249998509
 30
0.0
 11
1052.38903819452
 21
435.791924999851
 31
0.0
  0
LINE
  5
193A
330
191F
100
AcDbEntity
  8
0
 62
     0
100
AcDbLine
 10
1053.217465319266
 20
433.7919249998509
 30
0.0
 11
1055.217465319266
 21
435.791924999851
 31
0.0
  0
LINE
  5
193B
330
191F
100
AcDbEntity
  8
0
 62
     0
100
AcDbLine
 10
1056.045892444013
 20
433.7919249998509
 30
0.0
 11
1058.045892444013
 21
435.791924999851
 31
0.0
  0
LINE
  5
193C
330
191F
100
AcDbEntity
  8
0
 62
     0
100
AcDbLine
 10
1058.874319568759
 20
433.7919249998509
 30
0.0
 11
1060.874319568759
 21
435.791924999851
 31
0.0
  0
LINE
  5
193D
330
191F
100
AcDbEntity
  8
0
 62
     0
100
AcDbLine
 10
1061.702746693505
 20
433.7919249998509
 30
0.0
 11
1063.726403833171
 21
435.8155821395166
 31
0.0
  0
LINE
  5
193E
330
191F
100
AcDbEntity
  8
0
 62
     0
100
AcDbLine
 10
1064.583206400218
 20
436.6723847065642
 30
0.0
 11
1068.702746693505
 21
440.7919249998508
 31
0.0
  0
LINE
  5
193F
330
191F
100
AcDbEntity
  8
0
 62
     0
100
AcDbLine
 10
1064.843996481573
 20
434.1047476631728
 30
0.0
 11
1066.202404707242
 21
435.4631558888415
 31
0.0
  0
LINE
  5
1940
330
191F
100
AcDbEntity
  8
0
 62
     0
100
AcDbLine
 10
1069.531173818251
 20
438.7919249998508
 30
0.0
 11
1071.531173818251
 21
440.7919249998508
 31
0.0
  0
LINE
  5
1941
330
191F
100
AcDbEntity
  8
0
 62
     0
100
AcDbLine
 10
1072.359600942997
 20
438.7919249998508
 30
0.0
 11
1074.359600942997
 21
440.7919249998508
 31
0.0
  0
LINE
  5
1942
330
191F
100
AcDbEntity
  8
0
 62
     0
100
AcDbLine
 10
1075.188028067743
 20
438.7919249998508
 30
0.0
 11
1077.188028067743
 21
440.7919249998508
 31
0.0
  0
LINE
  5
1943
330
191F
100
AcDbEntity
  8
0
 62
     0
100
AcDbLine
 10
1078.01645519249
 20
438.7919249998508
 30
0.0
 11
1079.010175668553
 21
439.7856454759148
 31
0.0
  0
LINE
  5
1944
330
191F
100
AcDbEntity
  8
0
 62
     0
100
AcDbLine
 10
1089.330163691474
 20
438.7919249998508
 30
0.0
 11
1090.9680129289
 21
440.429774237277
 31
0.0
  0
LINE
  5
1945
330
191F
100
AcDbEntity
  8
0
 62
     0
100
AcDbLine
 10
1090.687630697854
 20
437.3209648814847
 30
0.0
 11
1092.309547294094
 21
438.9428814777248
 31
0.0
  0
LINE
  5
1946
330
191F
100
AcDbEntity
  8
0
 62
     0
100
AcDbLine
 10
1091.253316122804
 20
435.0582231816878
 30
0.0
 11
1092.902558373051
 21
436.7074654319348
 31
0.0
  0
LINE
  5
1947
330
191F
100
AcDbEntity
  8
0
 62
     0
100
AcDbLine
 10
1091.819001547753
 20
432.7954814818909
 30
0.0
 11
1093.468243798
 21
434.4447237321378
 31
0.0
  0
ENDBLK
  5
1948
330
191F
100
AcDbEntity
  8
0
100
AcDbBlockEnd
  0
BLOCK
  5
194A
330
1949
100
AcDbEntity
  8
0
100
AcDbBlockBegin
  2
8DI931D
 70
     0
 10
0.0
 20
0.0
 30
0.0
  3
8DI931D
  1

  0
LWPOLYLINE
  5
194B
330
1949
100
AcDbEntity
  8
STEMPEL
100
AcDbPolyline
 90
        6
 70
     1
 43
0.0
 10
-3.752776749732561
 20
6.5
 10
-7.505553499465122
 20
0.0
 10
-3.752776749732561
 20
-6.5
 10
3.752776749732561
 20
-6.5
 10
7.505553499465122
 20
0.0
 10
3.752776749732561
 20
6.5
  0
CIRCLE
  5
194C
330
1949
100
AcDbEntity
  8
STEMPEL
100
AcDbCircle
 10
0.0
 20
0.0
 30
0.0
 40
6.5
  0
ENDBLK
  5
194D
330
1949
100
AcDbEntity
  8
0
100
AcDbBlockEnd
  0
BLOCK
  5
1D1F
330
1D14
100
AcDbEntity
  8
0
100
AcDbBlockBegin
  2
*D8
 70
     1
 10
0.0
 20
0.0
 30
0.0
  3
*D8
  1

  0
LINE
  5
1DCB
330
1D14
100
AcDbEntity
  8
BEM
 62
     0
440
 16777216
370
    -2
100
AcDbLine
 10
106.0238248471358
 20
410.222249333701
 30
0.0
 11
92.95342876112348
 21
410.222249333701
 31
0.0
  0
LINE
  5
1DCC
330
1D14
100
AcDbEntity
  8
BEM
 62
     0
440
 16777216
370
    -2
100
AcDbLine
 10
106.0238248471357
 20
512.222249333701
 30
0.0
 11
92.95342876112352
 21
512.222249333701
 31
0.0
  0
LINE
  5
1DCD
330
1D14
100
AcDbEntity
  8
BEM
 62
     0
440
 16777216
370
    -2
100
AcDbLine
 10
94.95342876112351
 20
417.222249333701
 30
0.0
 11
94.95342876112351
 21
505.222249333701
 31
0.0
  0
SOLID
  5
1DCE
330
1D14
100
AcDbEntity
  8
BEM
 62
     0
440
 16777216
100
AcDbTrace
 10
93.78676209445684
 20
417.222249333701
 30
0.0
 11
96.12009542779018
 21
417.222249333701
 31
0.0
 12
94.95342876112349
 22
410.222249333701
 32
0.0
 13
94.95342876112349
 23
410.222249333701
 33
0.0
  0
SOLID
  5
1DCF
330
1D14
100
AcDbEntity
  8
BEM
 62
     0
440
 16777216
100
AcDbTrace
 10
93.78676209445684
 20
505.222249333701
 30
0.0
 11
96.1200954277902
 21
505.222249333701
 31
0.0
 12
94.95342876112351
 22
512.222249333701
 32
0.0
 13
94.95342876112351
 23
512.222249333701
 33
0.0
  0
MTEXT
  5
1DD0
330
1D14
100
AcDbEntity
  8
BEM
 62
     1
440
 16777216
100
AcDbMText
 10
88.45342876112344
 20
461.222249333701
 30
0.0
 40
7.0
 41
0.0
 71
     5
 72
     1
  1
\A1;%%c102
 11
0.0000000000000001
 21
1.0
 31
0.0
 73
     1
 44
1.0
  0
POINT
  5
1DD1
330
1D14
100
AcDbEntity
  8
DEFPOINTS
 62
     0
440
 16777216
100
AcDbPoint
 10
108.0238248471358
 20
410.222249333701
 30
0.0
  0
POINT
  5
1DD2
330
1D14
100
AcDbEntity
  8
DEFPOINTS
 62
     0
440
 16777216
100
AcDbPoint
 10
108.0238248471357
 20
512.222249333701
 30
0.0
  0
POINT
  5
1DD3
330
1D14
100
AcDbEntity
  8
DEFPOINTS
 62
     0
440
 16777216
100
AcDbPoint
 10
94.95342876112351
 20
512.222249333701
 30
0.0
  0
ENDBLK
  5
1D20
330
1D14
100
AcDbEntity
  8
0
100
AcDbBlockEnd
  0
BLOCK
  5
1D2C
330
1D21
100
AcDbEntity
  8
0
100
AcDbBlockBegin
  2
*D9
 70
     1
 10
0.0
 20
0.0
 30
0.0
  3
*D9
  1

  0
LINE
  5
1DC2
330
1D21
100
AcDbEntity
  8
BEM
 62
     0
440
 16777216
370
    -2
100
AcDbLine
 10
108.0238248471358
 20
408.222249333701
 30
0.0
 11
108.0238248471358
 21
386.3340167450094
 31
0.0
  0
LINE
  5
1DC3
330
1D21
100
AcDbEntity
  8
BEM
 62
     0
440
 16777216
370
    -2
100
AcDbLine
 10
183.0238248471358
 20
408.222249333701
 30
0.0
 11
183.0238248471358
 21
386.3340167450094
 31
0.0
  0
LINE
  5
1DC4
330
1D21
100
AcDbEntity
  8
BEM
 62
     0
440
 16777216
370
    -2
100
AcDbLine
 10
115.0238248471358
 20
388.3340167450094
 30
0.0
 11
176.0238248471359
 21
388.3340167450094
 31
0.0
  0
SOLID
  5
1DC5
330
1D21
100
AcDbEntity
  8
BEM
 62
     0
440
 16777216
100
AcDbTrace
 10
115.0238248471358
 20
389.5006834116761
 30
0.0
 11
115.0238248471358
 21
387.1673500783428
 31
0.0
 12
108.0238248471358
 22
388.3340167450094
 32
0.0
 13
108.0238248471358
 23
388.3340167450094
 33
0.0
  0
SOLID
  5
1DC6
330
1D21
100
AcDbEntity
  8
BEM
 62
     0
440
 16777216
100
AcDbTrace
 10
176.0238248471359
 20
389.5006834116761
 30
0.0
 11
176.0238248471359
 21
387.1673500783428
 31
0.0
 12
183.0238248471358
 22
388.3340167450094
 32
0.0
 13
183.0238248471358
 23
388.3340167450094
 33
0.0
  0
MTEXT
  5
1DC7
330
1D21
100
AcDbEntity
  8
BEM
 62
     1
440
 16777216
100
AcDbMText
 10
145.5238248471358
 20
394.8340167450094
 30
0.0
 40
7.0
 41
0.0
 71
     5
 72
     1
  1
\A1;75
 73
     1
 44
1.0
  0
POINT
  5
1DC8
330
1D21
100
AcDbEntity
  8
DEFPOINTS
 62
     0
440
 16777216
100
AcDbPoint
 10
108.0238248471358
 20
410.222249333701
 30
0.0
  0
POINT
  5
1DC9
330
1D21
100
AcDbEntity
  8
DEFPOINTS
 62
     0
440
 16777216
100
AcDbPoint
 10
183.0238248471358
 20
410.222249333701
 30
0.0
  0
POINT
  5
1DCA
330
1D21
100
AcDbEntity
  8
DEFPOINTS
 62
     0
440
 16777216
100
AcDbPoint
 10
183.0238248471358
 20
388.3340167450094
 30
0.0
  0
ENDBLK
  5
1D2D
330
1D21
100
AcDbEntity
  8
0
100
AcDbBlockEnd
  0
BLOCK
  5
1D39
330
1D2E
100
AcDbEntity
  8
0
100
AcDbBlockBegin
  2
*D10
 70
     1
 10
0.0
 20
0.0
 30
0.0
  3
*D10
  1

  0
LINE
  5
1DB9
330
1D2E
100
AcDbEntity
  8
BEM
 62
     0
440
 16777216
370
    -2
100
AcDbLine
 10
748.15930295718
 20
244.8265217443629
 30
0.0
 11
748.15930295718
 21
218.4931488045732
 31
0.0
  0
LINE
  5
1DBA
330
1D2E
100
AcDbEntity
  8
BEM
 62
     0
440
 16777216
370
    -2
100
AcDbLine
 10
618.15930295718
 20
246.2699103916675
 30
0.0
 11
618.15930295718
 21
218.4931488045732
 31
0.0
  0
LINE
  5
1DBB
330
1D2E
100
AcDbEntity
  8
BEM
 62
     0
440
 16777216
370
    -2
100
AcDbLine
 10
741.1593029571799
 20
220.4931488045732
 30
0.0
 11
625.1593029571799
 21
220.4931488045732
 31
0.0
  0
SOLID
  5
1DBC
330
1D2E
100
AcDbEntity
  8
BEM
 62
     0
440
 16777216
100
AcDbTrace
 10
741.1593029571799
 20
221.6598154712398
 30
0.0
 11
741.1593029571799
 21
219.3264821379065
 31
0.0
 12
748.15930295718
 22
220.4931488045732
 32
0.0
 13
748.15930295718
 23
220.4931488045732
 33
0.0
  0
SOLID
  5
1DBD
330
1D2E
100
AcDbEntity
  8
BEM
 62
     0
440
 16777216
100
AcDbTrace
 10
625.1593029571799
 20
221.6598154712398
 30
0.0
 11
625.1593029571799
 21
219.3264821379065
 31
0.0
 12
618.15930295718
 22
220.4931488045732
 32
0.0
 13
618.15930295718
 23
220.4931488045732
 33
0.0
  0
MTEXT
  5
1DBE
330
1D2E
100
AcDbEntity
  8
BEM
 62
     1
440
 16777216
100
AcDbMText
 10
683.1593029571799
 20
226.9931488045731
 30
0.0
 40
7.0
 41
0.0
 71
     5
 72
     1
  1
\A1;130
 73
     1
 44
1.0
  0
POINT
  5
1DBF
330
1D2E
100
AcDbEntity
  8
DEFPOINTS
 62
     0
440
 16777216
100
AcDbPoint
 10
748.15930295718
 20
246.8265217443629
 30
0.0
  0
POINT
  5
1DC0
330
1D2E
100
AcDbEntity
  8
DEFPOINTS
 62
     0
440
 16777216
100
AcDbPoint
 10
618.15930295718
 20
248.2699103916675
 30
0.0
  0
POINT
  5
1DC1
330
1D2E
100
AcDbEntity
  8
DEFPOINTS
 62
     0
440
 16777216
100
AcDbPoint
 10
618.15930295718
 20
220.4931488045732
 30
0.0
  0
ENDBLK
  5
1D3A
330
1D2E
100
AcDbEntity
  8
0
100
AcDbBlockEnd
  0
BLOCK
  5
1D46
330
1D3B
100
AcDbEntity
  8
0
100
AcDbBlockBegin
  2
*D11
 70
     1
 10
0.0
 20
0.0
 30
0.0
  3
*D11
  1

  0
LINE
  5
1E0E
330
1D3B
100
AcDbEntity
  8
BEM
 62
     0
440
 16777216
370
    -2
100
AcDbLine
 10
108.0238248471358
 20
241.5919264147028
 30
0.0
 11
108.0238248471358
 21
218.4095218847116
 31
0.0
  0
LINE
  5
1E0F
330
1D3B
100
AcDbEntity
  8
BEM
 62
     0
440
 16777216
370
    -2
100
AcDbLine
 10
368.15930295718
 20
238.5919264147028
 30
0.0
 11
368.15930295718
 21
218.4095218847116
 31
0.0
  0
LINE
  5
1E10
330
1D3B
100
AcDbEntity
  8
BEM
 62
     0
440
 16777216
370
    -2
100
AcDbLine
 10
115.0238248471358
 20
220.4095218847116
 30
0.0
 11
361.15930295718
 21
220.4095218847116
 31
0.0
  0
SOLID
  5
1E11
330
1D3B
100
AcDbEntity
  8
BEM
 62
     0
440
 16777216
100
AcDbTrace
 10
115.0238248471358
 20
221.5761885513782
 30
0.0
 11
115.0238248471358
 21
219.2428552180449
 31
0.0
 12
108.0238248471358
 22
220.4095218847116
 32
0.0
 13
108.0238248471358
 23
220.4095218847116
 33
0.0
  0
SOLID
  5
1E12
330
1D3B
100
AcDbEntity
  8
BEM
 62
     0
440
 16777216
100
AcDbTrace
 10
361.15930295718
 20
221.5761885513782
 30
0.0
 11
361.15930295718
 21
219.2428552180449
 31
0.0
 12
368.15930295718
 22
220.4095218847116
 32
0.0
 13
368.15930295718
 23
220.4095218847116
 33
0.0
  0
MTEXT
  5
1E13
330
1D3B
100
AcDbEntity
  8
BEM
 62
     1
440
 16777216
100
AcDbMText
 10
238.0915639021579
 20
226.9095218847116
 30
0.0
 40
7.0
 41
0.0
 71
     5
 72
     1
  1
\A1;620
 73
     1
 44
1.0
  0
POINT
  5
1E14
330
1D3B
100
AcDbEntity
  8
DEFPOINTS
 62
     0
440
 16777216
100
AcDbPoint
 10
108.0238248471358
 20
243.5919264147028
 30
0.0
  0
POINT
  5
1E15
330
1D3B
100
AcDbEntity
  8
DEFPOINTS
 62
     0
440
 16777216
100
AcDbPoint
 10
368.15930295718
 20
240.5919264147028
 30
0.0
  0
POINT
  5
1E16
330
1D3B
100
AcDbEntity
  8
DEFPOINTS
 62
     0
440
 16777216
100
AcDbPoint
 10
368.15930295718
 20
220.4095218847116
 30
0.0
  0
ENDBLK
  5
1D47
330
1D3B
100
AcDbEntity
  8
0
100
AcDbBlockEnd
  0
BLOCK
  5
1D53
330
1D48
100
AcDbEntity
  8
0
100
AcDbBlockBegin
  2
*D12
 70
     1
 10
0.0
 20
0.0
 30
0.0
  3
*D12
  1

  0
LINE
  5
1E05
330
1D48
100
AcDbEntity
  8
BEM
 62
     0
440
 16777216
370
    -2
100
AcDbLine
 10
748.15930295718
 20
244.8265217443629
 30
0.0
 11
748.15930295718
 21
198.0741899484876
 31
0.0
  0
LINE
  5
1E06
330
1D48
100
AcDbEntity
  8
BEM
 62
     0
440
 16777216
370
    -2
100
AcDbLine
 10
108.0238248471358
 20
241.5919264147028
 30
0.0
 11
108.0238248471358
 21
198.0741899484876
 31
0.0
  0
LINE
  5
1E07
330
1D48
100
AcDbEntity
  8
BEM
 62
     0
440
 16777216
370
    -2
100
AcDbLine
 10
741.1593029571799
 20
200.0741899484876
 30
0.0
 11
115.0238248471358
 21
200.0741899484876
 31
0.0
  0
SOLID
  5
1E08
330
1D48
100
AcDbEntity
  8
BEM
 62
     0
440
 16777216
100
AcDbTrace
 10
741.1593029571799
 20
201.2408566151543
 30
0.0
 11
741.1593029571799
 21
198.9075232818209
 31
0.0
 12
748.15930295718
 22
200.0741899484876
 32
0.0
 13
748.15930295718
 23
200.0741899484876
 33
0.0
  0
SOLID
  5
1E09
330
1D48
100
AcDbEntity
  8
BEM
 62
     0
440
 16777216
100
AcDbTrace
 10
115.0238248471358
 20
201.2408566151543
 30
0.0
 11
115.0238248471358
 21
198.9075232818209
 31
0.0
 12
108.0238248471358
 22
200.0741899484876
 32
0.0
 13
108.0238248471358
 23
200.0741899484876
 33
0.0
  0
MTEXT
  5
1E0A
330
1D48
100
AcDbEntity
  8
BEM
 62
     1
440
 16777216
100
AcDbMText
 10
428.0915639021579
 20
206.5741899484876
 30
0.0
 40
7.0
 41
0.0
 71
     5
 72
     1
  1
\A1;1000
 73
     1
 44
1.0
  0
POINT
  5
1E0B
330
1D48
100
AcDbEntity
  8
DEFPOINTS
 62
     0
440
 16777216
100
AcDbPoint
 10
748.15930295718
 20
246.8265217443629
 30
0.0
  0
POINT
  5
1E0C
330
1D48
100
AcDbEntity
  8
DEFPOINTS
 62
     0
440
 16777216
100
AcDbPoint
 10
108.0238248471358
 20
243.5919264147028
 30
0.0
  0
POINT
  5
1E0D
330
1D48
100
AcDbEntity
  8
DEFPOINTS
 62
     0
440
 16777216
100
AcDbPoint
 10
108.0238248471358
 20
200.0741899484876
 30
0.0
  0
ENDBLK
  5
1D54
330
1D48
100
AcDbEntity
  8
0
100
AcDbBlockEnd
  0
BLOCK
  5
1D60
330
1D55
100
AcDbEntity
  8
0
100
AcDbBlockBegin
  2
*D13
 70
     1
 10
0.0
 20
0.0
 30
0.0
  3
*D13
  1

  0
LINE
  5
1D9E
330
1D55
100
AcDbEntity
  8
BEM
 62
     0
440
 16777216
370
    -2
100
AcDbLine
 10
197.4478925527927
 20
250.0919264147028
 30
0.0
 11
93.664689228136
 21
250.0919264147028
 31
0.0
  0
LINE
  5
1D9F
330
1D55
100
AcDbEntity
  8
BEM
 62
     0
440
 16777216
370
    -2
100
AcDbLine
 10
197.4478925527927
 20
339.0919264147027
 30
0.0
 11
93.664689228136
 21
339.0919264147028
 31
0.0
  0
LINE
  5
1DA0
330
1D55
100
AcDbEntity
  8
BEM
 62
     0
440
 16777216
370
    -2
100
AcDbLine
 10
95.664689228136
 20
257.0919264147029
 30
0.0
 11
95.66468922813601
 21
332.0919264147028
 31
0.0
  0
SOLID
  5
1DA1
330
1D55
100
AcDbEntity
  8
BEM
 62
     0
440
 16777216
100
AcDbTrace
 10
94.49802256146933
 20
257.0919264147029
 30
0.0
 11
96.83135589480267
 21
257.0919264147029
 31
0.0
 12
95.664689228136
 22
250.0919264147028
 32
0.0
 13
95.664689228136
 23
250.0919264147028
 33
0.0
  0
SOLID
  5
1DA2
330
1D55
100
AcDbEntity
  8
BEM
 62
     0
440
 16777216
100
AcDbTrace
 10
94.49802256146934
 20
332.0919264147028
 30
0.0
 11
96.83135589480269
 21
332.0919264147028
 31
0.0
 12
95.66468922813601
 22
339.0919264147028
 32
0.0
 13
95.66468922813601
 23
339.0919264147028
 33
0.0
  0
MTEXT
  5
1DA3
330
1D55
100
AcDbEntity
  8
BEM
 62
     1
440
 16777216
100
AcDbMText
 10
89.16468922813596
 20
294.5919264147028
 30
0.0
 40
7.0
 41
0.0
 71
     5
 72
     1
  1
\A1;%%c89
 11
0.0000000000000001
 21
1.0
 31
0.0
 73
     1
 44
1.0
  0
POINT
  5
1DA4
330
1D55
100
AcDbEntity
  8
DEFPOINTS
 62
     0
440
 16777216
100
AcDbPoint
 10
199.4478925527927
 20
250.0919264147028
 30
0.0
  0
POINT
  5
1DA5
330
1D55
100
AcDbEntity
  8
DEFPOINTS
 62
     0
440
 16777216
100
AcDbPoint
 10
199.4478925527927
 20
339.0919264147027
 30
0.0
  0
POINT
  5
1DA6
330
1D55
100
AcDbEntity
  8
DEFPOINTS
 62
     0
440
 16777216
100
AcDbPoint
 10
95.66468922813601
 20
339.0919264147028
 30
0.0
  0
ENDBLK
  5
1D61
330
1D55
100
AcDbEntity
  8
0
100
AcDbBlockEnd
  0
ENDSEC
  0
SECTION
  2
ENTITIES
  0
LINE
  5
58
330
1E
100
AcDbEntity
  8
STEMPEL
100
AcDbLine
 10
830.0000000000004
 20
109.9999999999998
 30
0.0
 11
470.0000000000001
 21
109.9999999999999
 31
0.0
  0
LINE
  5
59
330
1E
100
AcDbEntity
  8
STEMPEL
100
AcDbLine
 10
470.0000000000001
 20
109.9999999999999
 30
0.0
 11
470.0000000000001
 21
9.999999999999886
 31
0.0
  0
LINE
  5
5A
330
1E
100
AcDbEntity
  8
STEMPEL
100
AcDbLine
 10
566.0000000000003
 20
109.9999999999997
 30
0.0
 11
566.0000000000001
 21
9.999999999999772
 31
0.0
  0
LINE
  5
5B
330
1E
100
AcDbEntity
  8
STEMPEL
100
AcDbLine
 10
650.0
 20
109.9999999999999
 30
0.0
 11
650.0
 21
9.999999999999886
 31
0.0
  0
LINE
  5
5C
330
1E
100
AcDbEntity
  8
STEMPEL
100
AcDbLine
 10
752.0000000000003
 20
109.9999999999995
 30
0.0
 11
752.0000000000003
 21
39.99999999999989
 31
0.0
  0
LINE
  5
5D
330
1E
100
AcDbEntity
  8
STEMPEL
100
AcDbLine
 10
566.0000000000001
 20
29.99999999999989
 30
0.0
 11
470.0000000000001
 21
29.99999999999989
 31
0.0
  0
LINE
  5
5E
330
1E
100
AcDbEntity
  8
STEMPEL
100
AcDbLine
 10
830.0000000000004
 20
39.99999999999989
 30
0.0
 11
566.0000000000001
 21
39.99999999999989
 31
0.0
  0
LINE
  5
5F
330
1E
100
AcDbEntity
  8
STEMPEL
100
AcDbLine
 10
830.0000000000004
 20
79.99999999999989
 30
0.0
 11
566.0000000000003
 21
79.99999999999989
 31
0.0
  0
LINE
  5
60
330
1E
100
AcDbEntity
  8
VOLL
100
AcDbLine
 10
484.0000000000002
 20
109.9999999999999
 30
0.0
 11
484.0000000000001
 21
9.999999999999886
 31
0.0
  0
LINE
  5
61
330
1E
100
AcDbEntity
  8
VOLL
100
AcDbLine
 10
524.0000000000001
 20
109.9999999999997
 30
0.0
 11
524.0
 21
9.999999999999772
 31
0.0
  0
LINE
  5
62
330
1E
100
AcDbEntity
  8
VOLL
100
AcDbLine
 10
544.0000000000002
 20
109.9999999999997
 30
0.0
 11
544.0
 21
9.999999999999772
 31
0.0
  0
LINE
  5
63
330
1E
100
AcDbEntity
  8
VOLL
100
AcDbLine
 10
584.0000000000003
 20
79.99999999999989
 30
0.0
 11
584.0000000000003
 21
39.99999999999989
 31
0.0
  0
LINE
  5
64
330
1E
100
AcDbEntity
  8
VOLL
100
AcDbLine
 10
610.0000000000003
 20
109.9999999999996
 30
0.0
 11
610.0000000000001
 21
39.99999999999989
 31
0.0
  0
LINE
  5
65
330
1E
100
AcDbEntity
  8
HILF
100
AcDbLine
 10
470.0000000000001
 20
99.99999999999989
 30
0.0
 11
566.0000000000003
 21
99.99999999999989
 31
0.0
  0
LINE
  5
66
330
1E
100
AcDbEntity
  8
HILF
100
AcDbLine
 10
470.0000000000001
 20
89.99999999999989
 30
0.0
 11
566.0000000000003
 21
89.99999999999989
 31
0.0
  0
LINE
  5
67
330
1E
100
AcDbEntity
  8
HILF
100
AcDbLine
 10
470.0000000000001
 20
79.99999999999989
 30
0.0
 11
566.0000000000003
 21
79.99999999999989
 31
0.0
  0
LINE
  5
68
330
1E
100
AcDbEntity
  8
HILF
100
AcDbLine
 10
470.0000000000001
 20
69.99999999999989
 30
0.0
 11
566.0000000000003
 21
69.99999999999989
 31
0.0
  0
LINE
  5
69
330
1E
100
AcDbEntity
  8
HILF
100
AcDbLine
 10
470.0000000000001
 20
59.99999999999989
 30
0.0
 11
566.0000000000003
 21
59.99999999999989
 31
0.0
  0
LINE
  5
6A
330
1E
100
AcDbEntity
  8
HILF
100
AcDbLine
 10
470.0000000000001
 20
49.99999999999989
 30
0.0
 11
566.0000000000003
 21
49.99999999999989
 31
0.0
  0
LINE
  5
6B
330
1E
100
AcDbEntity
  8
HILF
100
AcDbLine
 10
470.0000000000001
 20
39.99999999999989
 30
0.0
 11
566.0000000000003
 21
39.99999999999989
 31
0.0
  0
LINE
  5
6C
330
1E
100
AcDbEntity
  8
HILF
100
AcDbLine
 10
566.0000000000003
 20
69.99999999999989
 30
0.0
 11
650.0
 21
69.99999999999989
 31
0.0
  0
LINE
  5
6D
330
1E
100
AcDbEntity
  8
HILF
100
AcDbLine
 10
566.0000000000003
 20
59.99999999999989
 30
0.0
 11
650.0
 21
59.99999999999989
 31
0.0
  0
LINE
  5
6E
330
1E
100
AcDbEntity
  8
HILF
100
AcDbLine
 10
566.0000000000003
 20
49.99999999999989
 30
0.0
 11
650.0
 21
49.99999999999989
 31
0.0
  0
LINE
  5
6F
330
1E
100
AcDbEntity
  8
HILF
100
AcDbLine
 10
654.773680109695
 20
84.03758247564121
 30
0.0
 11
746.6297842514812
 21
84.03758247564121
 31
0.0
  0
LINE
  5
70
330
1E
100
AcDbEntity
  8
HILF
100
AcDbLine
 10
654.773680109695
 20
69.99999999999989
 30
0.0
 11
746.6297842514812
 21
69.99999999999989
 31
0.0
  0
LINE
  5
71
330
1E
100
AcDbEntity
  8
HILF
100
AcDbLine
 10
654.773680109695
 20
59.99999999999989
 30
0.0
 11
746.6297842514812
 21
59.99999999999989
 31
0.0
  0
LINE
  5
72
330
1E
100
AcDbEntity
  8
HILF
100
AcDbLine
 10
654.773680109695
 20
49.99999999999989
 30
0.0
 11
746.6297842514812
 21
49.99999999999989
 31
0.0
  0
LINE
  5
73
330
1E
100
AcDbEntity
  8
VOLL
100
AcDbLine
 10
752.0000000000003
 20
59.99999999999989
 30
0.0
 11
830.0000000000004
 21
59.99999999999989
 31
0.0
  0
LINE
  5
74
330
1E
100
AcDbEntity
  8
HILF
100
AcDbLine
 10
756.7238616296996
 20
83.77983636955809
 30
0.0
 11
824.8588839326732
 21
83.77983636955804
 31
0.0
  0
LINE
  5
75
330
1E
100
AcDbEntity
  8
HILF
100
AcDbLine
 10
654.773680109695
 20
14.89398258028291
 30
0.0
 11
824.8588839326732
 21
14.89398258028291
 31
0.0
  0
TEXT
  5
76
330
1E
100
AcDbEntity
  8
TEXT
100
AcDbText
 10
492.3998239263299
 20
18.67381894984115
 30
0.0
 40
4.0
  1
Änderung
 41
0.8
  7
GREEKS
 72
     1
 11
503.1426810691869
 21
18.67381894984115
 31
0.0
100
AcDbText
  0
TEXT
  5
78
330
1E
100
AcDbEntity
  8
TEXT
100
AcDbText
 10
573.5163572150376
 20
102.4620895087087
 30
0.0
 40
5.0
  1
Maßstab
 41
0.8
  7
GREEKS
100
AcDbText
  0
TEXT
  5
79
330
1E
100
AcDbEntity
  8
TEXT
100
AcDbText
 10
654.8779403809009
 20
102.5489328011778
 30
0.0
 40
5.0
  1
Benennung
 41
0.8
  7
GREEKS
100
AcDbText
  0
TEXT
  5
7A
330
1E
100
AcDbEntity
  8
TEXT
100
AcDbText
 10
756.1787549576343
 20
102.3132034537135
 30
0.0
 40
5.0
  1
Zeichnungs Nr.
 41
0.8
  7
GREEKS
100
AcDbText
  0
TEXT
  5
7B
330
1E
100
AcDbEntity
  8
TEXT
100
AcDbText
 10
654.7422383911359
 20
30.84560570193048
 30
0.0
 40
5.0
  1
Bauvorhaben
 41
0.8
  7
GREEKS
100
AcDbText
  0
TEXT
  5
7C
330
1E
100
AcDbEntity
  8
TEXT
100
AcDbText
 10
756.7238616296995
 20
73.18118237099949
 30
0.0
 40
5.0
  1
Ersatz für:
 41
0.8
  7
GREEKS
100
AcDbText
  0
TEXT
  5
7D
330
1E
100
AcDbEntity
  8
TEXT
100
AcDbText
 10
478.2664110704578
 20
13.6546584602718
 30
0.0
 40
4.0
  1
Index
 50
89.99999999999998
 41
0.8
  7
GREEKS
100
AcDbText
  0
TEXT
  5
7E
330
1E
100
AcDbEntity
  8
TEXT
100
AcDbText
 10
529.8990113186979
 20
18.67156269339799
 30
0.0
 40
4.0
  1
Tag
 41
0.8
  7
GREEKS
 72
     1
 11
533.6323446520313
 21
18.67156269339799
 31
0.0
100
AcDbText
  0
TEXT
  5
7F
330
1E
100
AcDbEntity
  8
TEXT
100
AcDbText
 10
548.9795678138292
 20
18.59324216966391
 30
0.0
 40
4.0
  1
Name
 41
0.8
  7
GREEKS
 72
     1
 11
555.3033773376387
 21
18.59324216966391
 31
0.0
100
AcDbText
  0
TEXT
  5
80
330
1E
100
AcDbEntity
  8
TEXT
100
AcDbText
 10
592.3311673153651
 20
73.31880501229909
 30
0.0
 40
4.0
  1
Tag
 41
0.8
  7
GREEKS
100
AcDbText
  0
TEXT
  5
81
330
1E
100
AcDbEntity
  8
TEXT
100
AcDbText
 10
622.4626584226296
 20
73.30961091915208
 30
0.0
 40
4.0
  1
Name
 41
0.8
  7
GREEKS
100
AcDbText
  0
TEXT
  5
82
330
1E
100
AcDbEntity
  8
TEXT
100
AcDbText
 10
567.5836127167615
 20
63.62990369617946
 30
0.0
 40
4.0
  1
Gez.
 41
0.8
  7
GREEKS
100
AcDbText
  0
TEXT
  5
83
330
1E
100
AcDbEntity
  8
TEXT
100
AcDbText
 10
567.5515086571672
 20
53.68926291428365
 30
0.0
 40
4.0
  1
Gepr.
 41
0.8
  7
GREEKS
100
AcDbText
  0
TEXT
  5
84
330
1E
100
AcDbEntity
  8
TEXT
100
AcDbText
 10
567.6006777387303
 20
43.52946389649789
 30
0.0
 40
4.0
  1
Norm.
 41
0.8
  7
GREEKS
100
AcDbText
  0
TEXT
  5
85
330
1E
100
AcDbEntity
  8
TEXT
100
AcDbText
 10
757.2400861497007
 20
52.07416177878585
 30
0.0
 40
5.0
  1
ersetzt durch:
 41
0.8
  7
GREEKS
100
AcDbText
  0
TEXT
  5
86
330
1E
100
AcDbEntity
  8
TEXT
100
AcDbText
 10
568.8693027807324
 20
72.96682596523718
 30
0.0
 40
4.0
  1
2014
 41
0.8
  7
GREEKS
100
AcDbText
  0
LINE
  5
87
330
1E
100
AcDbEntity
  8
HILF
100
AcDbLine
 10
0.0
 20
0.0
 30
0.0
 11
840.0000000000002
 21
-0.0000000000001137
 31
0.0
  0
LINE
  5
88
330
1E
100
AcDbEntity
  8
HILF
100
AcDbLine
 10
840.0000000000002
 20
-0.0000000000001137
 30
0.0
 11
840.0000000000002
 21
593.9999999999998
 31
0.0
  0
LINE
  5
89
330
1E
100
AcDbEntity
  8
HILF
100
AcDbLine
 10
840.0000000000002
 20
593.9999999999998
 30
0.0
 11
0.0000000000001705
 21
594.0
 31
0.0
  0
LINE
  5
8B
330
1E
100
AcDbEntity
  8
STEMPEL
100
AcDbLine
 10
830.0
 20
583.9999999999998
 30
0.0
 11
40.00000000000011
 21
584.0
 31
0.0
  0
LINE
  5
8D
330
1E
100
AcDbEntity
  8
STEMPEL
100
AcDbLine
 10
40.0
 20
10.0
 30
0.0
 11
830.0
 21
9.999999999999886
 31
0.0
  0
LINE
  5
8E
330
1E
100
AcDbEntity
  8
STEMPEL
100
AcDbLine
 10
830.0
 20
9.999999999999886
 30
0.0
 11
830.0
 21
583.9999999999998
 31
0.0
  0
TEXT
  5
8F
330
1E
100
AcDbEntity
  8
TEXT
 62
     1
100
AcDbText
 10
655.0390572473189
 20
87.3734307565253
 30
0.0
 40
7.0
  1
Regenstandrohr DN80
 41
0.75
  7
GREEKS
100
AcDbText
  0
TEXT
  5
90
330
1E
100
AcDbEntity
  8
TEXT
 62
     1
100
AcDbText
 10
767.4628088850803
 20
87.37343075652526
 30
0.0
 40
7.0
  1
55103080N
 41
0.8
  7
GREEKS
 72
     1
 11
790.1294755517469
 21
87.37343075652526
 31
0.0
100
AcDbText
  0
TEXT
  5
91
330
1E
100
AcDbEntity
  8
TEXT
100
AcDbText
 10
618.5090226415829
 20
102.8398961137899
 30
0.0
 40
5.0
  1
Zul.Abw.
 41
0.8
  7
GREEKS
100
AcDbText
  0
TEXT
  5
93
330
1E
100
AcDbEntity
  8
TEXT
100
AcDbText
 10
590.1565237511869
 20
63.15085876120213
 30
0.0
 40
4.0
  1
05.03.
 41
0.8
  7
GREEKS
 72
     1
 11
597.1660475607107
 21
63.15085876120213
 31
0.0
100
AcDbText
  0
TEXT
  5
94
330
1E
100
AcDbEntity
  8
TEXT
100
AcDbText
 10
624.0231753226609
 20
62.94297655165462
 30
0.0
 40
4.0
  1
Koeh
 41
0.8
  7
GREEKS
 72
     1
 11
629.2803181798038
 21
62.94297655165462
 31
0.0
100
AcDbText
  0
TEXT
  5
95
330
1E
100
AcDbEntity
  8
TEXT
100
AcDbText
 10
654.3410940884991
 20
62.10021383107516
 30
0.0
 40
5.0
  1
öffnung und Überlauf
 41
0.75
  7
GREEKS
100
AcDbText
  0
TEXT
  5
97
330
1E
100
AcDbEntity
  8
TEXT
100
AcDbText
 10
654.3410940884991
 20
52.59097337846049
 30
0.0
 40
5.0
  1
EDV-Art.Nr. 55103.080N
 41
0.8
  7
GREEKS
100
AcDbText
  0
TEXT
  5
98
330
1E
100
AcDbEntity
  8
TEXT
100
AcDbText
 10
654.1676050109347
 20
43.31127624791498
 30
0.0
 40
4.0
  1
55103080N.DWG
 41
0.8
  7
GREEKS
100
AcDbText
  0
TEXT
  5
99
330
1E
100
AcDbEntity
  8
TEXT
 62
     1
100
AcDbText
 10
582.703491203422
 20
87.47077088414959
 30
0.0
 40
7.0
  1
1:2
 41
0.8
  7
GREEKS
100
AcDbText
  0
TEXT
  5
9A
330
1E
100
AcDbEntity
  8
TEXT
100
AcDbText
 10
470.0441139350129
 20
114.1143585051042
 30
0.0
 40
5.0
  1
Erstellt mit AUTOCAD 2014
 41
0.8
  7
GREEKS
100
AcDbText
  0
INSERT
  5
9B
330
1E
100
AcDbEntity
  8
HILF
100
AcDbBlockReference
  2
LORO
 10
573.0624985962354
 20
36.98059300298954
 30
0.0
 41
2.0
 42
2.0
 43
2.0
  0
LINE
  5
9C
330
1E
100
AcDbEntity
  8
BEM
100
AcDbLine
 10
456.0
 20
-0.0000000000001137
 30
0.0
 11
456.0
 21
9.999999999999886
 31
0.0
  0
LINE
  5
13E
330
1E
100
AcDbEntity
  8
HILF
100
AcDbLine
 10
0.0
 20
0.0
 30
0.0
 11
0.0000000000001705
 21
594.0
 31
0.0
  0
LINE
  5
13F
330
1E
100
AcDbEntity
  8
STEMPEL
100
AcDbLine
 10
40.0
 20
10.0
 30
0.0
 11
40.00000000000011
 21
584.0
 31
0.0
  0
LINE
  5
14A
330
1E
100
AcDbEntity
  8
HILF
100
AcDbLine
 10
0.0000000000000568
 20
297.0
 30
0.0
 11
40.00000000000006
 21
297.0
 31
0.0
  0
TEXT
  5
15B
330
1E
100
AcDbEntity
  8
BEM
100
AcDbText
 10
837.3022923857165
 20
10.16790107998847
 30
0.0
 40
4.0
  1
Diese Zeichnung ist urheberrechtlich geschützt und bleibt unser Eigentum. Sie darf weder ganz noch teilweise verfielfältigt und nicht an Dritte weitergegeben werden.
 50
89.99999999999998
 41
0.8
  7
GREEKS
100
AcDbText
  0
TEXT
  5
ACA
330
1E
100
AcDbEntity
  8
TEXT
100
AcDbText
 10
612.2898419893275
 20
89.26643524492067
 30
0.0
 40
4.0
  1
DIN EN1123-2
 41
0.8
  7
GREEKS
 72
     1
 11
629.2803181798038
 21
89.26643524492067
 31
0.0
100
AcDbText
  0
TEXT
  5
1075
330
1E
100
AcDbEntity
  8
TEXT
 62
     1
100
AcDbText
 10
616.6560484572491
 20
139.8004583895515
 30
0.0
 40
7.0
  1
Werkstoff: SF-Cu DIN1754/1786
 41
0.8
  7
GREEKS
100
AcDbText
  0
TEXT
  5
1081
330
1E
100
AcDbEntity
  8
TEXT
100
AcDbText
 10
654.3410940884991
 20
72.10021383107516
 30
0.0
 40
5.0
  1
1000mm lang mit Reinigungs-
 41
0.8
  7
GREEKS
100
AcDbText
  0
TEXT
  5
1865
330
1E
100
AcDbEntity
  8
TEXT
 62
     1
100
AcDbText
 10
655.0140236044844
 20
467.6093763405929
 30
0.0
 40
7.0
  1
DN80
 41
0.75
  7
GREEKS
100
AcDbText
  0
ARC
  5
1B33
330
1E
100
AcDbEntity
  8
STEMPEL
  6
Continuous
100
AcDbCircle
 10
735.5545514946091
 20
487.722249333701
 30
0.0
 40
24.6
100
AcDbArc
 50
65.00000000000655
 51
90.0
  0
LINE
  5
1B34
330
1E
100
AcDbEntity
  8
STEMPEL
  6
Continuous
100
AcDbLine
 10
748.15930295718
 20
508.9876540040409
 30
0.0
 11
745.9509607334303
 21
510.0174208948025
 31
0.0
  0
ARC
  5
1B35
330
1E
100
AcDbEntity
  8
STEMPEL
100
AcDbCircle
 10
728.5274479663899
 20
487.3222493337009
 30
0.0
 40
25.00009324312574
100
AcDbArc
 50
89.84351404566565
 51
115.2111779316851
  0
ARC
  5
1B36
330
1E
100
AcDbEntity
  8
STEMPEL
100
AcDbCircle
 10
712.819169893985
 20
520.8222493337009
 30
0.0
 40
12.0
100
AcDbArc
 50
270.0
 51
295.1220601866324
  0
LINE
  5
1B37
330
1E
100
AcDbEntity
  8
STEMPEL
100
AcDbLine
 10
735.5545514946091
 20
512.3222493337009
 30
0.0
 11
728.4591679181992
 21
512.3222493337009
 31
0.0
  0
LINE
  5
1B38
330
1E
100
AcDbEntity
  8
HILF
100
AcDbLine
 10
715.4289229111904
 20
414.9695033280322
 30
0.0
 11
715.4289229111904
 21
507.4749953393706
 31
0.0
  0
ARC
  5
1B39
330
1E
100
AcDbEntity
  8
STEMPEL
  6
Continuous
100
AcDbCircle
 10
735.5545514946091
 20
434.722249333701
 30
0.0
 40
24.6
100
AcDbArc
 50
270.0
 51
294.9999999999935
  0
LINE
  5
1B3A
330
1E
100
AcDbEntity
  8
STEMPEL
  6
Continuous
100
AcDbLine
 10
748.15930295718
 20
413.4568446633609
 30
0.0
 11
745.9509607334303
 21
412.4270777725994
 31
0.0
  0
ARC
  5
1B3B
330
1E
100
AcDbEntity
  8
STEMPEL
100
AcDbCircle
 10
728.5274479663899
 20
435.1222493337009
 30
0.0
 40
25.00009324312574
100
AcDbArc
 50
244.7888220683149
 51
270.1564859543343
  0
ARC
  5
1B3C
330
1E
100
AcDbEntity
  8
STEMPEL
100
AcDbCircle
 10
712.819169893985
 20
401.6222493337009
 30
0.0
 40
12.0
100
AcDbArc
 50
64.87793981336759
 51
90.0
  0
LINE
  5
1B3D
330
1E
100
AcDbEntity
  8
STEMPEL
100
AcDbLine
 10
735.5545514946091
 20
410.1222493337009
 30
0.0
 11
728.4591679181992
 21
410.1222493337009
 31
0.0
  0
LINE
  5
1B3E
330
1E
100
AcDbEntity
  8
STEMPEL
  6
Continuous
100
AcDbLine
 10
748.15930295718
 20
342.3573310850429
 30
0.0
 11
745.9509607334303
 21
343.3870979758044
 31
0.0
  0
ARC
  5
1B3F
330
1E
100
AcDbEntity
  8
STEMPEL
  6
Continuous
100
AcDbCircle
 10
735.5545514946091
 20
321.0919264147028
 30
0.0
 40
24.6
100
AcDbArc
 50
65.00000000000655
 51
90.0
  0
ARC
  5
1B40
330
1E
100
AcDbEntity
  8
STEMPEL
100
AcDbCircle
 10
712.819169893985
 20
354.191926414703
 30
0.0
 40
12.0
100
AcDbArc
 50
270.0
 51
295.1220601866324
  0
ARC
  5
1B41
330
1E
100
AcDbEntity
  8
STEMPEL
100
AcDbCircle
 10
728.5274479663899
 20
320.691926414703
 30
0.0
 40
25.00009324312574
100
AcDbArc
 50
89.84351404566565
 51
115.2111779316851
  0
LINE
  5
1B42
330
1E
100
AcDbEntity
  8
STEMPEL
100
AcDbLine
 10
735.5545514946091
 20
345.691926414703
 30
0.0
 11
728.4591679181992
 21
345.691926414703
 31
0.0
  0
LINE
  5
1B43
330
1E
100
AcDbEntity
  8
STEMPEL
100
AcDbLine
 10
748.1593029571798
 20
508.9876540040409
 30
0.0
 11
748.15930295718
 21
413.4568446633609
 31
0.0
  0
LINE
  5
1B44
330
1E
100
AcDbEntity
  8
HILF
100
AcDbLine
 10
620.2073707568989
 20
415.7733915319063
 30
0.0
 11
620.2073707568989
 21
506.6711071354945
 31
0.0
  0
ARC
  5
1B45
330
1E
100
AcDbEntity
  8
STEMPEL
100
AcDbCircle
 10
612.8527032926115
 20
513.722249333701
 30
0.0
 40
8.0
100
AcDbArc
 50
270.0
 51
302.3280641221636
  0
ARC
  5
1B46
330
1E
100
AcDbEntity
  8
STEMPEL
100
AcDbCircle
 10
612.8527032926115
 20
408.722249333701
 30
0.0
 40
8.0
100
AcDbArc
 50
57.67193587783641
 51
90.0
  0
LINE
  5
1B47
330
1E
100
AcDbEntity
  8
HILF
100
AcDbLine
 10
615.0798090377435
 20
418.0603433576429
 30
0.0
 11
615.0798090377435
 21
504.3841553097575
 31
0.0
  0
ARC
  5
1B48
330
1E
100
AcDbEntity
  8
STEMPEL
100
AcDbCircle
 10
623.548029374597
 20
496.8222493337009
 30
0.0
 40
12.0
100
AcDbArc
 50
90.0
 51
122.3280641221636
  0
ARC
  5
1B49
330
1E
100
AcDbEntity
  8
STEMPEL
100
AcDbCircle
 10
612.8527032926115
 20
347.0919264147028
 30
0.0
 40
8.0
100
AcDbArc
 50
270.0
 51
302.3280641221636
  0
ARC
  5
1B4A
330
1E
100
AcDbEntity
  8
STEMPEL
100
AcDbCircle
 10
623.548029374597
 20
330.1919264147029
 30
0.0
 40
12.0
100
AcDbArc
 50
90.0
 51
122.3280641221636
  0
ARC
  5
1B4B
330
1E
100
AcDbEntity
  8
STEMPEL
100
AcDbCircle
 10
623.548029374597
 20
425.6222493337008
 30
0.0
 40
12.0
100
AcDbArc
 50
237.6719358778364
 51
270.0
  0
LINE
  5
1B4C
330
1E
100
AcDbEntity
  8
STEMPEL
100
AcDbLine
 10
712.819169893985
 20
508.8222493337009
 30
0.0
 11
623.548029374597
 21
508.8222493337009
 31
0.0
  0
LINE
  5
1B4D
330
1E
100
AcDbEntity
  8
STEMPEL
100
AcDbLine
 10
712.819169893985
 20
342.1919264147029
 30
0.0
 11
623.548029374597
 21
342.1919264147029
 31
0.0
  0
LINE
  5
1B4E
330
1E
100
AcDbEntity
  8
STEMPEL
100
AcDbLine
 10
712.819169893985
 20
413.6222493337008
 30
0.0
 11
623.548029374597
 21
413.6222493337008
 31
0.0
  0
LINE
  5
1B51
330
1E
100
AcDbEntity
  8
STEMPEL
100
AcDbLine
 10
310.6303643638749
 20
517.7222493337008
 30
0.0
 11
312.15930295718
 21
517.7222493337008
 31
0.0
  0
LINE
  5
1B52
330
1E
100
AcDbEntity
  8
STEMPEL
100
AcDbLine
 10
311.1593029571799
 20
519.7222493337007
 30
0.0
 11
311.1593029571799
 21
517.7222493337008
 31
0.0
  0
LINE
  5
1B53
330
1E
100
AcDbEntity
  8
STEMPEL
100
AcDbLine
 10
321.1593029571799
 20
519.7222493337007
 30
0.0
 11
321.1593029571799
 21
517.7222493337008
 31
0.0
  0
ARC
  5
1B54
330
1E
100
AcDbEntity
  8
STEMPEL
100
AcDbCircle
 10
310.6303643638749
 20
516.7222493337008
 30
0.0
 40
3.0
100
AcDbArc
 50
90.00000000000007
 51
165.9637565320736
  0
ARC
  5
1B55
330
1E
100
AcDbEntity
  8
STEMPEL
100
AcDbCircle
 10
310.6303643638749
 20
516.7222493337008
 30
0.0
 40
1.0
100
AcDbArc
 50
90.00000000000007
 51
165.9637565320736
  0
ARC
  5
1B56
330
1E
100
AcDbEntity
  8
STEMPEL
100
AcDbCircle
 10
316.1593029571799
 20
528.6722493337008
 30
0.0
 40
5.65
100
AcDbArc
 50
0.000000000000102
 51
180.0000000000001
  0
ARC
  5
1B57
330
1E
100
AcDbEntity
  8
STEMPEL
100
AcDbCircle
 10
321.5509089232919
 20
522.6492002715643
 30
0.0
 40
2.926950985085932
100
AcDbArc
 50
232.1193642828186
 51
301.4691945231567
  0
ARC
  5
1B58
330
1E
100
AcDbEntity
  8
STEMPEL
100
AcDbCircle
 10
321.5509089232919
 20
523.2952983958373
 30
0.0
 40
2.926950985085932
100
AcDbArc
 50
58.53080547617102
 51
127.8806357171816
  0
LINE
  5
1B59
330
1E
100
AcDbEntity
  8
STEMPEL
100
AcDbLine
 10
323.348110911996
 20
525.6363241446343
 30
0.0
 11
323.0788945948973
 21
525.7917562577813
 31
0.0
  0
LINE
  5
1B5A
330
1E
100
AcDbEntity
  8
STEMPEL
100
AcDbLine
 10
323.348110911996
 20
520.3081745227673
 30
0.0
 11
323.0788945948674
 21
520.1527424096029
 31
0.0
  0
LINE
  5
1B5B
330
1E
100
AcDbEntity
  8
STEMPEL
100
AcDbLine
 10
323.348110911996
 20
525.6363241446343
 30
0.0
 11
323.348110911996
 21
520.3081745227673
 31
0.0
  0
LINE
  5
1B5C
330
1E
100
AcDbEntity
  8
STEMPEL
100
AcDbLine
 10
310.50930295718
 20
528.6722493337008
 30
0.0
 11
310.50930295718
 21
526.2108214350785
 31
0.0
  0
LINE
  5
1B5D
330
1E
100
AcDbEntity
  8
STEMPEL
100
AcDbLine
 10
321.80930295718
 20
528.6722493337008
 30
0.0
 11
321.80930295718
 21
526.2108214350785
 31
0.0
  0
LINE
  5
1B5E
330
1E
100
AcDbEntity
  8
STEMPEL
100
AcDbLine
 10
308.9704950023639
 20
525.6363241446343
 30
0.0
 11
309.2397113194177
 21
525.7917562577554
 31
0.0
  0
LINE
  5
1B5F
330
1E
100
AcDbEntity
  8
STEMPEL
100
AcDbLine
 10
310.772852232421
 20
526.2222493337008
 30
0.0
 11
310.7682227623743
 21
526.2222493337008
 31
0.0
  0
LINE
  5
1B60
330
1E
100
AcDbEntity
  8
STEMPEL
100
AcDbLine
 10
308.9704950023639
 20
520.3081745227673
 30
0.0
 11
309.2397113194485
 21
520.1527424096282
 31
0.0
  0
LINE
  5
1B61
330
1E
100
AcDbEntity
  8
STEMPEL
100
AcDbLine
 10
310.772852232421
 20
519.7222493337007
 30
0.0
 11
310.7682227623743
 21
519.7222493337007
 31
0.0
  0
LINE
  5
1B62
330
1E
100
AcDbEntity
  8
STEMPEL
100
AcDbLine
 10
308.9704950023639
 20
525.6363241446343
 30
0.0
 11
308.9704950023639
 21
520.3081745227673
 31
0.0
  0
LINE
  5
1B63
330
1E
100
AcDbEntity
  8
STEMPEL
100
AcDbLine
 10
312.5648989797719
 20
525.6055163684309
 30
0.0
 11
312.564898979772
 21
520.3389822989708
 31
0.0
  0
LINE
  5
1B64
330
1E
100
AcDbEntity
  8
STEMPEL
100
AcDbLine
 10
319.7537069345879
 20
525.6055163684309
 30
0.0
 11
319.7537069345879
 21
520.3389822989708
 31
0.0
  0
ARC
  5
1B65
330
1E
100
AcDbEntity
  8
STEMPEL
100
AcDbCircle
 10
316.1593029571799
 20
530.5049545337007
 30
0.0
 40
10.7827052
100
AcDbArc
 50
250.5278273813864
 51
289.4721726186138
  0
ARC
  5
1B66
330
1E
100
AcDbEntity
  8
STEMPEL
100
AcDbCircle
 10
316.1593029571799
 20
515.4395441337007
 30
0.0
 40
10.7827052
100
AcDbArc
 50
70.52782738138636
 51
109.4721726186138
  0
ARC
  5
1B67
330
1E
100
AcDbEntity
  8
STEMPEL
100
AcDbCircle
 10
310.7676969910679
 20
522.6492002715643
 30
0.0
 40
2.926950985085932
100
AcDbArc
 50
238.5308054758493
 51
307.8806357171816
  0
ARC
  5
1B68
330
1E
100
AcDbEntity
  8
STEMPEL
100
AcDbCircle
 10
310.7676969910679
 20
523.2952983958373
 30
0.0
 40
2.926950985085932
100
AcDbArc
 50
52.11936428281857
 51
121.4691945248469
  0
LINE
  5
1B69
330
1E
100
AcDbEntity
  8
STEMPEL
100
AcDbLine
 10
321.5503831520053
 20
519.7222493337007
 30
0.0
 11
310.7682227623639
 21
519.7222493337007
 31
0.0
  0
LINE
  5
1B6A
330
1E
100
AcDbEntity
  8
STEMPEL
100
AcDbLine
 10
321.5503831520053
 20
526.2222493337008
 30
0.0
 11
310.7682227623639
 21
526.2222493337008
 31
0.0
  0
LINE
  5
1B6B
330
1E
100
AcDbEntity
  8
STEMPEL
100
AcDbLine
 10
348.8065251794022
 20
515.1222493337009
 30
0.0
 11
348.8065251794022
 21
515.3222493337007
 31
0.0
  0
ARC
  5
1B6C
330
1E
100
AcDbEntity
  8
STEMPEL
100
AcDbCircle
 10
348.4065251794021
 20
515.1222493337009
 30
0.0
 40
0.4
100
AcDbArc
 50
270.0000000000001
 51
0.000000000000102
  0
ARC
  5
1B6D
330
1E
100
AcDbEntity
  8
STEMPEL
100
AcDbCircle
 10
331.5644277951333
 20
516.7222493337005
 30
0.0
 40
1.0
100
AcDbArc
 50
28.50527455232647
 51
90.00000000000007
  0
ARC
  5
1B6E
330
1E
100
AcDbEntity
  8
STEMPEL
100
AcDbCircle
 10
336.65930295718
 20
515.7222493337008
 30
0.0
 40
1.0
100
AcDbArc
 50
208.5052745523265
 51
270.0000000000001
  0
LINE
  5
1B6F
330
1E
100
AcDbEntity
  8
STEMPEL
100
AcDbLine
 10
334.2007473426682
 20
518.1539683156541
 30
0.0
 11
335.7805297746684
 21
515.2450096730494
 31
0.0
  0
ARC
  5
1B70
330
1E
100
AcDbEntity
  8
STEMPEL
100
AcDbCircle
 10
331.5644277951333
 20
516.7222493337005
 30
0.0
 40
3.0
100
AcDbArc
 50
28.50527455232647
 51
90.00000000000007
  0
ARC
  5
1B71
330
1E
100
AcDbEntity
  8
STEMPEL
100
AcDbCircle
 10
331.5644277951331
 20
516.7222493337008
 30
0.0
 40
1.0
100
AcDbArc
 50
28.50527455232647
 51
90.00000000000007
  0
LINE
  5
1B72
330
1E
100
AcDbEntity
  8
STEMPEL
100
AcDbLine
 10
320.15930295718
 20
517.7222493337008
 30
0.0
 11
331.5644277951331
 21
517.7222493337008
 31
0.0
  0
LINE
  5
1B73
330
1E
100
AcDbEntity
  8
STEMPEL
100
AcDbLine
 10
367.1593029571801
 20
524.722249333701
 30
0.0
 11
367.1593029571801
 21
522.7172905133616
 31
0.0
  0
LINE
  5
1B74
330
1E
100
AcDbEntity
  8
STEMPEL
100
AcDbLine
 10
367.1593029571801
 20
524.722249333701
 30
0.0
 11
366.15930295718
 21
514.722249333701
 31
0.0
  0
LINE
  5
1B75
330
1E
100
AcDbEntity
  8
STEMPEL
100
AcDbLine
 10
366.15930295718
 20
514.722249333701
 30
0.0
 11
360.9120807349578
 21
514.722249333701
 31
0.0
  0
LINE
  5
1B76
330
1E
100
AcDbEntity
  8
STEMPEL
100
AcDbLine
 10
360.1120807349576
 20
515.7222493337008
 30
0.0
 11
349.2065251794023
 21
515.7222493337008
 31
0.0
  0
ARC
  5
1B77
330
1E
100
AcDbEntity
  8
STEMPEL
100
AcDbCircle
 10
360.9120807349578
 20
515.1222493337009
 30
0.0
 40
0.4
100
AcDbArc
 50
180.0000000000001
 51
270.0000000000001
  0
LINE
  5
1B78
330
1E
100
AcDbEntity
  8
STEMPEL
100
AcDbLine
 10
360.5120807349577
 20
515.1222493337009
 30
0.0
 11
360.5120807349577
 21
515.3222493337007
 31
0.0
  0
LINE
  5
1B79
330
1E
100
AcDbEntity
  8
STEMPEL
100
AcDbLine
 10
358.0231918460687
 20
515.1222493337009
 30
0.0
 11
358.0231918460687
 21
515.3222493337007
 31
0.0
  0
ARC
  5
1B7A
330
1E
100
AcDbEntity
  8
STEMPEL
100
AcDbCircle
 10
357.6231918460688
 20
515.1222493337009
 30
0.0
 40
0.4
100
AcDbArc
 50
270.0000000000001
 51
0.000000000000102
  0
LINE
  5
1B7B
330
1E
100
AcDbEntity
  8
STEMPEL
100
AcDbLine
 10
357.6231918460688
 20
514.7222493337007
 30
0.0
 11
356.7120807349577
 21
514.7222493337007
 31
0.0
  0
ARC
  5
1B7C
330
1E
100
AcDbEntity
  8
STEMPEL
100
AcDbCircle
 10
356.7120807349577
 20
515.1222493337006
 30
0.0
 40
0.4
100
AcDbArc
 50
180.0000000000001
 51
270.0000000000001
  0
LINE
  5
1B7D
330
1E
100
AcDbEntity
  8
STEMPEL
100
AcDbLine
 10
356.3120807349577
 20
515.1222493337006
 30
0.0
 11
356.3120807349577
 21
515.3222493337007
 31
0.0
  0
LINE
  5
1B7E
330
1E
100
AcDbEntity
  8
STEMPEL
100
AcDbLine
 10
353.8231918460688
 20
515.1222493337009
 30
0.0
 11
353.8231918460688
 21
515.3222493337007
 31
0.0
  0
ARC
  5
1B7F
330
1E
100
AcDbEntity
  8
STEMPEL
100
AcDbCircle
 10
353.4231918460687
 20
515.1222493337009
 30
0.0
 40
0.4
100
AcDbArc
 50
270.0000000000001
 51
0.000000000000102
  0
ARC
  5
1B80
330
1E
100
AcDbEntity
  8
STEMPEL
100
AcDbCircle
 10
360.1120807349576
 20
515.3222493337007
 30
0.0
 40
0.4
100
AcDbArc
 50
0.000000000000102
 51
90.00000000000007
  0
ARC
  5
1B81
330
1E
100
AcDbEntity
  8
STEMPEL
100
AcDbCircle
 10
358.4231918460687
 20
515.3222493337007
 30
0.0
 40
0.4
100
AcDbArc
 50
90.00000000000007
 51
180.0000000000001
  0
ARC
  5
1B82
330
1E
100
AcDbEntity
  8
STEMPEL
100
AcDbCircle
 10
355.9120807349576
 20
515.3222493337007
 30
0.0
 40
0.4
100
AcDbArc
 50
0.000000000000102
 51
90.00000000000007
  0
ARC
  5
1B83
330
1E
100
AcDbEntity
  8
STEMPEL
100
AcDbCircle
 10
354.2231918460687
 20
515.3222493337007
 30
0.0
 40
0.4
100
AcDbArc
 50
90.00000000000007
 51
180.0000000000001
  0
ARC
  5
1B84
330
1E
100
AcDbEntity
  8
STEMPEL
100
AcDbCircle
 10
369.4093029571801
 20
491.7722493337008
 30
0.0
 40
33.02673159729859
100
AcDbArc
 50
54.09288659496578
 51
93.906394238002
  0
ARC
  5
1B85
330
1E
100
AcDbEntity
  8
STEMPEL
100
AcDbCircle
 10
369.4093029571801
 20
491.7722493337008
 30
0.0
 40
31.02673159729859
100
AcDbArc
 50
54.09288659496578
 51
94.15863216277692
  0
LINE
  5
1B86
330
1E
100
AcDbEntity
  8
STEMPEL
100
AcDbLine
 10
310.6303643638749
 20
519.7222493337007
 30
0.0
 11
366.65930295718
 21
519.7222493337007
 31
0.0
  0
LINE
  5
1B87
330
1E
100
AcDbEntity
  8
STEMPEL
100
AcDbLine
 10
353.4231918460687
 20
514.7222493337007
 30
0.0
 11
336.65930295718
 21
514.7222493337007
 31
0.0
  0
ARC
  5
1B88
330
1E
100
AcDbEntity
  8
STEMPEL
100
AcDbCircle
 10
349.2065251794023
 20
515.3222493337007
 30
0.0
 40
0.4
100
AcDbArc
 50
90.00000000000007
 51
180.0000000000001
  0
ARC
  5
1B8C
330
1E
100
AcDbEntity
  8
STEMPEL
100
AcDbCircle
 10
404.7541781192266
 20
516.722249333701
 30
0.0
 40
1.0
100
AcDbArc
 50
90.00000000000007
 51
151.4947254476737
  0
ARC
  5
1B8D
330
1E
100
AcDbEntity
  8
STEMPEL
100
AcDbCircle
 10
399.65930295718
 20
515.722249333701
 30
0.0
 40
1.0
100
AcDbArc
 50
255.9828567039975
 51
331.4947254476737
  0
LINE
  5
1B8E
330
1E
100
AcDbEntity
  8
STEMPEL
100
AcDbLine
 10
402.1178585716917
 20
518.1539683156542
 30
0.0
 11
400.5380761396915
 21
515.2450096730497
 31
0.0
  0
ARC
  5
1B8F
330
1E
100
AcDbEntity
  8
STEMPEL
100
AcDbCircle
 10
404.7541781192266
 20
516.722249333701
 30
0.0
 40
3.0
100
AcDbArc
 50
90.00000000000007
 51
151.4947254476737
  0
ARC
  5
1B90
330
1E
100
AcDbEntity
  8
STEMPEL
100
AcDbCircle
 10
404.7541781192264
 20
516.7222493337008
 30
0.0
 40
1.0
100
AcDbArc
 50
90.00000000000007
 51
151.4947254476737
  0
LINE
  5
1B91
330
1E
100
AcDbEntity
  8
STEMPEL
100
AcDbLine
 10
415.1593029571798
 20
519.7222493337007
 30
0.0
 11
415.1593029571798
 21
517.7222493337008
 31
0.0
  0
LINE
  5
1B92
330
1E
100
AcDbEntity
  8
STEMPEL
100
AcDbLine
 10
404.7541781192264
 20
517.7222493337008
 30
0.0
 11
416.1593029571799
 21
517.7222493337008
 31
0.0
  0
ARC
  5
1B93
330
1E
100
AcDbEntity
  8
STEMPEL
100
AcDbCircle
 10
414.7676969910679
 20
523.2952983958373
 30
0.0
 40
2.926950985085932
100
AcDbArc
 50
52.11936428281857
 51
121.4691945248469
  0
ARC
  5
1B94
330
1E
100
AcDbEntity
  8
STEMPEL
100
AcDbCircle
 10
414.7676969910679
 20
522.6492002715643
 30
0.0
 40
2.926950985085932
100
AcDbArc
 50
238.5308054758493
 51
307.8806357171816
  0
LINE
  5
1B95
330
1E
100
AcDbEntity
  8
STEMPEL
100
AcDbLine
 10
416.5648989797719
 20
525.6055163684311
 30
0.0
 11
416.5648989797719
 21
520.3389822989711
 31
0.0
  0
LINE
  5
1B96
330
1E
100
AcDbEntity
  8
STEMPEL
100
AcDbLine
 10
412.9704950023639
 20
525.6363241446343
 30
0.0
 11
412.9704950023639
 21
520.3081745227673
 31
0.0
  0
LINE
  5
1B97
330
1E
100
AcDbEntity
  8
STEMPEL
100
AcDbLine
 10
414.772852232421
 20
519.7222493337007
 30
0.0
 11
414.7682227623742
 21
519.7222493337007
 31
0.0
  0
LINE
  5
1B98
330
1E
100
AcDbEntity
  8
STEMPEL
100
AcDbLine
 10
412.9704950023639
 20
520.3081745227673
 30
0.0
 11
413.2397113194484
 21
520.1527424096284
 31
0.0
  0
LINE
  5
1B99
330
1E
100
AcDbEntity
  8
STEMPEL
100
AcDbLine
 10
414.772852232421
 20
526.222249333701
 30
0.0
 11
414.7682227623742
 21
526.222249333701
 31
0.0
  0
LINE
  5
1B9A
330
1E
100
AcDbEntity
  8
STEMPEL
100
AcDbLine
 10
412.9704950023639
 20
525.6363241446343
 30
0.0
 11
413.2397113194176
 21
525.7917562577556
 31
0.0
  0
LINE
  5
1B9B
330
1E
100
AcDbEntity
  8
STEMPEL
100
AcDbLine
 10
414.5093029571799
 20
528.6722493337008
 30
0.0
 11
414.5093029571799
 21
526.2108214350787
 31
0.0
  0
ARC
  5
1B9C
330
1E
100
AcDbEntity
  8
STEMPEL
100
AcDbCircle
 10
425.6882415504848
 20
516.7222493337008
 30
0.0
 40
1.0
100
AcDbArc
 50
14.03624346792658
 51
90.00000000000007
  0
ARC
  5
1B9D
330
1E
100
AcDbEntity
  8
STEMPEL
100
AcDbCircle
 10
425.6882415504848
 20
516.7222493337008
 30
0.0
 40
3.0
100
AcDbArc
 50
14.03624346792658
 51
90.00000000000007
  0
LINE
  5
1B9E
330
1E
100
AcDbEntity
  8
STEMPEL
100
AcDbLine
 10
425.1593029571798
 20
519.7222493337007
 30
0.0
 11
425.1593029571798
 21
517.7222493337008
 31
0.0
  0
LINE
  5
1B9F
330
1E
100
AcDbEntity
  8
STEMPEL
100
AcDbLine
 10
424.1593029571799
 20
517.7222493337008
 30
0.0
 11
425.6882415504848
 21
517.7222493337008
 31
0.0
  0
ARC
  5
1BA0
330
1E
100
AcDbEntity
  8
STEMPEL
100
AcDbCircle
 10
425.5509089232918
 20
523.2952983958373
 30
0.0
 40
2.926950985085932
100
AcDbArc
 50
58.53080547617102
 51
127.8806357171816
  0
ARC
  5
1BA1
330
1E
100
AcDbEntity
  8
STEMPEL
100
AcDbCircle
 10
425.5509089232918
 20
522.6492002715643
 30
0.0
 40
2.926950985085932
100
AcDbArc
 50
232.1193642828186
 51
301.4691945231567
  0
LINE
  5
1BA2
330
1E
100
AcDbEntity
  8
STEMPEL
100
AcDbLine
 10
427.3481109119958
 20
525.6363241446343
 30
0.0
 11
427.3481109119958
 21
520.3081745227673
 31
0.0
  0
LINE
  5
1BA3
330
1E
100
AcDbEntity
  8
STEMPEL
100
AcDbLine
 10
427.3481109119958
 20
520.3081745227673
 30
0.0
 11
427.0788945948674
 21
520.1527424096029
 31
0.0
  0
LINE
  5
1BA4
330
1E
100
AcDbEntity
  8
STEMPEL
100
AcDbLine
 10
427.3481109119958
 20
525.6363241446343
 30
0.0
 11
427.0788945948972
 21
525.7917562577815
 31
0.0
  0
LINE
  5
1BA5
330
1E
100
AcDbEntity
  8
STEMPEL
100
AcDbLine
 10
423.7537069345878
 20
525.6055163684311
 30
0.0
 11
423.7537069345878
 21
520.3389822989711
 31
0.0
  0
LINE
  5
1BA6
330
1E
100
AcDbEntity
  8
STEMPEL
100
AcDbLine
 10
425.80930295718
 20
528.6722493337008
 30
0.0
 11
425.80930295718
 21
526.2108214350787
 31
0.0
  0
LINE
  5
1BA7
330
1E
100
AcDbEntity
  8
STEMPEL
100
AcDbLine
 10
425.5503831520052
 20
526.2222493337008
 30
0.0
 11
414.7682227623638
 21
526.222249333701
 31
0.0
  0
LINE
  5
1BA8
330
1E
100
AcDbEntity
  8
STEMPEL
100
AcDbLine
 10
425.5503831520052
 20
519.7222493337007
 30
0.0
 11
414.7682227623638
 21
519.7222493337007
 31
0.0
  0
ARC
  5
1BA9
330
1E
100
AcDbEntity
  8
STEMPEL
100
AcDbCircle
 10
420.1593029571799
 20
515.439544133701
 30
0.0
 40
10.7827052
100
AcDbArc
 50
70.52782738138636
 51
109.4721726186138
  0
ARC
  5
1BAA
330
1E
100
AcDbEntity
  8
STEMPEL
100
AcDbCircle
 10
420.1593029571799
 20
530.5049545337007
 30
0.0
 40
10.7827052
100
AcDbArc
 50
250.5278273813864
 51
289.4721726186138
  0
ARC
  5
1BAB
330
1E
100
AcDbEntity
  8
STEMPEL
100
AcDbCircle
 10
420.1593029571799
 20
528.6722493337008
 30
0.0
 40
5.65
100
AcDbArc
 50
0.000000000000102
 51
180.0000000000001
  0
LINE
  5
1BAC
330
1E
100
AcDbEntity
  8
STEMPEL
100
AcDbLine
 10
387.0036912670931
 20
519.7222493337007
 30
0.0
 11
425.6882415504848
 21
519.7222493337007
 31
0.0
  0
LINE
  5
1BAE
330
1E
100
AcDbEntity
  8
STEMPEL
100
AcDbLine
 10
308.0995879574704
 20
510.7222493337008
 30
0.0
 11
306.1593029571799
 21
511.2073205837734
 31
0.0
  0
LINE
  5
1BAF
330
1E
100
AcDbEntity
  8
STEMPEL
100
AcDbLine
 10
308.0995879574704
 20
510.7222493337007
 30
0.0
 11
312.15930295718
 21
510.7222493337006
 31
0.0
  0
ARC
  5
1BB0
330
1E
100
AcDbEntity
  8
STEMPEL
100
AcDbCircle
 10
336.65930295718
 20
515.7222493337008
 30
0.0
 40
3.0
100
AcDbArc
 50
208.5052745523265
 51
270.0000000000001
  0
LINE
  5
1BB1
330
1E
100
AcDbEntity
  8
STEMPEL
100
AcDbLine
 10
326.5593029571799
 20
512.7222493337008
 30
0.0
 11
326.5593029571799
 21
511.7222493337007
 31
0.0
  0
LINE
  5
1BB2
330
1E
100
AcDbEntity
  8
STEMPEL
100
AcDbLine
 10
328.1593029571799
 20
512.7222493337008
 30
0.0
 11
328.1593029571799
 21
511.7222493337007
 31
0.0
  0
ARC
  5
1BB3
330
1E
100
AcDbEntity
  8
STEMPEL
100
AcDbCircle
 10
415.7593029571798
 20
511.7222493337008
 30
0.0
 40
7.599999999999999
100
AcDbArc
 50
180.0
 51
270.0
  0
ARC
  5
1BB4
330
1E
100
AcDbEntity
  8
STEMPEL
100
AcDbCircle
 10
415.7593029571798
 20
511.7222493337008
 30
0.0
 40
6.0
100
AcDbArc
 50
180.0
 51
270.0
  0
LINE
  5
1BB5
330
1E
100
AcDbEntity
  8
STEMPEL
100
AcDbLine
 10
320.15930295718
 20
510.7222493337006
 30
0.0
 11
326.4753827402795
 21
510.7222493337007
 31
0.0
  0
LINE
  5
1BB6
330
1E
100
AcDbEntity
  8
STEMPEL
100
AcDbLine
 10
368.4917029374102
 20
494.5183494276075
 30
0.0
 11
364.65930295718
 21
512.722249333701
 31
0.0
  0
LINE
  5
1BB7
330
1E
100
AcDbEntity
  8
HILF
100
AcDbLine
 10
409.3275432344464
 20
505.1440682120655
 30
0.0
 11
370.2109018166877
 21
463.411071418674
 31
0.0
  0
LINE
  5
1BB8
330
1E
100
AcDbEntity
  8
STEMPEL
100
AcDbLine
 10
446.0038893970128
 20
504.1222493337008
 30
0.0
 11
415.7593029571798
 21
504.1222493337008
 31
0.0
  0
ARC
  5
1BBA
330
1E
100
AcDbEntity
  8
SCHRAFF
100
AcDbCircle
 10
399.2571986872533
 20
513.3136992381174
 30
0.0
 40
2.288958524341319
100
AcDbArc
 50
246.5374661252307
 51
1.883118003142411
  0
INSERT
  5
1BBB
330
1E
100
AcDbEntity
  8
SCHRAFF
100
AcDbBlockReference
  2
*X5
 10
480.6593029571803
 20
270.351297727567
 30
0.0
 41
-1.0
 50
0.0000000000000799
1001
ACAD
1000
HATCH
1002
{
1070
    16
1000
_U,I
1040
0.1
1040
2.356194490192344
1070
     0
1002
}
  0
ARC
  5
1BBC
330
1E
100
AcDbEntity
  8
STEMPEL
100
AcDbCircle
 10
320.5593029571799
 20
511.7222493337008
 30
0.0
 40
7.599999999999999
100
AcDbArc
 50
270.0
 51
0.0
  0
ARC
  5
1BBD
330
1E
100
AcDbEntity
  8
STEMPEL
100
AcDbCircle
 10
320.5593029571799
 20
511.7222493337008
 30
0.0
 40
6.0
100
AcDbArc
 50
270.0
 51
0.0
  0
LINE
  5
1BBE
330
1E
100
AcDbEntity
  8
STEMPEL
100
AcDbLine
 10
409.8432231740802
 20
510.7222493337008
 30
0.0
 11
416.1593029571799
 21
510.7222493337009
 31
0.0
  0
ARC
  5
1BBF
330
1E
100
AcDbEntity
  8
STEMPEL
100
AcDbCircle
 10
399.65930295718
 20
515.722249333701
 30
0.0
 40
3.0
100
AcDbArc
 50
270.0000000000001
 51
331.4947254476737
  0
LINE
  5
1BC0
330
1E
100
AcDbEntity
  8
STEMPEL
100
AcDbLine
 10
409.7593029571799
 20
512.7222493337008
 30
0.0
 11
409.7593029571799
 21
511.7222493337008
 31
0.0
  0
LINE
  5
1BC1
330
1E
100
AcDbEntity
  8
STEMPEL
100
AcDbLine
 10
408.1593029571799
 20
512.7222493337008
 30
0.0
 11
408.1593029571799
 21
511.7222493337008
 31
0.0
  0
LINE
  5
1BC2
330
1E
100
AcDbEntity
  8
STEMPEL
100
AcDbLine
 10
428.2190179568892
 20
510.7222493337009
 30
0.0
 11
430.1593029571799
 21
511.2073205837735
 31
0.0
  0
LINE
  5
1BC3
330
1E
100
AcDbEntity
  8
STEMPEL
100
AcDbLine
 10
424.1593029571799
 20
510.7222493337009
 30
0.0
 11
428.2190179568892
 21
510.7222493337009
 31
0.0
  0
LINE
  5
1BC4
330
1E
100
AcDbEntity
  8
STEMPEL
100
AcDbLine
 10
320.5593029571799
 20
504.1222493337008
 30
0.0
 11
304.2271983100985
 21
504.1222493337008
 31
0.0
  0
ARC
  5
1BC5
330
1E
100
AcDbEntity
  8
STEMPEL
100
AcDbCircle
 10
183.0238248471358
 20
500.222249333701
 30
0.0
 40
12.0
100
AcDbArc
 50
46.81657820382612
 51
90.0
  0
ARC
  5
1BC6
330
1E
100
AcDbEntity
  8
STEMPEL
100
AcDbCircle
 10
199.4478925527927
 20
517.7222493337009
 30
0.0
 40
12.0
100
AcDbArc
 50
226.8165782038261
 51
270.0
  0
LINE
  5
1BC7
330
1E
100
AcDbEntity
  8
STEMPEL
100
AcDbLine
 10
222.7856390301431
 20
505.7222493337008
 30
0.0
 11
199.4478925527927
 21
505.7222493337008
 31
0.0
  0
LINE
  5
1BC8
330
1E
100
AcDbEntity
  8
STEMPEL
100
AcDbLine
 10
222.7856390301432
 20
416.7222493337008
 30
0.0
 11
199.4478925527927
 21
416.7222493337008
 31
0.0
  0
POLYLINE
  5
1BC9
330
1E
100
AcDbEntity
  8
HILF
100
AcDb2dPolyline
 66
     1
 10
0.0
 20
0.0
 30
0.0
 70
     4
 75
     6
  0
VERTEX
  5
1BCA
330
1BC9
100
AcDbEntity
  8
HILF
100
AcDbVertex
100
AcDb2dVertex
 10
227.7856390301431
 20
505.722249333701
 30
0.0
 70
    16
  0
VERTEX
  5
1BCB
330
1BC9
100
AcDbEntity
  8
HILF
100
AcDbVertex
100
AcDb2dVertex
 10
227.7856390301431
 20
505.722249333701
 30
0.0
 70
     8
  0
VERTEX
  5
1BCC
330
1BC9
100
AcDbEntity
  8
HILF
100
AcDbVertex
100
AcDb2dVertex
 10
230.4278269562757
 20
498.6687309849676
 30
0.0
 70
     8
  0
VERTEX
  5
1BCD
330
1BC9
100
AcDbEntity
  8
HILF
100
AcDbVertex
100
AcDb2dVertex
 10
232.1661841077211
 20
492.2212234392236
 30
0.0
 70
     8
  0
VERTEX
  5
1BCE
330
1BC9
100
AcDbEntity
  8
HILF
100
AcDbVertex
100
AcDb2dVertex
 10
233.1131589718349
 20
486.2887147573403
 30
0.0
 70
     8
  0
VERTEX
  5
1BCF
330
1BC9
100
AcDbEntity
  8
HILF
100
AcDbVertex
100
AcDb2dVertex
 10
233.381200035973
 20
480.7801930001891
 30
0.0
 70
     8
  0
VERTEX
  5
1BD0
330
1BC9
100
AcDbEntity
  8
HILF
100
AcDbVertex
100
AcDb2dVertex
 10
233.0827557874909
 20
475.6046462286415
 30
0.0
 70
     8
  0
VERTEX
  5
1BD1
330
1BC9
100
AcDbEntity
  8
HILF
100
AcDbVertex
100
AcDb2dVertex
 10
232.3302747137444
 20
470.6710625035689
 30
0.0
 70
     8
  0
VERTEX
  5
1BD2
330
1BC9
100
AcDbEntity
  8
HILF
100
AcDbVertex
100
AcDb2dVertex
 10
231.2362053020895
 20
465.8884298858427
 30
0.0
 70
     8
  0
VERTEX
  5
1BD3
330
1BC9
100
AcDbEntity
  8
HILF
100
AcDbVertex
100
AcDb2dVertex
 10
229.9129960398816
 20
461.1657364363342
 30
0.0
 70
     8
  0
VERTEX
  5
1BD4
330
1BC9
100
AcDbEntity
  8
HILF
100
AcDbVertex
100
AcDb2dVertex
 10
228.479371846557
 20
456.416075065784
 30
0.0
 70
     8
  0
VERTEX
  5
1BD5
330
1BC9
100
AcDbEntity
  8
HILF
100
AcDbVertex
100
AcDb2dVertex
 10
227.0791633698731
 20
451.5689580844098
 30
0.0
 70
     8
  0
VERTEX
  5
1BD6
330
1BC9
100
AcDbEntity
  8
HILF
100
AcDbVertex
100
AcDb2dVertex
 10
225.8624776896676
 20
446.5580026522977
 30
0.0
 70
     8
  0
VERTEX
  5
1BD7
330
1BC9
100
AcDbEntity
  8
HILF
100
AcDbVertex
100
AcDb2dVertex
 10
224.9794218857786
 20
441.3168259295344
 30
0.0
 70
     8
  0
VERTEX
  5
1BD8
330
1BC9
100
AcDbEntity
  8
HILF
100
AcDbVertex
100
AcDb2dVertex
 10
224.5801030380438
 20
435.7790450762067
 30
0.0
 70
     8
  0
VERTEX
  5
1BD9
330
1BC9
100
AcDbEntity
  8
HILF
100
AcDbVertex
100
AcDb2dVertex
 10
224.814628226301
 20
429.8782772524008
 30
0.0
 70
     8
  0
VERTEX
  5
1BDA
330
1BC9
100
AcDbEntity
  8
HILF
100
AcDbVertex
100
AcDb2dVertex
 10
225.8331045303882
 20
423.5481396182033
 30
0.0
 70
     8
  0
VERTEX
  5
1BDB
330
1BC9
100
AcDbEntity
  8
HILF
100
AcDbVertex
100
AcDb2dVertex
 10
227.7856390301432
 20
416.722249333701
 30
0.0
 70
     8
  0
VERTEX
  5
1BDC
330
1BC9
100
AcDbEntity
  8
HILF
100
AcDbVertex
100
AcDb2dVertex
 10
236.1365354103959
 20
486.0239531649786
 30
0.0
 70
    16
  0
VERTEX
  5
1BDD
330
1BC9
100
AcDbEntity
  8
HILF
100
AcDbVertex
100
AcDb2dVertex
 10
231.1577039139845
 20
461.4971793260495
 30
0.0
 70
    16
  0
VERTEX
  5
1BDE
330
1BC9
100
AcDbEntity
  8
HILF
100
AcDbVertex
100
AcDb2dVertex
 10
221.2000409211615
 20
435.6446339282593
 30
0.0
 70
    16
  0
VERTEX
  5
1BDF
330
1BC9
100
AcDbEntity
  8
HILF
100
AcDbVertex
100
AcDb2dVertex
 10
227.7856390301432
 20
416.722249333701
 30
0.0
 70
    16
  0
SEQEND
  5
1BE0
330
1BC9
100
AcDbEntity
  8
HILF
  0
LINE
  5
1BE1
330
1E
100
AcDbEntity
  8
HILF
100
AcDbLine
 10
195.0320121196288
 20
504.8591237415279
 30
0.0
 11
195.0320121196288
 21
417.5853749258739
 31
0.0
  0
POLYLINE
  5
1BE2
330
1E
100
AcDbEntity
  8
HILF
100
AcDb2dPolyline
 66
     1
 10
0.0
 20
0.0
 30
0.0
 70
     4
 75
     6
  0
VERTEX
  5
1BE3
330
1BE2
100
AcDbEntity
  8
HILF
100
AcDbVertex
100
AcDb2dVertex
 10
222.7856390301431
 20
505.722249333701
 30
0.0
 70
    16
  0
VERTEX
  5
1BE4
330
1BE2
100
AcDbEntity
  8
HILF
100
AcDbVertex
100
AcDb2dVertex
 10
222.7856390301431
 20
505.722249333701
 30
0.0
 70
     8
  0
VERTEX
  5
1BE5
330
1BE2
100
AcDbEntity
  8
HILF
100
AcDbVertex
100
AcDb2dVertex
 10
225.4278269562757
 20
498.6687309849676
 30
0.0
 70
     8
  0
VERTEX
  5
1BE6
330
1BE2
100
AcDbEntity
  8
HILF
100
AcDbVertex
100
AcDb2dVertex
 10
227.166184107721
 20
492.2212234392236
 30
0.0
 70
     8
  0
VERTEX
  5
1BE7
330
1BE2
100
AcDbEntity
  8
HILF
100
AcDbVertex
100
AcDb2dVertex
 10
228.1131589718349
 20
486.2887147573403
 30
0.0
 70
     8
  0
VERTEX
  5
1BE8
330
1BE2
100
AcDbEntity
  8
HILF
100
AcDbVertex
100
AcDb2dVertex
 10
228.3812000359729
 20
480.7801930001891
 30
0.0
 70
     8
  0
VERTEX
  5
1BE9
330
1BE2
100
AcDbEntity
  8
HILF
100
AcDbVertex
100
AcDb2dVertex
 10
228.0827557874909
 20
475.6046462286415
 30
0.0
 70
     8
  0
VERTEX
  5
1BEA
330
1BE2
100
AcDbEntity
  8
HILF
100
AcDbVertex
100
AcDb2dVertex
 10
227.3302747137444
 20
470.6710625035689
 30
0.0
 70
     8
  0
VERTEX
  5
1BEB
330
1BE2
100
AcDbEntity
  8
HILF
100
AcDbVertex
100
AcDb2dVertex
 10
226.2362053020895
 20
465.8884298858427
 30
0.0
 70
     8
  0
VERTEX
  5
1BEC
330
1BE2
100
AcDbEntity
  8
HILF
100
AcDbVertex
100
AcDb2dVertex
 10
224.9129960398816
 20
461.1657364363342
 30
0.0
 70
     8
  0
VERTEX
  5
1BED
330
1BE2
100
AcDbEntity
  8
HILF
100
AcDbVertex
100
AcDb2dVertex
 10
223.479371846557
 20
456.416075065784
 30
0.0
 70
     8
  0
VERTEX
  5
1BEE
330
1BE2
100
AcDbEntity
  8
HILF
100
AcDbVertex
100
AcDb2dVertex
 10
222.0791633698731
 20
451.5689580844098
 30
0.0
 70
     8
  0
VERTEX
  5
1BEF
330
1BE2
100
AcDbEntity
  8
HILF
100
AcDbVertex
100
AcDb2dVertex
 10
220.8624776896676
 20
446.5580026522977
 30
0.0
 70
     8
  0
VERTEX
  5
1BF0
330
1BE2
100
AcDbEntity
  8
HILF
100
AcDbVertex
100
AcDb2dVertex
 10
219.9794218857786
 20
441.3168259295344
 30
0.0
 70
     8
  0
VERTEX
  5
1BF1
330
1BE2
100
AcDbEntity
  8
HILF
100
AcDbVertex
100
AcDb2dVertex
 10
219.5801030380438
 20
435.7790450762067
 30
0.0
 70
     8
  0
VERTEX
  5
1BF2
330
1BE2
100
AcDbEntity
  8
HILF
100
AcDbVertex
100
AcDb2dVertex
 10
219.814628226301
 20
429.8782772524008
 30
0.0
 70
     8
  0
VERTEX
  5
1BF3
330
1BE2
100
AcDbEntity
  8
HILF
100
AcDbVertex
100
AcDb2dVertex
 10
220.8331045303883
 20
423.5481396182033
 30
0.0
 70
     8
  0
VERTEX
  5
1BF4
330
1BE2
100
AcDbEntity
  8
HILF
100
AcDbVertex
100
AcDb2dVertex
 10
222.7856390301432
 20
416.722249333701
 30
0.0
 70
     8
  0
VERTEX
  5
1BF5
330
1BE2
100
AcDbEntity
  8
HILF
100
AcDbVertex
100
AcDb2dVertex
 10
231.1365354103959
 20
486.0239531649786
 30
0.0
 70
    16
  0
VERTEX
  5
1BF6
330
1BE2
100
AcDbEntity
  8
HILF
100
AcDbVertex
100
AcDb2dVertex
 10
226.1577039139845
 20
461.4971793260495
 30
0.0
 70
    16
  0
VERTEX
  5
1BF7
330
1BE2
100
AcDbEntity
  8
HILF
100
AcDbVertex
100
AcDb2dVertex
 10
216.2000409211615
 20
435.6446339282593
 30
0.0
 70
    16
  0
VERTEX
  5
1BF8
330
1BE2
100
AcDbEntity
  8
HILF
100
AcDbVertex
100
AcDb2dVertex
 10
222.7856390301432
 20
416.722249333701
 30
0.0
 70
    16
  0
SEQEND
  5
1BF9
330
1BE2
100
AcDbEntity
  8
HILF
  0
POLYLINE
  5
1BFA
330
1E
100
AcDbEntity
  8
HILF
100
AcDb2dPolyline
 66
     1
 10
0.0
 20
0.0
 30
0.0
 70
     4
 75
     6
  0
VERTEX
  5
1BFB
330
1BFA
100
AcDbEntity
  8
HILF
100
AcDbVertex
100
AcDb2dVertex
 10
222.7856390301431
 20
505.722249333701
 30
0.0
 70
    16
  0
VERTEX
  5
1BFC
330
1BFA
100
AcDbEntity
  8
HILF
100
AcDbVertex
100
AcDb2dVertex
 10
222.7856390301431
 20
505.722249333701
 30
0.0
 70
     8
  0
VERTEX
  5
1BFD
330
1BFA
100
AcDbEntity
  8
HILF
100
AcDbVertex
100
AcDb2dVertex
 10
225.4278269562757
 20
498.6687309849676
 30
0.0
 70
     8
  0
VERTEX
  5
1BFE
330
1BFA
100
AcDbEntity
  8
HILF
100
AcDbVertex
100
AcDb2dVertex
 10
227.166184107721
 20
492.2212234392236
 30
0.0
 70
     8
  0
VERTEX
  5
1BFF
330
1BFA
100
AcDbEntity
  8
HILF
100
AcDbVertex
100
AcDb2dVertex
 10
228.1131589718349
 20
486.2887147573403
 30
0.0
 70
     8
  0
VERTEX
  5
1C00
330
1BFA
100
AcDbEntity
  8
HILF
100
AcDbVertex
100
AcDb2dVertex
 10
228.3812000359729
 20
480.7801930001891
 30
0.0
 70
     8
  0
VERTEX
  5
1C01
330
1BFA
100
AcDbEntity
  8
HILF
100
AcDbVertex
100
AcDb2dVertex
 10
228.0827557874909
 20
475.6046462286415
 30
0.0
 70
     8
  0
VERTEX
  5
1C02
330
1BFA
100
AcDbEntity
  8
HILF
100
AcDbVertex
100
AcDb2dVertex
 10
227.3302747137444
 20
470.6710625035689
 30
0.0
 70
     8
  0
VERTEX
  5
1C03
330
1BFA
100
AcDbEntity
  8
HILF
100
AcDbVertex
100
AcDb2dVertex
 10
226.2362053020895
 20
465.8884298858427
 30
0.0
 70
     8
  0
VERTEX
  5
1C04
330
1BFA
100
AcDbEntity
  8
HILF
100
AcDbVertex
100
AcDb2dVertex
 10
224.9129960398816
 20
461.1657364363342
 30
0.0
 70
     8
  0
VERTEX
  5
1C05
330
1BFA
100
AcDbEntity
  8
HILF
100
AcDbVertex
100
AcDb2dVertex
 10
223.479371846557
 20
456.416075065784
 30
0.0
 70
     8
  0
VERTEX
  5
1C06
330
1BFA
100
AcDbEntity
  8
HILF
100
AcDbVertex
100
AcDb2dVertex
 10
222.0791633698731
 20
451.5689580844098
 30
0.0
 70
     8
  0
VERTEX
  5
1C07
330
1BFA
100
AcDbEntity
  8
HILF
100
AcDbVertex
100
AcDb2dVertex
 10
220.8624776896676
 20
446.5580026522977
 30
0.0
 70
     8
  0
VERTEX
  5
1C08
330
1BFA
100
AcDbEntity
  8
HILF
100
AcDbVertex
100
AcDb2dVertex
 10
219.9794218857786
 20
441.3168259295344
 30
0.0
 70
     8
  0
VERTEX
  5
1C09
330
1BFA
100
AcDbEntity
  8
HILF
100
AcDbVertex
100
AcDb2dVertex
 10
219.5801030380438
 20
435.7790450762067
 30
0.0
 70
     8
  0
VERTEX
  5
1C0A
330
1BFA
100
AcDbEntity
  8
HILF
100
AcDbVertex
100
AcDb2dVertex
 10
219.814628226301
 20
429.8782772524008
 30
0.0
 70
     8
  0
VERTEX
  5
1C0B
330
1BFA
100
AcDbEntity
  8
HILF
100
AcDbVertex
100
AcDb2dVertex
 10
220.8331045303883
 20
423.5481396182033
 30
0.0
 70
     8
  0
VERTEX
  5
1C0C
330
1BFA
100
AcDbEntity
  8
HILF
100
AcDbVertex
100
AcDb2dVertex
 10
222.7856390301432
 20
416.722249333701
 30
0.0
 70
     8
  0
VERTEX
  5
1C0D
330
1BFA
100
AcDbEntity
  8
HILF
100
AcDbVertex
100
AcDb2dVertex
 10
231.1365354103959
 20
486.0239531649786
 30
0.0
 70
    16
  0
VERTEX
  5
1C0E
330
1BFA
100
AcDbEntity
  8
HILF
100
AcDbVertex
100
AcDb2dVertex
 10
226.1577039139845
 20
461.4971793260495
 30
0.0
 70
    16
  0
VERTEX
  5
1C0F
330
1BFA
100
AcDbEntity
  8
HILF
100
AcDbVertex
100
AcDb2dVertex
 10
216.2000409211615
 20
435.6446339282593
 30
0.0
 70
    16
  0
VERTEX
  5
1C10
330
1BFA
100
AcDbEntity
  8
HILF
100
AcDbVertex
100
AcDb2dVertex
 10
222.7856390301432
 20
416.722249333701
 30
0.0
 70
    16
  0
SEQEND
  5
1C11
330
1BFA
100
AcDbEntity
  8
HILF
  0
LINE
  5
1C12
330
1E
100
AcDbEntity
  8
STEMPEL
100
AcDbLine
 10
320.5593029571799
 20
505.7222493337008
 30
0.0
 11
227.7856390301431
 21
505.7222493337008
 31
0.0
  0
ARC
  5
1C13
330
1E
100
AcDbEntity
  8
STEMPEL
100
AcDbCircle
 10
183.0238248471358
 20
422.222249333701
 30
0.0
 40
12.0
100
AcDbArc
 50
270.0
 51
313.1834217961739
  0
ARC
  5
1C14
330
1E
100
AcDbEntity
  8
STEMPEL
100
AcDbCircle
 10
183.0238248471358
 20
333.5919264147028
 30
0.0
 40
12.0
100
AcDbArc
 50
46.81657820382612
 51
90.0
  0
ARC
  5
1C15
330
1E
100
AcDbEntity
  8
STEMPEL
100
AcDbCircle
 10
199.4478925527927
 20
351.0919264147027
 30
0.0
 40
12.0
100
AcDbArc
 50
226.8165782038261
 51
270.0
  0
LINE
  5
1C16
330
1E
100
AcDbEntity
  8
STEMPEL
100
AcDbLine
 10
222.7856390301432
 20
339.0919264147028
 30
0.0
 11
199.4478925527927
 21
339.0919264147028
 31
0.0
  0
LINE
  5
1C17
330
1E
100
AcDbEntity
  8
HILF
100
AcDbLine
 10
187.4397052802997
 20
412.8063054086343
 30
0.0
 11
187.4397052802997
 21
509.6381932587674
 31
0.0
  0
ARC
  5
1C18
330
1E
100
AcDbEntity
  8
STEMPEL
100
AcDbCircle
 10
199.4478925527927
 20
404.7222493337011
 30
0.0
 40
12.0
100
AcDbArc
 50
90.0
 51
133.1834217961739
  0
INSERT
  5
1C19
330
1E
100
AcDbEntity
  8
SCHRAFF
100
AcDbBlockReference
  2
*X4
 10
480.6593029571803
 20
270.351297727567
 30
0.0
 41
-1.0
 50
0.0000000000000799
1001
ACAD
1000
HATCH
1002
{
1070
    16
1000
_U,I
1040
2.0
1040
2.356194490192344
1070
     0
1002
}
  0
ARC
  5
1C1A
330
1E
100
AcDbEntity
  8
STEMPEL
100
AcDbCircle
 10
358.7017596643809
 20
547.0636651278739
 30
0.0
 40
53.44953873823229
100
AcDbArc
 50
280.5540123845485
 51
320.0213862649791
  0
ARC
  5
1C1B
330
1E
100
AcDbEntity
  8
STEMPEL
100
AcDbCircle
 10
358.767613946399
 20
546.4375626392969
 30
0.0
 40
50.82040039228512
100
AcDbArc
 50
280.5577389120924
 51
318.4387088147511
  0
INSERT
  5
1C1C
330
1E
100
AcDbEntity
  8
SCHRAFF
100
AcDbBlockReference
  2
*X2
 10
-3.556309512792267
 20
87.29815665524848
 30
0.0
1001
ACAD
1000
HATCH
1002
{
1070
    16
1000
_U,I
1040
2.0
1040
0.7853981633974483
1070
     0
1002
}
  0
LINE
  5
1C1D
330
1E
100
AcDbEntity
  8
STEMPEL
100
AcDbLine
 10
347.647111460414
 20
339.0919264147028
 30
0.0
 11
227.7856390301432
 21
339.0919264147028
 31
0.0
  0
ARC
  5
1C1E
330
1E
100
AcDbEntity
  8
STEMPEL
100
AcDbCircle
 10
368.15930295718
 20
294.5919264147028
 30
0.0
 40
48.99999999999997
100
AcDbArc
 50
44.16048042994929
 51
135.8395195700507
  0
ARC
  5
1C1F
330
1E
100
AcDbEntity
  8
HILF
100
AcDbCircle
 10
368.15930295718
 20
294.5919264147028
 30
0.0
 40
46.37517522151287
100
AcDbArc
 50
44.16910586740863
 51
135.8308941325913
  0
POLYLINE
  5
1C20
330
1E
100
AcDbEntity
  8
HILF
100
AcDb2dPolyline
 66
     1
 10
0.0
 20
0.0
 30
0.0
 70
     4
 75
     6
  0
VERTEX
  5
1C21
330
1C20
100
AcDbEntity
  8
HILF
100
AcDbVertex
100
AcDb2dVertex
 10
303.5620695310541
 20
505.7222493337008
 30
0.0
 70
    16
  0
VERTEX
  5
1C22
330
1C20
100
AcDbEntity
  8
HILF
100
AcDbVertex
100
AcDb2dVertex
 10
303.5620695310541
 20
505.7222493337008
 30
0.0
 70
     8
  0
VERTEX
  5
1C23
330
1C20
100
AcDbEntity
  8
HILF
100
AcDbVertex
100
AcDb2dVertex
 10
307.0398841691673
 20
497.3561951254078
 30
0.0
 70
     8
  0
VERTEX
  5
1C24
330
1C20
100
AcDbEntity
  8
HILF
100
AcDbVertex
100
AcDb2dVertex
 10
310.6994288539379
 20
489.9760826598037
 30
0.0
 70
     8
  0
VERTEX
  5
1C25
330
1C20
100
AcDbEntity
  8
HILF
100
AcDbVertex
100
AcDb2dVertex
 10
314.578118595868
 20
483.488564955162
 30
0.0
 70
     8
  0
VERTEX
  5
1C26
330
1C20
100
AcDbEntity
  8
HILF
100
AcDbVertex
100
AcDb2dVertex
 10
318.7133684054598
 20
477.8002950297555
 30
0.0
 70
     8
  0
VERTEX
  5
1C27
330
1C20
100
AcDbEntity
  8
HILF
100
AcDbVertex
100
AcDb2dVertex
 10
323.142593293215
 20
472.8179259018572
 30
0.0
 70
     8
  0
VERTEX
  5
1C28
330
1C20
100
AcDbEntity
  8
HILF
100
AcDbVertex
100
AcDb2dVertex
 10
327.9032082696359
 20
468.4481105897409
 30
0.0
 70
     8
  0
VERTEX
  5
1C29
330
1C20
100
AcDbEntity
  8
HILF
100
AcDbVertex
100
AcDb2dVertex
 10
333.0326283452242
 20
464.5975021116794
 30
0.0
 70
     8
  0
VERTEX
  5
1C2A
330
1C20
100
AcDbEntity
  8
HILF
100
AcDbVertex
100
AcDb2dVertex
 10
338.5682685304822
 20
461.172753485946
 30
0.0
 70
     8
  0
VERTEX
  5
1C2B
330
1C20
100
AcDbEntity
  8
HILF
100
AcDbVertex
100
AcDb2dVertex
 10
344.5246605486466
 20
458.1017056552136
 30
0.0
 70
     8
  0
VERTEX
  5
1C2C
330
1C20
100
AcDbEntity
  8
HILF
100
AcDbVertex
100
AcDb2dVertex
 10
350.8248029738941
 20
455.3969512597566
 30
0.0
 70
     8
  0
VERTEX
  5
1C2D
330
1C20
100
AcDbEntity
  8
HILF
100
AcDbVertex
100
AcDb2dVertex
 10
357.3688110931363
 20
453.092270864249
 30
0.0
 70
     8
  0
VERTEX
  5
1C2E
330
1C20
100
AcDbEntity
  8
HILF
100
AcDbVertex
100
AcDb2dVertex
 10
364.0568001932846
 20
451.2214450333649
 30
0.0
 70
     8
  0
VERTEX
  5
1C2F
330
1C20
100
AcDbEntity
  8
HILF
100
AcDbVertex
100
AcDb2dVertex
 10
370.7888855612505
 20
449.8182543317782
 30
0.0
 70
     8
  0
VERTEX
  5
1C30
330
1C20
100
AcDbEntity
  8
HILF
100
AcDbVertex
100
AcDb2dVertex
 10
377.4651824839456
 20
448.916479324163
 30
0.0
 70
     8
  0
VERTEX
  5
1C31
330
1C20
100
AcDbEntity
  8
HILF
100
AcDbVertex
100
AcDb2dVertex
 10
383.9858062482814
 20
448.5499005751937
 30
0.0
 70
     8
  0
VERTEX
  5
1C32
330
1C20
100
AcDbEntity
  8
HILF
100
AcDbVertex
100
AcDb2dVertex
 10
390.2508721411694
 20
448.7522986495443
 30
0.0
 70
     8
  0
VERTEX
  5
1C33
330
1C20
100
AcDbEntity
  8
HILF
100
AcDbVertex
100
AcDb2dVertex
 10
396.1782007661747
 20
449.5443777632044
 30
0.0
 70
     8
  0
VERTEX
  5
1C34
330
1C20
100
AcDbEntity
  8
HILF
100
AcDbVertex
100
AcDb2dVertex
 10
401.7564339934772
 20
450.8945367374263
 30
0.0
 70
     8
  0
VERTEX
  5
1C35
330
1C20
100
AcDbEntity
  8
HILF
100
AcDbVertex
100
AcDb2dVertex
 10
406.9919190099104
 20
452.7580980447782
 30
0.0
 70
     8
  0
VERTEX
  5
1C36
330
1C20
100
AcDbEntity
  8
HILF
100
AcDbVertex
100
AcDb2dVertex
 10
411.8910030023077
 20
455.0903841578278
 30
0.0
 70
     8
  0
VERTEX
  5
1C37
330
1C20
100
AcDbEntity
  8
HILF
100
AcDbVertex
100
AcDb2dVertex
 10
416.4600331575027
 20
457.8467175491434
 30
0.0
 70
     8
  0
VERTEX
  5
1C38
330
1C20
100
AcDbEntity
  8
HILF
100
AcDbVertex
100
AcDb2dVertex
 10
420.7053566623286
 20
460.982420691293
 30
0.0
 70
     8
  0
VERTEX
  5
1C39
330
1C20
100
AcDbEntity
  8
HILF
100
AcDbVertex
100
AcDb2dVertex
 10
424.6333207036191
 20
464.4528160568443
 30
0.0
 70
     8
  0
VERTEX
  5
1C3A
330
1C20
100
AcDbEntity
  8
HILF
100
AcDbVertex
100
AcDb2dVertex
 10
428.2502724682074
 20
468.2132261183653
 30
0.0
 70
     8
  0
VERTEX
  5
1C3B
330
1C20
100
AcDbEntity
  8
HILF
100
AcDbVertex
100
AcDb2dVertex
 10
431.5618353362432
 20
472.2235563893618
 30
0.0
 70
     8
  0
VERTEX
  5
1C3C
330
1C20
100
AcDbEntity
  8
HILF
100
AcDbVertex
100
AcDb2dVertex
 10
434.5707374611396
 20
476.4620445470905
 30
0.0
 70
     8
  0
VERTEX
  5
1C3D
330
1C20
100
AcDbEntity
  8
HILF
100
AcDbVertex
100
AcDb2dVertex
 10
437.2789831896255
 20
480.911511309745
 30
0.0
 70
     8
  0
VERTEX
  5
1C3E
330
1C20
100
AcDbEntity
  8
HILF
100
AcDbVertex
100
AcDb2dVertex
 10
439.6885768684301
 20
485.5547773955195
 30
0.0
 70
     8
  0
VERTEX
  5
1C3F
330
1C20
100
AcDbEntity
  8
HILF
100
AcDbVertex
100
AcDb2dVertex
 10
441.8015228442825
 20
490.3746635226084
 30
0.0
 70
     8
  0
VERTEX
  5
1C40
330
1C20
100
AcDbEntity
  8
HILF
100
AcDbVertex
100
AcDb2dVertex
 10
443.6198254639119
 20
495.3539904092053
 30
0.0
 70
     8
  0
VERTEX
  5
1C41
330
1C20
100
AcDbEntity
  8
HILF
100
AcDbVertex
100
AcDb2dVertex
 10
445.1454890740473
 20
500.4755787735048
 30
0.0
 70
     8
  0
VERTEX
  5
1C42
330
1C20
100
AcDbEntity
  8
HILF
100
AcDbVertex
100
AcDb2dVertex
 10
446.3805180214178
 20
505.7222493337008
 30
0.0
 70
     8
  0
VERTEX
  5
1C43
330
1C20
100
AcDbEntity
  8
HILF
100
AcDbVertex
100
AcDb2dVertex
 10
312.627192957592
 20
482.0152073597991
 30
0.0
 70
    16
  0
VERTEX
  5
1C44
330
1C20
100
AcDbEntity
  8
HILF
100
AcDbVertex
100
AcDb2dVertex
 10
333.8361605819854
 20
457.6259495328669
 30
0.0
 70
    16
  0
VERTEX
  5
1C45
330
1C20
100
AcDbEntity
  8
HILF
100
AcDbVertex
100
AcDb2dVertex
 10
394.0422597095562
 20
442.3228865109426
 30
0.0
 70
    16
  0
VERTEX
  5
1C46
330
1C20
100
AcDbEntity
  8
HILF
100
AcDbVertex
100
AcDb2dVertex
 10
431.5000334268056
 20
465.5962963206288
 30
0.0
 70
    16
  0
VERTEX
  5
1C47
330
1C20
100
AcDbEntity
  8
HILF
100
AcDbVertex
100
AcDb2dVertex
 10
443.472838737246
 20
491.579622051366
 30
0.0
 70
    16
  0
VERTEX
  5
1C48
330
1C20
100
AcDbEntity
  8
HILF
100
AcDbVertex
100
AcDb2dVertex
 10
446.3805180214178
 20
505.7222493337008
 30
0.0
 70
    16
  0
SEQEND
  5
1C49
330
1C20
100
AcDbEntity
  8
HILF
  0
LINE
  5
1C4A
330
1E
100
AcDbEntity
  8
HILF
100
AcDbLine
 10
366.1077040976721
 20
463.411071418674
 30
0.0
 11
326.9910626799128
 21
505.1440682120662
 31
0.0
  0
LINE
  5
1C4B
330
1E
100
AcDbEntity
  8
STEMPEL
100
AcDbLine
 10
399.6593029571799
 20
512.7222493337008
 30
0.0
 11
336.65930295718
 21
512.7222493337008
 31
0.0
  0
LINE
  5
1C4C
330
1E
100
AcDbEntity
  8
STEMPEL
100
AcDbLine
 10
336.6593029571799
 20
512.7222493337008
 30
0.0
 11
399.6593029571799
 21
512.7222493337008
 31
0.0
  0
LINE
  5
1C4D
330
1E
100
AcDbEntity
  8
STEMPEL
100
AcDbLine
 10
322.1593029571799
 20
512.7222493337008
 30
0.0
 11
414.1593029571799
 21
512.7222493337008
 31
0.0
  0
LINE
  5
1C4E
330
1E
100
AcDbEntity
  8
MITTEL
100
AcDbLine
 10
368.1593029571799
 20
529.7784306200784
 30
0.0
 11
368.15930295718
 21
461.222249333701
 31
0.0
  0
LINE
  5
1C4F
330
1E
100
AcDbEntity
  8
STEMPEL
100
AcDbLine
 10
309.6602218637296
 20
516.9647849587372
 30
0.0
 11
308.0995879574704
 21
510.7222493337008
 31
0.0
  0
LINE
  5
1C50
330
1E
100
AcDbEntity
  8
MITTEL
100
AcDbLine
 10
420.1593029571798
 20
539.322249333701
 30
0.0
 11
420.1593029571799
 21
505.7222493337008
 31
0.0
  0
LINE
  5
1C51
330
1E
100
AcDbEntity
  8
HILF
100
AcDbLine
 10
417.1593029571798
 20
519.7222493337007
 30
0.0
 11
417.1593029571798
 21
505.7222493337008
 31
0.0
  0
LINE
  5
1C52
330
1E
100
AcDbEntity
  8
STEMPEL
100
AcDbLine
 10
416.1593029571797
 20
519.7222493337007
 30
0.0
 11
416.1593029571798
 21
505.7222493337008
 31
0.0
  0
LINE
  5
1C53
330
1E
100
AcDbEntity
  8
HILF
100
AcDbLine
 10
423.1593029571797
 20
519.7222493337007
 30
0.0
 11
423.1593029571798
 21
505.7222493337008
 31
0.0
  0
LINE
  5
1C54
330
1E
100
AcDbEntity
  8
STEMPEL
100
AcDbLine
 10
424.1593029571798
 20
519.7222493337007
 30
0.0
 11
424.1593029571798
 21
505.7222493337008
 31
0.0
  0
LINE
  5
1C55
330
1E
100
AcDbEntity
  8
MITTEL
100
AcDbLine
 10
316.1593029571799
 20
539.3222493337001
 30
0.0
 11
316.1593029571799
 21
505.7222493337008
 31
0.0
  0
LINE
  5
1C56
330
1E
100
AcDbEntity
  8
STEMPEL
100
AcDbLine
 10
426.6583840506302
 20
516.9647849587372
 30
0.0
 11
428.2190179568892
 21
510.7222493337009
 31
0.0
  0
LINE
  5
1C57
330
1E
100
AcDbEntity
  8
HILF
100
AcDbLine
 10
313.1593029571799
 20
519.7222493337007
 30
0.0
 11
313.1593029571799
 21
505.7222493337008
 31
0.0
  0
LINE
  5
1C58
330
1E
100
AcDbEntity
  8
STEMPEL
100
AcDbLine
 10
312.1593029571799
 20
519.7222493337007
 30
0.0
 11
312.1593029571799
 21
505.7222493337008
 31
0.0
  0
LINE
  5
1C59
330
1E
100
AcDbEntity
  8
HILF
100
AcDbLine
 10
319.1593029571799
 20
519.7222493337007
 30
0.0
 11
319.1593029571799
 21
505.7222493337008
 31
0.0
  0
LINE
  5
1C5A
330
1E
100
AcDbEntity
  8
STEMPEL
100
AcDbLine
 10
320.1593029571799
 20
519.7222493337007
 30
0.0
 11
320.1593029571799
 21
505.7222493337008
 31
0.0
  0
ARC
  5
1C5B
330
1E
100
AcDbEntity
  8
STEMPEL
100
AcDbCircle
 10
400.508045116501
 20
534.7222493337008
 30
0.0
 40
20.0
100
AcDbArc
 50
234.0928865949658
 51
266.8730939971367
  0
ARC
  5
1C5C
330
1E
100
AcDbEntity
  8
STEMPEL
100
AcDbCircle
 10
400.508045116501
 20
534.7222493337008
 30
0.0
 40
22.0
100
AcDbArc
 50
234.0928865949658
 51
268.3852087048835
  0
INSERT
  5
1C5D
330
1E
100
AcDbEntity
  8
SCHRAFF
100
AcDbBlockReference
  2
*X6
 10
1400.169478625734
 20
78.93032433385157
 30
0.0
 41
-1.0
 50
0.0000000000000799
1001
ACAD
1000
HATCH
1002
{
1070
    16
1000
_U,I
1040
2.0
1040
0.7853981633974483
1070
     0
1002
}
  0
INSERT
  5
1C5E
330
1E
100
AcDbEntity
  8
SCHRAFF
100
AcDbBlockReference
  2
*X3
 10
736.3186059143605
 20
0.0000000000005116
 30
0.0
 41
-1.0
 50
0.0000000000000799
1001
ACAD
1000
HATCH
1002
{
1070
    16
1000
NET,I
1040
10.0
1040
0.7853981633974483
1002
}
  0
LINE
  5
1C5F
330
1E
100
AcDbEntity
  8
STEMPEL
100
AcDbLine
 10
428.5986690509209
 20
517.4498562088099
 30
0.0
 11
430.1593029571799
 21
511.2073205837735
 31
0.0
  0
LINE
  5
1C60
330
1E
100
AcDbEntity
  8
STEMPEL
100
AcDbLine
 10
403.875404936715
 20
517.1994889943521
 30
0.0
 11
402.2956225047147
 21
514.2905303517474
 31
0.0
  0
LINE
  5
1C61
330
1E
100
AcDbEntity
  8
STEMPEL
100
AcDbLine
 10
403.1593029571799
 20
515.8808827102468
 30
0.0
 11
403.15930295718
 21
512.7222493337008
 31
0.0
  0
LINE
  5
1C62
330
1E
100
AcDbEntity
  8
STEMPEL
100
AcDbLine
 10
414.1593029571799
 20
517.7222493337008
 30
0.0
 11
414.1593029571799
 21
512.7222493337008
 31
0.0
  0
LINE
  5
1C63
330
1E
100
AcDbEntity
  8
STEMPEL
100
AcDbLine
 10
366.15930295718
 20
514.722249333701
 30
0.0
 11
366.15930295718
 21
512.7222493337008
 31
0.0
  0
LINE
  5
1C64
330
1E
100
AcDbEntity
  8
STEMPEL
100
AcDbLine
 10
332.443200977645
 20
517.1994889943518
 30
0.0
 11
334.0229834096452
 21
514.2905303517473
 31
0.0
  0
LINE
  5
1C65
330
1E
100
AcDbEntity
  8
STEMPEL
100
AcDbLine
 10
333.1593029571799
 20
515.8808827102464
 30
0.0
 11
333.1593029571799
 21
512.7222493337008
 31
0.0
  0
LINE
  5
1C66
330
1E
100
AcDbEntity
  8
STEMPEL
100
AcDbLine
 10
307.7199368634389
 20
517.4498562088099
 30
0.0
 11
306.1593029571799
 21
511.2073205837734
 31
0.0
  0
LINE
  5
1C67
330
1E
100
AcDbEntity
  8
STEMPEL
100
AcDbLine
 10
322.15930295718
 20
517.7222493337008
 30
0.0
 11
322.1593029571799
 21
512.7222493337008
 31
0.0
  0
LINE
  5
1C6B
330
1E
100
AcDbEntity
  8
STEMPEL
100
AcDbLine
 10
612.8527032926115
 20
416.722249333701
 30
0.0
 11
227.7856390301432
 21
416.7222493337008
 31
0.0
  0
LINE
  5
1C6C
330
1E
100
AcDbEntity
  8
STEMPEL
100
AcDbLine
 10
612.8527032926115
 20
505.722249333701
 30
0.0
 11
415.7593029571798
 21
505.7222493337008
 31
0.0
  0
LINE
  5
1C6D
330
1E
100
AcDbEntity
  8
STEMPEL
100
AcDbLine
 10
612.8527032926115
 20
339.0919264147028
 30
0.0
 11
388.6714944539459
 21
339.0919264147028
 31
0.0
  0
DIMENSION
  5
1C6F
330
1E
100
AcDbEntity
  8
BEM
100
AcDbDimension
  2
*D8
 10
94.95342876112351
 20
512.222249333701
 30
0.0
 11
88.45342876112344
 21
461.222249333701
 31
0.0
 70
    32
  1
%%c<>
 71
     5
 42
102.0
  3
Standard
100
AcDbAlignedDimension
 13
108.0238248471358
 23
410.222249333701
 33
0.0
 14
108.0238248471357
 24
512.222249333701
 34
0.0
 50
90.0
100
AcDbRotatedDimension
1001
ACAD
1000
DSTYLE
1002
{
1070
    40
1040
2.0
1070
    41
1040
3.5
1070
    42
1040
1.0
1070
    43
1040
7.0
1070
    44
1040
1.0
1070
    73
1070
     0
1070
    74
1070
     0
1070
    77
1070
     1
1070
    78
1070
     8
1070
    79
1070
     2
1070
   140
1040
3.5
1070
   141
1040
1.5
1070
   146
1040
0.5142857142857144
1070
   147
1040
1.5
1070
   172
1070
     1
1070
   178
1070
     1
1070
   179
1070
     2
1070
   271
1070
     2
1070
   272
1070
     2
1070
   284
1070
     8
1070
   285
1070
     8
1070
   286
1070
     8
1002
}
  0
LINE
  5
1C70
330
1E
100
AcDbEntity
  8
STEMPEL
100
AcDbLine
 10
108.0238248471357
 20
512.222249333701
 30
0.0
 11
108.0238248471358
 21
410.222249333701
 31
0.0
  0
LINE
  5
1C71
330
1E
100
AcDbEntity
  8
STEMPEL
100
AcDbLine
 10
183.0238248471358
 20
512.222249333701
 30
0.0
 11
108.0238248471357
 21
512.222249333701
 31
0.0
  0
DIMENSION
  5
1C72
330
1E
100
AcDbEntity
  8
BEM
100
AcDbDimension
  2
*D9
 10
183.0238248471358
 20
388.3340167450094
 30
0.0
 11
145.5238248471358
 21
394.8340167450094
 31
0.0
 70
    32
 71
     5
 42
75.0
  3
Standard
100
AcDbAlignedDimension
 13
108.0238248471358
 23
410.222249333701
 33
0.0
 14
183.0238248471358
 24
410.222249333701
 34
0.0
100
AcDbRotatedDimension
1001
ACAD
1000
DSTYLE
1002
{
1070
    40
1040
2.0
1070
    41
1040
3.5
1070
    42
1040
1.0
1070
    43
1040
7.0
1070
    44
1040
1.0
1070
    73
1070
     0
1070
    74
1070
     0
1070
    77
1070
     1
1070
    78
1070
     8
1070
    79
1070
     2
1070
   140
1040
3.5
1070
   141
1040
1.5
1070
   146
1040
0.5142857142857144
1070
   147
1040
1.5
1070
   172
1070
     1
1070
   178
1070
     1
1070
   179
1070
     2
1070
   271
1070
     2
1070
   272
1070
     2
1070
   284
1070
     8
1070
   285
1070
     8
1070
   286
1070
     8
1002
}
  0
LINE
  5
1C73
330
1E
100
AcDbEntity
  8
STEMPEL
100
AcDbLine
 10
183.0238248471358
 20
345.5919264147028
 30
0.0
 11
108.0238248471357
 21
345.5919264147028
 31
0.0
  0
LINE
  5
1C74
330
1E
100
AcDbEntity
  8
STEMPEL
100
AcDbLine
 10
183.0238248471358
 20
410.222249333701
 30
0.0
 11
108.0238248471358
 21
410.222249333701
 31
0.0
  0
LINE
  5
1C75
330
1E
100
AcDbEntity
  8
MITTEL
  6
STRICHPUNKT
100
AcDbLine
 10
753.1593029571799
 20
461.2222493337007
 30
0.0
 11
103.0238248471359
 21
461.222249333701
 31
0.0
  0
LINE
  5
1C76
330
1E
100
AcDbEntity
  8
STEMPEL
  6
Continuous
100
AcDbLine
 10
748.15930295718
 20
246.8265217443629
 30
0.0
 11
745.9509607334303
 21
245.7967548536012
 31
0.0
  0
ARC
  5
1C77
330
1E
100
AcDbEntity
  8
STEMPEL
  6
Continuous
100
AcDbCircle
 10
735.5545514946091
 20
268.0919264147028
 30
0.0
 40
24.6
100
AcDbArc
 50
270.0
 51
294.9999999999935
  0
ARC
  5
1C78
330
1E
100
AcDbEntity
  8
STEMPEL
100
AcDbCircle
 10
712.819169893985
 20
234.9919264147029
 30
0.0
 40
12.0
100
AcDbArc
 50
64.87793981336759
 51
90.0
  0
ARC
  5
1C79
330
1E
100
AcDbEntity
  8
STEMPEL
100
AcDbCircle
 10
728.5274479663899
 20
268.4919264147029
 30
0.0
 40
25.00009324312574
100
AcDbArc
 50
244.7888220683149
 51
270.1564859543343
  0
LINE
  5
1C7A
330
1E
100
AcDbEntity
  8
STEMPEL
100
AcDbLine
 10
735.5545514946091
 20
243.4919264147029
 30
0.0
 11
728.4591679181992
 21
243.4919264147029
 31
0.0
  0
ARC
  5
1C7B
330
1E
100
AcDbEntity
  8
STEMPEL
100
AcDbCircle
 10
612.8527032926115
 20
242.0919264147028
 30
0.0
 40
8.0
100
AcDbArc
 50
57.67193587783641
 51
90.0
  0
ARC
  5
1C7C
330
1E
100
AcDbEntity
  8
STEMPEL
100
AcDbCircle
 10
623.548029374597
 20
258.9919264147029
 30
0.0
 40
12.0
100
AcDbArc
 50
237.6719358778364
 51
270.0
  0
LINE
  5
1C7D
330
1E
100
AcDbEntity
  8
STEMPEL
100
AcDbLine
 10
712.819169893985
 20
246.9919264147029
 30
0.0
 11
623.548029374597
 21
246.9919264147029
 31
0.0
  0
DIMENSION
  5
1C7E
330
1E
100
AcDbEntity
  8
BEM
100
AcDbDimension
  2
*D10
 10
618.15930295718
 20
220.4931488045732
 30
0.0
 11
683.1593029571799
 21
226.9931488045731
 31
0.0
 70
    32
 71
     5
 42
130.0
  3
Standard
100
AcDbAlignedDimension
 13
748.15930295718
 23
246.8265217443629
 33
0.0
 14
618.15930295718
 24
248.2699103916675
 34
0.0
100
AcDbRotatedDimension
1001
ACAD
1000
DSTYLE
1002
{
1070
    40
1040
2.0
1070
    41
1040
3.5
1070
    42
1040
1.0
1070
    43
1040
7.0
1070
    44
1040
1.0
1070
    73
1070
     0
1070
    74
1070
     0
1070
    77
1070
     1
1070
    78
1070
     8
1070
    79
1070
     2
1070
   140
1040
3.5
1070
   141
1040
1.5
1070
   146
1040
0.5142857142857144
1070
   147
1040
1.5
1070
   172
1070
     1
1070
   178
1070
     1
1070
   179
1070
     2
1070
   271
1070
     2
1070
   272
1070
     2
1070
   284
1070
     8
1070
   285
1070
     8
1070
   286
1070
     8
1002
}
  0
LINE
  5
1C7F
330
1E
100
AcDbEntity
  8
MITTEL
100
AcDbLine
 10
420.1593029571799
 20
284.5919264147029
 30
0.0
 11
420.1593029571799
 21
304.5919264147029
 31
0.0
  0
ARC
  5
1C80
330
1E
100
AcDbEntity
  8
STEMPEL
100
AcDbCircle
 10
414.1593029571799
 20
294.5919264147028
 30
0.0
 40
16.0
100
AcDbArc
 50
315.8395195700507
 51
44.16048042994929
  0
INSERT
  5
1C81
330
1E
100
AcDbEntity
  8
HILF
100
AcDbBlockReference
  2
8DI931D
 10
420.1593029571799
 20
294.5919264147029
 30
0.0
  0
ARC
  5
1C82
330
1E
100
AcDbEntity
  8
HILF
100
AcDbCircle
 10
414.1593029571799
 20
294.5919264147028
 30
0.0
 40
13.38
100
AcDbArc
 50
315.8308941325913
 51
44.16910586740863
  0
CIRCLE
  5
1C83
330
1E
100
AcDbEntity
  8
STEMPEL
100
AcDbCircle
 10
420.1593029571799
 20
294.5919264147028
 30
0.0
 40
5.65
  0
ARC
  5
1C84
330
1E
100
AcDbEntity
  8
STEMPEL
100
AcDbCircle
 10
351.1009696238466
 20
310.0405375258139
 30
0.0
 40
2.294444444444444
100
AcDbArc
 50
90.0
 51
180.0
  0
LINE
  5
1C85
330
1E
100
AcDbEntity
  8
STEMPEL
100
AcDbLine
 10
353.8231918460687
 20
295.301648636925
 30
0.0
 11
350.0509696238466
 21
295.301648636925
 31
0.0
  0
LINE
  5
1C86
330
1E
100
AcDbEntity
  8
STEMPEL
100
AcDbLine
 10
351.8479160032125
 20
297.7905375258139
 30
0.0
 11
350.0509696238466
 21
297.7905375258138
 31
0.0
  0
ARC
  5
1C87
330
1E
100
AcDbEntity
  8
STEMPEL
100
AcDbCircle
 10
354.6593029571799
 20
302.9238708591472
 30
0.0
 40
5.852777777777742
100
AcDbArc
 50
298.7083210227483
 51
125.0821845754665
  0
CIRCLE
  5
1C88
330
1E
100
AcDbEntity
  8
STEMPEL
100
AcDbCircle
 10
354.6593029571799
 20
302.9238708591472
 30
0.0
 40
3.363888888888853
  0
LINE
  5
1C89
330
1E
100
AcDbEntity
  8
STEMPEL
100
AcDbLine
 10
358.0231918460685
 20
295.301648636925
 30
0.0
 11
356.3120807349575
 21
295.301648636925
 31
0.0
  0
LINE
  5
1C8A
330
1E
100
AcDbEntity
  8
STEMPEL
100
AcDbLine
 10
359.73430295718
 20
297.7905375258139
 30
0.0
 11
357.4706899111472
 21
297.7905375258139
 31
0.0
  0
ARC
  5
1C8B
330
1E
100
AcDbEntity
  8
STEMPEL
100
AcDbCircle
 10
359.73430295718
 20
297.0127597480362
 30
0.0
 40
0.7777777777777778
100
AcDbArc
 50
0.0
 51
90.0
  0
LINE
  5
1C8C
330
1E
100
AcDbEntity
  8
STEMPEL
100
AcDbLine
 10
359.2676362905133
 20
309.8460930813694
 30
0.0
 11
351.68430295718
 21
309.8460930813694
 31
0.0
  0
LINE
  5
1C8D
330
1E
100
AcDbEntity
  8
STEMPEL
100
AcDbLine
 10
359.2676362905133
 20
312.3349819702583
 30
0.0
 11
351.1009696238466
 21
312.3349819702583
 31
0.0
  0
POINT
  5
1C8E
330
1E
100
AcDbEntity
  8
DEFPOINTS
  6
ByBlock
 62
     0
100
AcDbPoint
 10
354.6593029571799
 20
312.3349819702583
 30
0.0
  0
ARC
  5
1C8F
330
1E
100
AcDbEntity
  8
STEMPEL
100
AcDbCircle
 10
359.2676362905133
 20
311.0905375258139
 30
0.0
 40
1.244444444444462
100
AcDbArc
 50
270.0
 51
90.0
  0
LINE
  5
1C90
330
1E
100
AcDbEntity
  8
STEMPEL
100
AcDbLine
 10
351.2954140682911
 20
309.4572041924805
 30
0.0
 11
351.2954140682911
 21
307.7133655359636
 31
0.0
  0
ARC
  5
1C91
330
1E
100
AcDbEntity
  8
STEMPEL
100
AcDbCircle
 10
351.68430295718
 20
309.4572041924805
 30
0.0
 40
0.3888888888888889
100
AcDbArc
 50
90.0
 51
180.0
  0
ARC
  5
1C92
330
1E
100
AcDbEntity
  8
STEMPEL
100
AcDbCircle
 10
350.0509696238466
 20
296.5460930813695
 30
0.0
 40
1.244444444444462
100
AcDbArc
 50
90.0
 51
270.0
  0
LINE
  5
1C93
330
1E
100
AcDbEntity
  8
STEMPEL
100
AcDbLine
 10
348.806525179402
 20
310.0405375258139
 30
0.0
 11
348.806525179402
 21
302.9238708591472
 31
0.0
  0
ARC
  5
1C94
330
1E
100
AcDbEntity
  8
STEMPEL
100
AcDbCircle
 10
354.6593029571799
 20
302.9238708591472
 30
0.0
 40
5.852777777777742
100
AcDbArc
 50
180.0
 51
241.2916789772517
  0
LINE
  5
1C95
330
1E
100
AcDbEntity
  8
STEMPEL
100
AcDbLine
 10
350.7141201240076
 20
291.0692306869678
 30
0.0
 11
353.2864062493854
 21
291.5022226518913
 31
0.0
  0
ARC
  5
1C96
330
1E
100
AcDbEntity
  8
STEMPEL
100
AcDbCircle
 10
357.1676362905131
 20
292.3460930813694
 30
0.0
 40
0.8555555555555024
100
AcDbArc
 50
180.0
 51
0.0
  0
ARC
  5
1C97
330
1E
100
AcDbEntity
  8
STEMPEL
100
AcDbCircle
 10
353.1620807349577
 20
292.151648636925
 30
0.0
 40
0.6611111111111199
100
AcDbArc
 50
279.9999999999986
 51
0.0
  0
LINE
  5
1C98
330
1E
100
AcDbEntity
  8
STEMPEL
100
AcDbLine
 10
353.8231918460687
 20
295.301648636925
 30
0.0
 11
353.8231918460687
 21
292.151648636925
 31
0.0
  0
LINE
  5
1C99
330
1E
100
AcDbEntity
  8
STEMPEL
100
AcDbLine
 10
356.3120807349575
 20
295.301648636925
 30
0.0
 11
356.3120807349575
 21
292.3460930813694
 31
0.0
  0
LINE
  5
1C9A
330
1E
100
AcDbEntity
  8
STEMPEL
100
AcDbLine
 10
358.0231918460685
 20
295.301648636925
 30
0.0
 11
358.0231918460685
 21
292.3460930813694
 31
0.0
  0
LINE
  5
1C9B
330
1E
100
AcDbEntity
  8
STEMPEL
100
AcDbLine
 10
360.5120807349576
 20
297.0127597480362
 30
0.0
 11
360.5120807349576
 21
292.3460930813694
 31
0.0
  0
ARC
  5
1C9C
330
1E
100
AcDbEntity
  8
STEMPEL
100
AcDbCircle
 10
354.6593029571799
 20
282.701648636925
 30
0.0
 40
5.852777777777742
100
AcDbArc
 50
180.0
 51
125.0821845754612
  0
LINE
  5
1C9D
330
1E
100
AcDbEntity
  8
STEMPEL
100
AcDbLine
 10
351.2954140682909
 20
288.3142774913621
 30
0.0
 11
351.2954140682911
 21
287.4911433137421
 31
0.0
  0
LINE
  5
1C9E
330
1E
100
AcDbEntity
  8
STEMPEL
100
AcDbLine
 10
348.806525179402
 20
288.8196391069475
 30
0.0
 11
348.806525179402
 21
282.701648636925
 31
0.0
  0
CIRCLE
  5
1C9F
330
1E
100
AcDbEntity
  8
STEMPEL
100
AcDbCircle
 10
354.6593029571799
 20
282.701648636925
 30
0.0
 40
3.363888888888853
  0
ARC
  5
1CA0
330
1E
100
AcDbEntity
  8
STEMPEL
100
AcDbCircle
 10
353.1620807349577
 20
292.151648636925
 30
0.0
 40
3.150000000000008
100
AcDbArc
 50
279.9999999999986
 51
308.6930109383293
  0
LINE
  5
1CA1
330
1E
100
AcDbEntity
  8
STEMPEL
100
AcDbLine
 10
351.619749602418
 20
288.6977712100724
 30
0.0
 11
353.6995477198604
 21
289.0478628521455
 31
0.0
  0
ARC
  5
1CA2
330
1E
100
AcDbEntity
  8
STEMPEL
100
AcDbCircle
 10
351.6843029571798
 20
288.3142774913621
 30
0.0
 40
0.3888888888888889
100
AcDbArc
 50
99.55500261066136
 51
180.0
  0
LINE
  5
1CA3
330
1E
100
AcDbEntity
  8
MITTEL
100
AcDbLine
 10
354.6593029571799
 20
313.480015532485
 30
0.0
 11
354.6593029571799
 21
275.7462868585766
 31
0.0
  0
ARC
  5
1CA4
330
1E
100
AcDbEntity
  8
STEMPEL
100
AcDbCircle
 10
357.1676362905131
 20
292.3460930813694
 30
0.0
 40
3.344444444444391
100
AcDbArc
 50
232.49196016292
 51
0.0
  0
ARC
  5
1CA5
330
1E
100
AcDbEntity
  8
STEMPEL
100
AcDbCircle
 10
351.1009696238466
 20
288.8196391069475
 30
0.0
 40
2.294444444444444
100
AcDbArc
 50
99.99999999999861
 51
180.0
  0
LINE
  5
1CA6
330
1E
100
AcDbEntity
  8
STEMPEL
100
AcDbLine
 10
403.3114768702234
 20
260.4550743456098
 30
0.0
 11
425.6375638267451
 21
283.4451992084684
 31
0.0
  0
LINE
  5
1CA7
330
1E
100
AcDbEntity
  8
HILF
100
AcDbLine
 10
401.4235862694012
 20
262.2787041589405
 30
0.0
 11
423.7565952281331
 21
285.2690308845629
 31
0.0
  0
ARC
  5
1CA8
330
1E
100
AcDbEntity
  8
STEMPEL
100
AcDbCircle
 10
322.15930295718
 20
294.5919264147028
 30
0.0
 40
16.0
100
AcDbArc
 50
135.8395195700507
 51
224.1604804299493
  0
LINE
  5
1CA9
330
1E
100
AcDbEntity
  8
MITTEL
100
AcDbLine
 10
316.1593029571799
 20
284.5919264147029
 30
0.0
 11
316.1593029571799
 21
304.5919264147029
 31
0.0
  0
ARC
  5
1CAA
330
1E
100
AcDbEntity
  8
HILF
100
AcDbCircle
 10
322.15930295718
 20
294.5919264147028
 30
0.0
 40
13.38
100
AcDbArc
 50
135.8308941325913
 51
224.1691058674086
  0
INSERT
  5
1CAB
330
1E
100
AcDbEntity
  8
HILF
100
AcDbBlockReference
  2
8DI931D
 10
316.1593029571799
 20
294.5919264147029
 30
0.0
  0
CIRCLE
  5
1CAC
330
1E
100
AcDbEntity
  8
STEMPEL
100
AcDbCircle
 10
316.1593029571799
 20
294.5919264147028
 30
0.0
 40
5.65
  0
LINE
  5
1CAD
330
1E
100
AcDbEntity
  8
STEMPEL
100
AcDbLine
 10
310.6810420876146
 20
283.4451992084684
 30
0.0
 11
333.0071290441365
 21
260.4550743456098
 31
0.0
  0
LINE
  5
1CAE
330
1E
100
AcDbEntity
  8
HILF
100
AcDbLine
 10
312.5620106862267
 20
285.2690308845629
 30
0.0
 11
334.8950196449586
 21
262.2787041589405
 31
0.0
  0
ARC
  5
1CAF
330
1E
100
AcDbEntity
  8
STEMPEL
100
AcDbCircle
 10
199.4478925527927
 20
238.0919264147029
 30
0.0
 40
12.0
100
AcDbArc
 50
90.0
 51
133.1834217961739
  0
ARC
  5
1CB0
330
1E
100
AcDbEntity
  8
STEMPEL
100
AcDbCircle
 10
183.0238248471358
 20
255.5919264147028
 30
0.0
 40
12.0
100
AcDbArc
 50
270.0
 51
313.1834217961739
  0
LINE
  5
1CB1
330
1E
100
AcDbEntity
  8
STEMPEL
100
AcDbLine
 10
222.7856390301432
 20
250.0919264147028
 30
0.0
 11
199.4478925527927
 21
250.0919264147028
 31
0.0
  0
LINE
  5
1CB2
330
1E
100
AcDbEntity
  8
STEMPEL
100
AcDbLine
 10
347.647111460414
 20
250.0919264147028
 30
0.0
 11
227.7856390301432
 21
250.0919264147028
 31
0.0
  0
ARC
  5
1CB3
330
1E
100
AcDbEntity
  8
HILF
100
AcDbCircle
 10
368.15930295718
 20
294.5919264147028
 30
0.0
 40
46.37517522151287
100
AcDbArc
 50
224.1691058674086
 51
315.8308941325913
  0
ARC
  5
1CB4
330
1E
100
AcDbEntity
  8
STEMPEL
100
AcDbCircle
 10
368.15930295718
 20
294.5919264147028
 30
0.0
 40
48.99999999999997
100
AcDbArc
 50
224.1604804299493
 51
315.8395195700507
  0
LINE
  5
1CB5
330
1E
100
AcDbEntity
  8
STEMPEL
100
AcDbLine
 10
612.8527032926115
 20
250.0919264147028
 30
0.0
 11
388.6714944539459
 21
250.0919264147028
 31
0.0
  0
LINE
  5
1CB6
330
1E
100
AcDbEntity
  8
STEMPEL
100
AcDbLine
 10
183.0238248471358
 20
243.5919264147028
 30
0.0
 11
108.0238248471358
 21
243.5919264147028
 31
0.0
  0
DIMENSION
  5
1CB7
330
1E
100
AcDbEntity
  8
BEM
100
AcDbDimension
  2
*D11
 10
368.15930295718
 20
220.4095218847116
 30
0.0
 11
238.0915639021579
 21
226.9095218847116
 31
0.0
 70
    32
  1
620
 71
     5
 42
260.1354781100441
  3
Standard
100
AcDbAlignedDimension
 13
108.0238248471358
 23
243.5919264147028
 33
0.0
 14
368.15930295718
 24
240.5919264147028
 34
0.0
100
AcDbRotatedDimension
1001
ACAD
1000
DSTYLE
1002
{
1070
    40
1040
2.0
1070
    41
1040
3.5
1070
    42
1040
1.0
1070
    43
1040
7.0
1070
    44
1040
1.0
1070
    73
1070
     0
1070
    74
1070
     0
1070
    77
1070
     1
1070
    78
1070
     8
1070
    79
1070
     2
1070
   140
1040
3.5
1070
   141
1040
1.5
1070
   146
1040
0.5142857142857144
1070
   147
1040
1.5
1070
   172
1070
     1
1070
   178
1070
     1
1070
   179
1070
     2
1070
   271
1070
     2
1070
   272
1070
     2
1070
   284
1070
     8
1070
   285
1070
     8
1070
   286
1070
     8
1002
}
  0
LINE
  5
1CB8
330
1E
100
AcDbEntity
  8
MITTEL
  6
STRICHPUNKT
100
AcDbLine
 10
753.1593029571799
 20
294.5919264147028
 30
0.0
 11
103.0238248471359
 21
294.5919264147028
 31
0.0
  0
DIMENSION
  5
1CB9
330
1E
100
AcDbEntity
  8
BEM
100
AcDbDimension
  2
*D12
 10
108.0238248471358
 20
200.0741899484876
 30
0.0
 11
428.0915639021579
 21
206.5741899484876
 31
0.0
 70
    32
  1
1000
 71
     5
 42
640.1354781100441
  3
Standard
100
AcDbAlignedDimension
 13
748.15930295718
 23
246.8265217443629
 33
0.0
 14
108.0238248471358
 24
243.5919264147028
 34
0.0
100
AcDbRotatedDimension
1001
ACAD
1000
DSTYLE
1002
{
1070
    40
1040
2.0
1070
    41
1040
3.5
1070
    42
1040
1.0
1070
    43
1040
7.0
1070
    44
1040
1.0
1070
    73
1070
     0
1070
    74
1070
     0
1070
    77
1070
     1
1070
    78
1070
     8
1070
    79
1070
     2
1070
   140
1040
3.5
1070
   141
1040
1.5
1070
   146
1040
0.5142857142857144
1070
   147
1040
1.5
1070
   172
1070
     1
1070
   178
1070
     1
1070
   179
1070
     2
1070
   271
1070
     2
1070
   272
1070
     2
1070
   284
1070
     8
1070
   285
1070
     8
1070
   286
1070
     8
1002
}
  0
LINE
  5
1CBA
330
1E
100
AcDbEntity
  8
STEMPEL
100
AcDbLine
 10
366.1593029571799
 20
321.5919264147027
 30
0.0
 11
366.1593029571799
 21
267.5919264147028
 31
0.0
  0
ARC
  5
1CBB
330
1E
100
AcDbEntity
  8
STEMPEL
100
AcDbCircle
 10
2.159302957179647
 20
294.5919264147028
 30
0.0
 40
365.0
100
AcDbArc
 50
355.7578072066803
 51
4.242192793319695
  0
ARC
  5
1CBC
330
1E
100
AcDbEntity
  8
HILF
100
AcDbCircle
 10
368.15930295718
 20
294.5919264147028
 30
0.0
 40
27.0
100
AcDbArc
 50
265.7519773332747
 51
94.24802266672534
  0
LINE
  5
1CBD
330
1E
100
AcDbEntity
  8
STEMPEL
100
AcDbLine
 10
748.1593029571798
 20
342.3573310850429
 30
0.0
 11
748.15930295718
 21
246.8265217443629
 31
0.0
  0
LINE
  5
1CBE
330
1E
100
AcDbEntity
  8
HILF
100
AcDbLine
 10
715.4289229111904
 20
248.3391804090343
 30
0.0
 11
715.4289229111904
 21
340.8446724203725
 31
0.0
  0
LINE
  5
1CBF
330
1E
100
AcDbEntity
  8
HILF
100
AcDbLine
 10
615.0798090377435
 20
251.430020438645
 30
0.0
 11
615.0798090377435
 21
337.7538323907593
 31
0.0
  0
LINE
  5
1CC0
330
1E
100
AcDbEntity
  8
HILF
100
AcDbLine
 10
620.2073707568989
 20
249.1430686129081
 30
0.0
 11
620.2073707568989
 21
340.0407842164966
 31
0.0
  0
LINE
  5
1CC1
330
1E
100
AcDbEntity
  8
STEMPEL
100
AcDbLine
 10
425.6375638267451
 20
305.7386536209373
 30
0.0
 11
403.3114768702234
 21
328.728778483796
 31
0.0
  0
LINE
  5
1CC2
330
1E
100
AcDbEntity
  8
HILF
100
AcDbLine
 10
423.7565952281331
 20
303.9148219448429
 30
0.0
 11
401.4235862694012
 21
326.9051486704652
 31
0.0
  0
POLYLINE
  5
1CC3
330
1E
100
AcDbEntity
  8
HILF
100
AcDb2dPolyline
 66
     1
 10
0.0
 20
0.0
 30
0.0
 70
     4
 75
     6
  0
VERTEX
  5
1CC4
330
1CC3
100
AcDbEntity
  8
HILF
100
AcDbVertex
100
AcDb2dVertex
 10
222.7856390301431
 20
339.0919264147028
 30
0.0
 70
    16
  0
VERTEX
  5
1CC5
330
1CC3
100
AcDbEntity
  8
HILF
100
AcDbVertex
100
AcDb2dVertex
 10
222.7856390301431
 20
339.0919264147028
 30
0.0
 70
     8
  0
VERTEX
  5
1CC6
330
1CC3
100
AcDbEntity
  8
HILF
100
AcDbVertex
100
AcDb2dVertex
 10
225.4278269562757
 20
332.0384080659695
 30
0.0
 70
     8
  0
VERTEX
  5
1CC7
330
1CC3
100
AcDbEntity
  8
HILF
100
AcDbVertex
100
AcDb2dVertex
 10
227.166184107721
 20
325.5909005202255
 30
0.0
 70
     8
  0
VERTEX
  5
1CC8
330
1CC3
100
AcDbEntity
  8
HILF
100
AcDbVertex
100
AcDb2dVertex
 10
228.1131589718349
 20
319.6583918383422
 30
0.0
 70
     8
  0
VERTEX
  5
1CC9
330
1CC3
100
AcDbEntity
  8
HILF
100
AcDbVertex
100
AcDb2dVertex
 10
228.3812000359729
 20
314.1498700811911
 30
0.0
 70
     8
  0
VERTEX
  5
1CCA
330
1CC3
100
AcDbEntity
  8
HILF
100
AcDbVertex
100
AcDb2dVertex
 10
228.0827557874909
 20
308.9743233096435
 30
0.0
 70
     8
  0
VERTEX
  5
1CCB
330
1CC3
100
AcDbEntity
  8
HILF
100
AcDbVertex
100
AcDb2dVertex
 10
227.3302747137444
 20
304.0407395845708
 30
0.0
 70
     8
  0
VERTEX
  5
1CCC
330
1CC3
100
AcDbEntity
  8
HILF
100
AcDbVertex
100
AcDb2dVertex
 10
226.2362053020895
 20
299.2581069668446
 30
0.0
 70
     8
  0
VERTEX
  5
1CCD
330
1CC3
100
AcDbEntity
  8
HILF
100
AcDbVertex
100
AcDb2dVertex
 10
224.9129960398816
 20
294.5354135173361
 30
0.0
 70
     8
  0
VERTEX
  5
1CCE
330
1CC3
100
AcDbEntity
  8
HILF
100
AcDbVertex
100
AcDb2dVertex
 10
223.479371846557
 20
289.785752146786
 30
0.0
 70
     8
  0
VERTEX
  5
1CCF
330
1CC3
100
AcDbEntity
  8
HILF
100
AcDbVertex
100
AcDb2dVertex
 10
222.0791633698731
 20
284.9386351654117
 30
0.0
 70
     8
  0
VERTEX
  5
1CD0
330
1CC3
100
AcDbEntity
  8
HILF
100
AcDbVertex
100
AcDb2dVertex
 10
220.8624776896676
 20
279.9276797332997
 30
0.0
 70
     8
  0
VERTEX
  5
1CD1
330
1CC3
100
AcDbEntity
  8
HILF
100
AcDbVertex
100
AcDb2dVertex
 10
219.9794218857786
 20
274.6865030105364
 30
0.0
 70
     8
  0
VERTEX
  5
1CD2
330
1CC3
100
AcDbEntity
  8
HILF
100
AcDbVertex
100
AcDb2dVertex
 10
219.5801030380438
 20
269.1487221572086
 30
0.0
 70
     8
  0
VERTEX
  5
1CD3
330
1CC3
100
AcDbEntity
  8
HILF
100
AcDbVertex
100
AcDb2dVertex
 10
219.814628226301
 20
263.2479543334028
 30
0.0
 70
     8
  0
VERTEX
  5
1CD4
330
1CC3
100
AcDbEntity
  8
HILF
100
AcDbVertex
100
AcDb2dVertex
 10
220.8331045303883
 20
256.9178166992053
 30
0.0
 70
     8
  0
VERTEX
  5
1CD5
330
1CC3
100
AcDbEntity
  8
HILF
100
AcDbVertex
100
AcDb2dVertex
 10
222.7856390301432
 20
250.0919264147028
 30
0.0
 70
     8
  0
VERTEX
  5
1CD6
330
1CC3
100
AcDbEntity
  8
HILF
100
AcDbVertex
100
AcDb2dVertex
 10
231.1365354103959
 20
319.3936302459806
 30
0.0
 70
    16
  0
VERTEX
  5
1CD7
330
1CC3
100
AcDbEntity
  8
HILF
100
AcDbVertex
100
AcDb2dVertex
 10
226.1577039139845
 20
294.8668564070512
 30
0.0
 70
    16
  0
VERTEX
  5
1CD8
330
1CC3
100
AcDbEntity
  8
HILF
100
AcDbVertex
100
AcDb2dVertex
 10
216.2000409211615
 20
269.0143110092613
 30
0.0
 70
    16
  0
VERTEX
  5
1CD9
330
1CC3
100
AcDbEntity
  8
HILF
100
AcDbVertex
100
AcDb2dVertex
 10
222.7856390301432
 20
250.0919264147028
 30
0.0
 70
    16
  0
SEQEND
  5
1CDA
330
1CC3
100
AcDbEntity
  8
HILF
  0
POLYLINE
  5
1CDB
330
1E
100
AcDbEntity
  8
HILF
100
AcDb2dPolyline
 66
     1
 10
0.0
 20
0.0
 30
0.0
 70
     4
 75
     6
  0
VERTEX
  5
1CDC
330
1CDB
100
AcDbEntity
  8
HILF
100
AcDbVertex
100
AcDb2dVertex
 10
222.7856390301431
 20
339.0919264147028
 30
0.0
 70
    16
  0
VERTEX
  5
1CDD
330
1CDB
100
AcDbEntity
  8
HILF
100
AcDbVertex
100
AcDb2dVertex
 10
222.7856390301431
 20
339.0919264147028
 30
0.0
 70
     8
  0
VERTEX
  5
1CDE
330
1CDB
100
AcDbEntity
  8
HILF
100
AcDbVertex
100
AcDb2dVertex
 10
225.4278269562757
 20
332.0384080659695
 30
0.0
 70
     8
  0
VERTEX
  5
1CDF
330
1CDB
100
AcDbEntity
  8
HILF
100
AcDbVertex
100
AcDb2dVertex
 10
227.166184107721
 20
325.5909005202255
 30
0.0
 70
     8
  0
VERTEX
  5
1CE0
330
1CDB
100
AcDbEntity
  8
HILF
100
AcDbVertex
100
AcDb2dVertex
 10
228.1131589718349
 20
319.6583918383422
 30
0.0
 70
     8
  0
VERTEX
  5
1CE1
330
1CDB
100
AcDbEntity
  8
HILF
100
AcDbVertex
100
AcDb2dVertex
 10
228.3812000359729
 20
314.1498700811911
 30
0.0
 70
     8
  0
VERTEX
  5
1CE2
330
1CDB
100
AcDbEntity
  8
HILF
100
AcDbVertex
100
AcDb2dVertex
 10
228.0827557874909
 20
308.9743233096435
 30
0.0
 70
     8
  0
VERTEX
  5
1CE3
330
1CDB
100
AcDbEntity
  8
HILF
100
AcDbVertex
100
AcDb2dVertex
 10
227.3302747137444
 20
304.0407395845708
 30
0.0
 70
     8
  0
VERTEX
  5
1CE4
330
1CDB
100
AcDbEntity
  8
HILF
100
AcDbVertex
100
AcDb2dVertex
 10
226.2362053020895
 20
299.2581069668446
 30
0.0
 70
     8
  0
VERTEX
  5
1CE5
330
1CDB
100
AcDbEntity
  8
HILF
100
AcDbVertex
100
AcDb2dVertex
 10
224.9129960398816
 20
294.5354135173361
 30
0.0
 70
     8
  0
VERTEX
  5
1CE6
330
1CDB
100
AcDbEntity
  8
HILF
100
AcDbVertex
100
AcDb2dVertex
 10
223.479371846557
 20
289.785752146786
 30
0.0
 70
     8
  0
VERTEX
  5
1CE7
330
1CDB
100
AcDbEntity
  8
HILF
100
AcDbVertex
100
AcDb2dVertex
 10
222.0791633698731
 20
284.9386351654117
 30
0.0
 70
     8
  0
VERTEX
  5
1CE8
330
1CDB
100
AcDbEntity
  8
HILF
100
AcDbVertex
100
AcDb2dVertex
 10
220.8624776896676
 20
279.9276797332997
 30
0.0
 70
     8
  0
VERTEX
  5
1CE9
330
1CDB
100
AcDbEntity
  8
HILF
100
AcDbVertex
100
AcDb2dVertex
 10
219.9794218857786
 20
274.6865030105364
 30
0.0
 70
     8
  0
VERTEX
  5
1CEA
330
1CDB
100
AcDbEntity
  8
HILF
100
AcDbVertex
100
AcDb2dVertex
 10
219.5801030380438
 20
269.1487221572086
 30
0.0
 70
     8
  0
VERTEX
  5
1CEB
330
1CDB
100
AcDbEntity
  8
HILF
100
AcDbVertex
100
AcDb2dVertex
 10
219.814628226301
 20
263.2479543334028
 30
0.0
 70
     8
  0
VERTEX
  5
1CEC
330
1CDB
100
AcDbEntity
  8
HILF
100
AcDbVertex
100
AcDb2dVertex
 10
220.8331045303883
 20
256.9178166992053
 30
0.0
 70
     8
  0
VERTEX
  5
1CED
330
1CDB
100
AcDbEntity
  8
HILF
100
AcDbVertex
100
AcDb2dVertex
 10
222.7856390301432
 20
250.0919264147028
 30
0.0
 70
     8
  0
VERTEX
  5
1CEE
330
1CDB
100
AcDbEntity
  8
HILF
100
AcDbVertex
100
AcDb2dVertex
 10
231.1365354103959
 20
319.3936302459806
 30
0.0
 70
    16
  0
VERTEX
  5
1CEF
330
1CDB
100
AcDbEntity
  8
HILF
100
AcDbVertex
100
AcDb2dVertex
 10
226.1577039139845
 20
294.8668564070512
 30
0.0
 70
    16
  0
VERTEX
  5
1CF0
330
1CDB
100
AcDbEntity
  8
HILF
100
AcDbVertex
100
AcDb2dVertex
 10
216.2000409211615
 20
269.0143110092613
 30
0.0
 70
    16
  0
VERTEX
  5
1CF1
330
1CDB
100
AcDbEntity
  8
HILF
100
AcDbVertex
100
AcDb2dVertex
 10
222.7856390301432
 20
250.0919264147028
 30
0.0
 70
    16
  0
SEQEND
  5
1CF2
330
1CDB
100
AcDbEntity
  8
HILF
  0
POLYLINE
  5
1CF3
330
1E
100
AcDbEntity
  8
HILF
100
AcDb2dPolyline
 66
     1
 10
0.0
 20
0.0
 30
0.0
 70
     4
 75
     6
  0
VERTEX
  5
1CF4
330
1CF3
100
AcDbEntity
  8
HILF
100
AcDbVertex
100
AcDb2dVertex
 10
227.7856390301431
 20
339.0919264147028
 30
0.0
 70
    16
  0
VERTEX
  5
1CF5
330
1CF3
100
AcDbEntity
  8
HILF
100
AcDbVertex
100
AcDb2dVertex
 10
227.7856390301431
 20
339.0919264147028
 30
0.0
 70
     8
  0
VERTEX
  5
1CF6
330
1CF3
100
AcDbEntity
  8
HILF
100
AcDbVertex
100
AcDb2dVertex
 10
230.4278269562757
 20
332.0384080659695
 30
0.0
 70
     8
  0
VERTEX
  5
1CF7
330
1CF3
100
AcDbEntity
  8
HILF
100
AcDbVertex
100
AcDb2dVertex
 10
232.1661841077211
 20
325.5909005202255
 30
0.0
 70
     8
  0
VERTEX
  5
1CF8
330
1CF3
100
AcDbEntity
  8
HILF
100
AcDbVertex
100
AcDb2dVertex
 10
233.1131589718349
 20
319.6583918383422
 30
0.0
 70
     8
  0
VERTEX
  5
1CF9
330
1CF3
100
AcDbEntity
  8
HILF
100
AcDbVertex
100
AcDb2dVertex
 10
233.381200035973
 20
314.1498700811911
 30
0.0
 70
     8
  0
VERTEX
  5
1CFA
330
1CF3
100
AcDbEntity
  8
HILF
100
AcDbVertex
100
AcDb2dVertex
 10
233.0827557874909
 20
308.9743233096435
 30
0.0
 70
     8
  0
VERTEX
  5
1CFB
330
1CF3
100
AcDbEntity
  8
HILF
100
AcDbVertex
100
AcDb2dVertex
 10
232.3302747137444
 20
304.0407395845708
 30
0.0
 70
     8
  0
VERTEX
  5
1CFC
330
1CF3
100
AcDbEntity
  8
HILF
100
AcDbVertex
100
AcDb2dVertex
 10
231.2362053020895
 20
299.2581069668446
 30
0.0
 70
     8
  0
VERTEX
  5
1CFD
330
1CF3
100
AcDbEntity
  8
HILF
100
AcDbVertex
100
AcDb2dVertex
 10
229.9129960398816
 20
294.5354135173361
 30
0.0
 70
     8
  0
VERTEX
  5
1CFE
330
1CF3
100
AcDbEntity
  8
HILF
100
AcDbVertex
100
AcDb2dVertex
 10
228.479371846557
 20
289.785752146786
 30
0.0
 70
     8
  0
VERTEX
  5
1CFF
330
1CF3
100
AcDbEntity
  8
HILF
100
AcDbVertex
100
AcDb2dVertex
 10
227.0791633698731
 20
284.9386351654117
 30
0.0
 70
     8
  0
VERTEX
  5
1D00
330
1CF3
100
AcDbEntity
  8
HILF
100
AcDbVertex
100
AcDb2dVertex
 10
225.8624776896676
 20
279.9276797332997
 30
0.0
 70
     8
  0
VERTEX
  5
1D01
330
1CF3
100
AcDbEntity
  8
HILF
100
AcDbVertex
100
AcDb2dVertex
 10
224.9794218857786
 20
274.6865030105364
 30
0.0
 70
     8
  0
VERTEX
  5
1D02
330
1CF3
100
AcDbEntity
  8
HILF
100
AcDbVertex
100
AcDb2dVertex
 10
224.5801030380438
 20
269.1487221572086
 30
0.0
 70
     8
  0
VERTEX
  5
1D03
330
1CF3
100
AcDbEntity
  8
HILF
100
AcDbVertex
100
AcDb2dVertex
 10
224.814628226301
 20
263.2479543334028
 30
0.0
 70
     8
  0
VERTEX
  5
1D04
330
1CF3
100
AcDbEntity
  8
HILF
100
AcDbVertex
100
AcDb2dVertex
 10
225.8331045303882
 20
256.9178166992053
 30
0.0
 70
     8
  0
VERTEX
  5
1D05
330
1CF3
100
AcDbEntity
  8
HILF
100
AcDbVertex
100
AcDb2dVertex
 10
227.7856390301432
 20
250.0919264147028
 30
0.0
 70
     8
  0
VERTEX
  5
1D06
330
1CF3
100
AcDbEntity
  8
HILF
100
AcDbVertex
100
AcDb2dVertex
 10
236.1365354103959
 20
319.3936302459806
 30
0.0
 70
    16
  0
VERTEX
  5
1D07
330
1CF3
100
AcDbEntity
  8
HILF
100
AcDbVertex
100
AcDb2dVertex
 10
231.1577039139845
 20
294.8668564070512
 30
0.0
 70
    16
  0
VERTEX
  5
1D08
330
1CF3
100
AcDbEntity
  8
HILF
100
AcDbVertex
100
AcDb2dVertex
 10
221.2000409211615
 20
269.0143110092613
 30
0.0
 70
    16
  0
VERTEX
  5
1D09
330
1CF3
100
AcDbEntity
  8
HILF
100
AcDbVertex
100
AcDb2dVertex
 10
227.7856390301432
 20
250.0919264147028
 30
0.0
 70
    16
  0
SEQEND
  5
1D0A
330
1CF3
100
AcDbEntity
  8
HILF
  0
LINE
  5
1D0B
330
1E
100
AcDbEntity
  8
HILF
100
AcDbLine
 10
334.8950196449586
 20
326.9051486704652
 30
0.0
 11
312.5620106862267
 21
303.9148219448429
 31
0.0
  0
LINE
  5
1D0C
330
1E
100
AcDbEntity
  8
STEMPEL
100
AcDbLine
 10
333.0071290441365
 20
328.728778483796
 30
0.0
 11
310.6810420876146
 21
305.7386536209373
 31
0.0
  0
LINE
  5
1D0D
330
1E
100
AcDbEntity
  8
MITTEL
100
AcDbLine
 10
368.15930295718
 20
348.5919264147029
 30
0.0
 11
368.15930295718
 21
240.5919264147028
 31
0.0
  0
CIRCLE
  5
1D0E
330
1E
100
AcDbEntity
  8
STEMPEL
100
AcDbCircle
 10
368.15930295718
 20
294.5919264147028
 30
0.0
 40
31.5
  0
CIRCLE
  5
1D0F
330
1E
100
AcDbEntity
  8
HILF
100
AcDbCircle
 10
368.15930295718
 20
294.5919264147028
 30
0.0
 40
35.06111457868633
  0
DIMENSION
  5
1D10
330
1E
100
AcDbEntity
  8
BEM
100
AcDbDimension
  2
*D13
 10
95.66468922813601
 20
339.0919264147028
 30
0.0
 11
89.16468922813596
 21
294.5919264147028
 31
0.0
 70
    32
  1
%%c<>
 71
     5
 42
88.99999999999989
  3
Standard
100
AcDbAlignedDimension
 13
199.4478925527927
 23
250.0919264147028
 33
0.0
 14
199.4478925527927
 24
339.0919264147027
 34
0.0
 50
90.0
100
AcDbRotatedDimension
1001
ACAD
1000
DSTYLE
1002
{
1070
    40
1040
2.0
1070
    41
1040
3.5
1070
    42
1040
1.0
1070
    43
1040
7.0
1070
    44
1040
1.0
1070
    73
1070
     0
1070
    74
1070
     0
1070
    77
1070
     1
1070
    78
1070
     8
1070
    79
1070
     2
1070
   140
1040
3.5
1070
   141
1040
1.5
1070
   146
1040
0.5142857142857144
1070
   147
1040
1.5
1070
   172
1070
     1
1070
   178
1070
     1
1070
   179
1070
     2
1070
   271
1070
     2
1070
   272
1070
     2
1070
   284
1070
     8
1070
   285
1070
     8
1070
   286
1070
     8
1002
}
  0
LINE
  5
1D11
330
1E
100
AcDbEntity
  8
HILF
100
AcDbLine
 10
195.0320121196288
 20
338.2288008225297
 30
0.0
 11
195.0320121196288
 21
250.9550520068757
 31
0.0
  0
LINE
  5
1D12
330
1E
100
AcDbEntity
  8
HILF
100
AcDbLine
 10
187.4397052802997
 20
246.1759824896361
 30
0.0
 11
187.4397052802997
 21
343.0078703397693
 31
0.0
  0
LINE
  5
1D13
330
1E
100
AcDbEntity
  8
STEMPEL
100
AcDbLine
 10
108.0238248471357
 20
345.5919264147028
 30
0.0
 11
108.0238248471358
 21
243.5919264147028
 31
0.0
  0
ENDSEC
  0
SECTION
  2
OBJECTS
  0
DICTIONARY
  5
C
330
0
100
AcDbDictionary
281
     1
  3
ACAD_CIP_PREVIOUS_PRODUCT_INFO
350
1E7E
  3
ACAD_COLOR
350
11A
  3
ACAD_DETAILVIEWSTYLE
350
1E7B
  3
ACAD_GROUP
350
D
  3
ACAD_LAYOUT
350
19
  3
ACAD_MATERIAL
350
119
  3
ACAD_MLEADERSTYLE
350
1E77
  3
ACAD_MLINESTYLE
350
16
  3
ACAD_PLOTSETTINGS
350
18
  3
ACAD_PLOTSTYLENAME
350
E
  3
ACAD_SCALELIST
350
1E65
  3
ACAD_SECTIONVIEWSTYLE
350
1E79
  3
ACAD_TABLESTYLE
350
1E63
  3
ACAD_VISUALSTYLE
350
1E4A
  3
ACDB_RECOMPOSE_DATA
350
1F72
  3
AcDbVariableDictionary
350
125
  3
AcDsDecomposeData
350
1F78
  0
DICTIONARY
  5
1E94
330
2
100
AcDbDictionary
280
     1
281
     1
  3
ACAD_LAYERSTATES
360
1E95
  0
DICTIONARY
  5
1E81
330
10
100
AcDbDictionary
280
     1
281
     1
  3
ADSK_XREC_LAYER_RECONCILED
360
1E82
  0
DICTIONARY
  5
1E83
330
2B
100
AcDbDictionary
280
     1
281
     1
  3
ADSK_XREC_LAYER_RECONCILED
360
1E84
  0
DICTIONARY
  5
1E85
330
2C
100
AcDbDictionary
280
     1
281
     1
  3
ADSK_XREC_LAYER_RECONCILED
360
1E86
  0
DICTIONARY
  5
1E87
330
2D
100
AcDbDictionary
280
     1
281
     1
  3
ADSK_XREC_LAYER_RECONCILED
360
1E88
  0
DICTIONARY
  5
1E89
330
2F
100
AcDbDictionary
280
     1
281
     1
  3
ADSK_XREC_LAYER_RECONCILED
360
1E8A
  0
DICTIONARY
  5
1E8B
330
30
100
AcDbDictionary
280
     1
281
     1
  3
ADSK_XREC_LAYER_RECONCILED
360
1E8C
  0
DICTIONARY
  5
1E8D
330
33
100
AcDbDictionary
280
     1
281
     1
  3
ADSK_XREC_LAYER_RECONCILED
360
1E8E
  0
DICTIONARY
  5
1E8F
330
239
100
AcDbDictionary
280
     1
281
     1
  3
ADSK_XREC_LAYER_RECONCILED
360
1E90
  0
DICTIONARY
  5
DB
330
1E
100
AcDbDictionary
280
     1
281
     1
  3
ACAD_LAYOUTSELFREF
360
10F
  0
DICTIONARY
  5
DD
330
1A
100
AcDbDictionary
280
     1
281
     1
  3
ACAD_LAYOUTSELFREF
360
10E
  0
XRECORD
  5
1E7E
102
{ACAD_REACTORS
330
C
102
}
330
C
100
AcDbXrecord
280
     1
300
ACD
300
2013
300
ACD_F_S
  0
DICTIONARY
  5
11A
102
{ACAD_REACTORS
330
C
102
}
330
C
100
AcDbDictionary
281
     1
  0
DICTIONARY
  5
1E7B
102
{ACAD_REACTORS
330
C
102
}
330
C
100
AcDbDictionary
281
     1
  3
Imperial24
350
1E7C
  0
DICTIONARY
  5
D
102
{ACAD_REACTORS
330
C
102
}
330
C
100
AcDbDictionary
281
     1
  0
DICTIONARY
  5
19
102
{ACAD_REACTORS
330
C
102
}
330
C
100
AcDbDictionary
281
     1
  3
Layout1
350
1D
  3
Model
350
21
  0
DICTIONARY
  5
119
102
{ACAD_REACTORS
330
C
102
}
330
C
100
AcDbDictionary
281
     1
  3
ByBlock
350
1E3A
  3
ByLayer
350
1E32
  3
Global
350
1E42
  0
DICTIONARY
  5
1E77
102
{ACAD_REACTORS
330
C
102
}
330
C
100
AcDbDictionary
281
     1
  3
Standard
350
1E78
  0
DICTIONARY
  5
16
102
{ACAD_REACTORS
330
C
102
}
330
C
100
AcDbDictionary
281
     1
  3
Standard
350
17
  0
DICTIONARY
  5
18
102
{ACAD_REACTORS
330
C
102
}
330
C
100
AcDbDictionary
281
     1
  0
ACDBDICTIONARYWDFLT
  5
E
102
{ACAD_REACTORS
330
C
102
}
330
C
100
AcDbDictionary
281
     1
  3
Normal
350
F
100
AcDbDictionaryWithDefault
340
F
  0
DICTIONARY
  5
1E65
102
{ACAD_REACTORS
330
C
102
}
330
C
100
AcDbDictionary
281
     1
  3
A0
350
1E66
  3
A1
350
1E67
  3
A2
350
1E68
  3
A3
350
1E69
  3
A4
350
1E6A
  3
A5
350
1E6B
  3
A6
350
1E6C
  3
A7
350
1E6D
  3
A8
350
1E6E
  3
A9
350
1E6F
  3
B0
350
1E70
  3
B1
350
1E71
  3
B2
350
1E72
  3
B3
350
1E73
  3
B4
350
1E74
  3
B5
350
1E75
  3
B6
350
1E76
  0
DICTIONARY
  5
1E79
102
{ACAD_REACTORS
330
C
102
}
330
C
100
AcDbDictionary
281
     1
  3
Imperial24
350
1E7A
  0
DICTIONARY
  5
1E63
102
{ACAD_REACTORS
330
C
102
}
330
C
100
AcDbDictionary
281
     1
  3
Standard
350
1E64
  0
DICTIONARY
  5
1E4A
102
{ACAD_REACTORS
330
C
102
}
330
C
100
AcDbDictionary
281
     1
  3
2dWireframe
350
1E50
  3
Basic
350
1E4F
  3
Brighten
350
1E56
  3
ColorChange
350
1E5A
  3
Conceptual
350
1E53
  3
Dim
350
1E55
  3
EdgeColorOff
350
1E62
  3
Facepattern
350
1E59
  3
Flat
350
1E4B
  3
FlatWithEdges
350
1E4C
  3
Gouraud
350
1E4D
  3
GouraudWithEdges
350
1E4E
  3
Hidden
350
1E52
  3
JitterOff
350
1E60
  3
Linepattern
350
1E58
  3
OverhangOff
350
1E61
  3
Realistic
350
1E54
  3
Shaded
350
1E5F
  3
Shaded with edges
350
1E5E
  3
Shades of Gray
350
1E5B
  3
Sketchy
350
1E5C
  3
Thicken
350
1E57
  3
Wireframe
350
1E51
  3
X-Ray
350
1E5D
  0
XRECORD
  5
1F72
102
{ACAD_REACTORS
330
C
102
}
330
C
100
AcDbXrecord
280
     1
 90
        1
330
1E64
  0
DICTIONARY
  5
125
102
{ACAD_REACTORS
330
C
102
}
330
C
100
AcDbDictionary
281
     1
  3
CANNOSCALE
350
1EA5
  3
CMLEADERSTYLE
350
1EA1
  3
CTABLESTYLE
350
1EA0
  3
CVIEWDETAILSTYLE
350
1EA2
  3
CVIEWSECTIONSTYLE
350
1EA3
  3
DIMASSOC
350
126
  3
LAYEREVAL
350
1EA7
  3
LAYERNOTIFY
350
1EA8
  3
LIGHTINGUNITS
350
1EA6
  3
MSLTSCALE
350
1EA4
  3
PROJECTNAME
350
127
  3
XCLIPFRAME
350
1F6F
  0
DICTIONARY
  5
1F78
102
{ACAD_REACTORS
330
C
102
}
330
C
100
AcDbDictionary
281
     1
  3
AcDsRecords
350
1F7A
  3
AcDsSchemas
350
1F79
1001
ACAD
1070
     2
  0
DICTIONARY
  5
1E95
102
{ACAD_REACTORS
330
1E94
102
}
330
1E94
100
AcDbDictionary
281
     1
  0
XRECORD
  5
1E82
102
{ACAD_REACTORS
330
1E81
102
}
330
1E81
100
AcDbXrecord
280
     1
290
     1
  0
XRECORD
  5
1E84
102
{ACAD_REACTORS
330
1E83
102
}
330
1E83
100
AcDbXrecord
280
     1
290
     1
  0
XRECORD
  5
1E86
102
{ACAD_REACTORS
330
1E85
102
}
330
1E85
100
AcDbXrecord
280
     1
290
     1
  0
XRECORD
  5
1E88
102
{ACAD_REACTORS
330
1E87
102
}
330
1E87
100
AcDbXrecord
280
     1
290
     1
  0
XRECORD
  5
1E8A
102
{ACAD_REACTORS
330
1E89
102
}
330
1E89
100
AcDbXrecord
280
     1
290
     1
  0
XRECORD
  5
1E8C
102
{ACAD_REACTORS
330
1E8B
102
}
330
1E8B
100
AcDbXrecord
280
     1
290
     1
  0
XRECORD
  5
1E8E
102
{ACAD_REACTORS
330
1E8D
102
}
330
1E8D
100
AcDbXrecord
280
     1
290
     1
  0
XRECORD
  5
1E90
102
{ACAD_REACTORS
330
1E8F
102
}
330
1E8F
100
AcDbXrecord
280
     1
290
     1
  0
XRECORD
  5
10F
102
{ACAD_REACTORS
330
DB
102
}
330
DB
100
AcDbXrecord
280
     1
340
1E
  0
XRECORD
  5
10E
102
{ACAD_REACTORS
330
DD
102
}
330
DD
100
AcDbXrecord
280
     1
340
1A
  0
ACDBDETAILVIEWSTYLE
  5
1E7C
102
{ACAD_XDICTIONARY
360
1E9D
102
}
102
{ACAD_REACTORS
330
1E7B
102
}
330
1E7B
100
AcDbModelDocViewStyle
 70
     0
  3
Imperial24
290
     0
100
AcDbDetailViewStyle
 70
     0
 71
     0
 90
        3
 71
     1
340
11
 62
   256
 40
0.24
340
0
 62
   256
 40
0.24
300

 40
0.36
280
     3
 71
     2
340
15
 90
       25
 62
   256
 71
     3
340
11
 62
   256
 40
0.24
 90
        1
 40
0.75
 90
        1
300
%<\AcVar ViewType \f "%tc1">% %<\AcVar ViewDetailId>%\PVARIA %<\AcVar ViewScale \f "%sn">%
 71
     4
340
15
 90
       25
 62
   256
340
15
 90
       25
 62
   256
280
     0
  0
LAYOUT
  5
1D
102
{ACAD_REACTORS
330
19
102
}
330
19
100
AcDbPlotSettings
  1

  2
\\NT_WORK01\HP LaserJet 5000 PCL 6
  4

  6

 40
0.0
 41
0.0
 42
0.0
 43
0.0
 44
0.0
 45
0.0
 46
0.0
 47
0.0
 48
0.0
 49
0.0
140
0.0
141
0.0
142
1.0
143
1.0
 70
   688
 72
     0
 73
     0
 74
     5
  7

 75
    16
147
1.0
 76
     0
 77
     2
 78
   300
148
0.0
149
0.0
100
AcDbLayout
  1
Layout1
 70
     0
 71
     1
 10
0.0
 20
0.0
 11
12.0
 21
9.0
 12
0.0
 22
0.0
 32
0.0
 14
1.000000000000000E+20
 24
1.000000000000000E+20
 34
1.000000000000000E+20
 15
-1.000000000000000E+20
 25
-1.000000000000000E+20
 35
-1.000000000000000E+20
146
0.0
 13
0.0
 23
0.0
 33
0.0
 16
1.0
 26
0.0
 36
0.0
 17
0.0
 27
1.0
 37
0.0
 76
     0
330
1A
  0
LAYOUT
  5
21
102
{ACAD_REACTORS
330
19
102
}
330
19
100
AcDbPlotSettings
  1

  2
none_device
  4
Letter_(8.50_x_11.00_Inches)
  6

 40
6.349999904632568
 41
6.349999904632568
 42
6.350006103515625
 43
6.350006103515625
 44
215.8999938964844
 45
279.3999938964844
 46
0.0
 47
0.0
 48
0.0
 49
0.0
140
0.0
141
0.0
142
1.0
143
1.0
 70
 11952
 72
     0
 73
     1
 74
     0
  7

 75
     0
147
1.0
 76
     0
 77
     2
 78
   300
148
-3055.07766630004
149
92.61407629750332
100
AcDbLayout
  1
Model
 70
     1
 71
     0
 10
0.0
 20
0.0
 11
12.0
 21
9.0
 12
0.0
 22
0.0
 32
0.0
 14
0.0
 24
0.0
 34
0.0
 15
0.0
 25
0.0
 35
0.0
146
0.0
 13
0.0
 23
0.0
 33
0.0
 16
1.0
 26
0.0
 36
0.0
 17
0.0
 27
1.0
 37
0.0
 76
     0
330
1E
331
1E29
  0
MATERIAL
  5
1E3A
102
{ACAD_XDICTIONARY
360
1E3B
102
}
102
{ACAD_REACTORS
330
119
102
}
330
119
100
AcDbMaterial
  1
ByBlock
 72
     0
 43
0.0208333333333333
 43
0.0
 43
0.0
 43
0.0
 43
0.0
 43
0.0208333333333333
 43
0.0
 43
0.0
 43
0.0
 43
0.0
 43
1.0
 43
0.0
 43
0.0
 43
0.0
 43
0.0
 43
1.0
 77
     0
 47
0.0208333333333333
 47
0.0
 47
0.0
 47
0.0
 47
0.0
 47
0.0208333333333333
 47
0.0
 47
0.0
 47
0.0
 47
0.0
 47
1.0
 47
0.0
 47
0.0
 47
0.0
 47
0.0
 47
1.0
171
     0
 49
0.0208333333333333
 49
0.0
 49
0.0
 49
0.0
 49
0.0
 49
0.0208333333333333
 49
0.0
 49
0.0
 49
0.0
 49
0.0
 49
1.0
 49
0.0
 49
0.0
 49
0.0
 49
0.0
 49
1.0
175
     0
142
0.0208333333333333
142
0.0
142
0.0
142
0.0
142
0.0
142
0.0208333333333333
142
0.0
142
0.0
142
0.0
142
0.0
142
1.0
142
0.0
142
0.0
142
0.0
142
0.0
142
1.0
179
     0
144
0.0208333333333333
144
0.0
144
0.0
144
0.0
144
0.0
144
0.0208333333333333
144
0.0
144
0.0
144
0.0
144
0.0
144
1.0
144
0.0
144
0.0
144
0.0
144
0.0
144
1.0
147
0.0208333333333333
147
0.0
147
0.0
147
0.0
147
0.0
147
0.0208333333333333
147
0.0
147
0.0
147
0.0
147
0.0
147
1.0
147
0.0
147
0.0
147
0.0
147
0.0
147
1.0
  0
MATERIAL
  5
1E32
102
{ACAD_XDICTIONARY
360
1E33
102
}
102
{ACAD_REACTORS
330
119
102
}
330
119
100
AcDbMaterial
  1
ByLayer
 72
     0
 43
0.0208333333333333
 43
0.0
 43
0.0
 43
0.0
 43
0.0
 43
0.0208333333333333
 43
0.0
 43
0.0
 43
0.0
 43
0.0
 43
1.0
 43
0.0
 43
0.0
 43
0.0
 43
0.0
 43
1.0
 77
     0
 47
0.0208333333333333
 47
0.0
 47
0.0
 47
0.0
 47
0.0
 47
0.0208333333333333
 47
0.0
 47
0.0
 47
0.0
 47
0.0
 47
1.0
 47
0.0
 47
0.0
 47
0.0
 47
0.0
 47
1.0
171
     0
 49
0.0208333333333333
 49
0.0
 49
0.0
 49
0.0
 49
0.0
 49
0.0208333333333333
 49
0.0
 49
0.0
 49
0.0
 49
0.0
 49
1.0
 49
0.0
 49
0.0
 49
0.0
 49
0.0
 49
1.0
175
     0
142
0.0208333333333333
142
0.0
142
0.0
142
0.0
142
0.0
142
0.0208333333333333
142
0.0
142
0.0
142
0.0
142
0.0
142
1.0
142
0.0
142
0.0
142
0.0
142
0.0
142
1.0
179
     0
144
0.0208333333333333
144
0.0
144
0.0
144
0.0
144
0.0
144
0.0208333333333333
144
0.0
144
0.0
144
0.0
144
0.0
144
1.0
144
0.0
144
0.0
144
0.0
144
0.0
144
1.0
147
0.0208333333333333
147
0.0
147
0.0
147
0.0
147
0.0
147
0.0208333333333333
147
0.0
147
0.0
147
0.0
147
0.0
147
1.0
147
0.0
147
0.0
147
0.0
147
0.0
147
1.0
  0
MATERIAL
  5
1E42
102
{ACAD_XDICTIONARY
360
1E43
102
}
102
{ACAD_REACTORS
330
119
102
}
330
119
100
AcDbMaterial
  1
Global
 72
     0
 43
0.0208333333333333
 43
0.0
 43
0.0
 43
0.0
 43
0.0
 43
0.0208333333333333
 43
0.0
 43
0.0
 43
0.0
 43
0.0
 43
1.0
 43
0.0
 43
0.0
 43
0.0
 43
0.0
 43
1.0
 77
     0
 47
0.0208333333333333
 47
0.0
 47
0.0
 47
0.0
 47
0.0
 47
0.0208333333333333
 47
0.0
 47
0.0
 47
0.0
 47
0.0
 47
1.0
 47
0.0
 47
0.0
 47
0.0
 47
0.0
 47
1.0
171
     0
 49
0.0208333333333333
 49
0.0
 49
0.0
 49
0.0
 49
0.0
 49
0.0208333333333333
 49
0.0
 49
0.0
 49
0.0
 49
0.0
 49
1.0
 49
0.0
 49
0.0
 49
0.0
 49
0.0
 49
1.0
175
     0
142
0.0208333333333333
142
0.0
142
0.0
142
0.0
142
0.0
142
0.0208333333333333
142
0.0
142
0.0
142
0.0
142
0.0
142
1.0
142
0.0
142
0.0
142
0.0
142
0.0
142
1.0
179
     0
144
0.0208333333333333
144
0.0
144
0.0
144
0.0
144
0.0
144
0.0208333333333333
144
0.0
144
0.0
144
0.0
144
0.0
144
1.0
144
0.0
144
0.0
144
0.0
144
0.0
144
1.0
147
0.0208333333333333
147
0.0
147
0.0
147
0.0
147
0.0
147
0.0208333333333333
147
0.0
147
0.0
147
0.0
147
0.0
147
1.0
147
0.0
147
0.0
147
0.0
147
0.0
147
1.0
  0
MLEADERSTYLE
  5
1E78
102
{ACAD_XDICTIONARY
360
1FB0
102
}
102
{ACAD_REACTORS
330
1E77
102
}
330
1E77
100
AcDbMLeaderStyle
170
     2
171
     1
172
     0
 90
        2
 40
0.0
 41
0.0
173
     1
 91
-1056964608
340
13
 92
       -2
290
     1
 42
0.09
291
     1
 43
0.36
  3
Standard
 44
0.18
300

342
11
174
     1
178
     6
175
     1
176
     0
 93
-1056964608
 45
0.18
292
     0
297
     0
 46
0.18
 94
-1056964608
 47
1.0
 49
1.0
140
1.0
293
     1
141
0.0
294
     1
177
     0
142
1.0
295
     0
296
     0
143
0.125
1001
ACAD_MLEADERVER
1070
     2
  0
MLINESTYLE
  5
17
102
{ACAD_REACTORS
330
16
102
}
330
16
100
AcDbMlineStyle
  2
STANDARD
 70
     0
  3

 62
   256
 51
90.0
 52
90.0
 71
     2
 49
0.5
 62
   256
  6
BYLAYER
 49
-0.5
 62
   256
  6
BYLAYER
  0
ACDBPLACEHOLDER
  5
F
102
{ACAD_REACTORS
330
E
102
}
330
E
  0
SCALE
  5
1E66
102
{ACAD_REACTORS
330
1E65
102
}
330
1E65
100
AcDbScale
 70
     0
300
1:1
140
1.0
141
1.0
290
     1
  0
SCALE
  5
1E67
102
{ACAD_REACTORS
330
1E65
102
}
330
1E65
100
AcDbScale
 70
     0
300
1/128" = 1'-0"
140
0.0078125
141
12.0
290
     0
  0
SCALE
  5
1E68
102
{ACAD_REACTORS
330
1E65
102
}
330
1E65
100
AcDbScale
 70
     0
300
1/64" = 1'-0"
140
0.015625
141
12.0
290
     0
  0
SCALE
  5
1E69
102
{ACAD_REACTORS
330
1E65
102
}
330
1E65
100
AcDbScale
 70
     0
300
1/32" = 1'-0"
140
0.03125
141
12.0
290
     0
  0
SCALE
  5
1E6A
102
{ACAD_REACTORS
330
1E65
102
}
330
1E65
100
AcDbScale
 70
     0
300
1/16" = 1'-0"
140
0.0625
141
12.0
290
     0
  0
SCALE
  5
1E6B
102
{ACAD_REACTORS
330
1E65
102
}
330
1E65
100
AcDbScale
 70
     0
300
3/32" = 1'-0"
140
0.09375
141
12.0
290
     0
  0
SCALE
  5
1E6C
102
{ACAD_REACTORS
330
1E65
102
}
330
1E65
100
AcDbScale
 70
     0
300
1/8" = 1'-0"
140
0.125
141
12.0
290
     0
  0
SCALE
  5
1E6D
102
{ACAD_REACTORS
330
1E65
102
}
330
1E65
100
AcDbScale
 70
     0
300
3/16" = 1'-0"
140
0.1875
141
12.0
290
     0
  0
SCALE
  5
1E6E
102
{ACAD_REACTORS
330
1E65
102
}
330
1E65
100
AcDbScale
 70
     0
300
1/4" = 1'-0"
140
0.25
141
12.0
290
     0
  0
SCALE
  5
1E6F
102
{ACAD_REACTORS
330
1E65
102
}
330
1E65
100
AcDbScale
 70
     0
300
3/8" = 1'-0"
140
0.375
141
12.0
290
     0
  0
SCALE
  5
1E70
102
{ACAD_REACTORS
330
1E65
102
}
330
1E65
100
AcDbScale
 70
     0
300
1/2" = 1'-0"
140
0.5
141
12.0
290
     0
  0
SCALE
  5
1E71
102
{ACAD_REACTORS
330
1E65
102
}
330
1E65
100
AcDbScale
 70
     0
300
3/4" = 1'-0"
140
0.75
141
12.0
290
     0
  0
SCALE
  5
1E72
102
{ACAD_REACTORS
330
1E65
102
}
330
1E65
100
AcDbScale
 70
     0
300
1" = 1'-0"
140
1.0
141
12.0
290
     0
  0
SCALE
  5
1E73
102
{ACAD_REACTORS
330
1E65
102
}
330
1E65
100
AcDbScale
 70
     0
300
1-1/2" = 1'-0"
140
1.5
141
12.0
290
     0
  0
SCALE
  5
1E74
102
{ACAD_REACTORS
330
1E65
102
}
330
1E65
100
AcDbScale
 70
     0
300
3" = 1'-0"
140
3.0
141
12.0
290
     0
  0
SCALE
  5
1E75
102
{ACAD_REACTORS
330
1E65
102
}
330
1E65
100
AcDbScale
 70
     0
300
6" = 1'-0"
140
6.0
141
12.0
290
     0
  0
SCALE
  5
1E76
102
{ACAD_REACTORS
330
1E65
102
}
330
1E65
100
AcDbScale
 70
     0
300
1'-0" = 1'-0"
140
12.0
141
12.0
290
     0
  0
ACDBSECTIONVIEWSTYLE
  5
1E7A
102
{ACAD_XDICTIONARY
360
1E9B
102
}
102
{ACAD_REACTORS
330
1E79
102
}
330
1E79
100
AcDbModelDocViewStyle
 70
     0
  3
Imperial24
290
     0
100
AcDbSectionViewStyle
 70
     0
 71
     0
 90
       78
 71
     1
340
11
 62
   256
 40
0.24
340
0
340
0
 62
   256
 40
0.24
300
I, O, Q, S, X, Z
 40
0.48
 90
        3
 40
0.18
 90
        1
 71
     2
340
15
 90
       25
 62
   256
340
15
 90
       50
 62
   256
 40
0.24
 40
0.0
 40
0.24
 71
     3
340
11
 62
   256
 40
0.24
 90
        1
 40
0.75
 90
        1
300
%<\AcVar ViewType \f "%tc1">% %<\AcVar ViewSectionStartId>%-%<\AcVar ViewSectionEndId>%\PVARIA %<\AcVar ViewScale \f "%sn">%
 71
     4
 62
   256
 62
   257
300
ANSI31
 40
1.0
 90
        0
290
     0
290
     0
 90
        6
 40
0.0
 40
1.570796326794896
 40
0.2617993877991494
 40
1.308996938995747
 40
-0.2617993877991494
 40
1.832595714594046
  0
TABLESTYLE
  5
1E64
102
{ACAD_XDICTIONARY
360
1F70
102
}
102
{ACAD_REACTORS
330
1E63
102
}
330
1E63
100
AcDbTableStyle
  3
Standard
 70
     0
 71
     0
 40
0.06
 41
0.06
280
     0
281
     0
  7
STANDARD
140
0.18
170
     2
 62
     0
 63
     7
283
     0
274
    -2
284
     1
 64
     0
275
    -2
285
     1
 65
     0
276
    -2
286
     1
 66
     0
277
    -2
287
     1
 67
     0
278
    -2
288
     1
 68
     0
279
    -2
289
     1
 69
     0
  7
STANDARD
140
0.25
170
     5
 62
     0
 63
     7
283
     0
274
    -2
284
     1
 64
     0
275
    -2
285
     1
 65
     0
276
    -2
286
     1
 66
     0
277
    -2
287
     1
 67
     0
278
    -2
288
     1
 68
     0
279
    -2
289
     1
 69
     0
  7
STANDARD
140
0.18
170
     5
 62
     0
 63
     7
283
     0
274
    -2
284
     1
 64
     0
275
    -2
285
     1
 65
     0
276
    -2
286
     1
 66
     0
277
    -2
287
     1
 67
     0
278
    -2
288
     1
 68
     0
279
    -2
289
     1
 69
     0
  0
VISUALSTYLE
  5
1E50
102
{ACAD_XDICTIONARY
360
1F88
102
}
102
{ACAD_REACTORS
330
1E4A
102
}
330
1E4A
100
AcDbVisualStyle
  2
2dWireframe
 70
     4
 71
     0
 72
     2
 73
     0
 90
        0
 40
-0.6
 41
-30.0
 62
     5
 63
     7
421
 16777215
 74
     1
 91
        4
 64
     7
 65
   257
 75
     1
175
     1
 42
1.0
 92
        0
 66
   257
 43
1.0
 76
     1
 77
     6
 78
     2
 67
     7
 79
     5
170
     0
171
     0
290
     0
174
     0
 93
        1
 44
0.0
173
     0
291
     0
 45
0.0
1001
ACAD
1000
AcDbSavedByObjectVersion
1070
     0
  0
VISUALSTYLE
  5
1E4F
102
{ACAD_XDICTIONARY
360
1F86
102
}
102
{ACAD_REACTORS
330
1E4A
102
}
330
1E4A
100
AcDbVisualStyle
  2
Basic
 70
     7
 71
     1
 72
     0
 73
     1
 90
        0
 40
-0.6
 41
-30.0
 62
     5
 63
     7
421
 16777215
 74
     0
 91
        4
 64
     7
 65
   257
 75
     1
175
     1
 42
1.0
 92
        8
 66
     7
 43
1.0
 76
     1
 77
     6
 78
     2
 67
     7
 79
     5
170
     0
171
     0
290
     0
174
     0
 93
        1
 44
0.0
173
     0
291
     1
 45
0.0
1001
ACAD
1000
AcDbSavedByObjectVersion
1070
     0
  0
VISUALSTYLE
  5
1E56
102
{ACAD_XDICTIONARY
360
1F94
102
}
102
{ACAD_REACTORS
330
1E4A
102
}
330
1E4A
100
AcDbVisualStyle
  2
Brighten
 70
    12
 71
     2
 72
     2
 73
     0
 90
        0
 40
-0.6
 41
-30.0
 62
     5
 63
     7
421
 16777215
 74
     1
 91
        4
 64
     7
 65
   257
 75
     1
175
     1
 42
1.0
 92
        8
 66
     7
 43
1.0
 76
     1
 77
     6
 78
     2
 67
     7
 79
     5
170
     0
171
     0
290
     0
174
     0
 93
        1
 44
50.0
173
     0
291
     1
 45
0.0
1001
ACAD
1000
AcDbSavedByObjectVersion
1070
     0
  0
VISUALSTYLE
  5
1E5A
102
{ACAD_XDICTIONARY
360
1F9C
102
}
102
{ACAD_REACTORS
330
1E4A
102
}
330
1E4A
100
AcDbVisualStyle
  2
ColorChange
 70
    16
 71
     2
 72
     2
 73
     3
 90
        0
 40
-0.6
 41
-30.0
 62
     5
 63
     8
421
  8421504
 74
     1
 91
        4
 64
     7
 65
   257
 75
     1
175
     1
 42
1.0
 92
        8
 66
     8
424
  8421504
 43
1.0
 76
     1
 77
     6
 78
     2
 67
     7
 79
     5
170
     0
171
     0
290
     0
174
     0
 93
        1
 44
0.0
173
     0
291
     1
 45
0.0
1001
ACAD
1000
AcDbSavedByObjectVersion
1070
     0
  0
VISUALSTYLE
  5
1E53
102
{ACAD_XDICTIONARY
360
1F8E
102
}
102
{ACAD_REACTORS
330
1E4A
102
}
330
1E4A
100
AcDbVisualStyle
  2
Conceptual
 70
     9
 71
     3
 72
     2
 73
     0
 90
        0
 40
-0.6
 41
-30.0
 62
     5
 63
     7
421
 16777215
 74
     2
 91
        2
 64
     7
 65
   257
 75
     1
175
     1
 42
179.0
 92
        8
 66
     7
 43
1.0
 76
     1
 77
     6
 78
     2
 67
     7
 79
     3
170
     0
171
     0
290
     0
174
     0
 93
        1
 44
0.0
173
     0
291
     0
 45
0.0
1001
ACAD
1000
AcDbSavedByObjectVersion
1070
     0
  0
VISUALSTYLE
  5
1E55
102
{ACAD_XDICTIONARY
360
1F92
102
}
102
{ACAD_REACTORS
330
1E4A
102
}
330
1E4A
100
AcDbVisualStyle
  2
Dim
 70
    11
 71
     2
 72
     2
 73
     0
 90
        0
 40
-0.6
 41
-30.0
 62
     5
 63
     7
421
 16777215
 74
     1
 91
        4
 64
     7
 65
   257
 75
     1
175
     1
 42
1.0
 92
        8
 66
     7
 43
1.0
 76
     1
 77
     6
 78
     2
 67
     7
 79
     5
170
     0
171
     0
290
     0
174
     0
 93
        1
 44
-50.0
173
     0
291
     1
 45
0.0
1001
ACAD
1000
AcDbSavedByObjectVersion
1070
     0
  0
VISUALSTYLE
  5
1E62
102
{ACAD_XDICTIONARY
360
1FAC
102
}
102
{ACAD_REACTORS
330
1E4A
102
}
330
1E4A
100
AcDbVisualStyle
  2
EdgeColorOff
 70
    22
 71
     2
 72
     2
 73
     0
 90
        0
 40
-0.6
 41
-30.0
 62
     5
 63
     7
421
 16777215
 74
     1
 91
        4
 64
     7
 65
   257
 75
     1
175
     1
 42
1.0
 92
        8
 66
     7
 43
1.0
 76
     1
 77
     6
 78
     2
 67
     7
 79
     5
170
     0
171
     0
290
     0
174
     0
 93
        1
 44
0.0
173
     0
291
     1
 45
0.0
1001
ACAD
1000
AcDbSavedByObjectVersion
1070
     0
  0
VISUALSTYLE
  5
1E59
102
{ACAD_XDICTIONARY
360
1F9A
102
}
102
{ACAD_REACTORS
330
1E4A
102
}
330
1E4A
100
AcDbVisualStyle
  2
Facepattern
 70
    15
 71
     2
 72
     2
 73
     0
 90
        0
 40
-0.6
 41
-30.0
 62
     5
 63
     7
421
 16777215
 74
     1
 91
        4
 64
     7
 65
   257
 75
     1
175
     1
 42
1.0
 92
        8
 66
     7
 43
1.0
 76
     1
 77
     6
 78
     2
 67
     7
 79
     5
170
     0
171
     0
290
     0
174
     0
 93
        1
 44
0.0
173
     0
291
     1
 45
0.0
1001
ACAD
1000
AcDbSavedByObjectVersion
1070
     0
  0
VISUALSTYLE
  5
1E4B
102
{ACAD_XDICTIONARY
360
1F7E
102
}
102
{ACAD_REACTORS
330
1E4A
102
}
330
1E4A
100
AcDbVisualStyle
  2
Flat
 70
     0
 71
     2
 72
     1
 73
     1
 90
        2
 40
-0.6
 41
30.0
 62
     5
 63
     7
421
 16777215
 74
     0
 91
        0
 64
     7
 65
   257
 75
     1
175
     1
 42
1.0
 92
        8
 66
     7
 43
1.0
 76
     1
 77
     6
 78
     2
 67
     7
 79
     5
170
     0
171
     0
290
     0
174
     0
 93
       13
 44
0.0
173
     0
291
     1
 45
0.0
1001
ACAD
1000
AcDbSavedByObjectVersion
1070
     0
  0
VISUALSTYLE
  5
1E4C
102
{ACAD_XDICTIONARY
360
1F80
102
}
102
{ACAD_REACTORS
330
1E4A
102
}
330
1E4A
100
AcDbVisualStyle
  2
FlatWithEdges
 70
     1
 71
     2
 72
     1
 73
     1
 90
        2
 40
-0.6
 41
30.0
 62
     5
 63
     7
421
 16777215
 74
     1
 91
        0
 64
     7
 65
   257
 75
     1
175
     1
 42
1.0
 92
        0
 66
   257
 43
1.0
 76
     1
 77
     6
 78
     2
 67
     7
 79
     5
170
     0
171
     0
290
     0
174
     0
 93
       13
 44
0.0
173
     0
291
     1
 45
0.0
1001
ACAD
1000
AcDbSavedByObjectVersion
1070
     0
  0
VISUALSTYLE
  5
1E4D
102
{ACAD_XDICTIONARY
360
1F82
102
}
102
{ACAD_REACTORS
330
1E4A
102
}
330
1E4A
100
AcDbVisualStyle
  2
Gouraud
 70
     2
 71
     2
 72
     2
 73
     1
 90
        2
 40
-0.6
 41
30.0
 62
     5
 63
     7
421
 16777215
 74
     0
 91
        0
 64
     7
 65
   257
 75
     1
175
     1
 42
1.0
 92
        0
 66
     7
 43
1.0
 76
     1
 77
     6
 78
     2
 67
     7
 79
     5
170
     0
171
     0
290
     0
174
     0
 93
       13
 44
0.0
173
     0
291
     1
 45
0.0
1001
ACAD
1000
AcDbSavedByObjectVersion
1070
     0
  0
VISUALSTYLE
  5
1E4E
102
{ACAD_XDICTIONARY
360
1F84
102
}
102
{ACAD_REACTORS
330
1E4A
102
}
330
1E4A
100
AcDbVisualStyle
  2
GouraudWithEdges
 70
     3
 71
     2
 72
     2
 73
     1
 90
        2
 40
-0.6
 41
30.0
 62
     5
 63
     7
421
 16777215
 74
     1
 91
        0
 64
     7
 65
   257
 75
     1
175
     1
 42
1.0
 92
        0
 66
   257
 43
1.0
 76
     1
 77
     6
 78
     2
 67
     7
 79
     5
170
     0
171
     0
290
     0
174
     0
 93
       13
 44
0.0
173
     0
291
     1
 45
0.0
1001
ACAD
1000
AcDbSavedByObjectVersion
1070
     0
  0
VISUALSTYLE
  5
1E52
102
{ACAD_XDICTIONARY
360
1F8C
102
}
102
{ACAD_REACTORS
330
1E4A
102
}
330
1E4A
100
AcDbVisualStyle
  2
Hidden
 70
     6
 71
     1
 72
     2
 73
     2
 90
        0
 40
-0.6
 41
-30.0
 62
     5
 63
     7
421
 16777215
 74
     2
 91
        2
 64
     7
 65
   257
 75
     2
175
     1
 42
40.0
 92
        0
 66
   257
 43
1.0
 76
     1
 77
     6
 78
     2
 67
     7
 79
     3
170
     0
171
     0
290
     0
174
     0
 93
        1
 44
0.0
173
     0
291
     0
 45
0.0
1001
ACAD
1000
AcDbSavedByObjectVersion
1070
     0
  0
VISUALSTYLE
  5
1E60
102
{ACAD_XDICTIONARY
360
1FA8
102
}
102
{ACAD_REACTORS
330
1E4A
102
}
330
1E4A
100
AcDbVisualStyle
  2
JitterOff
 70
    20
 71
     2
 72
     2
 73
     0
 90
        0
 40
-0.6
 41
-30.0
 62
     5
 63
     7
421
 16777215
 74
     1
 91
        4
 64
     7
 65
   257
 75
     1
175
     1
 42
1.0
 92
       10
 66
     7
 43
1.0
 76
     1
 77
     6
 78
     2
 67
     7
 79
     5
170
     0
171
     0
290
     0
174
     0
 93
        1
 44
0.0
173
     0
291
     1
 45
0.0
1001
ACAD
1000
AcDbSavedByObjectVersion
1070
     0
  0
VISUALSTYLE
  5
1E58
102
{ACAD_XDICTIONARY
360
1F98
102
}
102
{ACAD_REACTORS
330
1E4A
102
}
330
1E4A
100
AcDbVisualStyle
  2
Linepattern
 70
    14
 71
     2
 72
     2
 73
     0
 90
        0
 40
-0.6
 41
-30.0
 62
     5
 63
     7
421
 16777215
 74
     1
 91
        4
 64
     7
 65
   257
 75
     7
175
     7
 42
1.0
 92
        8
 66
     7
 43
1.0
 76
     1
 77
     6
 78
     2
 67
     7
 79
     5
170
     0
171
     0
290
     0
174
     0
 93
        1
 44
0.0
173
     0
291
     1
 45
0.0
1001
ACAD
1000
AcDbSavedByObjectVersion
1070
     0
  0
VISUALSTYLE
  5
1E61
102
{ACAD_XDICTIONARY
360
1FAA
102
}
102
{ACAD_REACTORS
330
1E4A
102
}
330
1E4A
100
AcDbVisualStyle
  2
OverhangOff
 70
    21
 71
     2
 72
     2
 73
     0
 90
        0
 40
-0.6
 41
-30.0
 62
     5
 63
     7
421
 16777215
 74
     1
 91
        4
 64
     7
 65
   257
 75
     1
175
     1
 42
1.0
 92
        9
 66
     7
 43
1.0
 76
     1
 77
     6
 78
     2
 67
     7
 79
     5
170
     0
171
     0
290
     0
174
     0
 93
        1
 44
0.0
173
     0
291
     1
 45
0.0
1001
ACAD
1000
AcDbSavedByObjectVersion
1070
     0
  0
VISUALSTYLE
  5
1E54
102
{ACAD_XDICTIONARY
360
1F90
102
}
102
{ACAD_REACTORS
330
1E4A
102
}
330
1E4A
100
AcDbVisualStyle
  2
Realistic
 70
     8
 71
     2
 72
     3
 73
     0
 90
        2
 40
-0.6
 41
30.0
 62
     5
 63
     7
421
 16777215
 74
     0
 91
        0
 64
     7
 65
   257
 75
     1
175
     1
 42
1.0
 92
        8
 66
   257
 43
1.0
 76
     1
 77
     6
 78
     2
 67
     7
 79
     3
170
     0
171
     0
290
     0
174
     0
 93
       13
 44
0.0
173
     0
291
     0
 45
0.0
1001
ACAD
1000
AcDbSavedByObjectVersion
1070
     0
  0
VISUALSTYLE
  5
1E5F
102
{ACAD_XDICTIONARY
360
1FA6
102
}
102
{ACAD_REACTORS
330
1E4A
102
}
330
1E4A
100
AcDbVisualStyle
  2
Shaded
 70
    27
 71
     2
 72
     2
 73
     1
 90
        2
 40
-0.6
 41
30.0
 62
     5
 63
     7
421
 16777215
 74
     0
 91
        4
 64
     7
 65
   257
 75
     1
175
     1
 42
1.0
 92
        8
 66
   257
 43
1.0
 76
     1
 77
     6
 78
     2
 67
     8
425
  7895160
 79
     3
170
     0
171
     0
290
     0
174
     0
 93
        5
 44
0.0
173
     0
291
     0
 45
0.0
1001
ACAD
1000
AcDbSavedByObjectVersion
1070
     0
  0
VISUALSTYLE
  5
1E5E
102
{ACAD_XDICTIONARY
360
1FA4
102
}
102
{ACAD_REACTORS
330
1E4A
102
}
330
1E4A
100
AcDbVisualStyle
  2
Shaded with edges
 70
    26
 71
     2
 72
     2
 73
     1
 90
        2
 40
-0.6
 41
30.0
 62
     5
 63
     7
421
 16777215
 74
     1
 91
       10
 64
     7
 65
   257
 75
     2
175
     1
 42
1.0
 92
        8
 66
   257
 43
1.0
 76
     1
 77
     6
 78
     2
 67
     7
 79
     3
170
     0
171
     0
290
     0
174
     0
 93
        5
 44
0.0
173
     0
291
     0
 45
0.0
1001
ACAD
1000
AcDbSavedByObjectVersion
1070
     0
  0
VISUALSTYLE
  5
1E5B
102
{ACAD_XDICTIONARY
360
1F9E
102
}
102
{ACAD_REACTORS
330
1E4A
102
}
330
1E4A
100
AcDbVisualStyle
  2
Shades of Gray
 70
    23
 71
     2
 72
     2
 73
     3
 90
        0
 40
-0.6
 41
-30.0
 62
     5
 63
     7
421
 16777215
 74
     2
 91
        2
 64
     7
 65
     7
 75
     1
175
     1
 42
40.0
 92
        8
 66
     7
 43
1.0
 76
     1
 77
     6
 78
     2
 67
     7
 79
     3
170
     0
171
     0
290
     0
174
     0
 93
        1
 44
0.0
173
     0
291
     0
 45
0.0
1001
ACAD
1000
AcDbSavedByObjectVersion
1070
     0
  0
VISUALSTYLE
  5
1E5C
102
{ACAD_XDICTIONARY
360
1FA0
102
}
102
{ACAD_REACTORS
330
1E4A
102
}
330
1E4A
100
AcDbVisualStyle
  2
Sketchy
 70
    24
 71
     1
 72
     2
 73
     2
 90
        0
 40
-0.6
 41
-30.0
 62
     5
 63
     7
421
 16777215
 74
     2
 91
        2
 64
     7
 65
     7
 75
     1
175
     1
 42
40.0
 92
       11
 66
     7
 43
1.0
 76
     1
 77
     6
 78
     2
 67
     7
 79
     6
170
     0
171
     0
290
     0
174
     0
 93
        1
 44
0.0
173
     0
291
     0
 45
0.0
1001
ACAD
1000
AcDbSavedByObjectVersion
1070
     0
  0
VISUALSTYLE
  5
1E57
102
{ACAD_XDICTIONARY
360
1F96
102
}
102
{ACAD_REACTORS
330
1E4A
102
}
330
1E4A
100
AcDbVisualStyle
  2
Thicken
 70
    13
 71
     2
 72
     2
 73
     0
 90
        0
 40
-0.6
 41
-30.0
 62
     5
 63
     7
421
 16777215
 74
     1
 91
        4
 64
     7
 65
   257
 75
     1
175
     1
 42
1.0
 92
       12
 66
     7
 43
1.0
 76
     1
 77
     6
 78
     2
 67
     7
 79
     5
170
     0
171
     0
290
     0
174
     0
 93
        1
 44
0.0
173
     0
291
     1
 45
0.0
1001
ACAD
1000
AcDbSavedByObjectVersion
1070
     0
  0
VISUALSTYLE
  5
1E51
102
{ACAD_XDICTIONARY
360
1F8A
102
}
102
{ACAD_REACTORS
330
1E4A
102
}
330
1E4A
100
AcDbVisualStyle
  2
Wireframe
 70
     5
 71
     0
 72
     2
 73
     0
 90
        0
 40
-0.6
 41
-30.0
 62
     5
 63
     7
421
 16777215
 74
     1
 91
        4
 64
     7
 65
   257
 75
     1
175
     1
 42
1.0
 92
        0
 66
   257
 43
1.0
 76
     1
 77
     6
 78
     2
 67
     7
 79
     3
170
     0
171
     0
290
     0
174
     0
 93
        1
 44
0.0
173
     0
291
     0
 45
0.0
1001
ACAD
1000
AcDbSavedByObjectVersion
1070
     0
  0
VISUALSTYLE
  5
1E5D
102
{ACAD_XDICTIONARY
360
1FA2
102
}
102
{ACAD_REACTORS
330
1E4A
102
}
330
1E4A
100
AcDbVisualStyle
  2
X-Ray
 70
    25
 71
     2
 72
     2
 73
     1
 90
        1
 40
0.5
 41
-30.0
 62
     5
 63
     7
421
 16777215
 74
     1
 91
        0
 64
     7
 65
   257
 75
     1
175
     1
 42
1.0
 92
        8
 66
     7
 43
1.0
 76
     1
 77
     6
 78
     2
 67
     7
 79
     3
170
     0
171
     0
290
     0
174
     0
 93
       13
 44
0.0
173
     0
291
     0
 45
0.0
1001
ACAD
1000
AcDbSavedByObjectVersion
1070
     0
  0
DICTIONARYVAR
  5
1EA5
102
{ACAD_REACTORS
330
125
102
}
330
125
100
DictionaryVariables
280
     0
  1
1:1
  0
DICTIONARYVAR
  5
1EA1
102
{ACAD_REACTORS
330
125
102
}
330
125
100
DictionaryVariables
280
     0
  1
STANDARD
  0
DICTIONARYVAR
  5
1EA0
102
{ACAD_REACTORS
330
125
102
}
330
125
100
DictionaryVariables
280
     0
  1
STANDARD
  0
DICTIONARYVAR
  5
1EA2
102
{ACAD_REACTORS
330
125
102
}
330
125
100
DictionaryVariables
280
     0
  1
Imperial24
  0
DICTIONARYVAR
  5
1EA3
102
{ACAD_REACTORS
330
125
102
}
330
125
100
DictionaryVariables
280
     0
  1
Imperial24
  0
DICTIONARYVAR
  5
126
102
{ACAD_REACTORS
330
125
102
}
330
125
100
DictionaryVariables
280
     0
  1
1
  0
DICTIONARYVAR
  5
1EA7
102
{ACAD_REACTORS
330
125
102
}
330
125
100
DictionaryVariables
280
     0
  1
1
  0
DICTIONARYVAR
  5
1EA8
102
{ACAD_REACTORS
330
125
102
}
330
125
100
DictionaryVariables
280
     0
  1
15
  0
DICTIONARYVAR
  5
1EA6
102
{ACAD_REACTORS
330
125
102
}
330
125
100
DictionaryVariables
280
     0
  1
0
  0
DICTIONARYVAR
  5
1EA4
102
{ACAD_REACTORS
330
125
102
}
330
125
100
DictionaryVariables
280
     0
  1
0
  0
DICTIONARYVAR
  5
127
102
{ACAD_REACTORS
330
125
102
}
330
125
100
DictionaryVariables
280
     0
  1

  0
DICTIONARYVAR
  5
1F6F
102
{ACAD_REACTORS
330
125
102
}
330
125
100
DictionaryVariables
280
     0
  1
2
  0
DICTIONARY
  5
1F7A
102
{ACAD_REACTORS
330
1F78
102
}
330
1F78
100
AcDbDictionary
281
     1
  0
DICTIONARY
  5
1F79
102
{ACAD_REACTORS
330
1F78
102
}
330
1F78
100
AcDbDictionary
281
     1
  3
8796085079472
350
1F73
  3
8796085079488
350
1F74
  3
8796085079504
350
1F75
  3
8796085079520
350
1F76
  3
8796085079536
350
1F77
  0
DICTIONARY
  5
1E9D
330
1E7C
100
AcDbDictionary
280
     1
281
     1
  3
ACAD_XREC_ROUNDTRIP
360
1F19
  0
DICTIONARY
  5
1E3B
330
1E3A
100
AcDbDictionary
280
     1
281
     1
  3
ACAD_XREC_ROUNDTRIP
360
1F7C
  3
BUMPTILE
360
1E3D
  3
DIFFUSETILE
360
1E3C
  3
OPACITYTILE
360
1E40
  3
REFLECTIONTILE
360
1E3F
  3
REFRACTIONTILE
360
1E41
  3
SPECULARTILE
360
1E3E
  0
DICTIONARY
  5
1E33
330
1E32
100
AcDbDictionary
280
     1
281
     1
  3
ACAD_XREC_ROUNDTRIP
360
1F7B
  3
BUMPTILE
360
1E35
  3
DIFFUSETILE
360
1E34
  3
OPACITYTILE
360
1E38
  3
REFLECTIONTILE
360
1E37
  3
REFRACTIONTILE
360
1E39
  3
SPECULARTILE
360
1E36
  0
DICTIONARY
  5
1E43
330
1E42
100
AcDbDictionary
280
     1
281
     1
  3
ACAD_XREC_ROUNDTRIP
360
1F7D
  3
BUMPTILE
360
1E45
  3
DIFFUSETILE
360
1E44
  3
OPACITYTILE
360
1E48
  3
REFLECTIONTILE
360
1E47
  3
REFRACTIONTILE
360
1E49
  3
SPECULARTILE
360
1E46
  0
DICTIONARY
  5
1FB0
330
1E78
100
AcDbDictionary
280
     1
281
     1
  3
ACAD_XREC_ROUNDTRIP
360
1FB1
  0
DICTIONARY
  5
1E9B
330
1E7A
100
AcDbDictionary
280
     1
281
     1
  3
ACAD_XREC_ROUNDTRIP
360
1F18
  0
DICTIONARY
  5
1F70
330
1E64
100
AcDbDictionary
280
     1
281
     1
  3
ACAD_ROUNDTRIP_2008_TABLESTYLE_CELLSTYLEMAP
360
1F71
  3
ACAD_XREC_ROUNDTRIP
360
1FAE
  0
DICTIONARY
  5
1F88
330
1E50
100
AcDbDictionary
280
     1
281
     1
  3
ACAD_XREC_ROUNDTRIP
360
1F89
  0
DICTIONARY
  5
1F86
330
1E4F
100
AcDbDictionary
280
     1
281
     1
  3
ACAD_XREC_ROUNDTRIP
360
1F87
  0
DICTIONARY
  5
1F94
330
1E56
100
AcDbDictionary
280
     1
281
     1
  3
ACAD_XREC_ROUNDTRIP
360
1F95
  0
DICTIONARY
  5
1F9C
330
1E5A
100
AcDbDictionary
280
     1
281
     1
  3
ACAD_XREC_ROUNDTRIP
360
1F9D
  0
DICTIONARY
  5
1F8E
330
1E53
100
AcDbDictionary
280
     1
281
     1
  3
ACAD_XREC_ROUNDTRIP
360
1F8F
  0
DICTIONARY
  5
1F92
330
1E55
100
AcDbDictionary
280
     1
281
     1
  3
ACAD_XREC_ROUNDTRIP
360
1F93
  0
DICTIONARY
  5
1FAC
330
1E62
100
AcDbDictionary
280
     1
281
     1
  3
ACAD_XREC_ROUNDTRIP
360
1FAD
  0
DICTIONARY
  5
1F9A
330
1E59
100
AcDbDictionary
280
     1
281
     1
  3
ACAD_XREC_ROUNDTRIP
360
1F9B
  0
DICTIONARY
  5
1F7E
330
1E4B
100
AcDbDictionary
280
     1
281
     1
  3
ACAD_XREC_ROUNDTRIP
360
1F7F
  0
DICTIONARY
  5
1F80
330
1E4C
100
AcDbDictionary
280
     1
281
     1
  3
ACAD_XREC_ROUNDTRIP
360
1F81
  0
DICTIONARY
  5
1F82
330
1E4D
100
AcDbDictionary
280
     1
281
     1
  3
ACAD_XREC_ROUNDTRIP
360
1F83
  0
DICTIONARY
  5
1F84
330
1E4E
100
AcDbDictionary
280
     1
281
     1
  3
ACAD_XREC_ROUNDTRIP
360
1F85
  0
DICTIONARY
  5
1F8C
330
1E52
100
AcDbDictionary
280
     1
281
     1
  3
ACAD_XREC_ROUNDTRIP
360
1F8D
  0
DICTIONARY
  5
1FA8
330
1E60
100
AcDbDictionary
280
     1
281
     1
  3
ACAD_XREC_ROUNDTRIP
360
1FA9
  0
DICTIONARY
  5
1F98
330
1E58
100
AcDbDictionary
280
     1
281
     1
  3
ACAD_XREC_ROUNDTRIP
360
1F99
  0
DICTIONARY
  5
1FAA
330
1E61
100
AcDbDictionary
280
     1
281
     1
  3
ACAD_XREC_ROUNDTRIP
360
1FAB
  0
DICTIONARY
  5
1F90
330
1E54
100
AcDbDictionary
280
     1
281
     1
  3
ACAD_XREC_ROUNDTRIP
360
1F91
  0
DICTIONARY
  5
1FA6
330
1E5F
100
AcDbDictionary
280
     1
281
     1
  3
ACAD_XREC_ROUNDTRIP
360
1FA7
  0
DICTIONARY
  5
1FA4
330
1E5E
100
AcDbDictionary
280
     1
281
     1
  3
ACAD_XREC_ROUNDTRIP
360
1FA5
  0
DICTIONARY
  5
1F9E
330
1E5B
100
AcDbDictionary
280
     1
281
     1
  3
ACAD_XREC_ROUNDTRIP
360
1F9F
  0
DICTIONARY
  5
1FA0
330
1E5C
100
AcDbDictionary
280
     1
281
     1
  3
ACAD_XREC_ROUNDTRIP
360
1FA1
  0
DICTIONARY
  5
1F96
330
1E57
100
AcDbDictionary
280
     1
281
     1
  3
ACAD_XREC_ROUNDTRIP
360
1F97
  0
DICTIONARY
  5
1F8A
330
1E51
100
AcDbDictionary
280
     1
281
     1
  3
ACAD_XREC_ROUNDTRIP
360
1F8B
  0
DICTIONARY
  5
1FA2
330
1E5D
100
AcDbDictionary
280
     1
281
     1
  3
ACAD_XREC_ROUNDTRIP
360
1FA3
  0
XRECORD
  5
1F73
102
{ACAD_REACTORS
330
1F79
102
}
330
1F79
100
AcDbXrecord
280
     1
  1
AcDb_Thumbnail_Schema
102
{ATTRRECORD
341
1F74
  2
AcDbDs::TreatedAsObjectData
280
     1
291
     1
102
ATTRRECORD}
102
{ATTRRECORD
341
1F75
  2
AcDbDs::Legacy
280
     1
291
     1
102
ATTRRECORD}
  2
AcDbDs::ID
280
    10
 91
        8
102
{ATTRRECORD
341
1F76
  2
AcDs:Indexable
280
     1
291
     1
102
ATTRRECORD}
102
{ATTRRECORD
341
1F77
  2
AcDbDs::HandleAttribute
280
     7
282
     1
102
ATTRRECORD}
  2
Thumbnail_Data
280
    15
 91
        0
  0
XRECORD
  5
1F74
102
{ACAD_REACTORS
330
1F79
102
}
330
1F79
100
AcDbXrecord
280
     1
  1
AcDbDs::TreatedAsObjectDataSchema
  2
AcDbDs::TreatedAsObjectData
280
     1
 91
        0
  0
XRECORD
  5
1F75
102
{ACAD_REACTORS
330
1F79
102
}
330
1F79
100
AcDbXrecord
280
     1
  1
AcDbDs::LegacySchema
  2
AcDbDs::Legacy
280
     1
 91
        0
  0
XRECORD
  5
1F76
102
{ACAD_REACTORS
330
1F79
102
}
330
1F79
100
AcDbXrecord
280
     1
  1
AcDbDs::IndexedPropertySchema
  2
AcDs:Indexable
280
     1
 91
        0
  0
XRECORD
  5
1F77
102
{ACAD_REACTORS
330
1F79
102
}
330
1F79
100
AcDbXrecord
280
     1
  1
AcDbDs::HandleAttributeSchema
  2
AcDbDs::HandleAttribute
280
     7
 91
        1
284
     1
  0
XRECORD
  5
1F19
102
{ACAD_REACTORS
330
1E9D
102
}
330
1E9D
100
AcDbXrecord
280
     1
102
DISPLAYNAME
  1
Imperial24
102
FLAGS
 90
        0
  0
XRECORD
  5
1F7C
102
{ACAD_REACTORS
330
1E3B
102
}
330
1E3B
100
AcDbXrecord
280
     1
102
MATERIAL
148
0.0
149
0.0
149
0.0
 93
        0
 94
      127
282
     0
 72
     0
 77
     0
171
     0
175
     0
179
     0
273
     0
  0
XRECORD
  5
1E3D
102
{ACAD_REACTORS
330
1E3B
102
}
330
1E3B
100
AcDbXrecord
280
     1
270
     1
271
     1
  0
XRECORD
  5
1E3C
102
{ACAD_REACTORS
330
1E3B
102
}
330
1E3B
100
AcDbXrecord
280
     1
270
     1
271
     1
  0
XRECORD
  5
1E40
102
{ACAD_REACTORS
330
1E3B
102
}
330
1E3B
100
AcDbXrecord
280
     1
270
     1
271
     1
  0
XRECORD
  5
1E3F
102
{ACAD_REACTORS
330
1E3B
102
}
330
1E3B
100
AcDbXrecord
280
     1
270
     1
271
     1
  0
XRECORD
  5
1E41
102
{ACAD_REACTORS
330
1E3B
102
}
330
1E3B
100
AcDbXrecord
280
     1
270
     1
271
     1
  0
XRECORD
  5
1E3E
102
{ACAD_REACTORS
330
1E3B
102
}
330
1E3B
100
AcDbXrecord
280
     1
270
     1
271
     1
  0
XRECORD
  5
1F7B
102
{ACAD_REACTORS
330
1E33
102
}
330
1E33
100
AcDbXrecord
280
     1
102
MATERIAL
148
0.0
149
0.0
149
0.0
 93
        0
 94
      127
282
     0
 72
     0
 77
     0
171
     0
175
     0
179
     0
273
     0
  0
XRECORD
  5
1E35
102
{ACAD_REACTORS
330
1E33
102
}
330
1E33
100
AcDbXrecord
280
     1
270
     1
271
     1
  0
XRECORD
  5
1E34
102
{ACAD_REACTORS
330
1E33
102
}
330
1E33
100
AcDbXrecord
280
     1
270
     1
271
     1
  0
XRECORD
  5
1E38
102
{ACAD_REACTORS
330
1E33
102
}
330
1E33
100
AcDbXrecord
280
     1
270
     1
271
     1
  0
XRECORD
  5
1E37
102
{ACAD_REACTORS
330
1E33
102
}
330
1E33
100
AcDbXrecord
280
     1
270
     1
271
     1
  0
XRECORD
  5
1E39
102
{ACAD_REACTORS
330
1E33
102
}
330
1E33
100
AcDbXrecord
280
     1
270
     1
271
     1
  0
XRECORD
  5
1E36
102
{ACAD_REACTORS
330
1E33
102
}
330
1E33
100
AcDbXrecord
280
     1
270
     1
271
     1
  0
XRECORD
  5
1F7D
102
{ACAD_REACTORS
330
1E43
102
}
330
1E43
100
AcDbXrecord
280
     1
102
MATERIAL
148
0.0
149
0.0
149
0.0
 93
        0
 94
      127
282
     0
 72
     0
 77
     0
171
     0
175
     0
179
     0
273
     0
  0
XRECORD
  5
1E45
102
{ACAD_REACTORS
330
1E43
102
}
330
1E43
100
AcDbXrecord
280
     1
270
     1
271
     1
  0
XRECORD
  5
1E44
102
{ACAD_REACTORS
330
1E43
102
}
330
1E43
100
AcDbXrecord
280
     1
270
     1
271
     1
  0
XRECORD
  5
1E48
102
{ACAD_REACTORS
330
1E43
102
}
330
1E43
100
AcDbXrecord
280
     1
270
     1
271
     1
  0
XRECORD
  5
1E47
102
{ACAD_REACTORS
330
1E43
102
}
330
1E43
100
AcDbXrecord
280
     1
270
     1
271
     1
  0
XRECORD
  5
1E49
102
{ACAD_REACTORS
330
1E43
102
}
330
1E43
100
AcDbXrecord
280
     1
270
     1
271
     1
  0
XRECORD
  5
1E46
102
{ACAD_REACTORS
330
1E43
102
}
330
1E43
100
AcDbXrecord
280
     1
270
     1
271
     1
  0
XRECORD
  5
1FB1
102
{ACAD_REACTORS
330
1FB0
102
}
330
1FB0
100
AcDbXrecord
280
     1
102
ACAD_ROUNDTRIP_2012_MLEADER_STYLE
298
     1
  0
XRECORD
  5
1F18
102
{ACAD_REACTORS
330
1E9B
102
}
330
1E9B
100
AcDbXrecord
280
     1
102
DISPLAYNAME
  1
Imperial24
102
FLAGS
 90
        0
  0
CELLSTYLEMAP
  5
1F71
102
{ACAD_REACTORS
330
1F70
102
}
330
1F70
100
AcDbCellStyleMap
 90
        3
300
CELLSTYLE
  1
TABLEFORMAT_BEGIN
 90
        5
170
     1
 91
        0
 92
    32768
 62
   257
 93
        1
300
CONTENTFORMAT
  1
CONTENTFORMAT_BEGIN
 90
        0
 91
        0
 92
      512
 93
        0
300

 40
0.0
140
1.0
 94
        5
 62
     0
340
11
144
0.25
309
CONTENTFORMAT_END
171
     0
 94
        0
309
TABLEFORMAT_END
  1
CELLSTYLE_BEGIN
 90
        1
 91
        1
300
_TITLE
309
CELLSTYLE_END
300
CELLSTYLE
  1
TABLEFORMAT_BEGIN
 90
        5
170
     1
 91
        0
 92
        0
 62
   257
 93
        1
300
CONTENTFORMAT
  1
CONTENTFORMAT_BEGIN
 90
        0
 91
        0
 92
      512
 93
        0
300

 40
0.0
140
1.0
 94
        5
 62
     0
340
11
144
0.18
309
CONTENTFORMAT_END
171
     0
 94
        0
309
TABLEFORMAT_END
  1
CELLSTYLE_BEGIN
 90
        2
 91
        1
300
_HEADER
309
CELLSTYLE_END
300
CELLSTYLE
  1
TABLEFORMAT_BEGIN
 90
        5
170
     1
 91
        0
 92
        0
 62
   257
 93
        1
300
CONTENTFORMAT
  1
CONTENTFORMAT_BEGIN
 90
        0
 91
        0
 92
      512
 93
        0
300

 40
0.0
140
1.0
 94
        2
 62
     0
340
11
144
0.18
309
CONTENTFORMAT_END
171
     0
 94
        0
309
TABLEFORMAT_END
  1
CELLSTYLE_BEGIN
 90
        3
 91
        2
300
_DATA
309
CELLSTYLE_END
  0
XRECORD
  5
1FAE
102
{ACAD_REACTORS
330
1F70
102
}
330
1F70
100
AcDbXrecord
280
     1
102
ACAD_ROUNDTRIP_PRE2007_TABLESTYLE
 90
      512
 91
        0
  1

 92
      512
 93
        0
  2

 94
      512
 95
        0
  3

  0
XRECORD
  5
1F89
102
{ACAD_REACTORS
330
1F88
102
}
330
1F88
100
AcDbXrecord
280
     1
102
RTVSPost2010Prop28
280
     1
102
RTVSPost2010PropOp28
 70
     1
102
RTVSPost2010Prop29
280
     1
102
RTVSPost2010PropOp29
 70
     1
102
RTVSPost2010Prop30
280
     0
102
RTVSPost2010PropOp30
 70
     1
102
RTVSPost2010Prop31
280
     0
102
RTVSPost2010PropOp31
 70
     1
102
RTVSPost2010Prop32
280
     0
102
RTVSPost2010PropOp32
 70
     1
102
RTVSPost2010Prop33
280
     0
102
RTVSPost2010PropOp33
 70
     1
102
RTVSPost2010Prop34
280
     0
102
RTVSPost2010PropOp34
 70
     1
102
RTVSPost2010Prop35
280
     0
102
RTVSPost2010PropOp35
 70
     1
102
RTVSPost2010Prop36
280
     0
102
RTVSPost2010PropOp36
 70
     1
102
RTVSPost2010Prop37
 90
       50
102
RTVSPost2010PropOp37
 70
     1
102
RTVSPost2010Prop38
140
0.0
102
RTVSPost2010PropOp38
 70
     1
102
RTVSPost2010Prop39
140
1.0
102
RTVSPost2010PropOp39
 70
     1
102
RTVSPost2010Prop40
 90
        0
102
RTVSPost2010PropOp40
 70
     1
102
RTVSPost2010Prop41ColorIndex
 90
       18
102
RTVSPost2010Prop41ColorRGB
 90
        0
102
RTVSPost2010PropOp41
 70
     1
102
RTVSPost2010Prop42
 90
       50
102
RTVSPost2010PropOp42
 70
     1
102
RTVSPost2010Prop43
 90
        3
102
RTVSPost2010PropOp43
 70
     1
102
RTVSPost2010Prop44ColorIndex
 90
        5
102
RTVSPost2010Prop44ColorRGB
 90
      255
102
RTVSPost2010PropOp44
 70
     1
102
RTVSPost2010Prop45
280
     0
102
RTVSPost2010PropOp45
 70
     1
102
RTVSPost2010Prop46
 90
       50
102
RTVSPost2010PropOp46
 70
     1
102
RTVSPost2010Prop47
 90
       50
102
RTVSPost2010PropOp47
 70
     1
102
RTVSPost2010Prop48
 90
       50
102
RTVSPost2010PropOp48
 70
     1
102
RTVSPost2010Prop49
280
     0
102
RTVSPost2010PropOp49
 70
     1
102
RTVSPost2010Prop50
 90
       50
102
RTVSPost2010PropOp50
 70
     1
102
RTVSPost2010Prop51ColorIndex
 90
      256
102
RTVSPost2010Prop51ColorRGB
 90
-16777216
102
RTVSPost2010PropOp51
 70
     0
102
RTVSPost2010Prop52
140
1.0
102
RTVSPost2010PropOp52
 70
     0
102
RTVSPost2010Prop53
 90
        2
102
RTVSPost2010PropOp53
 70
     1
102
RTVSPost2010Prop54
  1
strokes_ogs.tif
102
RTVSPost2010PropOp54
 70
     1
102
RTVSPost2010Prop55
280
     0
102
RTVSPost2010PropOp55
 70
     1
102
RTVSPost2010Prop56
140
1.0
102
RTVSPost2010PropOp56
 70
     1
102
RTVSPost2010Prop57
140
1.0
102
RTVSPost2010PropOp57
 70
     1
102
RTVSPropertyOp0
 70
     1
102
RTVSPropertyOp1
 70
     1
102
RTVSPropertyOp2
 70
     1
102
RTVSPropertyOp3
 70
     1
102
RTVSPropertyOp4
 70
     1
102
RTVSPropertyOp5
 70
     1
102
RTVSPropertyOp6
 70
     1
102
RTVSPropertyOp7
 70
     1
102
RTVSPropertyOp8
 70
     1
102
RTVSPropertyOp9
 70
     1
102
RTVSPropertyOp10
 70
     1
102
RTVSPropertyOp11
 70
     1
102
RTVSPropertyOp12
 70
     1
102
RTVSPropertyOp13
 70
     1
102
RTVSPropertyOp14
 70
     1
102
RTVSPropertyOp15
 70
     1
102
RTVSPropertyOp16
 70
     1
102
RTVSPropertyOp17
 70
     1
102
RTVSPropertyOp18
 70
     1
102
RTVSPropertyOp19
 70
     1
102
RTVSPropertyOp20
 70
     1
102
RTVSPropertyOp21
 70
     1
102
RTVSPropertyOp22
 70
     1
102
RTVSPropertyOp23
 70
     1
102
RTVSPropertyOp24
 70
     1
102
RTVSPropertyOp25
 70
     1
102
RTVSPropertyOp26
 70
     1
102
RTVSPropertyOp27
 70
     1
102
RTVSPropertyOp28
 70
     1
102
RTVSPropertyOp29
 70
     1
102
RTVSPropertyOp30
 70
     1
102
RTVSPropertyOp31
 70
     1
102
RTVSPropertyOp32
 70
     1
102
RTVSPropertyOp33
 70
     1
102
RTVSPropertyOp34
 70
     1
102
RTVSPropertyOp35
 70
     1
102
RTVSPropertyOp36
 70
     1
102
RTVSPropertyOp37
 70
     1
102
RTVSPropertyOp38
 70
     1
102
RTVSPropertyOp39
 70
     1
102
RTVSPropertyOp40
 70
     1
102
RTVSPropertyOp41
 70
     1
102
RTVSPropertyOp42
 70
     1
102
RTVSPropertyOp43
 70
     1
102
RTVSPropertyOp44
 70
     1
102
RTVSPropertyOp45
 70
     1
102
RTVSPropertyOp46
 70
     1
102
RTVSPropertyOp47
 70
     1
102
RTVSPropertyOp48
 70
     1
102
RTVSPropertyOp49
 70
     1
102
RTVSPropertyOp50
 70
     1
102
RTVSPropertyOp51
 70
     0
102
RTVSPropertyOp52
 70
     0
102
RTVSPropertyOp53
 70
     1
102
RTVSPropertyOp54
 70
     1
102
RTVSPropertyOp55
 70
     1
102
RTVSPropertyOp56
 70
     1
102
RTVSPropertyOp57
 70
     1
102
RTVSPropertyOp58
 70
     1
102
RTVSPropertyOp59
 70
     1
102
RTVSPropertyOp60
 70
     1
102
RTVSPropertyOp61
 70
     1
102
RTVSPropertyOp62
 70
     1
  0
XRECORD
  5
1F87
102
{ACAD_REACTORS
330
1F86
102
}
330
1F86
100
AcDbXrecord
280
     1
102
RTVSPost2010Prop28
280
     0
102
RTVSPost2010PropOp28
 70
     1
102
RTVSPost2010Prop29
280
     1
102
RTVSPost2010PropOp29
 70
     1
102
RTVSPost2010Prop30
280
     1
102
RTVSPost2010PropOp30
 70
     1
102
RTVSPost2010Prop31
280
     0
102
RTVSPost2010PropOp31
 70
     1
102
RTVSPost2010Prop32
280
     0
102
RTVSPost2010PropOp32
 70
     1
102
RTVSPost2010Prop33
280
     0
102
RTVSPost2010PropOp33
 70
     1
102
RTVSPost2010Prop34
280
     0
102
RTVSPost2010PropOp34
 70
     1
102
RTVSPost2010Prop35
280
     0
102
RTVSPost2010PropOp35
 70
     1
102
RTVSPost2010Prop36
280
     0
102
RTVSPost2010PropOp36
 70
     1
102
RTVSPost2010Prop37
 90
       50
102
RTVSPost2010PropOp37
 70
     1
102
RTVSPost2010Prop38
140
0.0
102
RTVSPost2010PropOp38
 70
     1
102
RTVSPost2010Prop39
140
1.0
102
RTVSPost2010PropOp39
 70
     1
102
RTVSPost2010Prop40
 90
        0
102
RTVSPost2010PropOp40
 70
     1
102
RTVSPost2010Prop41ColorIndex
 90
       18
102
RTVSPost2010Prop41ColorRGB
 90
        0
102
RTVSPost2010PropOp41
 70
     1
102
RTVSPost2010Prop42
 90
       50
102
RTVSPost2010PropOp42
 70
     1
102
RTVSPost2010Prop43
 90
        3
102
RTVSPost2010PropOp43
 70
     1
102
RTVSPost2010Prop44ColorIndex
 90
        5
102
RTVSPost2010Prop44ColorRGB
 90
      255
102
RTVSPost2010PropOp44
 70
     1
102
RTVSPost2010Prop45
280
     0
102
RTVSPost2010PropOp45
 70
     1
102
RTVSPost2010Prop46
 90
       50
102
RTVSPost2010PropOp46
 70
     1
102
RTVSPost2010Prop47
 90
       50
102
RTVSPost2010PropOp47
 70
     1
102
RTVSPost2010Prop48
 90
       50
102
RTVSPost2010PropOp48
 70
     1
102
RTVSPost2010Prop49
280
     0
102
RTVSPost2010PropOp49
 70
     1
102
RTVSPost2010Prop50
 90
       50
102
RTVSPost2010PropOp50
 70
     1
102
RTVSPost2010Prop51ColorIndex
 90
      256
102
RTVSPost2010Prop51ColorRGB
 90
-16777216
102
RTVSPost2010PropOp51
 70
     0
102
RTVSPost2010Prop52
140
1.0
102
RTVSPost2010PropOp52
 70
     0
102
RTVSPost2010Prop53
 90
        2
102
RTVSPost2010PropOp53
 70
     1
102
RTVSPost2010Prop54
  1
strokes_ogs.tif
102
RTVSPost2010PropOp54
 70
     1
102
RTVSPost2010Prop55
280
     0
102
RTVSPost2010PropOp55
 70
     1
102
RTVSPost2010Prop56
140
1.0
102
RTVSPost2010PropOp56
 70
     1
102
RTVSPost2010Prop57
140
1.0
102
RTVSPost2010PropOp57
 70
     1
102
RTVSPropertyOp0
 70
     1
102
RTVSPropertyOp1
 70
     1
102
RTVSPropertyOp2
 70
     1
102
RTVSPropertyOp3
 70
     1
102
RTVSPropertyOp4
 70
     1
102
RTVSPropertyOp5
 70
     1
102
RTVSPropertyOp6
 70
     1
102
RTVSPropertyOp7
 70
     1
102
RTVSPropertyOp8
 70
     1
102
RTVSPropertyOp9
 70
     1
102
RTVSPropertyOp10
 70
     1
102
RTVSPropertyOp11
 70
     1
102
RTVSPropertyOp12
 70
     1
102
RTVSPropertyOp13
 70
     1
102
RTVSPropertyOp14
 70
     1
102
RTVSPropertyOp15
 70
     1
102
RTVSPropertyOp16
 70
     1
102
RTVSPropertyOp17
 70
     1
102
RTVSPropertyOp18
 70
     1
102
RTVSPropertyOp19
 70
     1
102
RTVSPropertyOp20
 70
     1
102
RTVSPropertyOp21
 70
     1
102
RTVSPropertyOp22
 70
     1
102
RTVSPropertyOp23
 70
     1
102
RTVSPropertyOp24
 70
     1
102
RTVSPropertyOp25
 70
     1
102
RTVSPropertyOp26
 70
     1
102
RTVSPropertyOp27
 70
     1
102
RTVSPropertyOp28
 70
     1
102
RTVSPropertyOp29
 70
     1
102
RTVSPropertyOp30
 70
     1
102
RTVSPropertyOp31
 70
     1
102
RTVSPropertyOp32
 70
     1
102
RTVSPropertyOp33
 70
     1
102
RTVSPropertyOp34
 70
     1
102
RTVSPropertyOp35
 70
     1
102
RTVSPropertyOp36
 70
     1
102
RTVSPropertyOp37
 70
     1
102
RTVSPropertyOp38
 70
     1
102
RTVSPropertyOp39
 70
     1
102
RTVSPropertyOp40
 70
     1
102
RTVSPropertyOp41
 70
     1
102
RTVSPropertyOp42
 70
     1
102
RTVSPropertyOp43
 70
     1
102
RTVSPropertyOp44
 70
     1
102
RTVSPropertyOp45
 70
     1
102
RTVSPropertyOp46
 70
     1
102
RTVSPropertyOp47
 70
     1
102
RTVSPropertyOp48
 70
     1
102
RTVSPropertyOp49
 70
     1
102
RTVSPropertyOp50
 70
     1
102
RTVSPropertyOp51
 70
     0
102
RTVSPropertyOp52
 70
     0
102
RTVSPropertyOp53
 70
     1
102
RTVSPropertyOp54
 70
     1
102
RTVSPropertyOp55
 70
     1
102
RTVSPropertyOp56
 70
     1
102
RTVSPropertyOp57
 70
     1
102
RTVSPropertyOp58
 70
     1
102
RTVSPropertyOp59
 70
     1
102
RTVSPropertyOp60
 70
     1
102
RTVSPropertyOp61
 70
     1
102
RTVSPropertyOp62
 70
     1
  0
XRECORD
  5
1F95
102
{ACAD_REACTORS
330
1F94
102
}
330
1F94
100
AcDbXrecord
280
     1
102
RTVSPost2010Prop28
280
     0
102
RTVSPost2010PropOp28
 70
     1
102
RTVSPost2010Prop29
280
     1
102
RTVSPost2010PropOp29
 70
     1
102
RTVSPost2010Prop30
280
     1
102
RTVSPost2010PropOp30
 70
     1
102
RTVSPost2010Prop31
280
     0
102
RTVSPost2010PropOp31
 70
     1
102
RTVSPost2010Prop32
280
     0
102
RTVSPost2010PropOp32
 70
     1
102
RTVSPost2010Prop33
280
     0
102
RTVSPost2010PropOp33
 70
     1
102
RTVSPost2010Prop34
280
     0
102
RTVSPost2010PropOp34
 70
     1
102
RTVSPost2010Prop35
280
     0
102
RTVSPost2010PropOp35
 70
     1
102
RTVSPost2010Prop36
280
     0
102
RTVSPost2010PropOp36
 70
     1
102
RTVSPost2010Prop37
 90
       50
102
RTVSPost2010PropOp37
 70
     1
102
RTVSPost2010Prop38
140
0.0
102
RTVSPost2010PropOp38
 70
     1
102
RTVSPost2010Prop39
140
1.0
102
RTVSPost2010PropOp39
 70
     1
102
RTVSPost2010Prop40
 90
        0
102
RTVSPost2010PropOp40
 70
     1
102
RTVSPost2010Prop41ColorIndex
 90
       18
102
RTVSPost2010Prop41ColorRGB
 90
        0
102
RTVSPost2010PropOp41
 70
     1
102
RTVSPost2010Prop42
 90
       50
102
RTVSPost2010PropOp42
 70
     1
102
RTVSPost2010Prop43
 90
        3
102
RTVSPost2010PropOp43
 70
     1
102
RTVSPost2010Prop44ColorIndex
 90
        5
102
RTVSPost2010Prop44ColorRGB
 90
      255
102
RTVSPost2010PropOp44
 70
     1
102
RTVSPost2010Prop45
280
     0
102
RTVSPost2010PropOp45
 70
     1
102
RTVSPost2010Prop46
 90
       50
102
RTVSPost2010PropOp46
 70
     1
102
RTVSPost2010Prop47
 90
       50
102
RTVSPost2010PropOp47
 70
     1
102
RTVSPost2010Prop48
 90
       50
102
RTVSPost2010PropOp48
 70
     1
102
RTVSPost2010Prop49
280
     0
102
RTVSPost2010PropOp49
 70
     1
102
RTVSPost2010Prop50
 90
       50
102
RTVSPost2010PropOp50
 70
     1
102
RTVSPost2010Prop51ColorIndex
 90
      256
102
RTVSPost2010Prop51ColorRGB
 90
-16777216
102
RTVSPost2010PropOp51
 70
     0
102
RTVSPost2010Prop52
140
1.0
102
RTVSPost2010PropOp52
 70
     0
102
RTVSPost2010Prop53
 90
        2
102
RTVSPost2010PropOp53
 70
     1
102
RTVSPost2010Prop54
  1
strokes_ogs.tif
102
RTVSPost2010PropOp54
 70
     1
102
RTVSPost2010Prop55
280
     0
102
RTVSPost2010PropOp55
 70
     1
102
RTVSPost2010Prop56
140
1.0
102
RTVSPost2010PropOp56
 70
     1
102
RTVSPost2010Prop57
140
1.0
102
RTVSPost2010PropOp57
 70
     1
102
RTVSPropertyOp0
 70
     1
102
RTVSPropertyOp1
 70
     1
102
RTVSPropertyOp2
 70
     1
102
RTVSPropertyOp3
 70
     1
102
RTVSPropertyOp4
 70
     1
102
RTVSPropertyOp5
 70
     1
102
RTVSPropertyOp6
 70
     1
102
RTVSPropertyOp7
 70
     1
102
RTVSPropertyOp8
 70
     1
102
RTVSPropertyOp9
 70
     1
102
RTVSPropertyOp10
 70
     1
102
RTVSPropertyOp11
 70
     1
102
RTVSPropertyOp12
 70
     1
102
RTVSPropertyOp13
 70
     1
102
RTVSPropertyOp14
 70
     1
102
RTVSPropertyOp15
 70
     1
102
RTVSPropertyOp16
 70
     1
102
RTVSPropertyOp17
 70
     1
102
RTVSPropertyOp18
 70
     1
102
RTVSPropertyOp19
 70
     1
102
RTVSPropertyOp20
 70
     1
102
RTVSPropertyOp21
 70
     1
102
RTVSPropertyOp22
 70
     1
102
RTVSPropertyOp23
 70
     1
102
RTVSPropertyOp24
 70
     1
102
RTVSPropertyOp25
 70
     1
102
RTVSPropertyOp26
 70
     1
102
RTVSPropertyOp27
 70
     1
102
RTVSPropertyOp28
 70
     1
102
RTVSPropertyOp29
 70
     1
102
RTVSPropertyOp30
 70
     1
102
RTVSPropertyOp31
 70
     1
102
RTVSPropertyOp32
 70
     1
102
RTVSPropertyOp33
 70
     1
102
RTVSPropertyOp34
 70
     1
102
RTVSPropertyOp35
 70
     1
102
RTVSPropertyOp36
 70
     1
102
RTVSPropertyOp37
 70
     1
102
RTVSPropertyOp38
 70
     1
102
RTVSPropertyOp39
 70
     1
102
RTVSPropertyOp40
 70
     1
102
RTVSPropertyOp41
 70
     1
102
RTVSPropertyOp42
 70
     1
102
RTVSPropertyOp43
 70
     1
102
RTVSPropertyOp44
 70
     1
102
RTVSPropertyOp45
 70
     1
102
RTVSPropertyOp46
 70
     1
102
RTVSPropertyOp47
 70
     1
102
RTVSPropertyOp48
 70
     1
102
RTVSPropertyOp49
 70
     1
102
RTVSPropertyOp50
 70
     1
102
RTVSPropertyOp51
 70
     0
102
RTVSPropertyOp52
 70
     0
102
RTVSPropertyOp53
 70
     1
102
RTVSPropertyOp54
 70
     1
102
RTVSPropertyOp55
 70
     1
102
RTVSPropertyOp56
 70
     1
102
RTVSPropertyOp57
 70
     1
102
RTVSPropertyOp58
 70
     1
102
RTVSPropertyOp59
 70
     1
102
RTVSPropertyOp60
 70
     1
102
RTVSPropertyOp61
 70
     1
102
RTVSPropertyOp62
 70
     1
  0
XRECORD
  5
1F9D
102
{ACAD_REACTORS
330
1F9C
102
}
330
1F9C
100
AcDbXrecord
280
     1
102
RTVSPost2010Prop28
280
     0
102
RTVSPost2010PropOp28
 70
     1
102
RTVSPost2010Prop29
280
     1
102
RTVSPost2010PropOp29
 70
     1
102
RTVSPost2010Prop30
280
     1
102
RTVSPost2010PropOp30
 70
     1
102
RTVSPost2010Prop31
280
     0
102
RTVSPost2010PropOp31
 70
     1
102
RTVSPost2010Prop32
280
     0
102
RTVSPost2010PropOp32
 70
     1
102
RTVSPost2010Prop33
280
     0
102
RTVSPost2010PropOp33
 70
     1
102
RTVSPost2010Prop34
280
     0
102
RTVSPost2010PropOp34
 70
     1
102
RTVSPost2010Prop35
280
     0
102
RTVSPost2010PropOp35
 70
     1
102
RTVSPost2010Prop36
280
     0
102
RTVSPost2010PropOp36
 70
     1
102
RTVSPost2010Prop37
 90
       50
102
RTVSPost2010PropOp37
 70
     1
102
RTVSPost2010Prop38
140
0.0
102
RTVSPost2010PropOp38
 70
     1
102
RTVSPost2010Prop39
140
1.0
102
RTVSPost2010PropOp39
 70
     1
102
RTVSPost2010Prop40
 90
        0
102
RTVSPost2010PropOp40
 70
     1
102
RTVSPost2010Prop41ColorIndex
 90
       18
102
RTVSPost2010Prop41ColorRGB
 90
        0
102
RTVSPost2010PropOp41
 70
     1
102
RTVSPost2010Prop42
 90
       50
102
RTVSPost2010PropOp42
 70
     1
102
RTVSPost2010Prop43
 90
        3
102
RTVSPost2010PropOp43
 70
     1
102
RTVSPost2010Prop44ColorIndex
 90
        5
102
RTVSPost2010Prop44ColorRGB
 90
      255
102
RTVSPost2010PropOp44
 70
     1
102
RTVSPost2010Prop45
280
     0
102
RTVSPost2010PropOp45
 70
     1
102
RTVSPost2010Prop46
 90
       50
102
RTVSPost2010PropOp46
 70
     1
102
RTVSPost2010Prop47
 90
       50
102
RTVSPost2010PropOp47
 70
     1
102
RTVSPost2010Prop48
 90
       50
102
RTVSPost2010PropOp48
 70
     1
102
RTVSPost2010Prop49
280
     0
102
RTVSPost2010PropOp49
 70
     1
102
RTVSPost2010Prop50
 90
       50
102
RTVSPost2010PropOp50
 70
     1
102
RTVSPost2010Prop51ColorIndex
 90
      256
102
RTVSPost2010Prop51ColorRGB
 90
-16777216
102
RTVSPost2010PropOp51
 70
     0
102
RTVSPost2010Prop52
140
1.0
102
RTVSPost2010PropOp52
 70
     0
102
RTVSPost2010Prop53
 90
        2
102
RTVSPost2010PropOp53
 70
     1
102
RTVSPost2010Prop54
  1
strokes_ogs.tif
102
RTVSPost2010PropOp54
 70
     1
102
RTVSPost2010Prop55
280
     0
102
RTVSPost2010PropOp55
 70
     1
102
RTVSPost2010Prop56
140
1.0
102
RTVSPost2010PropOp56
 70
     1
102
RTVSPost2010Prop57
140
1.0
102
RTVSPost2010PropOp57
 70
     1
102
RTVSPropertyOp0
 70
     1
102
RTVSPropertyOp1
 70
     1
102
RTVSPropertyOp2
 70
     1
102
RTVSPropertyOp3
 70
     1
102
RTVSPropertyOp4
 70
     1
102
RTVSPropertyOp5
 70
     1
102
RTVSPropertyOp6
 70
     1
102
RTVSPropertyOp7
 70
     1
102
RTVSPropertyOp8
 70
     1
102
RTVSPropertyOp9
 70
     1
102
RTVSPropertyOp10
 70
     1
102
RTVSPropertyOp11
 70
     1
102
RTVSPropertyOp12
 70
     1
102
RTVSPropertyOp13
 70
     1
102
RTVSPropertyOp14
 70
     1
102
RTVSPropertyOp15
 70
     1
102
RTVSPropertyOp16
 70
     1
102
RTVSPropertyOp17
 70
     1
102
RTVSPropertyOp18
 70
     1
102
RTVSPropertyOp19
 70
     1
102
RTVSPropertyOp20
 70
     1
102
RTVSPropertyOp21
 70
     1
102
RTVSPropertyOp22
 70
     1
102
RTVSPropertyOp23
 70
     1
102
RTVSPropertyOp24
 70
     1
102
RTVSPropertyOp25
 70
     1
102
RTVSPropertyOp26
 70
     1
102
RTVSPropertyOp27
 70
     1
102
RTVSPropertyOp28
 70
     1
102
RTVSPropertyOp29
 70
     1
102
RTVSPropertyOp30
 70
     1
102
RTVSPropertyOp31
 70
     1
102
RTVSPropertyOp32
 70
     1
102
RTVSPropertyOp33
 70
     1
102
RTVSPropertyOp34
 70
     1
102
RTVSPropertyOp35
 70
     1
102
RTVSPropertyOp36
 70
     1
102
RTVSPropertyOp37
 70
     1
102
RTVSPropertyOp38
 70
     1
102
RTVSPropertyOp39
 70
     1
102
RTVSPropertyOp40
 70
     1
102
RTVSPropertyOp41
 70
     1
102
RTVSPropertyOp42
 70
     1
102
RTVSPropertyOp43
 70
     1
102
RTVSPropertyOp44
 70
     1
102
RTVSPropertyOp45
 70
     1
102
RTVSPropertyOp46
 70
     1
102
RTVSPropertyOp47
 70
     1
102
RTVSPropertyOp48
 70
     1
102
RTVSPropertyOp49
 70
     1
102
RTVSPropertyOp50
 70
     1
102
RTVSPropertyOp51
 70
     0
102
RTVSPropertyOp52
 70
     0
102
RTVSPropertyOp53
 70
     1
102
RTVSPropertyOp54
 70
     1
102
RTVSPropertyOp55
 70
     1
102
RTVSPropertyOp56
 70
     1
102
RTVSPropertyOp57
 70
     1
102
RTVSPropertyOp58
 70
     1
102
RTVSPropertyOp59
 70
     1
102
RTVSPropertyOp60
 70
     1
102
RTVSPropertyOp61
 70
     1
102
RTVSPropertyOp62
 70
     1
  0
XRECORD
  5
1F8F
102
{ACAD_REACTORS
330
1F8E
102
}
330
1F8E
100
AcDbXrecord
280
     1
102
RTVSPost2010Prop28
280
     0
102
RTVSPost2010PropOp28
 70
     1
102
RTVSPost2010Prop29
280
     1
102
RTVSPost2010PropOp29
 70
     1
102
RTVSPost2010Prop30
280
     1
102
RTVSPost2010PropOp30
 70
     1
102
RTVSPost2010Prop31
280
     0
102
RTVSPost2010PropOp31
 70
     1
102
RTVSPost2010Prop32
280
     0
102
RTVSPost2010PropOp32
 70
     1
102
RTVSPost2010Prop33
280
     0
102
RTVSPost2010PropOp33
 70
     1
102
RTVSPost2010Prop34
280
     0
102
RTVSPost2010PropOp34
 70
     1
102
RTVSPost2010Prop35
280
     0
102
RTVSPost2010PropOp35
 70
     1
102
RTVSPost2010Prop36
280
     0
102
RTVSPost2010PropOp36
 70
     1
102
RTVSPost2010Prop37
 90
       50
102
RTVSPost2010PropOp37
 70
     1
102
RTVSPost2010Prop38
140
0.0
102
RTVSPost2010PropOp38
 70
     1
102
RTVSPost2010Prop39
140
1.0
102
RTVSPost2010PropOp39
 70
     1
102
RTVSPost2010Prop40
 90
        0
102
RTVSPost2010PropOp40
 70
     1
102
RTVSPost2010Prop41ColorIndex
 90
       18
102
RTVSPost2010Prop41ColorRGB
 90
        0
102
RTVSPost2010PropOp41
 70
     1
102
RTVSPost2010Prop42
 90
       50
102
RTVSPost2010PropOp42
 70
     1
102
RTVSPost2010Prop43
 90
        3
102
RTVSPost2010PropOp43
 70
     1
102
RTVSPost2010Prop44ColorIndex
 90
        5
102
RTVSPost2010Prop44ColorRGB
 90
      255
102
RTVSPost2010PropOp44
 70
     1
102
RTVSPost2010Prop45
280
     0
102
RTVSPost2010PropOp45
 70
     1
102
RTVSPost2010Prop46
 90
       50
102
RTVSPost2010PropOp46
 70
     1
102
RTVSPost2010Prop47
 90
       50
102
RTVSPost2010PropOp47
 70
     1
102
RTVSPost2010Prop48
 90
       50
102
RTVSPost2010PropOp48
 70
     1
102
RTVSPost2010Prop49
280
     0
102
RTVSPost2010PropOp49
 70
     1
102
RTVSPost2010Prop50
 90
       50
102
RTVSPost2010PropOp50
 70
     1
102
RTVSPost2010Prop51ColorIndex
 90
      256
102
RTVSPost2010Prop51ColorRGB
 90
-16777216
102
RTVSPost2010PropOp51
 70
     0
102
RTVSPost2010Prop52
140
1.0
102
RTVSPost2010PropOp52
 70
     0
102
RTVSPost2010Prop53
 90
        2
102
RTVSPost2010PropOp53
 70
     1
102
RTVSPost2010Prop54
  1
strokes_ogs.tif
102
RTVSPost2010PropOp54
 70
     1
102
RTVSPost2010Prop55
280
     0
102
RTVSPost2010PropOp55
 70
     1
102
RTVSPost2010Prop56
140
1.0
102
RTVSPost2010PropOp56
 70
     1
102
RTVSPost2010Prop57
140
1.0
102
RTVSPost2010PropOp57
 70
     1
102
RTVSPropertyOp0
 70
     1
102
RTVSPropertyOp1
 70
     1
102
RTVSPropertyOp2
 70
     1
102
RTVSPropertyOp3
 70
     1
102
RTVSPropertyOp4
 70
     1
102
RTVSPropertyOp5
 70
     1
102
RTVSPropertyOp6
 70
     1
102
RTVSPropertyOp7
 70
     1
102
RTVSPropertyOp8
 70
     1
102
RTVSPropertyOp9
 70
     1
102
RTVSPropertyOp10
 70
     1
102
RTVSPropertyOp11
 70
     1
102
RTVSPropertyOp12
 70
     1
102
RTVSPropertyOp13
 70
     1
102
RTVSPropertyOp14
 70
     1
102
RTVSPropertyOp15
 70
     1
102
RTVSPropertyOp16
 70
     1
102
RTVSPropertyOp17
 70
     1
102
RTVSPropertyOp18
 70
     1
102
RTVSPropertyOp19
 70
     1
102
RTVSPropertyOp20
 70
     1
102
RTVSPropertyOp21
 70
     1
102
RTVSPropertyOp22
 70
     1
102
RTVSPropertyOp23
 70
     1
102
RTVSPropertyOp24
 70
     1
102
RTVSPropertyOp25
 70
     1
102
RTVSPropertyOp26
 70
     1
102
RTVSPropertyOp27
 70
     1
102
RTVSPropertyOp28
 70
     1
102
RTVSPropertyOp29
 70
     1
102
RTVSPropertyOp30
 70
     1
102
RTVSPropertyOp31
 70
     1
102
RTVSPropertyOp32
 70
     1
102
RTVSPropertyOp33
 70
     1
102
RTVSPropertyOp34
 70
     1
102
RTVSPropertyOp35
 70
     1
102
RTVSPropertyOp36
 70
     1
102
RTVSPropertyOp37
 70
     1
102
RTVSPropertyOp38
 70
     1
102
RTVSPropertyOp39
 70
     1
102
RTVSPropertyOp40
 70
     1
102
RTVSPropertyOp41
 70
     1
102
RTVSPropertyOp42
 70
     1
102
RTVSPropertyOp43
 70
     1
102
RTVSPropertyOp44
 70
     1
102
RTVSPropertyOp45
 70
     1
102
RTVSPropertyOp46
 70
     1
102
RTVSPropertyOp47
 70
     1
102
RTVSPropertyOp48
 70
     1
102
RTVSPropertyOp49
 70
     1
102
RTVSPropertyOp50
 70
     1
102
RTVSPropertyOp51
 70
     0
102
RTVSPropertyOp52
 70
     0
102
RTVSPropertyOp53
 70
     1
102
RTVSPropertyOp54
 70
     1
102
RTVSPropertyOp55
 70
     1
102
RTVSPropertyOp56
 70
     1
102
RTVSPropertyOp57
 70
     1
102
RTVSPropertyOp58
 70
     1
102
RTVSPropertyOp59
 70
     1
102
RTVSPropertyOp60
 70
     1
102
RTVSPropertyOp61
 70
     1
102
RTVSPropertyOp62
 70
     1
  0
XRECORD
  5
1F93
102
{ACAD_REACTORS
330
1F92
102
}
330
1F92
100
AcDbXrecord
280
     1
102
RTVSPost2010Prop28
280
     0
102
RTVSPost2010PropOp28
 70
     1
102
RTVSPost2010Prop29
280
     1
102
RTVSPost2010PropOp29
 70
     1
102
RTVSPost2010Prop30
280
     1
102
RTVSPost2010PropOp30
 70
     1
102
RTVSPost2010Prop31
280
     0
102
RTVSPost2010PropOp31
 70
     1
102
RTVSPost2010Prop32
280
     0
102
RTVSPost2010PropOp32
 70
     1
102
RTVSPost2010Prop33
280
     0
102
RTVSPost2010PropOp33
 70
     1
102
RTVSPost2010Prop34
280
     0
102
RTVSPost2010PropOp34
 70
     1
102
RTVSPost2010Prop35
280
     0
102
RTVSPost2010PropOp35
 70
     1
102
RTVSPost2010Prop36
280
     0
102
RTVSPost2010PropOp36
 70
     1
102
RTVSPost2010Prop37
 90
       50
102
RTVSPost2010PropOp37
 70
     1
102
RTVSPost2010Prop38
140
0.0
102
RTVSPost2010PropOp38
 70
     1
102
RTVSPost2010Prop39
140
1.0
102
RTVSPost2010PropOp39
 70
     1
102
RTVSPost2010Prop40
 90
        0
102
RTVSPost2010PropOp40
 70
     1
102
RTVSPost2010Prop41ColorIndex
 90
       18
102
RTVSPost2010Prop41ColorRGB
 90
        0
102
RTVSPost2010PropOp41
 70
     1
102
RTVSPost2010Prop42
 90
       50
102
RTVSPost2010PropOp42
 70
     1
102
RTVSPost2010Prop43
 90
        3
102
RTVSPost2010PropOp43
 70
     1
102
RTVSPost2010Prop44ColorIndex
 90
        5
102
RTVSPost2010Prop44ColorRGB
 90
      255
102
RTVSPost2010PropOp44
 70
     1
102
RTVSPost2010Prop45
280
     0
102
RTVSPost2010PropOp45
 70
     1
102
RTVSPost2010Prop46
 90
       50
102
RTVSPost2010PropOp46
 70
     1
102
RTVSPost2010Prop47
 90
       50
102
RTVSPost2010PropOp47
 70
     1
102
RTVSPost2010Prop48
 90
       50
102
RTVSPost2010PropOp48
 70
     1
102
RTVSPost2010Prop49
280
     0
102
RTVSPost2010PropOp49
 70
     1
102
RTVSPost2010Prop50
 90
       50
102
RTVSPost2010PropOp50
 70
     1
102
RTVSPost2010Prop51ColorIndex
 90
      256
102
RTVSPost2010Prop51ColorRGB
 90
-16777216
102
RTVSPost2010PropOp51
 70
     0
102
RTVSPost2010Prop52
140
1.0
102
RTVSPost2010PropOp52
 70
     0
102
RTVSPost2010Prop53
 90
        2
102
RTVSPost2010PropOp53
 70
     1
102
RTVSPost2010Prop54
  1
strokes_ogs.tif
102
RTVSPost2010PropOp54
 70
     1
102
RTVSPost2010Prop55
280
     0
102
RTVSPost2010PropOp55
 70
     1
102
RTVSPost2010Prop56
140
1.0
102
RTVSPost2010PropOp56
 70
     1
102
RTVSPost2010Prop57
140
1.0
102
RTVSPost2010PropOp57
 70
     1
102
RTVSPropertyOp0
 70
     1
102
RTVSPropertyOp1
 70
     1
102
RTVSPropertyOp2
 70
     1
102
RTVSPropertyOp3
 70
     1
102
RTVSPropertyOp4
 70
     1
102
RTVSPropertyOp5
 70
     1
102
RTVSPropertyOp6
 70
     1
102
RTVSPropertyOp7
 70
     1
102
RTVSPropertyOp8
 70
     1
102
RTVSPropertyOp9
 70
     1
102
RTVSPropertyOp10
 70
     1
102
RTVSPropertyOp11
 70
     1
102
RTVSPropertyOp12
 70
     1
102
RTVSPropertyOp13
 70
     1
102
RTVSPropertyOp14
 70
     1
102
RTVSPropertyOp15
 70
     1
102
RTVSPropertyOp16
 70
     1
102
RTVSPropertyOp17
 70
     1
102
RTVSPropertyOp18
 70
     1
102
RTVSPropertyOp19
 70
     1
102
RTVSPropertyOp20
 70
     1
102
RTVSPropertyOp21
 70
     1
102
RTVSPropertyOp22
 70
     1
102
RTVSPropertyOp23
 70
     1
102
RTVSPropertyOp24
 70
     1
102
RTVSPropertyOp25
 70
     1
102
RTVSPropertyOp26
 70
     1
102
RTVSPropertyOp27
 70
     1
102
RTVSPropertyOp28
 70
     1
102
RTVSPropertyOp29
 70
     1
102
RTVSPropertyOp30
 70
     1
102
RTVSPropertyOp31
 70
     1
102
RTVSPropertyOp32
 70
     1
102
RTVSPropertyOp33
 70
     1
102
RTVSPropertyOp34
 70
     1
102
RTVSPropertyOp35
 70
     1
102
RTVSPropertyOp36
 70
     1
102
RTVSPropertyOp37
 70
     1
102
RTVSPropertyOp38
 70
     1
102
RTVSPropertyOp39
 70
     1
102
RTVSPropertyOp40
 70
     1
102
RTVSPropertyOp41
 70
     1
102
RTVSPropertyOp42
 70
     1
102
RTVSPropertyOp43
 70
     1
102
RTVSPropertyOp44
 70
     1
102
RTVSPropertyOp45
 70
     1
102
RTVSPropertyOp46
 70
     1
102
RTVSPropertyOp47
 70
     1
102
RTVSPropertyOp48
 70
     1
102
RTVSPropertyOp49
 70
     1
102
RTVSPropertyOp50
 70
     1
102
RTVSPropertyOp51
 70
     0
102
RTVSPropertyOp52
 70
     0
102
RTVSPropertyOp53
 70
     1
102
RTVSPropertyOp54
 70
     1
102
RTVSPropertyOp55
 70
     1
102
RTVSPropertyOp56
 70
     1
102
RTVSPropertyOp57
 70
     1
102
RTVSPropertyOp58
 70
     1
102
RTVSPropertyOp59
 70
     1
102
RTVSPropertyOp60
 70
     1
102
RTVSPropertyOp61
 70
     1
102
RTVSPropertyOp62
 70
     1
  0
XRECORD
  5
1FAD
102
{ACAD_REACTORS
330
1FAC
102
}
330
1FAC
100
AcDbXrecord
280
     1
102
RTVSPost2010Prop28
280
     0
102
RTVSPost2010PropOp28
 70
     0
102
RTVSPost2010Prop29
280
     1
102
RTVSPost2010PropOp29
 70
     0
102
RTVSPost2010Prop30
280
     1
102
RTVSPost2010PropOp30
 70
     0
102
RTVSPost2010Prop31
280
     0
102
RTVSPost2010PropOp31
 70
     0
102
RTVSPost2010Prop32
280
     0
102
RTVSPost2010PropOp32
 70
     0
102
RTVSPost2010Prop33
280
     0
102
RTVSPost2010PropOp33
 70
     0
102
RTVSPost2010Prop34
280
     0
102
RTVSPost2010PropOp34
 70
     0
102
RTVSPost2010Prop35
280
     0
102
RTVSPost2010PropOp35
 70
     0
102
RTVSPost2010Prop36
280
     0
102
RTVSPost2010PropOp36
 70
     0
102
RTVSPost2010Prop37
 90
       50
102
RTVSPost2010PropOp37
 70
     0
102
RTVSPost2010Prop38
140
0.0
102
RTVSPost2010PropOp38
 70
     0
102
RTVSPost2010Prop39
140
1.0
102
RTVSPost2010PropOp39
 70
     0
102
RTVSPost2010Prop40
 90
        0
102
RTVSPost2010PropOp40
 70
     0
102
RTVSPost2010Prop41ColorIndex
 90
       18
102
RTVSPost2010Prop41ColorRGB
 90
        0
102
RTVSPost2010PropOp41
 70
     0
102
RTVSPost2010Prop42
 90
       50
102
RTVSPost2010PropOp42
 70
     0
102
RTVSPost2010Prop43
 90
        3
102
RTVSPost2010PropOp43
 70
     0
102
RTVSPost2010Prop44ColorIndex
 90
        5
102
RTVSPost2010Prop44ColorRGB
 90
      255
102
RTVSPost2010PropOp44
 70
     0
102
RTVSPost2010Prop45
280
     0
102
RTVSPost2010PropOp45
 70
     0
102
RTVSPost2010Prop46
 90
       50
102
RTVSPost2010PropOp46
 70
     0
102
RTVSPost2010Prop47
 90
       50
102
RTVSPost2010PropOp47
 70
     0
102
RTVSPost2010Prop48
 90
       50
102
RTVSPost2010PropOp48
 70
     0
102
RTVSPost2010Prop49
280
     0
102
RTVSPost2010PropOp49
 70
     0
102
RTVSPost2010Prop50
 90
       50
102
RTVSPost2010PropOp50
 70
     0
102
RTVSPost2010Prop51ColorIndex
 90
      256
102
RTVSPost2010Prop51ColorRGB
 90
-16777216
102
RTVSPost2010PropOp51
 70
     0
102
RTVSPost2010Prop52
140
1.0
102
RTVSPost2010PropOp52
 70
     0
102
RTVSPost2010Prop53
 90
        2
102
RTVSPost2010PropOp53
 70
     0
102
RTVSPost2010Prop54
  1
strokes_ogs.tif
102
RTVSPost2010PropOp54
 70
     0
102
RTVSPost2010Prop55
280
     0
102
RTVSPost2010PropOp55
 70
     0
102
RTVSPost2010Prop56
140
1.0
102
RTVSPost2010PropOp56
 70
     0
102
RTVSPost2010Prop57
140
1.0
102
RTVSPost2010PropOp57
 70
     0
102
RTVSPropertyOp0
 70
     0
102
RTVSPropertyOp1
 70
     0
102
RTVSPropertyOp2
 70
     0
102
RTVSPropertyOp3
 70
     0
102
RTVSPropertyOp4
 70
     0
102
RTVSPropertyOp5
 70
     0
102
RTVSPropertyOp6
 70
     0
102
RTVSPropertyOp7
 70
     0
102
RTVSPropertyOp8
 70
     0
102
RTVSPropertyOp9
 70
     0
102
RTVSPropertyOp10
 70
     0
102
RTVSPropertyOp11
 70
     0
102
RTVSPropertyOp12
 70
     0
102
RTVSPropertyOp13
 70
     0
102
RTVSPropertyOp14
 70
     2
102
RTVSPropertyOp15
 70
     0
102
RTVSPropertyOp16
 70
     0
102
RTVSPropertyOp17
 70
     0
102
RTVSPropertyOp18
 70
     0
102
RTVSPropertyOp19
 70
     0
102
RTVSPropertyOp20
 70
     0
102
RTVSPropertyOp21
 70
     0
102
RTVSPropertyOp22
 70
     0
102
RTVSPropertyOp23
 70
     0
102
RTVSPropertyOp24
 70
     0
102
RTVSPropertyOp25
 70
     0
102
RTVSPropertyOp26
 70
     0
102
RTVSPropertyOp27
 70
     0
102
RTVSPropertyOp28
 70
     0
102
RTVSPropertyOp29
 70
     0
102
RTVSPropertyOp30
 70
     0
102
RTVSPropertyOp31
 70
     0
102
RTVSPropertyOp32
 70
     0
102
RTVSPropertyOp33
 70
     0
102
RTVSPropertyOp34
 70
     0
102
RTVSPropertyOp35
 70
     0
102
RTVSPropertyOp36
 70
     0
102
RTVSPropertyOp37
 70
     0
102
RTVSPropertyOp38
 70
     0
102
RTVSPropertyOp39
 70
     0
102
RTVSPropertyOp40
 70
     0
102
RTVSPropertyOp41
 70
     0
102
RTVSPropertyOp42
 70
     0
102
RTVSPropertyOp43
 70
     0
102
RTVSPropertyOp44
 70
     0
102
RTVSPropertyOp45
 70
     0
102
RTVSPropertyOp46
 70
     0
102
RTVSPropertyOp47
 70
     0
102
RTVSPropertyOp48
 70
     0
102
RTVSPropertyOp49
 70
     0
102
RTVSPropertyOp50
 70
     0
102
RTVSPropertyOp51
 70
     0
102
RTVSPropertyOp52
 70
     0
102
RTVSPropertyOp53
 70
     0
102
RTVSPropertyOp54
 70
     0
102
RTVSPropertyOp55
 70
     0
102
RTVSPropertyOp56
 70
     0
102
RTVSPropertyOp57
 70
     0
102
RTVSPropertyOp58
 70
     1
102
RTVSPropertyOp59
 70
     1
102
RTVSPropertyOp60
 70
     1
102
RTVSPropertyOp61
 70
     1
102
RTVSPropertyOp62
 70
     1
  0
XRECORD
  5
1F9B
102
{ACAD_REACTORS
330
1F9A
102
}
330
1F9A
100
AcDbXrecord
280
     1
102
RTVSPost2010Prop28
280
     0
102
RTVSPost2010PropOp28
 70
     1
102
RTVSPost2010Prop29
280
     1
102
RTVSPost2010PropOp29
 70
     1
102
RTVSPost2010Prop30
280
     1
102
RTVSPost2010PropOp30
 70
     1
102
RTVSPost2010Prop31
280
     0
102
RTVSPost2010PropOp31
 70
     1
102
RTVSPost2010Prop32
280
     0
102
RTVSPost2010PropOp32
 70
     1
102
RTVSPost2010Prop33
280
     0
102
RTVSPost2010PropOp33
 70
     1
102
RTVSPost2010Prop34
280
     0
102
RTVSPost2010PropOp34
 70
     1
102
RTVSPost2010Prop35
280
     0
102
RTVSPost2010PropOp35
 70
     1
102
RTVSPost2010Prop36
280
     0
102
RTVSPost2010PropOp36
 70
     1
102
RTVSPost2010Prop37
 90
       50
102
RTVSPost2010PropOp37
 70
     1
102
RTVSPost2010Prop38
140
0.0
102
RTVSPost2010PropOp38
 70
     1
102
RTVSPost2010Prop39
140
1.0
102
RTVSPost2010PropOp39
 70
     1
102
RTVSPost2010Prop40
 90
        0
102
RTVSPost2010PropOp40
 70
     1
102
RTVSPost2010Prop41ColorIndex
 90
       18
102
RTVSPost2010Prop41ColorRGB
 90
        0
102
RTVSPost2010PropOp41
 70
     1
102
RTVSPost2010Prop42
 90
       50
102
RTVSPost2010PropOp42
 70
     1
102
RTVSPost2010Prop43
 90
        3
102
RTVSPost2010PropOp43
 70
     1
102
RTVSPost2010Prop44ColorIndex
 90
        5
102
RTVSPost2010Prop44ColorRGB
 90
      255
102
RTVSPost2010PropOp44
 70
     1
102
RTVSPost2010Prop45
280
     0
102
RTVSPost2010PropOp45
 70
     1
102
RTVSPost2010Prop46
 90
       50
102
RTVSPost2010PropOp46
 70
     1
102
RTVSPost2010Prop47
 90
       50
102
RTVSPost2010PropOp47
 70
     1
102
RTVSPost2010Prop48
 90
       50
102
RTVSPost2010PropOp48
 70
     1
102
RTVSPost2010Prop49
280
     0
102
RTVSPost2010PropOp49
 70
     1
102
RTVSPost2010Prop50
 90
       50
102
RTVSPost2010PropOp50
 70
     1
102
RTVSPost2010Prop51ColorIndex
 90
      256
102
RTVSPost2010Prop51ColorRGB
 90
-16777216
102
RTVSPost2010PropOp51
 70
     0
102
RTVSPost2010Prop52
140
1.0
102
RTVSPost2010PropOp52
 70
     0
102
RTVSPost2010Prop53
 90
        2
102
RTVSPost2010PropOp53
 70
     1
102
RTVSPost2010Prop54
  1
strokes_ogs.tif
102
RTVSPost2010PropOp54
 70
     1
102
RTVSPost2010Prop55
280
     0
102
RTVSPost2010PropOp55
 70
     1
102
RTVSPost2010Prop56
140
1.0
102
RTVSPost2010PropOp56
 70
     1
102
RTVSPost2010Prop57
140
1.0
102
RTVSPost2010PropOp57
 70
     1
102
RTVSPropertyOp0
 70
     1
102
RTVSPropertyOp1
 70
     1
102
RTVSPropertyOp2
 70
     1
102
RTVSPropertyOp3
 70
     1
102
RTVSPropertyOp4
 70
     1
102
RTVSPropertyOp5
 70
     1
102
RTVSPropertyOp6
 70
     1
102
RTVSPropertyOp7
 70
     1
102
RTVSPropertyOp8
 70
     1
102
RTVSPropertyOp9
 70
     1
102
RTVSPropertyOp10
 70
     1
102
RTVSPropertyOp11
 70
     1
102
RTVSPropertyOp12
 70
     1
102
RTVSPropertyOp13
 70
     1
102
RTVSPropertyOp14
 70
     1
102
RTVSPropertyOp15
 70
     1
102
RTVSPropertyOp16
 70
     1
102
RTVSPropertyOp17
 70
     1
102
RTVSPropertyOp18
 70
     1
102
RTVSPropertyOp19
 70
     1
102
RTVSPropertyOp20
 70
     1
102
RTVSPropertyOp21
 70
     1
102
RTVSPropertyOp22
 70
     1
102
RTVSPropertyOp23
 70
     1
102
RTVSPropertyOp24
 70
     1
102
RTVSPropertyOp25
 70
     1
102
RTVSPropertyOp26
 70
     1
102
RTVSPropertyOp27
 70
     1
102
RTVSPropertyOp28
 70
     1
102
RTVSPropertyOp29
 70
     1
102
RTVSPropertyOp30
 70
     1
102
RTVSPropertyOp31
 70
     1
102
RTVSPropertyOp32
 70
     1
102
RTVSPropertyOp33
 70
     1
102
RTVSPropertyOp34
 70
     1
102
RTVSPropertyOp35
 70
     1
102
RTVSPropertyOp36
 70
     1
102
RTVSPropertyOp37
 70
     1
102
RTVSPropertyOp38
 70
     1
102
RTVSPropertyOp39
 70
     1
102
RTVSPropertyOp40
 70
     1
102
RTVSPropertyOp41
 70
     1
102
RTVSPropertyOp42
 70
     1
102
RTVSPropertyOp43
 70
     1
102
RTVSPropertyOp44
 70
     1
102
RTVSPropertyOp45
 70
     1
102
RTVSPropertyOp46
 70
     1
102
RTVSPropertyOp47
 70
     1
102
RTVSPropertyOp48
 70
     1
102
RTVSPropertyOp49
 70
     1
102
RTVSPropertyOp50
 70
     1
102
RTVSPropertyOp51
 70
     0
102
RTVSPropertyOp52
 70
     0
102
RTVSPropertyOp53
 70
     1
102
RTVSPropertyOp54
 70
     1
102
RTVSPropertyOp55
 70
     1
102
RTVSPropertyOp56
 70
     1
102
RTVSPropertyOp57
 70
     1
102
RTVSPropertyOp58
 70
     1
102
RTVSPropertyOp59
 70
     1
102
RTVSPropertyOp60
 70
     1
102
RTVSPropertyOp61
 70
     1
102
RTVSPropertyOp62
 70
     1
  0
XRECORD
  5
1F7F
102
{ACAD_REACTORS
330
1F7E
102
}
330
1F7E
100
AcDbXrecord
280
     1
102
RTVSPost2010Prop28
280
     0
102
RTVSPost2010PropOp28
 70
     1
102
RTVSPost2010Prop29
280
     1
102
RTVSPost2010PropOp29
 70
     1
102
RTVSPost2010Prop30
280
     1
102
RTVSPost2010PropOp30
 70
     1
102
RTVSPost2010Prop31
280
     0
102
RTVSPost2010PropOp31
 70
     1
102
RTVSPost2010Prop32
280
     0
102
RTVSPost2010PropOp32
 70
     1
102
RTVSPost2010Prop33
280
     0
102
RTVSPost2010PropOp33
 70
     1
102
RTVSPost2010Prop34
280
     0
102
RTVSPost2010PropOp34
 70
     1
102
RTVSPost2010Prop35
280
     0
102
RTVSPost2010PropOp35
 70
     1
102
RTVSPost2010Prop36
280
     0
102
RTVSPost2010PropOp36
 70
     1
102
RTVSPost2010Prop37
 90
       50
102
RTVSPost2010PropOp37
 70
     1
102
RTVSPost2010Prop38
140
0.0
102
RTVSPost2010PropOp38
 70
     1
102
RTVSPost2010Prop39
140
1.0
102
RTVSPost2010PropOp39
 70
     1
102
RTVSPost2010Prop40
 90
        0
102
RTVSPost2010PropOp40
 70
     1
102
RTVSPost2010Prop41ColorIndex
 90
       18
102
RTVSPost2010Prop41ColorRGB
 90
        0
102
RTVSPost2010PropOp41
 70
     1
102
RTVSPost2010Prop42
 90
       50
102
RTVSPost2010PropOp42
 70
     1
102
RTVSPost2010Prop43
 90
        3
102
RTVSPost2010PropOp43
 70
     1
102
RTVSPost2010Prop44ColorIndex
 90
        5
102
RTVSPost2010Prop44ColorRGB
 90
      255
102
RTVSPost2010PropOp44
 70
     1
102
RTVSPost2010Prop45
280
     0
102
RTVSPost2010PropOp45
 70
     1
102
RTVSPost2010Prop46
 90
       50
102
RTVSPost2010PropOp46
 70
     1
102
RTVSPost2010Prop47
 90
       50
102
RTVSPost2010PropOp47
 70
     1
102
RTVSPost2010Prop48
 90
       50
102
RTVSPost2010PropOp48
 70
     1
102
RTVSPost2010Prop49
280
     0
102
RTVSPost2010PropOp49
 70
     1
102
RTVSPost2010Prop50
 90
       50
102
RTVSPost2010PropOp50
 70
     1
102
RTVSPost2010Prop51ColorIndex
 90
      256
102
RTVSPost2010Prop51ColorRGB
 90
-16777216
102
RTVSPost2010PropOp51
 70
     0
102
RTVSPost2010Prop52
140
1.0
102
RTVSPost2010PropOp52
 70
     0
102
RTVSPost2010Prop53
 90
        2
102
RTVSPost2010PropOp53
 70
     1
102
RTVSPost2010Prop54
  1
strokes_ogs.tif
102
RTVSPost2010PropOp54
 70
     1
102
RTVSPost2010Prop55
280
     0
102
RTVSPost2010PropOp55
 70
     1
102
RTVSPost2010Prop56
140
1.0
102
RTVSPost2010PropOp56
 70
     1
102
RTVSPost2010Prop57
140
1.0
102
RTVSPost2010PropOp57
 70
     1
102
RTVSPropertyOp0
 70
     1
102
RTVSPropertyOp1
 70
     1
102
RTVSPropertyOp2
 70
     1
102
RTVSPropertyOp3
 70
     1
102
RTVSPropertyOp4
 70
     1
102
RTVSPropertyOp5
 70
     1
102
RTVSPropertyOp6
 70
     1
102
RTVSPropertyOp7
 70
     1
102
RTVSPropertyOp8
 70
     1
102
RTVSPropertyOp9
 70
     1
102
RTVSPropertyOp10
 70
     1
102
RTVSPropertyOp11
 70
     1
102
RTVSPropertyOp12
 70
     1
102
RTVSPropertyOp13
 70
     1
102
RTVSPropertyOp14
 70
     1
102
RTVSPropertyOp15
 70
     1
102
RTVSPropertyOp16
 70
     1
102
RTVSPropertyOp17
 70
     1
102
RTVSPropertyOp18
 70
     1
102
RTVSPropertyOp19
 70
     1
102
RTVSPropertyOp20
 70
     1
102
RTVSPropertyOp21
 70
     1
102
RTVSPropertyOp22
 70
     1
102
RTVSPropertyOp23
 70
     1
102
RTVSPropertyOp24
 70
     1
102
RTVSPropertyOp25
 70
     1
102
RTVSPropertyOp26
 70
     1
102
RTVSPropertyOp27
 70
     1
102
RTVSPropertyOp28
 70
     1
102
RTVSPropertyOp29
 70
     1
102
RTVSPropertyOp30
 70
     1
102
RTVSPropertyOp31
 70
     1
102
RTVSPropertyOp32
 70
     1
102
RTVSPropertyOp33
 70
     1
102
RTVSPropertyOp34
 70
     1
102
RTVSPropertyOp35
 70
     1
102
RTVSPropertyOp36
 70
     1
102
RTVSPropertyOp37
 70
     1
102
RTVSPropertyOp38
 70
     1
102
RTVSPropertyOp39
 70
     1
102
RTVSPropertyOp40
 70
     1
102
RTVSPropertyOp41
 70
     1
102
RTVSPropertyOp42
 70
     1
102
RTVSPropertyOp43
 70
     1
102
RTVSPropertyOp44
 70
     1
102
RTVSPropertyOp45
 70
     1
102
RTVSPropertyOp46
 70
     1
102
RTVSPropertyOp47
 70
     1
102
RTVSPropertyOp48
 70
     1
102
RTVSPropertyOp49
 70
     1
102
RTVSPropertyOp50
 70
     1
102
RTVSPropertyOp51
 70
     0
102
RTVSPropertyOp52
 70
     0
102
RTVSPropertyOp53
 70
     1
102
RTVSPropertyOp54
 70
     1
102
RTVSPropertyOp55
 70
     1
102
RTVSPropertyOp56
 70
     1
102
RTVSPropertyOp57
 70
     1
102
RTVSPropertyOp58
 70
     1
102
RTVSPropertyOp59
 70
     1
102
RTVSPropertyOp60
 70
     1
102
RTVSPropertyOp61
 70
     1
102
RTVSPropertyOp62
 70
     1
  0
XRECORD
  5
1F81
102
{ACAD_REACTORS
330
1F80
102
}
330
1F80
100
AcDbXrecord
280
     1
102
RTVSPost2010Prop28
280
     0
102
RTVSPost2010PropOp28
 70
     1
102
RTVSPost2010Prop29
280
     1
102
RTVSPost2010PropOp29
 70
     1
102
RTVSPost2010Prop30
280
     1
102
RTVSPost2010PropOp30
 70
     1
102
RTVSPost2010Prop31
280
     0
102
RTVSPost2010PropOp31
 70
     1
102
RTVSPost2010Prop32
280
     0
102
RTVSPost2010PropOp32
 70
     1
102
RTVSPost2010Prop33
280
     0
102
RTVSPost2010PropOp33
 70
     1
102
RTVSPost2010Prop34
280
     0
102
RTVSPost2010PropOp34
 70
     1
102
RTVSPost2010Prop35
280
     0
102
RTVSPost2010PropOp35
 70
     1
102
RTVSPost2010Prop36
280
     0
102
RTVSPost2010PropOp36
 70
     1
102
RTVSPost2010Prop37
 90
       50
102
RTVSPost2010PropOp37
 70
     1
102
RTVSPost2010Prop38
140
0.0
102
RTVSPost2010PropOp38
 70
     1
102
RTVSPost2010Prop39
140
1.0
102
RTVSPost2010PropOp39
 70
     1
102
RTVSPost2010Prop40
 90
        0
102
RTVSPost2010PropOp40
 70
     1
102
RTVSPost2010Prop41ColorIndex
 90
       18
102
RTVSPost2010Prop41ColorRGB
 90
        0
102
RTVSPost2010PropOp41
 70
     1
102
RTVSPost2010Prop42
 90
       50
102
RTVSPost2010PropOp42
 70
     1
102
RTVSPost2010Prop43
 90
        3
102
RTVSPost2010PropOp43
 70
     1
102
RTVSPost2010Prop44ColorIndex
 90
        5
102
RTVSPost2010Prop44ColorRGB
 90
      255
102
RTVSPost2010PropOp44
 70
     1
102
RTVSPost2010Prop45
280
     0
102
RTVSPost2010PropOp45
 70
     1
102
RTVSPost2010Prop46
 90
       50
102
RTVSPost2010PropOp46
 70
     1
102
RTVSPost2010Prop47
 90
       50
102
RTVSPost2010PropOp47
 70
     1
102
RTVSPost2010Prop48
 90
       50
102
RTVSPost2010PropOp48
 70
     1
102
RTVSPost2010Prop49
280
     0
102
RTVSPost2010PropOp49
 70
     1
102
RTVSPost2010Prop50
 90
       50
102
RTVSPost2010PropOp50
 70
     1
102
RTVSPost2010Prop51ColorIndex
 90
      256
102
RTVSPost2010Prop51ColorRGB
 90
-16777216
102
RTVSPost2010PropOp51
 70
     0
102
RTVSPost2010Prop52
140
1.0
102
RTVSPost2010PropOp52
 70
     0
102
RTVSPost2010Prop53
 90
        2
102
RTVSPost2010PropOp53
 70
     1
102
RTVSPost2010Prop54
  1
strokes_ogs.tif
102
RTVSPost2010PropOp54
 70
     1
102
RTVSPost2010Prop55
280
     0
102
RTVSPost2010PropOp55
 70
     1
102
RTVSPost2010Prop56
140
1.0
102
RTVSPost2010PropOp56
 70
     1
102
RTVSPost2010Prop57
140
1.0
102
RTVSPost2010PropOp57
 70
     1
102
RTVSPropertyOp0
 70
     1
102
RTVSPropertyOp1
 70
     1
102
RTVSPropertyOp2
 70
     1
102
RTVSPropertyOp3
 70
     1
102
RTVSPropertyOp4
 70
     1
102
RTVSPropertyOp5
 70
     1
102
RTVSPropertyOp6
 70
     1
102
RTVSPropertyOp7
 70
     1
102
RTVSPropertyOp8
 70
     1
102
RTVSPropertyOp9
 70
     1
102
RTVSPropertyOp10
 70
     1
102
RTVSPropertyOp11
 70
     1
102
RTVSPropertyOp12
 70
     1
102
RTVSPropertyOp13
 70
     1
102
RTVSPropertyOp14
 70
     1
102
RTVSPropertyOp15
 70
     1
102
RTVSPropertyOp16
 70
     1
102
RTVSPropertyOp17
 70
     1
102
RTVSPropertyOp18
 70
     1
102
RTVSPropertyOp19
 70
     1
102
RTVSPropertyOp20
 70
     1
102
RTVSPropertyOp21
 70
     1
102
RTVSPropertyOp22
 70
     1
102
RTVSPropertyOp23
 70
     1
102
RTVSPropertyOp24
 70
     1
102
RTVSPropertyOp25
 70
     1
102
RTVSPropertyOp26
 70
     1
102
RTVSPropertyOp27
 70
     1
102
RTVSPropertyOp28
 70
     1
102
RTVSPropertyOp29
 70
     1
102
RTVSPropertyOp30
 70
     1
102
RTVSPropertyOp31
 70
     1
102
RTVSPropertyOp32
 70
     1
102
RTVSPropertyOp33
 70
     1
102
RTVSPropertyOp34
 70
     1
102
RTVSPropertyOp35
 70
     1
102
RTVSPropertyOp36
 70
     1
102
RTVSPropertyOp37
 70
     1
102
RTVSPropertyOp38
 70
     1
102
RTVSPropertyOp39
 70
     1
102
RTVSPropertyOp40
 70
     1
102
RTVSPropertyOp41
 70
     1
102
RTVSPropertyOp42
 70
     1
102
RTVSPropertyOp43
 70
     1
102
RTVSPropertyOp44
 70
     1
102
RTVSPropertyOp45
 70
     1
102
RTVSPropertyOp46
 70
     1
102
RTVSPropertyOp47
 70
     1
102
RTVSPropertyOp48
 70
     1
102
RTVSPropertyOp49
 70
     1
102
RTVSPropertyOp50
 70
     1
102
RTVSPropertyOp51
 70
     0
102
RTVSPropertyOp52
 70
     0
102
RTVSPropertyOp53
 70
     1
102
RTVSPropertyOp54
 70
     1
102
RTVSPropertyOp55
 70
     1
102
RTVSPropertyOp56
 70
     1
102
RTVSPropertyOp57
 70
     1
102
RTVSPropertyOp58
 70
     1
102
RTVSPropertyOp59
 70
     1
102
RTVSPropertyOp60
 70
     1
102
RTVSPropertyOp61
 70
     1
102
RTVSPropertyOp62
 70
     1
  0
XRECORD
  5
1F83
102
{ACAD_REACTORS
330
1F82
102
}
330
1F82
100
AcDbXrecord
280
     1
102
RTVSPost2010Prop28
280
     0
102
RTVSPost2010PropOp28
 70
     1
102
RTVSPost2010Prop29
280
     1
102
RTVSPost2010PropOp29
 70
     1
102
RTVSPost2010Prop30
280
     1
102
RTVSPost2010PropOp30
 70
     1
102
RTVSPost2010Prop31
280
     0
102
RTVSPost2010PropOp31
 70
     1
102
RTVSPost2010Prop32
280
     0
102
RTVSPost2010PropOp32
 70
     1
102
RTVSPost2010Prop33
280
     0
102
RTVSPost2010PropOp33
 70
     1
102
RTVSPost2010Prop34
280
     0
102
RTVSPost2010PropOp34
 70
     1
102
RTVSPost2010Prop35
280
     0
102
RTVSPost2010PropOp35
 70
     1
102
RTVSPost2010Prop36
280
     0
102
RTVSPost2010PropOp36
 70
     1
102
RTVSPost2010Prop37
 90
       50
102
RTVSPost2010PropOp37
 70
     1
102
RTVSPost2010Prop38
140
0.0
102
RTVSPost2010PropOp38
 70
     1
102
RTVSPost2010Prop39
140
1.0
102
RTVSPost2010PropOp39
 70
     1
102
RTVSPost2010Prop40
 90
        0
102
RTVSPost2010PropOp40
 70
     1
102
RTVSPost2010Prop41ColorIndex
 90
       18
102
RTVSPost2010Prop41ColorRGB
 90
        0
102
RTVSPost2010PropOp41
 70
     1
102
RTVSPost2010Prop42
 90
       50
102
RTVSPost2010PropOp42
 70
     1
102
RTVSPost2010Prop43
 90
        3
102
RTVSPost2010PropOp43
 70
     1
102
RTVSPost2010Prop44ColorIndex
 90
        5
102
RTVSPost2010Prop44ColorRGB
 90
      255
102
RTVSPost2010PropOp44
 70
     1
102
RTVSPost2010Prop45
280
     0
102
RTVSPost2010PropOp45
 70
     1
102
RTVSPost2010Prop46
 90
       50
102
RTVSPost2010PropOp46
 70
     1
102
RTVSPost2010Prop47
 90
       50
102
RTVSPost2010PropOp47
 70
     1
102
RTVSPost2010Prop48
 90
       50
102
RTVSPost2010PropOp48
 70
     1
102
RTVSPost2010Prop49
280
     0
102
RTVSPost2010PropOp49
 70
     1
102
RTVSPost2010Prop50
 90
       50
102
RTVSPost2010PropOp50
 70
     1
102
RTVSPost2010Prop51ColorIndex
 90
      256
102
RTVSPost2010Prop51ColorRGB
 90
-16777216
102
RTVSPost2010PropOp51
 70
     0
102
RTVSPost2010Prop52
140
1.0
102
RTVSPost2010PropOp52
 70
     0
102
RTVSPost2010Prop53
 90
        2
102
RTVSPost2010PropOp53
 70
     1
102
RTVSPost2010Prop54
  1
strokes_ogs.tif
102
RTVSPost2010PropOp54
 70
     1
102
RTVSPost2010Prop55
280
     0
102
RTVSPost2010PropOp55
 70
     1
102
RTVSPost2010Prop56
140
1.0
102
RTVSPost2010PropOp56
 70
     1
102
RTVSPost2010Prop57
140
1.0
102
RTVSPost2010PropOp57
 70
     1
102
RTVSPropertyOp0
 70
     1
102
RTVSPropertyOp1
 70
     1
102
RTVSPropertyOp2
 70
     1
102
RTVSPropertyOp3
 70
     1
102
RTVSPropertyOp4
 70
     1
102
RTVSPropertyOp5
 70
     1
102
RTVSPropertyOp6
 70
     1
102
RTVSPropertyOp7
 70
     1
102
RTVSPropertyOp8
 70
     1
102
RTVSPropertyOp9
 70
     1
102
RTVSPropertyOp10
 70
     1
102
RTVSPropertyOp11
 70
     1
102
RTVSPropertyOp12
 70
     1
102
RTVSPropertyOp13
 70
     1
102
RTVSPropertyOp14
 70
     1
102
RTVSPropertyOp15
 70
     1
102
RTVSPropertyOp16
 70
     1
102
RTVSPropertyOp17
 70
     1
102
RTVSPropertyOp18
 70
     1
102
RTVSPropertyOp19
 70
     1
102
RTVSPropertyOp20
 70
     1
102
RTVSPropertyOp21
 70
     1
102
RTVSPropertyOp22
 70
     1
102
RTVSPropertyOp23
 70
     1
102
RTVSPropertyOp24
 70
     1
102
RTVSPropertyOp25
 70
     1
102
RTVSPropertyOp26
 70
     1
102
RTVSPropertyOp27
 70
     1
102
RTVSPropertyOp28
 70
     1
102
RTVSPropertyOp29
 70
     1
102
RTVSPropertyOp30
 70
     1
102
RTVSPropertyOp31
 70
     1
102
RTVSPropertyOp32
 70
     1
102
RTVSPropertyOp33
 70
     1
102
RTVSPropertyOp34
 70
     1
102
RTVSPropertyOp35
 70
     1
102
RTVSPropertyOp36
 70
     1
102
RTVSPropertyOp37
 70
     1
102
RTVSPropertyOp38
 70
     1
102
RTVSPropertyOp39
 70
     1
102
RTVSPropertyOp40
 70
     1
102
RTVSPropertyOp41
 70
     1
102
RTVSPropertyOp42
 70
     1
102
RTVSPropertyOp43
 70
     1
102
RTVSPropertyOp44
 70
     1
102
RTVSPropertyOp45
 70
     1
102
RTVSPropertyOp46
 70
     1
102
RTVSPropertyOp47
 70
     1
102
RTVSPropertyOp48
 70
     1
102
RTVSPropertyOp49
 70
     1
102
RTVSPropertyOp50
 70
     1
102
RTVSPropertyOp51
 70
     0
102
RTVSPropertyOp52
 70
     0
102
RTVSPropertyOp53
 70
     1
102
RTVSPropertyOp54
 70
     1
102
RTVSPropertyOp55
 70
     1
102
RTVSPropertyOp56
 70
     1
102
RTVSPropertyOp57
 70
     1
102
RTVSPropertyOp58
 70
     1
102
RTVSPropertyOp59
 70
     1
102
RTVSPropertyOp60
 70
     1
102
RTVSPropertyOp61
 70
     1
102
RTVSPropertyOp62
 70
     1
  0
XRECORD
  5
1F85
102
{ACAD_REACTORS
330
1F84
102
}
330
1F84
100
AcDbXrecord
280
     1
102
RTVSPost2010Prop28
280
     0
102
RTVSPost2010PropOp28
 70
     1
102
RTVSPost2010Prop29
280
     1
102
RTVSPost2010PropOp29
 70
     1
102
RTVSPost2010Prop30
280
     1
102
RTVSPost2010PropOp30
 70
     1
102
RTVSPost2010Prop31
280
     0
102
RTVSPost2010PropOp31
 70
     1
102
RTVSPost2010Prop32
280
     0
102
RTVSPost2010PropOp32
 70
     1
102
RTVSPost2010Prop33
280
     0
102
RTVSPost2010PropOp33
 70
     1
102
RTVSPost2010Prop34
280
     0
102
RTVSPost2010PropOp34
 70
     1
102
RTVSPost2010Prop35
280
     0
102
RTVSPost2010PropOp35
 70
     1
102
RTVSPost2010Prop36
280
     0
102
RTVSPost2010PropOp36
 70
     1
102
RTVSPost2010Prop37
 90
       50
102
RTVSPost2010PropOp37
 70
     1
102
RTVSPost2010Prop38
140
0.0
102
RTVSPost2010PropOp38
 70
     1
102
RTVSPost2010Prop39
140
1.0
102
RTVSPost2010PropOp39
 70
     1
102
RTVSPost2010Prop40
 90
        0
102
RTVSPost2010PropOp40
 70
     1
102
RTVSPost2010Prop41ColorIndex
 90
       18
102
RTVSPost2010Prop41ColorRGB
 90
        0
102
RTVSPost2010PropOp41
 70
     1
102
RTVSPost2010Prop42
 90
       50
102
RTVSPost2010PropOp42
 70
     1
102
RTVSPost2010Prop43
 90
        3
102
RTVSPost2010PropOp43
 70
     1
102
RTVSPost2010Prop44ColorIndex
 90
        5
102
RTVSPost2010Prop44ColorRGB
 90
      255
102
RTVSPost2010PropOp44
 70
     1
102
RTVSPost2010Prop45
280
     0
102
RTVSPost2010PropOp45
 70
     1
102
RTVSPost2010Prop46
 90
       50
102
RTVSPost2010PropOp46
 70
     1
102
RTVSPost2010Prop47
 90
       50
102
RTVSPost2010PropOp47
 70
     1
102
RTVSPost2010Prop48
 90
       50
102
RTVSPost2010PropOp48
 70
     1
102
RTVSPost2010Prop49
280
     0
102
RTVSPost2010PropOp49
 70
     1
102
RTVSPost2010Prop50
 90
       50
102
RTVSPost2010PropOp50
 70
     1
102
RTVSPost2010Prop51ColorIndex
 90
      256
102
RTVSPost2010Prop51ColorRGB
 90
-16777216
102
RTVSPost2010PropOp51
 70
     0
102
RTVSPost2010Prop52
140
1.0
102
RTVSPost2010PropOp52
 70
     0
102
RTVSPost2010Prop53
 90
        2
102
RTVSPost2010PropOp53
 70
     1
102
RTVSPost2010Prop54
  1
strokes_ogs.tif
102
RTVSPost2010PropOp54
 70
     1
102
RTVSPost2010Prop55
280
     0
102
RTVSPost2010PropOp55
 70
     1
102
RTVSPost2010Prop56
140
1.0
102
RTVSPost2010PropOp56
 70
     1
102
RTVSPost2010Prop57
140
1.0
102
RTVSPost2010PropOp57
 70
     1
102
RTVSPropertyOp0
 70
     1
102
RTVSPropertyOp1
 70
     1
102
RTVSPropertyOp2
 70
     1
102
RTVSPropertyOp3
 70
     1
102
RTVSPropertyOp4
 70
     1
102
RTVSPropertyOp5
 70
     1
102
RTVSPropertyOp6
 70
     1
102
RTVSPropertyOp7
 70
     1
102
RTVSPropertyOp8
 70
     1
102
RTVSPropertyOp9
 70
     1
102
RTVSPropertyOp10
 70
     1
102
RTVSPropertyOp11
 70
     1
102
RTVSPropertyOp12
 70
     1
102
RTVSPropertyOp13
 70
     1
102
RTVSPropertyOp14
 70
     1
102
RTVSPropertyOp15
 70
     1
102
RTVSPropertyOp16
 70
     1
102
RTVSPropertyOp17
 70
     1
102
RTVSPropertyOp18
 70
     1
102
RTVSPropertyOp19
 70
     1
102
RTVSPropertyOp20
 70
     1
102
RTVSPropertyOp21
 70
     1
102
RTVSPropertyOp22
 70
     1
102
RTVSPropertyOp23
 70
     1
102
RTVSPropertyOp24
 70
     1
102
RTVSPropertyOp25
 70
     1
102
RTVSPropertyOp26
 70
     1
102
RTVSPropertyOp27
 70
     1
102
RTVSPropertyOp28
 70
     1
102
RTVSPropertyOp29
 70
     1
102
RTVSPropertyOp30
 70
     1
102
RTVSPropertyOp31
 70
     1
102
RTVSPropertyOp32
 70
     1
102
RTVSPropertyOp33
 70
     1
102
RTVSPropertyOp34
 70
     1
102
RTVSPropertyOp35
 70
     1
102
RTVSPropertyOp36
 70
     1
102
RTVSPropertyOp37
 70
     1
102
RTVSPropertyOp38
 70
     1
102
RTVSPropertyOp39
 70
     1
102
RTVSPropertyOp40
 70
     1
102
RTVSPropertyOp41
 70
     1
102
RTVSPropertyOp42
 70
     1
102
RTVSPropertyOp43
 70
     1
102
RTVSPropertyOp44
 70
     1
102
RTVSPropertyOp45
 70
     1
102
RTVSPropertyOp46
 70
     1
102
RTVSPropertyOp47
 70
     1
102
RTVSPropertyOp48
 70
     1
102
RTVSPropertyOp49
 70
     1
102
RTVSPropertyOp50
 70
     1
102
RTVSPropertyOp51
 70
     0
102
RTVSPropertyOp52
 70
     0
102
RTVSPropertyOp53
 70
     1
102
RTVSPropertyOp54
 70
     1
102
RTVSPropertyOp55
 70
     1
102
RTVSPropertyOp56
 70
     1
102
RTVSPropertyOp57
 70
     1
102
RTVSPropertyOp58
 70
     1
102
RTVSPropertyOp59
 70
     1
102
RTVSPropertyOp60
 70
     1
102
RTVSPropertyOp61
 70
     1
102
RTVSPropertyOp62
 70
     1
  0
XRECORD
  5
1F8D
102
{ACAD_REACTORS
330
1F8C
102
}
330
1F8C
100
AcDbXrecord
280
     1
102
RTVSPost2010Prop28
280
     0
102
RTVSPost2010PropOp28
 70
     1
102
RTVSPost2010Prop29
280
     1
102
RTVSPost2010PropOp29
 70
     1
102
RTVSPost2010Prop30
280
     1
102
RTVSPost2010PropOp30
 70
     1
102
RTVSPost2010Prop31
280
     0
102
RTVSPost2010PropOp31
 70
     1
102
RTVSPost2010Prop32
280
     0
102
RTVSPost2010PropOp32
 70
     1
102
RTVSPost2010Prop33
280
     0
102
RTVSPost2010PropOp33
 70
     1
102
RTVSPost2010Prop34
280
     0
102
RTVSPost2010PropOp34
 70
     1
102
RTVSPost2010Prop35
280
     0
102
RTVSPost2010PropOp35
 70
     1
102
RTVSPost2010Prop36
280
     0
102
RTVSPost2010PropOp36
 70
     1
102
RTVSPost2010Prop37
 90
       50
102
RTVSPost2010PropOp37
 70
     1
102
RTVSPost2010Prop38
140
0.0
102
RTVSPost2010PropOp38
 70
     1
102
RTVSPost2010Prop39
140
1.0
102
RTVSPost2010PropOp39
 70
     1
102
RTVSPost2010Prop40
 90
        0
102
RTVSPost2010PropOp40
 70
     1
102
RTVSPost2010Prop41ColorIndex
 90
       18
102
RTVSPost2010Prop41ColorRGB
 90
        0
102
RTVSPost2010PropOp41
 70
     1
102
RTVSPost2010Prop42
 90
       50
102
RTVSPost2010PropOp42
 70
     1
102
RTVSPost2010Prop43
 90
        3
102
RTVSPost2010PropOp43
 70
     1
102
RTVSPost2010Prop44ColorIndex
 90
        5
102
RTVSPost2010Prop44ColorRGB
 90
      255
102
RTVSPost2010PropOp44
 70
     1
102
RTVSPost2010Prop45
280
     0
102
RTVSPost2010PropOp45
 70
     1
102
RTVSPost2010Prop46
 90
       50
102
RTVSPost2010PropOp46
 70
     1
102
RTVSPost2010Prop47
 90
       50
102
RTVSPost2010PropOp47
 70
     1
102
RTVSPost2010Prop48
 90
       50
102
RTVSPost2010PropOp48
 70
     1
102
RTVSPost2010Prop49
280
     0
102
RTVSPost2010PropOp49
 70
     1
102
RTVSPost2010Prop50
 90
       50
102
RTVSPost2010PropOp50
 70
     1
102
RTVSPost2010Prop51ColorIndex
 90
      256
102
RTVSPost2010Prop51ColorRGB
 90
-16777216
102
RTVSPost2010PropOp51
 70
     0
102
RTVSPost2010Prop52
140
1.0
102
RTVSPost2010PropOp52
 70
     0
102
RTVSPost2010Prop53
 90
        2
102
RTVSPost2010PropOp53
 70
     1
102
RTVSPost2010Prop54
  1
strokes_ogs.tif
102
RTVSPost2010PropOp54
 70
     1
102
RTVSPost2010Prop55
280
     0
102
RTVSPost2010PropOp55
 70
     1
102
RTVSPost2010Prop56
140
1.0
102
RTVSPost2010PropOp56
 70
     1
102
RTVSPost2010Prop57
140
1.0
102
RTVSPost2010PropOp57
 70
     1
102
RTVSPropertyOp0
 70
     1
102
RTVSPropertyOp1
 70
     1
102
RTVSPropertyOp2
 70
     1
102
RTVSPropertyOp3
 70
     1
102
RTVSPropertyOp4
 70
     1
102
RTVSPropertyOp5
 70
     1
102
RTVSPropertyOp6
 70
     1
102
RTVSPropertyOp7
 70
     1
102
RTVSPropertyOp8
 70
     1
102
RTVSPropertyOp9
 70
     1
102
RTVSPropertyOp10
 70
     1
102
RTVSPropertyOp11
 70
     1
102
RTVSPropertyOp12
 70
     1
102
RTVSPropertyOp13
 70
     1
102
RTVSPropertyOp14
 70
     1
102
RTVSPropertyOp15
 70
     1
102
RTVSPropertyOp16
 70
     1
102
RTVSPropertyOp17
 70
     1
102
RTVSPropertyOp18
 70
     1
102
RTVSPropertyOp19
 70
     1
102
RTVSPropertyOp20
 70
     1
102
RTVSPropertyOp21
 70
     1
102
RTVSPropertyOp22
 70
     1
102
RTVSPropertyOp23
 70
     1
102
RTVSPropertyOp24
 70
     1
102
RTVSPropertyOp25
 70
     1
102
RTVSPropertyOp26
 70
     1
102
RTVSPropertyOp27
 70
     1
102
RTVSPropertyOp28
 70
     1
102
RTVSPropertyOp29
 70
     1
102
RTVSPropertyOp30
 70
     1
102
RTVSPropertyOp31
 70
     1
102
RTVSPropertyOp32
 70
     1
102
RTVSPropertyOp33
 70
     1
102
RTVSPropertyOp34
 70
     1
102
RTVSPropertyOp35
 70
     1
102
RTVSPropertyOp36
 70
     1
102
RTVSPropertyOp37
 70
     1
102
RTVSPropertyOp38
 70
     1
102
RTVSPropertyOp39
 70
     1
102
RTVSPropertyOp40
 70
     1
102
RTVSPropertyOp41
 70
     1
102
RTVSPropertyOp42
 70
     1
102
RTVSPropertyOp43
 70
     1
102
RTVSPropertyOp44
 70
     1
102
RTVSPropertyOp45
 70
     1
102
RTVSPropertyOp46
 70
     1
102
RTVSPropertyOp47
 70
     1
102
RTVSPropertyOp48
 70
     1
102
RTVSPropertyOp49
 70
     1
102
RTVSPropertyOp50
 70
     1
102
RTVSPropertyOp51
 70
     0
102
RTVSPropertyOp52
 70
     0
102
RTVSPropertyOp53
 70
     1
102
RTVSPropertyOp54
 70
     1
102
RTVSPropertyOp55
 70
     1
102
RTVSPropertyOp56
 70
     1
102
RTVSPropertyOp57
 70
     1
102
RTVSPropertyOp58
 70
     1
102
RTVSPropertyOp59
 70
     1
102
RTVSPropertyOp60
 70
     1
102
RTVSPropertyOp61
 70
     1
102
RTVSPropertyOp62
 70
     1
  0
XRECORD
  5
1FA9
102
{ACAD_REACTORS
330
1FA8
102
}
330
1FA8
100
AcDbXrecord
280
     1
102
RTVSPost2010Prop28
280
     0
102
RTVSPost2010PropOp28
 70
     0
102
RTVSPost2010Prop29
280
     1
102
RTVSPost2010PropOp29
 70
     0
102
RTVSPost2010Prop30
280
     1
102
RTVSPost2010PropOp30
 70
     0
102
RTVSPost2010Prop31
280
     0
102
RTVSPost2010PropOp31
 70
     0
102
RTVSPost2010Prop32
280
     0
102
RTVSPost2010PropOp32
 70
     0
102
RTVSPost2010Prop33
280
     0
102
RTVSPost2010PropOp33
 70
     0
102
RTVSPost2010Prop34
280
     0
102
RTVSPost2010PropOp34
 70
     0
102
RTVSPost2010Prop35
280
     0
102
RTVSPost2010PropOp35
 70
     0
102
RTVSPost2010Prop36
280
     0
102
RTVSPost2010PropOp36
 70
     0
102
RTVSPost2010Prop37
 90
       50
102
RTVSPost2010PropOp37
 70
     0
102
RTVSPost2010Prop38
140
0.0
102
RTVSPost2010PropOp38
 70
     0
102
RTVSPost2010Prop39
140
1.0
102
RTVSPost2010PropOp39
 70
     0
102
RTVSPost2010Prop40
 90
        0
102
RTVSPost2010PropOp40
 70
     0
102
RTVSPost2010Prop41ColorIndex
 90
       18
102
RTVSPost2010Prop41ColorRGB
 90
        0
102
RTVSPost2010PropOp41
 70
     0
102
RTVSPost2010Prop42
 90
       50
102
RTVSPost2010PropOp42
 70
     0
102
RTVSPost2010Prop43
 90
        3
102
RTVSPost2010PropOp43
 70
     0
102
RTVSPost2010Prop44ColorIndex
 90
        5
102
RTVSPost2010Prop44ColorRGB
 90
      255
102
RTVSPost2010PropOp44
 70
     0
102
RTVSPost2010Prop45
280
     0
102
RTVSPost2010PropOp45
 70
     0
102
RTVSPost2010Prop46
 90
       50
102
RTVSPost2010PropOp46
 70
     0
102
RTVSPost2010Prop47
 90
       50
102
RTVSPost2010PropOp47
 70
     0
102
RTVSPost2010Prop48
 90
       50
102
RTVSPost2010PropOp48
 70
     0
102
RTVSPost2010Prop49
280
     0
102
RTVSPost2010PropOp49
 70
     0
102
RTVSPost2010Prop50
 90
       50
102
RTVSPost2010PropOp50
 70
     0
102
RTVSPost2010Prop51ColorIndex
 90
      256
102
RTVSPost2010Prop51ColorRGB
 90
-16777216
102
RTVSPost2010PropOp51
 70
     0
102
RTVSPost2010Prop52
140
1.0
102
RTVSPost2010PropOp52
 70
     0
102
RTVSPost2010Prop53
 90
        2
102
RTVSPost2010PropOp53
 70
     0
102
RTVSPost2010Prop54
  1
strokes_ogs.tif
102
RTVSPost2010PropOp54
 70
     0
102
RTVSPost2010Prop55
280
     0
102
RTVSPost2010PropOp55
 70
     0
102
RTVSPost2010Prop56
140
1.0
102
RTVSPost2010PropOp56
 70
     0
102
RTVSPost2010Prop57
140
1.0
102
RTVSPost2010PropOp57
 70
     0
102
RTVSPropertyOp0
 70
     0
102
RTVSPropertyOp1
 70
     0
102
RTVSPropertyOp2
 70
     0
102
RTVSPropertyOp3
 70
     0
102
RTVSPropertyOp4
 70
     0
102
RTVSPropertyOp5
 70
     0
102
RTVSPropertyOp6
 70
     0
102
RTVSPropertyOp7
 70
     0
102
RTVSPropertyOp8
 70
     0
102
RTVSPropertyOp9
 70
     0
102
RTVSPropertyOp10
 70
     0
102
RTVSPropertyOp11
 70
     0
102
RTVSPropertyOp12
 70
     0
102
RTVSPropertyOp13
 70
     0
102
RTVSPropertyOp14
 70
     2
102
RTVSPropertyOp15
 70
     0
102
RTVSPropertyOp16
 70
     0
102
RTVSPropertyOp17
 70
     0
102
RTVSPropertyOp18
 70
     0
102
RTVSPropertyOp19
 70
     0
102
RTVSPropertyOp20
 70
     0
102
RTVSPropertyOp21
 70
     0
102
RTVSPropertyOp22
 70
     0
102
RTVSPropertyOp23
 70
     0
102
RTVSPropertyOp24
 70
     0
102
RTVSPropertyOp25
 70
     0
102
RTVSPropertyOp26
 70
     0
102
RTVSPropertyOp27
 70
     0
102
RTVSPropertyOp28
 70
     0
102
RTVSPropertyOp29
 70
     0
102
RTVSPropertyOp30
 70
     0
102
RTVSPropertyOp31
 70
     0
102
RTVSPropertyOp32
 70
     0
102
RTVSPropertyOp33
 70
     0
102
RTVSPropertyOp34
 70
     0
102
RTVSPropertyOp35
 70
     0
102
RTVSPropertyOp36
 70
     0
102
RTVSPropertyOp37
 70
     0
102
RTVSPropertyOp38
 70
     0
102
RTVSPropertyOp39
 70
     0
102
RTVSPropertyOp40
 70
     0
102
RTVSPropertyOp41
 70
     0
102
RTVSPropertyOp42
 70
     0
102
RTVSPropertyOp43
 70
     0
102
RTVSPropertyOp44
 70
     0
102
RTVSPropertyOp45
 70
     0
102
RTVSPropertyOp46
 70
     0
102
RTVSPropertyOp47
 70
     0
102
RTVSPropertyOp48
 70
     0
102
RTVSPropertyOp49
 70
     0
102
RTVSPropertyOp50
 70
     0
102
RTVSPropertyOp51
 70
     0
102
RTVSPropertyOp52
 70
     0
102
RTVSPropertyOp53
 70
     0
102
RTVSPropertyOp54
 70
     0
102
RTVSPropertyOp55
 70
     0
102
RTVSPropertyOp56
 70
     0
102
RTVSPropertyOp57
 70
     0
102
RTVSPropertyOp58
 70
     1
102
RTVSPropertyOp59
 70
     1
102
RTVSPropertyOp60
 70
     1
102
RTVSPropertyOp61
 70
     1
102
RTVSPropertyOp62
 70
     1
  0
XRECORD
  5
1F99
102
{ACAD_REACTORS
330
1F98
102
}
330
1F98
100
AcDbXrecord
280
     1
102
RTVSPost2010Prop28
280
     0
102
RTVSPost2010PropOp28
 70
     1
102
RTVSPost2010Prop29
280
     1
102
RTVSPost2010PropOp29
 70
     1
102
RTVSPost2010Prop30
280
     1
102
RTVSPost2010PropOp30
 70
     1
102
RTVSPost2010Prop31
280
     0
102
RTVSPost2010PropOp31
 70
     1
102
RTVSPost2010Prop32
280
     0
102
RTVSPost2010PropOp32
 70
     1
102
RTVSPost2010Prop33
280
     0
102
RTVSPost2010PropOp33
 70
     1
102
RTVSPost2010Prop34
280
     0
102
RTVSPost2010PropOp34
 70
     1
102
RTVSPost2010Prop35
280
     0
102
RTVSPost2010PropOp35
 70
     1
102
RTVSPost2010Prop36
280
     0
102
RTVSPost2010PropOp36
 70
     1
102
RTVSPost2010Prop37
 90
       50
102
RTVSPost2010PropOp37
 70
     1
102
RTVSPost2010Prop38
140
0.0
102
RTVSPost2010PropOp38
 70
     1
102
RTVSPost2010Prop39
140
1.0
102
RTVSPost2010PropOp39
 70
     1
102
RTVSPost2010Prop40
 90
        0
102
RTVSPost2010PropOp40
 70
     1
102
RTVSPost2010Prop41ColorIndex
 90
       18
102
RTVSPost2010Prop41ColorRGB
 90
        0
102
RTVSPost2010PropOp41
 70
     1
102
RTVSPost2010Prop42
 90
       50
102
RTVSPost2010PropOp42
 70
     1
102
RTVSPost2010Prop43
 90
        3
102
RTVSPost2010PropOp43
 70
     1
102
RTVSPost2010Prop44ColorIndex
 90
        5
102
RTVSPost2010Prop44ColorRGB
 90
      255
102
RTVSPost2010PropOp44
 70
     1
102
RTVSPost2010Prop45
280
     0
102
RTVSPost2010PropOp45
 70
     1
102
RTVSPost2010Prop46
 90
       50
102
RTVSPost2010PropOp46
 70
     1
102
RTVSPost2010Prop47
 90
       50
102
RTVSPost2010PropOp47
 70
     1
102
RTVSPost2010Prop48
 90
       50
102
RTVSPost2010PropOp48
 70
     1
102
RTVSPost2010Prop49
280
     0
102
RTVSPost2010PropOp49
 70
     1
102
RTVSPost2010Prop50
 90
       50
102
RTVSPost2010PropOp50
 70
     1
102
RTVSPost2010Prop51ColorIndex
 90
      256
102
RTVSPost2010Prop51ColorRGB
 90
-16777216
102
RTVSPost2010PropOp51
 70
     0
102
RTVSPost2010Prop52
140
1.0
102
RTVSPost2010PropOp52
 70
     0
102
RTVSPost2010Prop53
 90
        2
102
RTVSPost2010PropOp53
 70
     1
102
RTVSPost2010Prop54
  1
strokes_ogs.tif
102
RTVSPost2010PropOp54
 70
     1
102
RTVSPost2010Prop55
280
     0
102
RTVSPost2010PropOp55
 70
     1
102
RTVSPost2010Prop56
140
1.0
102
RTVSPost2010PropOp56
 70
     1
102
RTVSPost2010Prop57
140
1.0
102
RTVSPost2010PropOp57
 70
     1
102
RTVSPropertyOp0
 70
     1
102
RTVSPropertyOp1
 70
     1
102
RTVSPropertyOp2
 70
     1
102
RTVSPropertyOp3
 70
     1
102
RTVSPropertyOp4
 70
     1
102
RTVSPropertyOp5
 70
     1
102
RTVSPropertyOp6
 70
     1
102
RTVSPropertyOp7
 70
     1
102
RTVSPropertyOp8
 70
     1
102
RTVSPropertyOp9
 70
     1
102
RTVSPropertyOp10
 70
     1
102
RTVSPropertyOp11
 70
     1
102
RTVSPropertyOp12
 70
     1
102
RTVSPropertyOp13
 70
     1
102
RTVSPropertyOp14
 70
     1
102
RTVSPropertyOp15
 70
     1
102
RTVSPropertyOp16
 70
     1
102
RTVSPropertyOp17
 70
     1
102
RTVSPropertyOp18
 70
     1
102
RTVSPropertyOp19
 70
     1
102
RTVSPropertyOp20
 70
     1
102
RTVSPropertyOp21
 70
     1
102
RTVSPropertyOp22
 70
     1
102
RTVSPropertyOp23
 70
     1
102
RTVSPropertyOp24
 70
     1
102
RTVSPropertyOp25
 70
     1
102
RTVSPropertyOp26
 70
     1
102
RTVSPropertyOp27
 70
     1
102
RTVSPropertyOp28
 70
     1
102
RTVSPropertyOp29
 70
     1
102
RTVSPropertyOp30
 70
     1
102
RTVSPropertyOp31
 70
     1
102
RTVSPropertyOp32
 70
     1
102
RTVSPropertyOp33
 70
     1
102
RTVSPropertyOp34
 70
     1
102
RTVSPropertyOp35
 70
     1
102
RTVSPropertyOp36
 70
     1
102
RTVSPropertyOp37
 70
     1
102
RTVSPropertyOp38
 70
     1
102
RTVSPropertyOp39
 70
     1
102
RTVSPropertyOp40
 70
     1
102
RTVSPropertyOp41
 70
     1
102
RTVSPropertyOp42
 70
     1
102
RTVSPropertyOp43
 70
     1
102
RTVSPropertyOp44
 70
     1
102
RTVSPropertyOp45
 70
     1
102
RTVSPropertyOp46
 70
     1
102
RTVSPropertyOp47
 70
     1
102
RTVSPropertyOp48
 70
     1
102
RTVSPropertyOp49
 70
     1
102
RTVSPropertyOp50
 70
     1
102
RTVSPropertyOp51
 70
     0
102
RTVSPropertyOp52
 70
     0
102
RTVSPropertyOp53
 70
     1
102
RTVSPropertyOp54
 70
     1
102
RTVSPropertyOp55
 70
     1
102
RTVSPropertyOp56
 70
     1
102
RTVSPropertyOp57
 70
     1
102
RTVSPropertyOp58
 70
     1
102
RTVSPropertyOp59
 70
     1
102
RTVSPropertyOp60
 70
     1
102
RTVSPropertyOp61
 70
     1
102
RTVSPropertyOp62
 70
     1
  0
XRECORD
  5
1FAB
102
{ACAD_REACTORS
330
1FAA
102
}
330
1FAA
100
AcDbXrecord
280
     1
102
RTVSPost2010Prop28
280
     0
102
RTVSPost2010PropOp28
 70
     0
102
RTVSPost2010Prop29
280
     1
102
RTVSPost2010PropOp29
 70
     0
102
RTVSPost2010Prop30
280
     1
102
RTVSPost2010PropOp30
 70
     0
102
RTVSPost2010Prop31
280
     0
102
RTVSPost2010PropOp31
 70
     0
102
RTVSPost2010Prop32
280
     0
102
RTVSPost2010PropOp32
 70
     0
102
RTVSPost2010Prop33
280
     0
102
RTVSPost2010PropOp33
 70
     0
102
RTVSPost2010Prop34
280
     0
102
RTVSPost2010PropOp34
 70
     0
102
RTVSPost2010Prop35
280
     0
102
RTVSPost2010PropOp35
 70
     0
102
RTVSPost2010Prop36
280
     0
102
RTVSPost2010PropOp36
 70
     0
102
RTVSPost2010Prop37
 90
       50
102
RTVSPost2010PropOp37
 70
     0
102
RTVSPost2010Prop38
140
0.0
102
RTVSPost2010PropOp38
 70
     0
102
RTVSPost2010Prop39
140
1.0
102
RTVSPost2010PropOp39
 70
     0
102
RTVSPost2010Prop40
 90
        0
102
RTVSPost2010PropOp40
 70
     0
102
RTVSPost2010Prop41ColorIndex
 90
       18
102
RTVSPost2010Prop41ColorRGB
 90
        0
102
RTVSPost2010PropOp41
 70
     0
102
RTVSPost2010Prop42
 90
       50
102
RTVSPost2010PropOp42
 70
     0
102
RTVSPost2010Prop43
 90
        3
102
RTVSPost2010PropOp43
 70
     0
102
RTVSPost2010Prop44ColorIndex
 90
        5
102
RTVSPost2010Prop44ColorRGB
 90
      255
102
RTVSPost2010PropOp44
 70
     0
102
RTVSPost2010Prop45
280
     0
102
RTVSPost2010PropOp45
 70
     0
102
RTVSPost2010Prop46
 90
       50
102
RTVSPost2010PropOp46
 70
     0
102
RTVSPost2010Prop47
 90
       50
102
RTVSPost2010PropOp47
 70
     0
102
RTVSPost2010Prop48
 90
       50
102
RTVSPost2010PropOp48
 70
     0
102
RTVSPost2010Prop49
280
     0
102
RTVSPost2010PropOp49
 70
     0
102
RTVSPost2010Prop50
 90
       50
102
RTVSPost2010PropOp50
 70
     0
102
RTVSPost2010Prop51ColorIndex
 90
      256
102
RTVSPost2010Prop51ColorRGB
 90
-16777216
102
RTVSPost2010PropOp51
 70
     0
102
RTVSPost2010Prop52
140
1.0
102
RTVSPost2010PropOp52
 70
     0
102
RTVSPost2010Prop53
 90
        2
102
RTVSPost2010PropOp53
 70
     0
102
RTVSPost2010Prop54
  1
strokes_ogs.tif
102
RTVSPost2010PropOp54
 70
     0
102
RTVSPost2010Prop55
280
     0
102
RTVSPost2010PropOp55
 70
     0
102
RTVSPost2010Prop56
140
1.0
102
RTVSPost2010PropOp56
 70
     0
102
RTVSPost2010Prop57
140
1.0
102
RTVSPost2010PropOp57
 70
     0
102
RTVSPropertyOp0
 70
     0
102
RTVSPropertyOp1
 70
     0
102
RTVSPropertyOp2
 70
     0
102
RTVSPropertyOp3
 70
     0
102
RTVSPropertyOp4
 70
     0
102
RTVSPropertyOp5
 70
     0
102
RTVSPropertyOp6
 70
     0
102
RTVSPropertyOp7
 70
     0
102
RTVSPropertyOp8
 70
     0
102
RTVSPropertyOp9
 70
     0
102
RTVSPropertyOp10
 70
     0
102
RTVSPropertyOp11
 70
     0
102
RTVSPropertyOp12
 70
     0
102
RTVSPropertyOp13
 70
     0
102
RTVSPropertyOp14
 70
     2
102
RTVSPropertyOp15
 70
     0
102
RTVSPropertyOp16
 70
     0
102
RTVSPropertyOp17
 70
     0
102
RTVSPropertyOp18
 70
     0
102
RTVSPropertyOp19
 70
     0
102
RTVSPropertyOp20
 70
     0
102
RTVSPropertyOp21
 70
     0
102
RTVSPropertyOp22
 70
     0
102
RTVSPropertyOp23
 70
     0
102
RTVSPropertyOp24
 70
     0
102
RTVSPropertyOp25
 70
     0
102
RTVSPropertyOp26
 70
     0
102
RTVSPropertyOp27
 70
     0
102
RTVSPropertyOp28
 70
     0
102
RTVSPropertyOp29
 70
     0
102
RTVSPropertyOp30
 70
     0
102
RTVSPropertyOp31
 70
     0
102
RTVSPropertyOp32
 70
     0
102
RTVSPropertyOp33
 70
     0
102
RTVSPropertyOp34
 70
     0
102
RTVSPropertyOp35
 70
     0
102
RTVSPropertyOp36
 70
     0
102
RTVSPropertyOp37
 70
     0
102
RTVSPropertyOp38
 70
     0
102
RTVSPropertyOp39
 70
     0
102
RTVSPropertyOp40
 70
     0
102
RTVSPropertyOp41
 70
     0
102
RTVSPropertyOp42
 70
     0
102
RTVSPropertyOp43
 70
     0
102
RTVSPropertyOp44
 70
     0
102
RTVSPropertyOp45
 70
     0
102
RTVSPropertyOp46
 70
     0
102
RTVSPropertyOp47
 70
     0
102
RTVSPropertyOp48
 70
     0
102
RTVSPropertyOp49
 70
     0
102
RTVSPropertyOp50
 70
     0
102
RTVSPropertyOp51
 70
     0
102
RTVSPropertyOp52
 70
     0
102
RTVSPropertyOp53
 70
     0
102
RTVSPropertyOp54
 70
     0
102
RTVSPropertyOp55
 70
     0
102
RTVSPropertyOp56
 70
     0
102
RTVSPropertyOp57
 70
     0
102
RTVSPropertyOp58
 70
     1
102
RTVSPropertyOp59
 70
     1
102
RTVSPropertyOp60
 70
     1
102
RTVSPropertyOp61
 70
     1
102
RTVSPropertyOp62
 70
     1
  0
XRECORD
  5
1F91
102
{ACAD_REACTORS
330
1F90
102
}
330
1F90
100
AcDbXrecord
280
     1
102
RTVSPost2010Prop28
280
     0
102
RTVSPost2010PropOp28
 70
     1
102
RTVSPost2010Prop29
280
     1
102
RTVSPost2010PropOp29
 70
     1
102
RTVSPost2010Prop30
280
     1
102
RTVSPost2010PropOp30
 70
     1
102
RTVSPost2010Prop31
280
     0
102
RTVSPost2010PropOp31
 70
     1
102
RTVSPost2010Prop32
280
     0
102
RTVSPost2010PropOp32
 70
     1
102
RTVSPost2010Prop33
280
     0
102
RTVSPost2010PropOp33
 70
     1
102
RTVSPost2010Prop34
280
     0
102
RTVSPost2010PropOp34
 70
     1
102
RTVSPost2010Prop35
280
     0
102
RTVSPost2010PropOp35
 70
     1
102
RTVSPost2010Prop36
280
     0
102
RTVSPost2010PropOp36
 70
     1
102
RTVSPost2010Prop37
 90
       50
102
RTVSPost2010PropOp37
 70
     1
102
RTVSPost2010Prop38
140
0.0
102
RTVSPost2010PropOp38
 70
     1
102
RTVSPost2010Prop39
140
1.0
102
RTVSPost2010PropOp39
 70
     1
102
RTVSPost2010Prop40
 90
        0
102
RTVSPost2010PropOp40
 70
     1
102
RTVSPost2010Prop41ColorIndex
 90
       18
102
RTVSPost2010Prop41ColorRGB
 90
        0
102
RTVSPost2010PropOp41
 70
     1
102
RTVSPost2010Prop42
 90
       50
102
RTVSPost2010PropOp42
 70
     1
102
RTVSPost2010Prop43
 90
        3
102
RTVSPost2010PropOp43
 70
     1
102
RTVSPost2010Prop44ColorIndex
 90
        5
102
RTVSPost2010Prop44ColorRGB
 90
      255
102
RTVSPost2010PropOp44
 70
     1
102
RTVSPost2010Prop45
280
     0
102
RTVSPost2010PropOp45
 70
     1
102
RTVSPost2010Prop46
 90
       50
102
RTVSPost2010PropOp46
 70
     1
102
RTVSPost2010Prop47
 90
       50
102
RTVSPost2010PropOp47
 70
     1
102
RTVSPost2010Prop48
 90
       50
102
RTVSPost2010PropOp48
 70
     1
102
RTVSPost2010Prop49
280
     0
102
RTVSPost2010PropOp49
 70
     1
102
RTVSPost2010Prop50
 90
       50
102
RTVSPost2010PropOp50
 70
     1
102
RTVSPost2010Prop51ColorIndex
 90
      256
102
RTVSPost2010Prop51ColorRGB
 90
-16777216
102
RTVSPost2010PropOp51
 70
     0
102
RTVSPost2010Prop52
140
1.0
102
RTVSPost2010PropOp52
 70
     0
102
RTVSPost2010Prop53
 90
        2
102
RTVSPost2010PropOp53
 70
     1
102
RTVSPost2010Prop54
  1
strokes_ogs.tif
102
RTVSPost2010PropOp54
 70
     1
102
RTVSPost2010Prop55
280
     0
102
RTVSPost2010PropOp55
 70
     1
102
RTVSPost2010Prop56
140
1.0
102
RTVSPost2010PropOp56
 70
     1
102
RTVSPost2010Prop57
140
1.0
102
RTVSPost2010PropOp57
 70
     1
102
RTVSPropertyOp0
 70
     1
102
RTVSPropertyOp1
 70
     1
102
RTVSPropertyOp2
 70
     1
102
RTVSPropertyOp3
 70
     1
102
RTVSPropertyOp4
 70
     1
102
RTVSPropertyOp5
 70
     1
102
RTVSPropertyOp6
 70
     1
102
RTVSPropertyOp7
 70
     1
102
RTVSPropertyOp8
 70
     1
102
RTVSPropertyOp9
 70
     1
102
RTVSPropertyOp10
 70
     1
102
RTVSPropertyOp11
 70
     1
102
RTVSPropertyOp12
 70
     1
102
RTVSPropertyOp13
 70
     1
102
RTVSPropertyOp14
 70
     1
102
RTVSPropertyOp15
 70
     1
102
RTVSPropertyOp16
 70
     1
102
RTVSPropertyOp17
 70
     1
102
RTVSPropertyOp18
 70
     1
102
RTVSPropertyOp19
 70
     1
102
RTVSPropertyOp20
 70
     1
102
RTVSPropertyOp21
 70
     1
102
RTVSPropertyOp22
 70
     1
102
RTVSPropertyOp23
 70
     1
102
RTVSPropertyOp24
 70
     1
102
RTVSPropertyOp25
 70
     1
102
RTVSPropertyOp26
 70
     1
102
RTVSPropertyOp27
 70
     1
102
RTVSPropertyOp28
 70
     1
102
RTVSPropertyOp29
 70
     1
102
RTVSPropertyOp30
 70
     1
102
RTVSPropertyOp31
 70
     1
102
RTVSPropertyOp32
 70
     1
102
RTVSPropertyOp33
 70
     1
102
RTVSPropertyOp34
 70
     1
102
RTVSPropertyOp35
 70
     1
102
RTVSPropertyOp36
 70
     1
102
RTVSPropertyOp37
 70
     1
102
RTVSPropertyOp38
 70
     1
102
RTVSPropertyOp39
 70
     1
102
RTVSPropertyOp40
 70
     1
102
RTVSPropertyOp41
 70
     1
102
RTVSPropertyOp42
 70
     1
102
RTVSPropertyOp43
 70
     1
102
RTVSPropertyOp44
 70
     1
102
RTVSPropertyOp45
 70
     1
102
RTVSPropertyOp46
 70
     1
102
RTVSPropertyOp47
 70
     1
102
RTVSPropertyOp48
 70
     1
102
RTVSPropertyOp49
 70
     1
102
RTVSPropertyOp50
 70
     1
102
RTVSPropertyOp51
 70
     0
102
RTVSPropertyOp52
 70
     0
102
RTVSPropertyOp53
 70
     1
102
RTVSPropertyOp54
 70
     1
102
RTVSPropertyOp55
 70
     1
102
RTVSPropertyOp56
 70
     1
102
RTVSPropertyOp57
 70
     1
102
RTVSPropertyOp58
 70
     1
102
RTVSPropertyOp59
 70
     1
102
RTVSPropertyOp60
 70
     1
102
RTVSPropertyOp61
 70
     1
102
RTVSPropertyOp62
 70
     1
  0
XRECORD
  5
1FA7
102
{ACAD_REACTORS
330
1FA6
102
}
330
1FA6
100
AcDbXrecord
280
     1
102
RTVSPost2010Prop28
280
     0
102
RTVSPost2010PropOp28
 70
     1
102
RTVSPost2010Prop29
280
     1
102
RTVSPost2010PropOp29
 70
     1
102
RTVSPost2010Prop30
280
     1
102
RTVSPost2010PropOp30
 70
     1
102
RTVSPost2010Prop31
280
     0
102
RTVSPost2010PropOp31
 70
     1
102
RTVSPost2010Prop32
280
     0
102
RTVSPost2010PropOp32
 70
     1
102
RTVSPost2010Prop33
280
     0
102
RTVSPost2010PropOp33
 70
     1
102
RTVSPost2010Prop34
280
     0
102
RTVSPost2010PropOp34
 70
     1
102
RTVSPost2010Prop35
280
     0
102
RTVSPost2010PropOp35
 70
     1
102
RTVSPost2010Prop36
280
     0
102
RTVSPost2010PropOp36
 70
     1
102
RTVSPost2010Prop37
 90
       50
102
RTVSPost2010PropOp37
 70
     1
102
RTVSPost2010Prop38
140
0.0
102
RTVSPost2010PropOp38
 70
     1
102
RTVSPost2010Prop39
140
1.0
102
RTVSPost2010PropOp39
 70
     1
102
RTVSPost2010Prop40
 90
        0
102
RTVSPost2010PropOp40
 70
     1
102
RTVSPost2010Prop41ColorIndex
 90
       18
102
RTVSPost2010Prop41ColorRGB
 90
        0
102
RTVSPost2010PropOp41
 70
     1
102
RTVSPost2010Prop42
 90
       50
102
RTVSPost2010PropOp42
 70
     1
102
RTVSPost2010Prop43
 90
        3
102
RTVSPost2010PropOp43
 70
     1
102
RTVSPost2010Prop44ColorIndex
 90
        5
102
RTVSPost2010Prop44ColorRGB
 90
      255
102
RTVSPost2010PropOp44
 70
     1
102
RTVSPost2010Prop45
280
     0
102
RTVSPost2010PropOp45
 70
     1
102
RTVSPost2010Prop46
 90
       50
102
RTVSPost2010PropOp46
 70
     1
102
RTVSPost2010Prop47
 90
       50
102
RTVSPost2010PropOp47
 70
     1
102
RTVSPost2010Prop48
 90
       50
102
RTVSPost2010PropOp48
 70
     1
102
RTVSPost2010Prop49
280
     0
102
RTVSPost2010PropOp49
 70
     1
102
RTVSPost2010Prop50
 90
       50
102
RTVSPost2010PropOp50
 70
     1
102
RTVSPost2010Prop51ColorIndex
 90
      256
102
RTVSPost2010Prop51ColorRGB
 90
-16777216
102
RTVSPost2010PropOp51
 70
     0
102
RTVSPost2010Prop52
140
1.0
102
RTVSPost2010PropOp52
 70
     0
102
RTVSPost2010Prop53
 90
        2
102
RTVSPost2010PropOp53
 70
     1
102
RTVSPost2010Prop54
  1
strokes_ogs.tif
102
RTVSPost2010PropOp54
 70
     1
102
RTVSPost2010Prop55
280
     0
102
RTVSPost2010PropOp55
 70
     1
102
RTVSPost2010Prop56
140
1.0
102
RTVSPost2010PropOp56
 70
     1
102
RTVSPost2010Prop57
140
1.0
102
RTVSPost2010PropOp57
 70
     1
102
RTVSPropertyOp0
 70
     1
102
RTVSPropertyOp1
 70
     1
102
RTVSPropertyOp2
 70
     1
102
RTVSPropertyOp3
 70
     1
102
RTVSPropertyOp4
 70
     1
102
RTVSPropertyOp5
 70
     1
102
RTVSPropertyOp6
 70
     1
102
RTVSPropertyOp7
 70
     1
102
RTVSPropertyOp8
 70
     1
102
RTVSPropertyOp9
 70
     1
102
RTVSPropertyOp10
 70
     1
102
RTVSPropertyOp11
 70
     1
102
RTVSPropertyOp12
 70
     1
102
RTVSPropertyOp13
 70
     1
102
RTVSPropertyOp14
 70
     1
102
RTVSPropertyOp15
 70
     1
102
RTVSPropertyOp16
 70
     1
102
RTVSPropertyOp17
 70
     1
102
RTVSPropertyOp18
 70
     1
102
RTVSPropertyOp19
 70
     1
102
RTVSPropertyOp20
 70
     1
102
RTVSPropertyOp21
 70
     1
102
RTVSPropertyOp22
 70
     1
102
RTVSPropertyOp23
 70
     1
102
RTVSPropertyOp24
 70
     1
102
RTVSPropertyOp25
 70
     1
102
RTVSPropertyOp26
 70
     1
102
RTVSPropertyOp27
 70
     1
102
RTVSPropertyOp28
 70
     1
102
RTVSPropertyOp29
 70
     1
102
RTVSPropertyOp30
 70
     1
102
RTVSPropertyOp31
 70
     1
102
RTVSPropertyOp32
 70
     1
102
RTVSPropertyOp33
 70
     1
102
RTVSPropertyOp34
 70
     1
102
RTVSPropertyOp35
 70
     1
102
RTVSPropertyOp36
 70
     1
102
RTVSPropertyOp37
 70
     1
102
RTVSPropertyOp38
 70
     1
102
RTVSPropertyOp39
 70
     1
102
RTVSPropertyOp40
 70
     1
102
RTVSPropertyOp41
 70
     1
102
RTVSPropertyOp42
 70
     1
102
RTVSPropertyOp43
 70
     1
102
RTVSPropertyOp44
 70
     1
102
RTVSPropertyOp45
 70
     1
102
RTVSPropertyOp46
 70
     1
102
RTVSPropertyOp47
 70
     1
102
RTVSPropertyOp48
 70
     1
102
RTVSPropertyOp49
 70
     1
102
RTVSPropertyOp50
 70
     1
102
RTVSPropertyOp51
 70
     0
102
RTVSPropertyOp52
 70
     0
102
RTVSPropertyOp53
 70
     1
102
RTVSPropertyOp54
 70
     1
102
RTVSPropertyOp55
 70
     1
102
RTVSPropertyOp56
 70
     1
102
RTVSPropertyOp57
 70
     1
102
RTVSPropertyOp58
 70
     1
102
RTVSPropertyOp59
 70
     1
102
RTVSPropertyOp60
 70
     1
102
RTVSPropertyOp61
 70
     1
102
RTVSPropertyOp62
 70
     1
  0
XRECORD
  5
1FA5
102
{ACAD_REACTORS
330
1FA4
102
}
330
1FA4
100
AcDbXrecord
280
     1
102
RTVSPost2010Prop28
280
     0
102
RTVSPost2010PropOp28
 70
     1
102
RTVSPost2010Prop29
280
     1
102
RTVSPost2010PropOp29
 70
     1
102
RTVSPost2010Prop30
280
     1
102
RTVSPost2010PropOp30
 70
     1
102
RTVSPost2010Prop31
280
     0
102
RTVSPost2010PropOp31
 70
     1
102
RTVSPost2010Prop32
280
     0
102
RTVSPost2010PropOp32
 70
     1
102
RTVSPost2010Prop33
280
     0
102
RTVSPost2010PropOp33
 70
     1
102
RTVSPost2010Prop34
280
     0
102
RTVSPost2010PropOp34
 70
     1
102
RTVSPost2010Prop35
280
     0
102
RTVSPost2010PropOp35
 70
     1
102
RTVSPost2010Prop36
280
     0
102
RTVSPost2010PropOp36
 70
     1
102
RTVSPost2010Prop37
 90
       50
102
RTVSPost2010PropOp37
 70
     1
102
RTVSPost2010Prop38
140
0.0
102
RTVSPost2010PropOp38
 70
     1
102
RTVSPost2010Prop39
140
1.0
102
RTVSPost2010PropOp39
 70
     1
102
RTVSPost2010Prop40
 90
        0
102
RTVSPost2010PropOp40
 70
     1
102
RTVSPost2010Prop41ColorIndex
 90
       18
102
RTVSPost2010Prop41ColorRGB
 90
        0
102
RTVSPost2010PropOp41
 70
     1
102
RTVSPost2010Prop42
 90
       50
102
RTVSPost2010PropOp42
 70
     1
102
RTVSPost2010Prop43
 90
        3
102
RTVSPost2010PropOp43
 70
     1
102
RTVSPost2010Prop44ColorIndex
 90
        5
102
RTVSPost2010Prop44ColorRGB
 90
      255
102
RTVSPost2010PropOp44
 70
     1
102
RTVSPost2010Prop45
280
     0
102
RTVSPost2010PropOp45
 70
     1
102
RTVSPost2010Prop46
 90
       50
102
RTVSPost2010PropOp46
 70
     1
102
RTVSPost2010Prop47
 90
       50
102
RTVSPost2010PropOp47
 70
     1
102
RTVSPost2010Prop48
 90
       50
102
RTVSPost2010PropOp48
 70
     1
102
RTVSPost2010Prop49
280
     0
102
RTVSPost2010PropOp49
 70
     1
102
RTVSPost2010Prop50
 90
       50
102
RTVSPost2010PropOp50
 70
     1
102
RTVSPost2010Prop51ColorIndex
 90
      256
102
RTVSPost2010Prop51ColorRGB
 90
-16777216
102
RTVSPost2010PropOp51
 70
     0
102
RTVSPost2010Prop52
140
1.0
102
RTVSPost2010PropOp52
 70
     0
102
RTVSPost2010Prop53
 90
        2
102
RTVSPost2010PropOp53
 70
     1
102
RTVSPost2010Prop54
  1
strokes_ogs.tif
102
RTVSPost2010PropOp54
 70
     1
102
RTVSPost2010Prop55
280
     0
102
RTVSPost2010PropOp55
 70
     1
102
RTVSPost2010Prop56
140
1.0
102
RTVSPost2010PropOp56
 70
     1
102
RTVSPost2010Prop57
140
1.0
102
RTVSPost2010PropOp57
 70
     1
102
RTVSPropertyOp0
 70
     1
102
RTVSPropertyOp1
 70
     1
102
RTVSPropertyOp2
 70
     1
102
RTVSPropertyOp3
 70
     1
102
RTVSPropertyOp4
 70
     1
102
RTVSPropertyOp5
 70
     1
102
RTVSPropertyOp6
 70
     1
102
RTVSPropertyOp7
 70
     1
102
RTVSPropertyOp8
 70
     1
102
RTVSPropertyOp9
 70
     1
102
RTVSPropertyOp10
 70
     1
102
RTVSPropertyOp11
 70
     1
102
RTVSPropertyOp12
 70
     1
102
RTVSPropertyOp13
 70
     1
102
RTVSPropertyOp14
 70
     1
102
RTVSPropertyOp15
 70
     1
102
RTVSPropertyOp16
 70
     1
102
RTVSPropertyOp17
 70
     1
102
RTVSPropertyOp18
 70
     1
102
RTVSPropertyOp19
 70
     1
102
RTVSPropertyOp20
 70
     1
102
RTVSPropertyOp21
 70
     1
102
RTVSPropertyOp22
 70
     1
102
RTVSPropertyOp23
 70
     1
102
RTVSPropertyOp24
 70
     1
102
RTVSPropertyOp25
 70
     1
102
RTVSPropertyOp26
 70
     1
102
RTVSPropertyOp27
 70
     1
102
RTVSPropertyOp28
 70
     1
102
RTVSPropertyOp29
 70
     1
102
RTVSPropertyOp30
 70
     1
102
RTVSPropertyOp31
 70
     1
102
RTVSPropertyOp32
 70
     1
102
RTVSPropertyOp33
 70
     1
102
RTVSPropertyOp34
 70
     1
102
RTVSPropertyOp35
 70
     1
102
RTVSPropertyOp36
 70
     1
102
RTVSPropertyOp37
 70
     1
102
RTVSPropertyOp38
 70
     1
102
RTVSPropertyOp39
 70
     1
102
RTVSPropertyOp40
 70
     1
102
RTVSPropertyOp41
 70
     1
102
RTVSPropertyOp42
 70
     1
102
RTVSPropertyOp43
 70
     1
102
RTVSPropertyOp44
 70
     1
102
RTVSPropertyOp45
 70
     1
102
RTVSPropertyOp46
 70
     1
102
RTVSPropertyOp47
 70
     1
102
RTVSPropertyOp48
 70
     1
102
RTVSPropertyOp49
 70
     1
102
RTVSPropertyOp50
 70
     1
102
RTVSPropertyOp51
 70
     0
102
RTVSPropertyOp52
 70
     0
102
RTVSPropertyOp53
 70
     1
102
RTVSPropertyOp54
 70
     1
102
RTVSPropertyOp55
 70
     1
102
RTVSPropertyOp56
 70
     1
102
RTVSPropertyOp57
 70
     1
102
RTVSPropertyOp58
 70
     1
102
RTVSPropertyOp59
 70
     1
102
RTVSPropertyOp60
 70
     1
102
RTVSPropertyOp61
 70
     1
102
RTVSPropertyOp62
 70
     1
  0
XRECORD
  5
1F9F
102
{ACAD_REACTORS
330
1F9E
102
}
330
1F9E
100
AcDbXrecord
280
     1
102
RTVSPost2010Prop28
280
     0
102
RTVSPost2010PropOp28
 70
     1
102
RTVSPost2010Prop29
280
     1
102
RTVSPost2010PropOp29
 70
     1
102
RTVSPost2010Prop30
280
     1
102
RTVSPost2010PropOp30
 70
     1
102
RTVSPost2010Prop31
280
     0
102
RTVSPost2010PropOp31
 70
     1
102
RTVSPost2010Prop32
280
     0
102
RTVSPost2010PropOp32
 70
     1
102
RTVSPost2010Prop33
280
     0
102
RTVSPost2010PropOp33
 70
     1
102
RTVSPost2010Prop34
280
     0
102
RTVSPost2010PropOp34
 70
     1
102
RTVSPost2010Prop35
280
     0
102
RTVSPost2010PropOp35
 70
     1
102
RTVSPost2010Prop36
280
     0
102
RTVSPost2010PropOp36
 70
     1
102
RTVSPost2010Prop37
 90
       50
102
RTVSPost2010PropOp37
 70
     1
102
RTVSPost2010Prop38
140
0.0
102
RTVSPost2010PropOp38
 70
     1
102
RTVSPost2010Prop39
140
1.0
102
RTVSPost2010PropOp39
 70
     1
102
RTVSPost2010Prop40
 90
        0
102
RTVSPost2010PropOp40
 70
     1
102
RTVSPost2010Prop41ColorIndex
 90
       18
102
RTVSPost2010Prop41ColorRGB
 90
        0
102
RTVSPost2010PropOp41
 70
     1
102
RTVSPost2010Prop42
 90
       50
102
RTVSPost2010PropOp42
 70
     1
102
RTVSPost2010Prop43
 90
        3
102
RTVSPost2010PropOp43
 70
     1
102
RTVSPost2010Prop44ColorIndex
 90
        5
102
RTVSPost2010Prop44ColorRGB
 90
      255
102
RTVSPost2010PropOp44
 70
     1
102
RTVSPost2010Prop45
280
     0
102
RTVSPost2010PropOp45
 70
     1
102
RTVSPost2010Prop46
 90
       50
102
RTVSPost2010PropOp46
 70
     1
102
RTVSPost2010Prop47
 90
       50
102
RTVSPost2010PropOp47
 70
     1
102
RTVSPost2010Prop48
 90
       50
102
RTVSPost2010PropOp48
 70
     1
102
RTVSPost2010Prop49
280
     0
102
RTVSPost2010PropOp49
 70
     1
102
RTVSPost2010Prop50
 90
       50
102
RTVSPost2010PropOp50
 70
     1
102
RTVSPost2010Prop51ColorIndex
 90
      256
102
RTVSPost2010Prop51ColorRGB
 90
-16777216
102
RTVSPost2010PropOp51
 70
     0
102
RTVSPost2010Prop52
140
1.0
102
RTVSPost2010PropOp52
 70
     0
102
RTVSPost2010Prop53
 90
        2
102
RTVSPost2010PropOp53
 70
     1
102
RTVSPost2010Prop54
  1
strokes_ogs.tif
102
RTVSPost2010PropOp54
 70
     1
102
RTVSPost2010Prop55
280
     0
102
RTVSPost2010PropOp55
 70
     1
102
RTVSPost2010Prop56
140
1.0
102
RTVSPost2010PropOp56
 70
     1
102
RTVSPost2010Prop57
140
1.0
102
RTVSPost2010PropOp57
 70
     1
102
RTVSPropertyOp0
 70
     1
102
RTVSPropertyOp1
 70
     1
102
RTVSPropertyOp2
 70
     1
102
RTVSPropertyOp3
 70
     1
102
RTVSPropertyOp4
 70
     1
102
RTVSPropertyOp5
 70
     1
102
RTVSPropertyOp6
 70
     1
102
RTVSPropertyOp7
 70
     1
102
RTVSPropertyOp8
 70
     1
102
RTVSPropertyOp9
 70
     1
102
RTVSPropertyOp10
 70
     1
102
RTVSPropertyOp11
 70
     1
102
RTVSPropertyOp12
 70
     1
102
RTVSPropertyOp13
 70
     1
102
RTVSPropertyOp14
 70
     1
102
RTVSPropertyOp15
 70
     1
102
RTVSPropertyOp16
 70
     1
102
RTVSPropertyOp17
 70
     1
102
RTVSPropertyOp18
 70
     1
102
RTVSPropertyOp19
 70
     1
102
RTVSPropertyOp20
 70
     1
102
RTVSPropertyOp21
 70
     1
102
RTVSPropertyOp22
 70
     1
102
RTVSPropertyOp23
 70
     1
102
RTVSPropertyOp24
 70
     1
102
RTVSPropertyOp25
 70
     1
102
RTVSPropertyOp26
 70
     1
102
RTVSPropertyOp27
 70
     1
102
RTVSPropertyOp28
 70
     1
102
RTVSPropertyOp29
 70
     1
102
RTVSPropertyOp30
 70
     1
102
RTVSPropertyOp31
 70
     1
102
RTVSPropertyOp32
 70
     1
102
RTVSPropertyOp33
 70
     1
102
RTVSPropertyOp34
 70
     1
102
RTVSPropertyOp35
 70
     1
102
RTVSPropertyOp36
 70
     1
102
RTVSPropertyOp37
 70
     1
102
RTVSPropertyOp38
 70
     1
102
RTVSPropertyOp39
 70
     1
102
RTVSPropertyOp40
 70
     1
102
RTVSPropertyOp41
 70
     1
102
RTVSPropertyOp42
 70
     1
102
RTVSPropertyOp43
 70
     1
102
RTVSPropertyOp44
 70
     1
102
RTVSPropertyOp45
 70
     1
102
RTVSPropertyOp46
 70
     1
102
RTVSPropertyOp47
 70
     1
102
RTVSPropertyOp48
 70
     1
102
RTVSPropertyOp49
 70
     1
102
RTVSPropertyOp50
 70
     1
102
RTVSPropertyOp51
 70
     0
102
RTVSPropertyOp52
 70
     0
102
RTVSPropertyOp53
 70
     1
102
RTVSPropertyOp54
 70
     1
102
RTVSPropertyOp55
 70
     1
102
RTVSPropertyOp56
 70
     1
102
RTVSPropertyOp57
 70
     1
102
RTVSPropertyOp58
 70
     1
102
RTVSPropertyOp59
 70
     1
102
RTVSPropertyOp60
 70
     1
102
RTVSPropertyOp61
 70
     1
102
RTVSPropertyOp62
 70
     1
  0
XRECORD
  5
1FA1
102
{ACAD_REACTORS
330
1FA0
102
}
330
1FA0
100
AcDbXrecord
280
     1
102
RTVSPost2010Prop28
280
     0
102
RTVSPost2010PropOp28
 70
     1
102
RTVSPost2010Prop29
280
     1
102
RTVSPost2010PropOp29
 70
     1
102
RTVSPost2010Prop30
280
     1
102
RTVSPost2010PropOp30
 70
     1
102
RTVSPost2010Prop31
280
     0
102
RTVSPost2010PropOp31
 70
     1
102
RTVSPost2010Prop32
280
     0
102
RTVSPost2010PropOp32
 70
     1
102
RTVSPost2010Prop33
280
     0
102
RTVSPost2010PropOp33
 70
     1
102
RTVSPost2010Prop34
280
     0
102
RTVSPost2010PropOp34
 70
     1
102
RTVSPost2010Prop35
280
     0
102
RTVSPost2010PropOp35
 70
     1
102
RTVSPost2010Prop36
280
     0
102
RTVSPost2010PropOp36
 70
     1
102
RTVSPost2010Prop37
 90
       50
102
RTVSPost2010PropOp37
 70
     1
102
RTVSPost2010Prop38
140
0.0
102
RTVSPost2010PropOp38
 70
     1
102
RTVSPost2010Prop39
140
1.0
102
RTVSPost2010PropOp39
 70
     1
102
RTVSPost2010Prop40
 90
        0
102
RTVSPost2010PropOp40
 70
     1
102
RTVSPost2010Prop41ColorIndex
 90
       18
102
RTVSPost2010Prop41ColorRGB
 90
        0
102
RTVSPost2010PropOp41
 70
     1
102
RTVSPost2010Prop42
 90
       50
102
RTVSPost2010PropOp42
 70
     1
102
RTVSPost2010Prop43
 90
        3
102
RTVSPost2010PropOp43
 70
     1
102
RTVSPost2010Prop44ColorIndex
 90
        5
102
RTVSPost2010Prop44ColorRGB
 90
      255
102
RTVSPost2010PropOp44
 70
     1
102
RTVSPost2010Prop45
280
     0
102
RTVSPost2010PropOp45
 70
     1
102
RTVSPost2010Prop46
 90
       50
102
RTVSPost2010PropOp46
 70
     1
102
RTVSPost2010Prop47
 90
       50
102
RTVSPost2010PropOp47
 70
     1
102
RTVSPost2010Prop48
 90
       50
102
RTVSPost2010PropOp48
 70
     1
102
RTVSPost2010Prop49
280
     0
102
RTVSPost2010PropOp49
 70
     1
102
RTVSPost2010Prop50
 90
       50
102
RTVSPost2010PropOp50
 70
     1
102
RTVSPost2010Prop51ColorIndex
 90
      256
102
RTVSPost2010Prop51ColorRGB
 90
-16777216
102
RTVSPost2010PropOp51
 70
     0
102
RTVSPost2010Prop52
140
1.0
102
RTVSPost2010PropOp52
 70
     0
102
RTVSPost2010Prop53
 90
        2
102
RTVSPost2010PropOp53
 70
     1
102
RTVSPost2010Prop54
  1
strokes_ogs.tif
102
RTVSPost2010PropOp54
 70
     1
102
RTVSPost2010Prop55
280
     0
102
RTVSPost2010PropOp55
 70
     1
102
RTVSPost2010Prop56
140
1.0
102
RTVSPost2010PropOp56
 70
     1
102
RTVSPost2010Prop57
140
1.0
102
RTVSPost2010PropOp57
 70
     1
102
RTVSPropertyOp0
 70
     1
102
RTVSPropertyOp1
 70
     1
102
RTVSPropertyOp2
 70
     1
102
RTVSPropertyOp3
 70
     1
102
RTVSPropertyOp4
 70
     1
102
RTVSPropertyOp5
 70
     1
102
RTVSPropertyOp6
 70
     1
102
RTVSPropertyOp7
 70
     1
102
RTVSPropertyOp8
 70
     1
102
RTVSPropertyOp9
 70
     1
102
RTVSPropertyOp10
 70
     1
102
RTVSPropertyOp11
 70
     1
102
RTVSPropertyOp12
 70
     1
102
RTVSPropertyOp13
 70
     1
102
RTVSPropertyOp14
 70
     1
102
RTVSPropertyOp15
 70
     1
102
RTVSPropertyOp16
 70
     1
102
RTVSPropertyOp17
 70
     1
102
RTVSPropertyOp18
 70
     1
102
RTVSPropertyOp19
 70
     1
102
RTVSPropertyOp20
 70
     1
102
RTVSPropertyOp21
 70
     1
102
RTVSPropertyOp22
 70
     1
102
RTVSPropertyOp23
 70
     1
102
RTVSPropertyOp24
 70
     1
102
RTVSPropertyOp25
 70
     1
102
RTVSPropertyOp26
 70
     1
102
RTVSPropertyOp27
 70
     1
102
RTVSPropertyOp28
 70
     1
102
RTVSPropertyOp29
 70
     1
102
RTVSPropertyOp30
 70
     1
102
RTVSPropertyOp31
 70
     1
102
RTVSPropertyOp32
 70
     1
102
RTVSPropertyOp33
 70
     1
102
RTVSPropertyOp34
 70
     1
102
RTVSPropertyOp35
 70
     1
102
RTVSPropertyOp36
 70
     1
102
RTVSPropertyOp37
 70
     1
102
RTVSPropertyOp38
 70
     1
102
RTVSPropertyOp39
 70
     1
102
RTVSPropertyOp40
 70
     1
102
RTVSPropertyOp41
 70
     1
102
RTVSPropertyOp42
 70
     1
102
RTVSPropertyOp43
 70
     1
102
RTVSPropertyOp44
 70
     1
102
RTVSPropertyOp45
 70
     1
102
RTVSPropertyOp46
 70
     1
102
RTVSPropertyOp47
 70
     1
102
RTVSPropertyOp48
 70
     1
102
RTVSPropertyOp49
 70
     1
102
RTVSPropertyOp50
 70
     1
102
RTVSPropertyOp51
 70
     0
102
RTVSPropertyOp52
 70
     0
102
RTVSPropertyOp53
 70
     1
102
RTVSPropertyOp54
 70
     1
102
RTVSPropertyOp55
 70
     1
102
RTVSPropertyOp56
 70
     1
102
RTVSPropertyOp57
 70
     1
102
RTVSPropertyOp58
 70
     1
102
RTVSPropertyOp59
 70
     1
102
RTVSPropertyOp60
 70
     1
102
RTVSPropertyOp61
 70
     1
102
RTVSPropertyOp62
 70
     1
  0
XRECORD
  5
1F97
102
{ACAD_REACTORS
330
1F96
102
}
330
1F96
100
AcDbXrecord
280
     1
102
RTVSPost2010Prop28
280
     0
102
RTVSPost2010PropOp28
 70
     1
102
RTVSPost2010Prop29
280
     1
102
RTVSPost2010PropOp29
 70
     1
102
RTVSPost2010Prop30
280
     1
102
RTVSPost2010PropOp30
 70
     1
102
RTVSPost2010Prop31
280
     0
102
RTVSPost2010PropOp31
 70
     1
102
RTVSPost2010Prop32
280
     0
102
RTVSPost2010PropOp32
 70
     1
102
RTVSPost2010Prop33
280
     0
102
RTVSPost2010PropOp33
 70
     1
102
RTVSPost2010Prop34
280
     0
102
RTVSPost2010PropOp34
 70
     1
102
RTVSPost2010Prop35
280
     0
102
RTVSPost2010PropOp35
 70
     1
102
RTVSPost2010Prop36
280
     0
102
RTVSPost2010PropOp36
 70
     1
102
RTVSPost2010Prop37
 90
       50
102
RTVSPost2010PropOp37
 70
     1
102
RTVSPost2010Prop38
140
0.0
102
RTVSPost2010PropOp38
 70
     1
102
RTVSPost2010Prop39
140
1.0
102
RTVSPost2010PropOp39
 70
     1
102
RTVSPost2010Prop40
 90
        0
102
RTVSPost2010PropOp40
 70
     1
102
RTVSPost2010Prop41ColorIndex
 90
       18
102
RTVSPost2010Prop41ColorRGB
 90
        0
102
RTVSPost2010PropOp41
 70
     1
102
RTVSPost2010Prop42
 90
       50
102
RTVSPost2010PropOp42
 70
     1
102
RTVSPost2010Prop43
 90
        3
102
RTVSPost2010PropOp43
 70
     1
102
RTVSPost2010Prop44ColorIndex
 90
        5
102
RTVSPost2010Prop44ColorRGB
 90
      255
102
RTVSPost2010PropOp44
 70
     1
102
RTVSPost2010Prop45
280
     0
102
RTVSPost2010PropOp45
 70
     1
102
RTVSPost2010Prop46
 90
       50
102
RTVSPost2010PropOp46
 70
     1
102
RTVSPost2010Prop47
 90
       50
102
RTVSPost2010PropOp47
 70
     1
102
RTVSPost2010Prop48
 90
       50
102
RTVSPost2010PropOp48
 70
     1
102
RTVSPost2010Prop49
280
     0
102
RTVSPost2010PropOp49
 70
     1
102
RTVSPost2010Prop50
 90
       50
102
RTVSPost2010PropOp50
 70
     1
102
RTVSPost2010Prop51ColorIndex
 90
      256
102
RTVSPost2010Prop51ColorRGB
 90
-16777216
102
RTVSPost2010PropOp51
 70
     0
102
RTVSPost2010Prop52
140
1.0
102
RTVSPost2010PropOp52
 70
     0
102
RTVSPost2010Prop53
 90
        2
102
RTVSPost2010PropOp53
 70
     1
102
RTVSPost2010Prop54
  1
strokes_ogs.tif
102
RTVSPost2010PropOp54
 70
     1
102
RTVSPost2010Prop55
280
     0
102
RTVSPost2010PropOp55
 70
     1
102
RTVSPost2010Prop56
140
1.0
102
RTVSPost2010PropOp56
 70
     1
102
RTVSPost2010Prop57
140
1.0
102
RTVSPost2010PropOp57
 70
     1
102
RTVSPropertyOp0
 70
     1
102
RTVSPropertyOp1
 70
     1
102
RTVSPropertyOp2
 70
     1
102
RTVSPropertyOp3
 70
     1
102
RTVSPropertyOp4
 70
     1
102
RTVSPropertyOp5
 70
     1
102
RTVSPropertyOp6
 70
     1
102
RTVSPropertyOp7
 70
     1
102
RTVSPropertyOp8
 70
     1
102
RTVSPropertyOp9
 70
     1
102
RTVSPropertyOp10
 70
     1
102
RTVSPropertyOp11
 70
     1
102
RTVSPropertyOp12
 70
     1
102
RTVSPropertyOp13
 70
     1
102
RTVSPropertyOp14
 70
     1
102
RTVSPropertyOp15
 70
     1
102
RTVSPropertyOp16
 70
     1
102
RTVSPropertyOp17
 70
     1
102
RTVSPropertyOp18
 70
     1
102
RTVSPropertyOp19
 70
     1
102
RTVSPropertyOp20
 70
     1
102
RTVSPropertyOp21
 70
     1
102
RTVSPropertyOp22
 70
     1
102
RTVSPropertyOp23
 70
     1
102
RTVSPropertyOp24
 70
     1
102
RTVSPropertyOp25
 70
     1
102
RTVSPropertyOp26
 70
     1
102
RTVSPropertyOp27
 70
     1
102
RTVSPropertyOp28
 70
     1
102
RTVSPropertyOp29
 70
     1
102
RTVSPropertyOp30
 70
     1
102
RTVSPropertyOp31
 70
     1
102
RTVSPropertyOp32
 70
     1
102
RTVSPropertyOp33
 70
     1
102
RTVSPropertyOp34
 70
     1
102
RTVSPropertyOp35
 70
     1
102
RTVSPropertyOp36
 70
     1
102
RTVSPropertyOp37
 70
     1
102
RTVSPropertyOp38
 70
     1
102
RTVSPropertyOp39
 70
     1
102
RTVSPropertyOp40
 70
     1
102
RTVSPropertyOp41
 70
     1
102
RTVSPropertyOp42
 70
     1
102
RTVSPropertyOp43
 70
     1
102
RTVSPropertyOp44
 70
     1
102
RTVSPropertyOp45
 70
     1
102
RTVSPropertyOp46
 70
     1
102
RTVSPropertyOp47
 70
     1
102
RTVSPropertyOp48
 70
     1
102
RTVSPropertyOp49
 70
     1
102
RTVSPropertyOp50
 70
     1
102
RTVSPropertyOp51
 70
     0
102
RTVSPropertyOp52
 70
     0
102
RTVSPropertyOp53
 70
     1
102
RTVSPropertyOp54
 70
     1
102
RTVSPropertyOp55
 70
     1
102
RTVSPropertyOp56
 70
     1
102
RTVSPropertyOp57
 70
     1
102
RTVSPropertyOp58
 70
     1
102
RTVSPropertyOp59
 70
     1
102
RTVSPropertyOp60
 70
     1
102
RTVSPropertyOp61
 70
     1
102
RTVSPropertyOp62
 70
     1
  0
XRECORD
  5
1F8B
102
{ACAD_REACTORS
330
1F8A
102
}
330
1F8A
100
AcDbXrecord
280
     1
102
RTVSPost2010Prop28
280
     0
102
RTVSPost2010PropOp28
 70
     1
102
RTVSPost2010Prop29
280
     1
102
RTVSPost2010PropOp29
 70
     1
102
RTVSPost2010Prop30
280
     1
102
RTVSPost2010PropOp30
 70
     1
102
RTVSPost2010Prop31
280
     0
102
RTVSPost2010PropOp31
 70
     1
102
RTVSPost2010Prop32
280
     0
102
RTVSPost2010PropOp32
 70
     1
102
RTVSPost2010Prop33
280
     0
102
RTVSPost2010PropOp33
 70
     1
102
RTVSPost2010Prop34
280
     0
102
RTVSPost2010PropOp34
 70
     1
102
RTVSPost2010Prop35
280
     0
102
RTVSPost2010PropOp35
 70
     1
102
RTVSPost2010Prop36
280
     0
102
RTVSPost2010PropOp36
 70
     1
102
RTVSPost2010Prop37
 90
       50
102
RTVSPost2010PropOp37
 70
     1
102
RTVSPost2010Prop38
140
0.0
102
RTVSPost2010PropOp38
 70
     1
102
RTVSPost2010Prop39
140
1.0
102
RTVSPost2010PropOp39
 70
     1
102
RTVSPost2010Prop40
 90
        0
102
RTVSPost2010PropOp40
 70
     1
102
RTVSPost2010Prop41ColorIndex
 90
       18
102
RTVSPost2010Prop41ColorRGB
 90
        0
102
RTVSPost2010PropOp41
 70
     1
102
RTVSPost2010Prop42
 90
       50
102
RTVSPost2010PropOp42
 70
     1
102
RTVSPost2010Prop43
 90
        3
102
RTVSPost2010PropOp43
 70
     1
102
RTVSPost2010Prop44ColorIndex
 90
        5
102
RTVSPost2010Prop44ColorRGB
 90
      255
102
RTVSPost2010PropOp44
 70
     1
102
RTVSPost2010Prop45
280
     0
102
RTVSPost2010PropOp45
 70
     1
102
RTVSPost2010Prop46
 90
       50
102
RTVSPost2010PropOp46
 70
     1
102
RTVSPost2010Prop47
 90
       50
102
RTVSPost2010PropOp47
 70
     1
102
RTVSPost2010Prop48
 90
       50
102
RTVSPost2010PropOp48
 70
     1
102
RTVSPost2010Prop49
280
     0
102
RTVSPost2010PropOp49
 70
     1
102
RTVSPost2010Prop50
 90
       50
102
RTVSPost2010PropOp50
 70
     1
102
RTVSPost2010Prop51ColorIndex
 90
      256
102
RTVSPost2010Prop51ColorRGB
 90
-16777216
102
RTVSPost2010PropOp51
 70
     0
102
RTVSPost2010Prop52
140
1.0
102
RTVSPost2010PropOp52
 70
     0
102
RTVSPost2010Prop53
 90
        2
102
RTVSPost2010PropOp53
 70
     1
102
RTVSPost2010Prop54
  1
strokes_ogs.tif
102
RTVSPost2010PropOp54
 70
     1
102
RTVSPost2010Prop55
280
     0
102
RTVSPost2010PropOp55
 70
     1
102
RTVSPost2010Prop56
140
1.0
102
RTVSPost2010PropOp56
 70
     1
102
RTVSPost2010Prop57
140
1.0
102
RTVSPost2010PropOp57
 70
     1
102
RTVSPropertyOp0
 70
     1
102
RTVSPropertyOp1
 70
     1
102
RTVSPropertyOp2
 70
     1
102
RTVSPropertyOp3
 70
     1
102
RTVSPropertyOp4
 70
     1
102
RTVSPropertyOp5
 70
     1
102
RTVSPropertyOp6
 70
     1
102
RTVSPropertyOp7
 70
     1
102
RTVSPropertyOp8
 70
     1
102
RTVSPropertyOp9
 70
     1
102
RTVSPropertyOp10
 70
     1
102
RTVSPropertyOp11
 70
     1
102
RTVSPropertyOp12
 70
     1
102
RTVSPropertyOp13
 70
     1
102
RTVSPropertyOp14
 70
     1
102
RTVSPropertyOp15
 70
     1
102
RTVSPropertyOp16
 70
     1
102
RTVSPropertyOp17
 70
     1
102
RTVSPropertyOp18
 70
     1
102
RTVSPropertyOp19
 70
     1
102
RTVSPropertyOp20
 70
     1
102
RTVSPropertyOp21
 70
     1
102
RTVSPropertyOp22
 70
     1
102
RTVSPropertyOp23
 70
     1
102
RTVSPropertyOp24
 70
     1
102
RTVSPropertyOp25
 70
     1
102
RTVSPropertyOp26
 70
     1
102
RTVSPropertyOp27
 70
     1
102
RTVSPropertyOp28
 70
     1
102
RTVSPropertyOp29
 70
     1
102
RTVSPropertyOp30
 70
     1
102
RTVSPropertyOp31
 70
     1
102
RTVSPropertyOp32
 70
     1
102
RTVSPropertyOp33
 70
     1
102
RTVSPropertyOp34
 70
     1
102
RTVSPropertyOp35
 70
     1
102
RTVSPropertyOp36
 70
     1
102
RTVSPropertyOp37
 70
     1
102
RTVSPropertyOp38
 70
     1
102
RTVSPropertyOp39
 70
     1
102
RTVSPropertyOp40
 70
     1
102
RTVSPropertyOp41
 70
     1
102
RTVSPropertyOp42
 70
     1
102
RTVSPropertyOp43
 70
     1
102
RTVSPropertyOp44
 70
     1
102
RTVSPropertyOp45
 70
     1
102
RTVSPropertyOp46
 70
     1
102
RTVSPropertyOp47
 70
     1
102
RTVSPropertyOp48
 70
     1
102
RTVSPropertyOp49
 70
     1
102
RTVSPropertyOp50
 70
     1
102
RTVSPropertyOp51
 70
     0
102
RTVSPropertyOp52
 70
     0
102
RTVSPropertyOp53
 70
     1
102
RTVSPropertyOp54
 70
     1
102
RTVSPropertyOp55
 70
     1
102
RTVSPropertyOp56
 70
     1
102
RTVSPropertyOp57
 70
     1
102
RTVSPropertyOp58
 70
     1
102
RTVSPropertyOp59
 70
     1
102
RTVSPropertyOp60
 70
     1
102
RTVSPropertyOp61
 70
     1
102
RTVSPropertyOp62
 70
     1
  0
XRECORD
  5
1FA3
102
{ACAD_REACTORS
330
1FA2
102
}
330
1FA2
100
AcDbXrecord
280
     1
102
RTVSPost2010Prop28
280
     0
102
RTVSPost2010PropOp28
 70
     1
102
RTVSPost2010Prop29
280
     1
102
RTVSPost2010PropOp29
 70
     1
102
RTVSPost2010Prop30
280
     1
102
RTVSPost2010PropOp30
 70
     1
102
RTVSPost2010Prop31
280
     0
102
RTVSPost2010PropOp31
 70
     1
102
RTVSPost2010Prop32
280
     0
102
RTVSPost2010PropOp32
 70
     1
102
RTVSPost2010Prop33
280
     0
102
RTVSPost2010PropOp33
 70
     1
102
RTVSPost2010Prop34
280
     0
102
RTVSPost2010PropOp34
 70
     1
102
RTVSPost2010Prop35
280
     0
102
RTVSPost2010PropOp35
 70
     1
102
RTVSPost2010Prop36
280
     0
102
RTVSPost2010PropOp36
 70
     1
102
RTVSPost2010Prop37
 90
       50
102
RTVSPost2010PropOp37
 70
     1
102
RTVSPost2010Prop38
140
0.0
102
RTVSPost2010PropOp38
 70
     1
102
RTVSPost2010Prop39
140
1.0
102
RTVSPost2010PropOp39
 70
     1
102
RTVSPost2010Prop40
 90
        0
102
RTVSPost2010PropOp40
 70
     1
102
RTVSPost2010Prop41ColorIndex
 90
       18
102
RTVSPost2010Prop41ColorRGB
 90
        0
102
RTVSPost2010PropOp41
 70
     1
102
RTVSPost2010Prop42
 90
       50
102
RTVSPost2010PropOp42
 70
     1
102
RTVSPost2010Prop43
 90
        3
102
RTVSPost2010PropOp43
 70
     1
102
RTVSPost2010Prop44ColorIndex
 90
        5
102
RTVSPost2010Prop44ColorRGB
 90
      255
102
RTVSPost2010PropOp44
 70
     1
102
RTVSPost2010Prop45
280
     0
102
RTVSPost2010PropOp45
 70
     1
102
RTVSPost2010Prop46
 90
       50
102
RTVSPost2010PropOp46
 70
     1
102
RTVSPost2010Prop47
 90
       50
102
RTVSPost2010PropOp47
 70
     1
102
RTVSPost2010Prop48
 90
       50
102
RTVSPost2010PropOp48
 70
     1
102
RTVSPost2010Prop49
280
     0
102
RTVSPost2010PropOp49
 70
     1
102
RTVSPost2010Prop50
 90
       50
102
RTVSPost2010PropOp50
 70
     1
102
RTVSPost2010Prop51ColorIndex
 90
      256
102
RTVSPost2010Prop51ColorRGB
 90
-16777216
102
RTVSPost2010PropOp51
 70
     0
102
RTVSPost2010Prop52
140
1.0
102
RTVSPost2010PropOp52
 70
     0
102
RTVSPost2010Prop53
 90
        2
102
RTVSPost2010PropOp53
 70
     1
102
RTVSPost2010Prop54
  1
strokes_ogs.tif
102
RTVSPost2010PropOp54
 70
     1
102
RTVSPost2010Prop55
280
     0
102
RTVSPost2010PropOp55
 70
     1
102
RTVSPost2010Prop56
140
1.0
102
RTVSPost2010PropOp56
 70
     1
102
RTVSPost2010Prop57
140
1.0
102
RTVSPost2010PropOp57
 70
     1
102
RTVSPropertyOp0
 70
     1
102
RTVSPropertyOp1
 70
     1
102
RTVSPropertyOp2
 70
     1
102
RTVSPropertyOp3
 70
     1
102
RTVSPropertyOp4
 70
     1
102
RTVSPropertyOp5
 70
     1
102
RTVSPropertyOp6
 70
     1
102
RTVSPropertyOp7
 70
     1
102
RTVSPropertyOp8
 70
     1
102
RTVSPropertyOp9
 70
     1
102
RTVSPropertyOp10
 70
     1
102
RTVSPropertyOp11
 70
     1
102
RTVSPropertyOp12
 70
     1
102
RTVSPropertyOp13
 70
     1
102
RTVSPropertyOp14
 70
     1
102
RTVSPropertyOp15
 70
     1
102
RTVSPropertyOp16
 70
     1
102
RTVSPropertyOp17
 70
     1
102
RTVSPropertyOp18
 70
     1
102
RTVSPropertyOp19
 70
     1
102
RTVSPropertyOp20
 70
     1
102
RTVSPropertyOp21
 70
     1
102
RTVSPropertyOp22
 70
     1
102
RTVSPropertyOp23
 70
     1
102
RTVSPropertyOp24
 70
     1
102
RTVSPropertyOp25
 70
     1
102
RTVSPropertyOp26
 70
     1
102
RTVSPropertyOp27
 70
     1
102
RTVSPropertyOp28
 70
     1
102
RTVSPropertyOp29
 70
     1
102
RTVSPropertyOp30
 70
     1
102
RTVSPropertyOp31
 70
     1
102
RTVSPropertyOp32
 70
     1
102
RTVSPropertyOp33
 70
     1
102
RTVSPropertyOp34
 70
     1
102
RTVSPropertyOp35
 70
     1
102
RTVSPropertyOp36
 70
     1
102
RTVSPropertyOp37
 70
     1
102
RTVSPropertyOp38
 70
     1
102
RTVSPropertyOp39
 70
     1
102
RTVSPropertyOp40
 70
     1
102
RTVSPropertyOp41
 70
     1
102
RTVSPropertyOp42
 70
     1
102
RTVSPropertyOp43
 70
     1
102
RTVSPropertyOp44
 70
     1
102
RTVSPropertyOp45
 70
     1
102
RTVSPropertyOp46
 70
     1
102
RTVSPropertyOp47
 70
     1
102
RTVSPropertyOp48
 70
     1
102
RTVSPropertyOp49
 70
     1
102
RTVSPropertyOp50
 70
     1
102
RTVSPropertyOp51
 70
     0
102
RTVSPropertyOp52
 70
     0
102
RTVSPropertyOp53
 70
     1
102
RTVSPropertyOp54
 70
     1
102
RTVSPropertyOp55
 70
     1
102
RTVSPropertyOp56
 70
     1
102
RTVSPropertyOp57
 70
     1
102
RTVSPropertyOp58
 70
     1
102
RTVSPropertyOp59
 70
     1
102
RTVSPropertyOp60
 70
     1
102
RTVSPropertyOp61
 70
     1
102
RTVSPropertyOp62
 70
     1
  0
ENDSEC
  0
EOF
