  0
SECTION
  2
HEADER
  9
$ACADVER
  1
AC1018
  9
$ACADMAINTVER
 70
     2
  9
$DWGCODEPAGE
  3
ANSI_1252
  9
$INSBASE
 10
0.0
 20
0.0
 30
0.0
  9
$EXTMIN
 10
-0.02563359212877
 20
-0.0362532231533805
 30
-0.0000000349181948
  9
$EXTMAX
 10
420.0256375038029
 20
594.0362587553789
 30
0.0000000814935746
  9
$LIMMIN
 10
0.0
 20
0.0
  9
$LIMMAX
 10
419.9999999999999
 20
594.0000000000002
  9
$ORTHOMODE
 70
     1
  9
$REGENMODE
 70
     1
  9
$FILLMODE
 70
     1
  9
$QTEXTMODE
 70
     0
  9
$MIRRTEXT
 70
     1
  9
$LTSCALE
 40
20.0
  9
$ATTMODE
 70
     1
  9
$TEXTSIZE
 40
3.5
  9
$TRACEWID
 40
1.0
  9
$TEXTSTYLE
  7
STANDARD
  9
$CLAYER
  8
VOLL
  9
$CELTYPE
  6
ByLayer
  9
$CECOLOR
 62
   256
  9
$CELTSCALE
 40
1.0
  9
$DISPSILH
 70
     0
  9
$DIMSCALE
 40
2.0
  9
$DIMASZ
 40
3.5
  9
$DIMEXO
 40
1.0
  9
$DIMDLI
 40
7.0
  9
$DIMRND
 40
0.0
  9
$DIMDLE
 40
0.0
  9
$DIMEXE
 40
1.0
  9
$DIMTP
 40
0.0
  9
$DIMTM
 40
0.0
  9
$DIMTXT
 40
3.5
  9
$DIMCEN
 40
1.5
  9
$DIMTSZ
 40
0.0
  9
$DIMTOL
 70
     0
  9
$DIMLIM
 70
     0
  9
$DIMTIH
 70
     0
  9
$DIMTOH
 70
     0
  9
$DIMSE1
 70
     0
  9
$DIMSE2
 70
     0
  9
$DIMTAD
 70
     1
  9
$DIMZIN
 70
     8
  9
$DIMBLK
  1

  9
$DIMASO
 70
     1
  9
$DIMSHO
 70
     0
  9
$DIMPOST
  1

  9
$DIMAPOST
  1

  9
$DIMALT
 70
     0
  9
$DIMALTD
 70
     2
  9
$DIMALTF
 40
25.4
  9
$DIMLFAC
 40
1.0
  9
$DIMTOFL
 70
     1
  9
$DIMTVP
 40
0.0
  9
$DIMTIX
 70
     0
  9
$DIMSOXD
 70
     0
  9
$DIMSAH
 70
     0
  9
$DIMBLK1
  1

  9
$DIMBLK2
  1

  9
$DIMSTYLE
  2
Standard
  9
$DIMCLRD
 70
     0
  9
$DIMCLRE
 70
     0
  9
$DIMCLRT
 70
     1
  9
$DIMTFAC
 40
0.5142857142857144
  9
$DIMGAP
 40
1.5
  9
$DIMJUST
 70
     0
  9
$DIMSD1
 70
     0
  9
$DIMSD2
 70
     0
  9
$DIMTOLJ
 70
     1
  9
$DIMTZIN
 70
     8
  9
$DIMALTZ
 70
     8
  9
$DIMALTTZ
 70
     8
  9
$DIMUPT
 70
     0
  9
$DIMDEC
 70
     2
  9
$DIMTDEC
 70
     2
  9
$DIMALTU
 70
     2
  9
$DIMALTTD
 70
     2
  9
$DIMTXSTY
  7
STANDARD
  9
$DIMAUNIT
 70
     0
  9
$DIMADEC
 70
     2
  9
$DIMALTRND
 40
0.0
  9
$DIMAZIN
 70
     2
  9
$DIMDSEP
 70
    46
  9
$DIMATFIT
 70
     3
  9
$DIMFRAC
 70
     0
  9
$DIMLDRBLK
  1

  9
$DIMLUNIT
 70
     2
  9
$DIMLWD
 70
    -2
  9
$DIMLWE
 70
    -2
  9
$DIMTMOVE
 70
     0
  9
$LUNITS
 70
     2
  9
$LUPREC
 70
     2
  9
$SKETCHINC
 40
1.0
  9
$FILLETRAD
 40
0.0
  9
$AUNITS
 70
     0
  9
$AUPREC
 70
     0
  9
$MENU
  1
ACAD
  9
$ELEVATION
 40
0.0
  9
$PELEVATION
 40
0.0
  9
$THICKNESS
 40
0.0
  9
$LIMCHECK
 70
     0
  9
$CHAMFERA
 40
0.0
  9
$CHAMFERB
 40
0.0
  9
$CHAMFERC
 40
0.0
  9
$CHAMFERD
 40
0.0
  9
$SKPOLY
 70
     0
  9
$TDCREATE
 40
2455397.825393172
  9
$TDUCREATE
 40
2455397.783726505
  9
$TDUPDATE
 40
2455944.313714109
  9
$TDUUPDATE
 40
2455944.272047442
  9
$TDINDWG
 40
0.1976442824
  9
$TDUSRTIMER
 40
0.1976442824
  9
$USRTIMER
 70
     1
  9
$ANGBASE
 50
0.0
  9
$ANGDIR
 70
     0
  9
$PDMODE
 70
     0
  9
$PDSIZE
 40
0.0
  9
$PLINEWID
 40
0.0
  9
$SPLFRAME
 70
     0
  9
$SPLINETYPE
 70
     6
  9
$SPLINESEGS
 70
     8
  9
$HANDSEED
  5
D77
  9
$SURFTAB1
 70
     6
  9
$SURFTAB2
 70
     6
  9
$SURFTYPE
 70
     6
  9
$SURFU
 70
     6
  9
$SURFV
 70
     6
  9
$UCSBASE
  2

  9
$UCSNAME
  2

  9
$UCSORG
 10
0.0
 20
0.0
 30
0.0
  9
$UCSXDIR
 10
1.0
 20
0.0
 30
0.0
  9
$UCSYDIR
 10
0.0
 20
1.0
 30
0.0
  9
$UCSORTHOREF
  2

  9
$UCSORTHOVIEW
 70
     0
  9
$UCSORGTOP
 10
0.0
 20
0.0
 30
0.0
  9
$UCSORGBOTTOM
 10
0.0
 20
0.0
 30
0.0
  9
$UCSORGLEFT
 10
0.0
 20
0.0
 30
0.0
  9
$UCSORGRIGHT
 10
0.0
 20
0.0
 30
0.0
  9
$UCSORGFRONT
 10
0.0
 20
0.0
 30
0.0
  9
$UCSORGBACK
 10
0.0
 20
0.0
 30
0.0
  9
$PUCSBASE
  2

  9
$PUCSNAME
  2

  9
$PUCSORG
 10
0.0
 20
0.0
 30
0.0
  9
$PUCSXDIR
 10
1.0
 20
0.0
 30
0.0
  9
$PUCSYDIR
 10
0.0
 20
1.0
 30
0.0
  9
$PUCSORTHOREF
  2

  9
$PUCSORTHOVIEW
 70
     0
  9
$PUCSORGTOP
 10
0.0
 20
0.0
 30
0.0
  9
$PUCSORGBOTTOM
 10
0.0
 20
0.0
 30
0.0
  9
$PUCSORGLEFT
 10
0.0
 20
0.0
 30
0.0
  9
$PUCSORGRIGHT
 10
0.0
 20
0.0
 30
0.0
  9
$PUCSORGFRONT
 10
0.0
 20
0.0
 30
0.0
  9
$PUCSORGBACK
 10
0.0
 20
0.0
 30
0.0
  9
$USERI1
 70
     0
  9
$USERI2
 70
     0
  9
$USERI3
 70
     0
  9
$USERI4
 70
     0
  9
$USERI5
 70
     0
  9
$USERR1
 40
0.0
  9
$USERR2
 40
0.0
  9
$USERR3
 40
0.0
  9
$USERR4
 40
0.0
  9
$USERR5
 40
0.0
  9
$WORLDVIEW
 70
     1
  9
$SHADEDGE
 70
     3
  9
$SHADEDIF
 70
    70
  9
$TILEMODE
 70
     1
  9
$MAXACTVP
 70
    16
  9
$PINSBASE
 10
0.0
 20
0.0
 30
0.0
  9
$PLIMCHECK
 70
     0
  9
$PEXTMIN
 10
1.000000000000000E+20
 20
1.000000000000000E+20
 30
1.000000000000000E+20
  9
$PEXTMAX
 10
-1.000000000000000E+20
 20
-1.000000000000000E+20
 30
-1.000000000000000E+20
  9
$PLIMMIN
 10
0.0
 20
0.0
  9
$PLIMMAX
 10
12.0
 20
9.0
  9
$UNITMODE
 70
     0
  9
$VISRETAIN
 70
     0
  9
$PLINEGEN
 70
     0
  9
$PSLTSCALE
 70
     0
  9
$TREEDEPTH
 70
  3020
  9
$CMLSTYLE
  2
Standard
  9
$CMLJUST
 70
     0
  9
$CMLSCALE
 40
1.0
  9
$PROXYGRAPHICS
 70
     1
  9
$MEASUREMENT
 70
     0
  9
$CELWEIGHT
370
    -1
  9
$ENDCAPS
280
     0
  9
$JOINSTYLE
280
     0
  9
$LWDISPLAY
290
     0
  9
$INSUNITS
 70
     0
  9
$HYPERLINKBASE
  1

  9
$STYLESHEET
  1
monochrome 1.ctb
  9
$XEDIT
290
     1
  9
$CEPSNTYPE
380
     0
  9
$PSTYLEMODE
290
     1
  9
$FINGERPRINTGUID
  2
{D68B0D0D-A558-11D7-B632-000102183313}
  9
$VERSIONGUID
  2
{7038E366-FE6C-4169-A080-72204746DB2B}
  9
$EXTNAMES
290
     1
  9
$PSVPSCALE
 40
0.0
  9
$OLESTARTUP
290
     0
  9
$SORTENTS
280
   127
  9
$INDEXCTL
280
     0
  9
$HIDETEXT
280
     0
  9
$XCLIPFRAME
290
     0
  9
$HALOGAP
280
     0
  9
$OBSCOLOR
 70
   257
  9
$OBSLTYPE
280
     0
  9
$INTERSECTIONDISPLAY
280
     0
  9
$INTERSECTIONCOLOR
 70
   257
  9
$DIMASSOC
280
     1
  9
$PROJECTNAME
  1

  0
ENDSEC
  0
SECTION
  2
CLASSES
  0
CLASS
  1
ACDBDICTIONARYWDFLT
  2
AcDbDictionaryWithDefault
  3
ObjectDBX Classes
 90
        0
 91
        1
280
     0
281
     0
  0
CLASS
  1
DICTIONARYVAR
  2
AcDbDictionaryVar
  3
ObjectDBX Classes
 90
        0
 91
        2
280
     0
281
     0
  0
ENDSEC
  0
SECTION
  2
TABLES
  0
TABLE
  2
VPORT
  5
8
330
0
100
AcDbSymbolTable
 70
     3
  0
VPORT
  5
D76
330
8
100
AcDbSymbolTableRecord
100
AcDbViewportTableRecord
  2
*Active
 70
     0
 10
0.0
 20
0.0
 11
1.0
 21
1.0
 12
210.0
 22
297.0
 13
0.0
 23
0.0
 14
1.0
 24
1.0
 15
10.0
 25
10.0
 16
0.0
 26
0.0
 36
1.0
 17
0.0
 27
0.0
 37
0.0
 40
594.0
 41
1.352941176470588
 42
50.0
 43
0.0
 44
0.0
 50
0.0
 51
0.0
 71
     0
 72
  1500
 73
     1
 74
     0
 75
     0
 76
     0
 77
     0
 78
     0
281
     0
 65
     1
110
0.0
120
0.0
130
0.0
111
1.0
121
0.0
131
0.0
112
0.0
122
1.0
132
0.0
 79
     0
146
0.0
  0
ENDTAB
  0
TABLE
  2
LTYPE
  5
5
330
0
100
AcDbSymbolTable
 70
     2
  0
LTYPE
  5
13
330
5
100
AcDbSymbolTableRecord
100
AcDbLinetypeTableRecord
  2
ByBlock
 70
     0
  3

 72
    65
 73
     0
 40
0.0
  0
LTYPE
  5
14
330
5
100
AcDbSymbolTableRecord
100
AcDbLinetypeTableRecord
  2
ByLayer
 70
     0
  3

 72
    65
 73
     0
 40
0.0
  0
LTYPE
  5
15
330
5
100
AcDbSymbolTableRecord
100
AcDbLinetypeTableRecord
  2
Continuous
 70
     0
  3
Solid line
 72
    65
 73
     0
 40
0.0
  0
LTYPE
  5
25
330
5
100
AcDbSymbolTableRecord
100
AcDbLinetypeTableRecord
  2
STRICHPUNKT
 70
     0
  3
__ . __ . __ . __ . __ . __ . __ . __ . __ . __
 72
    65
 73
     4
 40
1.0
 49
0.5
 74
     0
 49
-0.25
 74
     0
 49
0.0
 74
     0
 49
-0.25
 74
     0
  0
ENDTAB
  0
TABLE
  2
LAYER
  5
2
330
0
100
AcDbSymbolTable
 70
     9
  0
LAYER
  5
10
330
2
100
AcDbSymbolTableRecord
100
AcDbLayerTableRecord
  2
0
 70
     0
 62
     7
  6
Continuous
370
    -3
390
F
  0
LAYER
  5
2B
330
2
100
AcDbSymbolTableRecord
100
AcDbLayerTableRecord
  2
VOLL
 70
     0
 62
     1
  6
Continuous
370
    -3
390
F
  0
LAYER
  5
2C
330
2
100
AcDbSymbolTableRecord
100
AcDbLayerTableRecord
  2
HILF
 70
     0
 62
     2
  6
Continuous
370
    -3
390
F
  0
LAYER
  5
2D
330
2
100
AcDbSymbolTableRecord
100
AcDbLayerTableRecord
  2
MITTEL
 70
     0
 62
     2
  6
STRICHPUNKT
370
    -3
390
F
  0
LAYER
  5
2F
330
2
100
AcDbSymbolTableRecord
100
AcDbLayerTableRecord
  2
BEM
 70
     0
 62
     7
  6
Continuous
370
    -3
390
F
  0
LAYER
  5
30
330
2
100
AcDbSymbolTableRecord
100
AcDbLayerTableRecord
  2
STEMPEL
 70
     0
 62
     3
  6
Continuous
370
    -3
390
F
  0
LAYER
  5
33
330
2
100
AcDbSymbolTableRecord
100
AcDbLayerTableRecord
  2
TEXT
 70
     0
 62
     7
  6
Continuous
370
    -3
390
F
  0
LAYER
  5
1A3
330
2
100
AcDbSymbolTableRecord
100
AcDbLayerTableRecord
  2
Defpoints
 70
     0
 62
     7
  6
Continuous
290
     0
370
    -3
390
F
  0
LAYER
  5
1A4
330
2
100
AcDbSymbolTableRecord
100
AcDbLayerTableRecord
  2
SCHRAFF
 70
     0
 62
     7
  6
Continuous
370
    -3
390
F
  0
ENDTAB
  0
TABLE
  2
STYLE
  5
3
330
0
100
AcDbSymbolTable
 70
     2
  0
STYLE
  5
11
330
3
100
AcDbSymbolTableRecord
100
AcDbTextStyleTableRecord
  2
STANDARD
 70
     0
 40
0.0
 41
0.8
 50
0.0
 71
     0
 42
3.5
  3
simplex.shx
  4

  0
STYLE
  5
24
330
3
100
AcDbSymbolTableRecord
100
AcDbTextStyleTableRecord
  2
GREEKS
 70
     0
 40
0.0
 41
0.8
 50
0.0
 71
     0
 42
2.5
  3
SIMPLEX.shx
  4

  0
ENDTAB
  0
TABLE
  2
VIEW
  5
6
330
0
100
AcDbSymbolTable
 70
     0
  0
ENDTAB
  0
TABLE
  2
UCS
  5
7
330
0
100
AcDbSymbolTable
 70
     0
  0
ENDTAB
  0
TABLE
  2
APPID
  5
9
330
0
100
AcDbSymbolTable
 70
     1
  0
APPID
  5
12
330
9
100
AcDbSymbolTableRecord
100
AcDbRegAppTableRecord
  2
ACAD
 70
     0
  0
ENDTAB
  0
TABLE
  2
DIMSTYLE
  5
A
330
0
100
AcDbSymbolTable
 70
     1
100
AcDbDimStyleTable
 71
     1
340
A2
  0
DIMSTYLE
105
A2
102
{ACAD_REACTORS
330
745
330
8D2
330
8DF
102
}
330
A
100
AcDbSymbolTableRecord
100
AcDbDimStyleTableRecord
  2
Standard
 70
     0
340
11
  0
ENDTAB
  0
TABLE
  2
BLOCK_RECORD
  5
1
330
0
100
AcDbSymbolTable
 70
     6
  0
BLOCK_RECORD
  5
1E
102
{ACAD_XDICTIONARY
360
DB
102
}
330
1
100
AcDbSymbolTableRecord
100
AcDbBlockTableRecord
  2
*Model_Space
340
21
  0
BLOCK_RECORD
  5
1A
102
{ACAD_XDICTIONARY
360
DD
102
}
330
1
100
AcDbSymbolTableRecord
100
AcDbBlockTableRecord
  2
*Paper_Space
340
1D
  0
BLOCK_RECORD
  5
22
330
1
100
AcDbSymbolTableRecord
100
AcDbBlockTableRecord
  2
LOGO
340
0
102
{BLKREFS
331
899
102
}
  0
BLOCK_RECORD
  5
762
330
1
100
AcDbSymbolTableRecord
100
AcDbBlockTableRecord
  2
*D1
340
0
  0
BLOCK_RECORD
  5
8D3
330
1
100
AcDbSymbolTableRecord
100
AcDbBlockTableRecord
  2
*D2
340
0
  0
BLOCK_RECORD
  5
8E0
330
1
100
AcDbSymbolTableRecord
100
AcDbBlockTableRecord
  2
*D3
340
0
  0
BLOCK_RECORD
  5
ADC
330
1
100
AcDbSymbolTableRecord
100
AcDbBlockTableRecord
  2
*X4
340
0
102
{BLKREFS
331
BBC
102
}
  0
ENDTAB
  0
ENDSEC
  0
SECTION
  2
BLOCKS
  0
BLOCK
  5
37
330
1E
100
AcDbEntity
  8
0
100
AcDbBlockBegin
  2
*Model_Space
 70
     0
 10
0.0
 20
0.0
 30
0.0
  3
*Model_Space
  1

  0
ENDBLK
  5
38
330
1E
100
AcDbEntity
  8
0
100
AcDbBlockEnd
  0
BLOCK
  5
35
330
1A
100
AcDbEntity
 67
     1
  8
0
100
AcDbBlockBegin
  2
*Paper_Space
 70
     0
 10
0.0
 20
0.0
 30
0.0
  3
*Paper_Space
  1

  0
ENDBLK
  5
36
330
1A
100
AcDbEntity
 67
     1
  8
0
100
AcDbBlockEnd
  0
BLOCK
  5
39
330
22
100
AcDbEntity
  8
0
100
AcDbBlockBegin
  2
LOGO
 70
     0
 10
0.0
 20
0.0
 30
0.0
  3
LOGO
  1

  0
ARC
  5
3A
330
22
100
AcDbEntity
  8
0
100
AcDbCircle
 10
11.59973089678112
 20
-9.271599258481501
 30
0.0
 40
4.5
100
AcDbArc
 50
270.0
 51
231.0575587310159
  0
LINE
  5
3B
330
22
100
AcDbEntity
  8
0
100
AcDbLine
 10
3.599730896781125
 20
-4.771599258481529
 30
0.0
 11
3.599730896781153
 21
-11.77159925848133
 31
0.0
  0
LINE
  5
3C
330
22
100
AcDbEntity
  8
0
100
AcDbLine
 10
2.599730896781125
 20
-4.771599258481529
 30
0.0
 11
2.599730896781153
 21
-11.77159925848133
 31
0.0
  0
CIRCLE
  5
3D
330
22
100
AcDbEntity
  8
0
100
AcDbCircle
 10
11.59973089678112
 20
-9.271599258481501
 30
0.0
 40
3.5
  0
ARC
  5
3E
330
22
100
AcDbEntity
  8
0
100
AcDbCircle
 10
31.59973089678115
 20
-9.271599258481472
 30
0.0
 40
4.5
100
AcDbArc
 50
270.0
 51
231.0575587310182
  0
LINE
  5
3F
330
22
100
AcDbEntity
  8
0
100
AcDbLine
 10
17.59973089678112
 20
-4.771599258481472
 30
0.0
 11
17.59973089678115
 21
-13.77159925848147
 31
0.0
  0
ARC
  5
40
330
22
100
AcDbEntity
  8
0
100
AcDbCircle
 10
22.59973089678116
 20
-7.271599258481472
 30
0.0
 40
2.5
100
AcDbArc
 50
293.1161887722295
 51
90.0
  0
CIRCLE
  5
41
330
22
100
AcDbEntity
  8
0
100
AcDbCircle
 10
31.59973089678115
 20
-9.271599258481472
 30
0.0
 40
3.5
  0
ARC
  5
42
330
22
100
AcDbEntity
  8
0
100
AcDbCircle
 10
4.599730896781153
 20
-11.77159925848133
 30
0.0
 40
1.0
100
AcDbArc
 50
180.0
 51
270.0
  0
ARC
  5
43
330
22
100
AcDbEntity
  8
0
100
AcDbCircle
 10
4.599730896781153
 20
-11.77159925848133
 30
0.0
 40
2.0
100
AcDbArc
 50
179.9999999999992
 51
270.0
  0
LINE
  5
44
330
22
100
AcDbEntity
  8
0
100
AcDbLine
 10
11.59973089678115
 20
-13.77159925848144
 30
0.0
 11
4.599730896781153
 21
-13.77159925848147
 31
0.0
  0
LINE
  5
45
330
22
100
AcDbEntity
  8
0
100
AcDbLine
 10
8.771303772034769
 20
-12.77159925848136
 30
0.0
 11
4.599730896781153
 21
-12.77159925848133
 31
0.0
  0
LINE
  5
46
330
22
100
AcDbEntity
  8
0
100
AcDbLine
 10
31.59973089678115
 20
-13.77159925848147
 30
0.0
 11
23.6715276665056
 21
-13.77159925848144
 31
0.0
  0
LINE
  5
47
330
22
100
AcDbEntity
  8
0
100
AcDbLine
 10
23.56565672307022
 20
-9.51278021337896
 30
0.0
 11
24.4388546544846
 21
-12.77159925848144
 31
0.0
  0
LINE
  5
48
330
22
100
AcDbEntity
  8
0
100
AcDbLine
 10
22.59973089678116
 20
-9.771599258481472
 30
0.0
 11
18.59973089678112
 21
-9.771599258481472
 31
0.0
  0
LINE
  5
49
330
22
100
AcDbEntity
  8
0
100
AcDbLine
 10
18.59973089678115
 20
-13.77159925848144
 30
0.0
 11
17.59973089678115
 21
-13.77159925848144
 31
0.0
  0
LINE
  5
4A
330
22
100
AcDbEntity
  8
0
100
AcDbLine
 10
18.59973089678115
 20
-9.771599258481472
 30
0.0
 11
18.59973089678115
 21
-13.77159925848144
 31
0.0
  0
LINE
  5
4B
330
22
100
AcDbEntity
  8
0
100
AcDbLine
 10
22.59973089678116
 20
-9.771599258481472
 30
0.0
 11
23.67152766650562
 21
-13.77159925848147
 31
0.0
  0
ARC
  5
4C
330
22
100
AcDbEntity
  8
0
100
AcDbCircle
 10
22.59973089678116
 20
-7.271599258481472
 30
0.0
 40
2.5
100
AcDbArc
 50
270.0
 51
270.0000000000007
  0
LINE
  5
4D
330
22
100
AcDbEntity
  8
0
100
AcDbLine
 10
28.77130377203494
 20
-12.77159925848147
 30
0.0
 11
24.43885465448463
 21
-12.77159925848144
 31
0.0
  0
LINE
  5
4E
330
22
100
AcDbEntity
  8
0
100
AcDbLine
 10
3.599730896781125
 20
-4.771599258481472
 30
0.0
 11
2.599730896781125
 21
-4.771599258481472
 31
0.0
  0
LINE
  5
4F
330
22
100
AcDbEntity
  8
0
100
AcDbLine
 10
22.59973089678116
 20
-8.771599258481472
 30
0.0
 11
18.59973089678115
 21
-8.771599258481472
 31
0.0
  0
LINE
  5
50
330
22
100
AcDbEntity
  8
0
100
AcDbLine
 10
22.59973089678116
 20
-5.771599258481472
 30
0.0
 11
18.59973089678115
 21
-5.771599258481472
 31
0.0
  0
LINE
  5
51
330
22
100
AcDbEntity
  8
0
100
AcDbLine
 10
22.59973089678116
 20
-4.771599258481472
 30
0.0
 11
17.59973089678115
 21
-4.771599258481472
 31
0.0
  0
LINE
  5
52
330
22
100
AcDbEntity
  8
0
100
AcDbLine
 10
18.59973089678115
 20
-5.771599258481472
 30
0.0
 11
18.59973089678115
 21
-8.771599258481472
 31
0.0
  0
ARC
  5
53
330
22
100
AcDbEntity
  8
0
100
AcDbCircle
 10
22.59973089678116
 20
-7.271599258481472
 30
0.0
 40
1.5
100
AcDbArc
 50
270.0
 51
90.0
  0
ENDBLK
  5
54
330
22
100
AcDbEntity
  8
0
100
AcDbBlockEnd
  0
BLOCK
  5
76C
330
762
100
AcDbEntity
  8
0
100
AcDbBlockBegin
  2
*D1
 70
     1
 10
0.0
 20
0.0
 30
0.0
  3
*D1
  1

  0
LINE
  5
9CE
330
762
100
AcDbEntity
  8
BEM
 62
     0
370
    -2
100
AcDbLine
 10
269.953414520691
 20
232.5488225554442
 30
0.0
 11
269.953414520691
 21
203.1108544854842
 31
0.0
  0
LINE
  5
9CF
330
762
100
AcDbEntity
  8
BEM
 62
     0
370
    -2
100
AcDbLine
 10
358.953414520691
 20
232.5488225554445
 30
0.0
 11
358.953414520691
 21
203.1108544854842
 31
0.0
  0
LINE
  5
9D0
330
762
100
AcDbEntity
  8
BEM
 62
     0
370
    -2
100
AcDbLine
 10
276.953414520691
 20
205.1108544854842
 30
0.0
 11
351.953414520691
 21
205.1108544854842
 31
0.0
  0
SOLID
  5
9D1
330
762
100
AcDbEntity
  8
BEM
 62
     0
100
AcDbTrace
 10
276.953414520691
 20
206.2775211521509
 30
0.0
 11
276.953414520691
 21
203.9441878188176
 31
0.0
 12
269.953414520691
 22
205.1108544854842
 32
0.0
 13
269.953414520691
 23
205.1108544854842
 33
0.0
  0
SOLID
  5
9D2
330
762
100
AcDbEntity
  8
BEM
 62
     0
100
AcDbTrace
 10
351.953414520691
 20
206.2775211521509
 30
0.0
 11
351.953414520691
 21
203.9441878188176
 31
0.0
 12
358.953414520691
 22
205.1108544854842
 32
0.0
 13
358.953414520691
 23
205.1108544854842
 33
0.0
  0
MTEXT
  5
9D3
330
762
100
AcDbEntity
  8
BEM
 62
     1
100
AcDbMText
 10
314.453414520691
 20
211.6108544854842
 30
0.0
 40
7.0
 41
0.0
 71
     5
 72
     1
  1
\A1;%%C89
 73
     1
 44
1.0
  0
POINT
  5
9D4
330
762
100
AcDbEntity
  8
Defpoints
 62
     0
100
AcDbPoint
 10
269.953414520691
 20
234.5488225554442
 30
0.0
  0
POINT
  5
9D5
330
762
100
AcDbEntity
  8
Defpoints
 62
     0
100
AcDbPoint
 10
358.953414520691
 20
234.5488225554445
 30
0.0
  0
POINT
  5
9D6
330
762
100
AcDbEntity
  8
Defpoints
 62
     0
100
AcDbPoint
 10
358.953414520691
 20
205.1108544854842
 30
0.0
  0
ENDBLK
  5
76D
330
762
100
AcDbEntity
  8
0
100
AcDbBlockEnd
  0
BLOCK
  5
8DD
330
8D3
100
AcDbEntity
  8
0
100
AcDbBlockBegin
  2
*D2
 70
     1
 10
0.0
 20
0.0
 30
0.0
  3
*D2
  1

  0
LINE
  5
9C5
330
8D3
100
AcDbEntity
  8
BEM
 62
     0
370
    -2
100
AcDbLine
 10
210.3321219931548
 20
227.6186800640984
 30
0.0
 11
232.6757133354021
 21
227.6186800640984
 31
0.0
  0
LINE
  5
9C6
330
8D3
100
AcDbEntity
  8
BEM
 62
     0
370
    -2
100
AcDbLine
 10
214.2038355681074
 20
527.6232089779437
 30
0.0
 11
232.6757133354022
 21
527.6232089779437
 31
0.0
  0
LINE
  5
9C7
330
8D3
100
AcDbEntity
  8
BEM
 62
     0
370
    -2
100
AcDbLine
 10
230.6757133354021
 20
234.6186800640984
 30
0.0
 11
230.6757133354022
 21
520.6232089779437
 31
0.0
  0
SOLID
  5
9C8
330
8D3
100
AcDbEntity
  8
BEM
 62
     0
100
AcDbTrace
 10
229.5090466687355
 20
234.6186800640984
 30
0.0
 11
231.8423800020688
 21
234.6186800640984
 31
0.0
 12
230.6757133354021
 22
227.6186800640984
 32
0.0
 13
230.6757133354021
 23
227.6186800640984
 33
0.0
  0
SOLID
  5
9C9
330
8D3
100
AcDbEntity
  8
BEM
 62
     0
100
AcDbTrace
 10
229.5090466687355
 20
520.6232089779437
 30
0.0
 11
231.8423800020688
 21
520.6232089779437
 31
0.0
 12
230.6757133354022
 22
527.6232089779437
 32
0.0
 13
230.6757133354022
 23
527.6232089779437
 33
0.0
  0
MTEXT
  5
9CA
330
8D3
100
AcDbEntity
  8
BEM
 62
     1
100
AcDbMText
 10
224.1757133354021
 20
377.6209445210211
 30
0.0
 40
7.0
 41
0.0
 71
     5
 72
     1
  1
\A1;300
 11
0.0000000000000001
 21
1.0
 31
0.0
 73
     1
 44
1.0
  0
POINT
  5
9CB
330
8D3
100
AcDbEntity
  8
Defpoints
 62
     0
100
AcDbPoint
 10
208.3321219931548
 20
227.6186800640984
 30
0.0
  0
POINT
  5
9CC
330
8D3
100
AcDbEntity
  8
Defpoints
 62
     0
100
AcDbPoint
 10
212.2038355681074
 20
527.6232089779437
 30
0.0
  0
POINT
  5
9CD
330
8D3
100
AcDbEntity
  8
Defpoints
 62
     0
100
AcDbPoint
 10
230.6757133354022
 20
527.6232089779437
 30
0.0
  0
ENDBLK
  5
8DE
330
8D3
100
AcDbEntity
  8
0
100
AcDbBlockEnd
  0
BLOCK
  5
8EA
330
8E0
100
AcDbEntity
  8
0
100
AcDbBlockBegin
  2
*D3
 70
     1
 10
0.0
 20
0.0
 30
0.0
  3
*D3
  1

  0
LINE
  5
9BC
330
8E0
100
AcDbEntity
  8
BEM
 62
     0
370
    -2
100
AcDbLine
 10
360.3471056160788
 20
227.6186800640983
 30
0.0
 11
382.7511874847382
 21
227.6186800640983
 31
0.0
  0
LINE
  5
9BD
330
8E0
100
AcDbEntity
  8
BEM
 62
     0
370
    -2
100
AcDbLine
 10
365.953414520691
 20
372.6186800640983
 30
0.0
 11
382.7511874847382
 21
372.6186800640983
 31
0.0
  0
LINE
  5
9BE
330
8E0
100
AcDbEntity
  8
BEM
 62
     0
370
    -2
100
AcDbLine
 10
380.7511874847382
 20
234.6186800640983
 30
0.0
 11
380.7511874847382
 21
365.6186800640983
 31
0.0
  0
SOLID
  5
9BF
330
8E0
100
AcDbEntity
  8
BEM
 62
     0
100
AcDbTrace
 10
379.5845208180716
 20
234.6186800640983
 30
0.0
 11
381.9178541514049
 21
234.6186800640983
 31
0.0
 12
380.7511874847382
 22
227.6186800640983
 32
0.0
 13
380.7511874847382
 23
227.6186800640983
 33
0.0
  0
SOLID
  5
9C0
330
8E0
100
AcDbEntity
  8
BEM
 62
     0
100
AcDbTrace
 10
379.5845208180716
 20
365.6186800640983
 30
0.0
 11
381.9178541514049
 21
365.6186800640983
 31
0.0
 12
380.7511874847382
 22
372.6186800640983
 32
0.0
 13
380.7511874847382
 23
372.6186800640983
 33
0.0
  0
MTEXT
  5
9C1
330
8E0
100
AcDbEntity
  8
BEM
 62
     1
100
AcDbMText
 10
374.2511874847382
 20
300.1186800640984
 30
0.0
 40
7.0
 41
0.0
 71
     5
 72
     1
  1
\A1;145
 11
0.0000000000000001
 21
1.0
 31
0.0
 73
     1
 44
1.0
  0
POINT
  5
9C2
330
8E0
100
AcDbEntity
  8
Defpoints
 62
     0
100
AcDbPoint
 10
358.3471056160788
 20
227.6186800640983
 30
0.0
  0
POINT
  5
9C3
330
8E0
100
AcDbEntity
  8
Defpoints
 62
     0
100
AcDbPoint
 10
363.953414520691
 20
372.6186800640983
 30
0.0
  0
POINT
  5
9C4
330
8E0
100
AcDbEntity
  8
Defpoints
 62
     0
100
AcDbPoint
 10
380.7511874847382
 20
372.6186800640983
 30
0.0
  0
ENDBLK
  5
8EB
330
8E0
100
AcDbEntity
  8
0
100
AcDbBlockEnd
  0
BLOCK
  5
ADD
330
ADC
100
AcDbEntity
  8
0
100
AcDbBlockBegin
  2
*X4
 70
     1
 10
0.0
 20
0.0
 30
0.0
  3
*X4
  1

  0
LINE
  5
ADE
330
ADC
100
AcDbEntity
  8
0
 62
     0
100
AcDbLine
 10
114.0108661118859
 20
242.3709516061339
 30
0.0
 11
112.4999999999999
 21
243.8818177180199
 31
0.0
  0
LINE
  5
ADF
330
ADC
100
AcDbEntity
  8
0
 62
     0
100
AcDbLine
 10
112.4999999999999
 20
243.8818177180199
 30
0.0
 11
111.0582948931114
 21
245.3235228249085
 31
0.0
  0
LINE
  5
AE0
330
ADC
100
AcDbEntity
  8
0
 62
     0
100
AcDbLine
 10
111.1824389871397
 20
242.3709516061339
 30
0.0
 11
108.1824389871398
 21
245.3709516061339
 31
0.0
  0
LINE
  5
AE1
330
ADC
100
AcDbEntity
  8
0
 62
     0
100
AcDbLine
 10
108.3540118623935
 20
242.3709516061339
 30
0.0
 11
106.3424990822021
 21
244.3824643863254
 31
0.0
  0
LINE
  5
AE2
330
ADC
100
AcDbEntity
  8
0
 62
     0
100
AcDbLine
 10
105.5255847376474
 20
242.3709516061339
 30
0.0
 11
103.5255847376472
 21
244.3709516061341
 31
0.0
  0
LINE
  5
AE3
330
ADC
100
AcDbEntity
  8
0
 62
     0
100
AcDbLine
 10
102.6971576129012
 20
242.3709516061339
 30
0.0
 11
100.697157612901
 21
244.3709516061341
 31
0.0
  0
LINE
  5
AE4
330
ADC
100
AcDbEntity
  8
0
 62
     0
100
AcDbLine
 10
99.86873048815501
 20
242.3709516061339
 30
0.0
 11
97.86873048815483
 21
244.3709516061341
 31
0.0
  0
LINE
  5
AE5
330
ADC
100
AcDbEntity
  8
0
 62
     0
100
AcDbLine
 10
97.04030336340887
 20
242.3709516061339
 30
0.0
 11
95.04030336340866
 21
244.3709516061341
 31
0.0
  0
LINE
  5
AE6
330
ADC
100
AcDbEntity
  8
0
 62
     0
100
AcDbLine
 10
94.21187623866266
 20
242.3709516061339
 30
0.0
 11
92.21187623866248
 21
244.3709516061341
 31
0.0
  0
LINE
  5
AE7
330
ADC
100
AcDbEntity
  8
0
 62
     0
100
AcDbLine
 10
91.38344911391648
 20
242.3709516061339
 30
0.0
 11
89.38344911391627
 21
244.3709516061341
 31
0.0
  0
LINE
  5
AE8
330
ADC
100
AcDbEntity
  8
0
 62
     0
100
AcDbLine
 10
88.55502198917028
 20
242.3709516061339
 30
0.0
 11
86.55502198917009
 21
244.3709516061341
 31
0.0
  0
LINE
  5
AE9
330
ADC
100
AcDbEntity
  8
0
 62
     0
100
AcDbLine
 10
85.72659486442409
 20
242.3709516061339
 30
0.0
 11
83.72659486442389
 21
244.3709516061341
 31
0.0
  0
LINE
  5
AEA
330
ADC
100
AcDbEntity
  8
0
 62
     0
100
AcDbLine
 10
82.89816773967791
 20
242.3709516061339
 30
0.0
 11
79.81912238910361
 21
245.4499969567082
 31
0.0
  0
LINE
  5
AEB
330
ADC
100
AcDbEntity
  8
0
 62
     0
100
AcDbLine
 10
79.83378537899951
 20
242.6069068420662
 30
0.0
 11
78.19992408208015
 21
244.2407681389855
 31
0.0
  0
LINE
  5
AEC
330
ADC
100
AcDbEntity
  8
0
 62
     0
100
AcDbLine
 10
75.06974061493171
 20
247.3709516061339
 30
0.0
 11
73.06974061493168
 21
249.370951606134
 31
0.0
  0
LINE
  5
AED
330
ADC
100
AcDbEntity
  8
0
 62
     0
100
AcDbLine
 10
72.24131349018553
 20
247.3709516061339
 30
0.0
 11
70.24131349018549
 21
249.370951606134
 31
0.0
  0
LINE
  5
AEE
330
ADC
100
AcDbEntity
  8
0
 62
     0
100
AcDbLine
 10
69.41288636543934
 20
247.3709516061339
 30
0.0
 11
67.41288636543931
 21
249.370951606134
 31
0.0
  0
LINE
  5
AEF
330
ADC
100
AcDbEntity
  8
0
 62
     0
100
AcDbLine
 10
66.58445924069315
 20
247.3709516061339
 30
0.0
 11
65.49999999999997
 21
248.4554108468271
 31
0.0
  0
LINE
  5
AF0
330
ADC
100
AcDbEntity
  8
0
 62
     0
100
AcDbLine
 10
55.27075074170837
 20
247.370951606134
 30
0.0
 11
53.60157402916463
 21
249.0401283186777
 31
0.0
  0
LINE
  5
AF1
330
ADC
100
AcDbEntity
  8
0
 62
     0
100
AcDbLine
 10
53.84069272362492
 20
245.9725824994712
 30
0.0
 11
52.22786958075037
 21
247.5854056423457
 31
0.0
  0
LINE
  5
AF2
330
ADC
100
AcDbEntity
  8
0
 62
     0
100
AcDbLine
 10
53.27500729867567
 20
243.7098407996742
 30
0.0
 11
51.62576504842862
 21
245.3590830499213
 31
0.0
  0
LINE
  5
AF3
330
ADC
100
AcDbEntity
  8
0
 62
     0
100
AcDbLine
 10
52.70932187372642
 20
241.4470990998773
 30
0.0
 11
51.06007962347937
 21
243.0963413501244
 31
0.0
  0
LINE
  5
AF4
330
ADC
100
AcDbEntity
  8
0
 62
     0
100
AcDbLine
 10
116.8392932366321
 20
242.3709516061339
 30
0.0
 11
114.839293236632
 21
244.3709516061341
 31
0.0
  0
LINE
  5
AF5
330
ADC
100
AcDbEntity
  8
0
 62
     0
100
AcDbLine
 10
119.6677203613783
 20
242.3709516061339
 30
0.0
 11
117.6677203613782
 21
244.3709516061341
 31
0.0
  0
LINE
  5
AF6
330
ADC
100
AcDbEntity
  8
0
 62
     0
100
AcDbLine
 10
122.4961474861245
 20
242.3709516061339
 30
0.0
 11
120.4961474861244
 21
244.3709516061341
 31
0.0
  0
LINE
  5
AF7
330
ADC
100
AcDbEntity
  8
0
 62
     0
100
AcDbLine
 10
125.3245746108707
 20
242.3709516061339
 30
0.0
 11
123.3245746108705
 21
244.3709516061341
 31
0.0
  0
LINE
  5
AF8
330
ADC
100
AcDbEntity
  8
0
 62
     0
100
AcDbLine
 10
128.1530017356169
 20
242.3709516061339
 30
0.0
 11
126.1530017356167
 21
244.3709516061341
 31
0.0
  0
LINE
  5
AF9
330
ADC
100
AcDbEntity
  8
0
 62
     0
100
AcDbLine
 10
130.9814288603631
 20
242.3709516061339
 30
0.0
 11
128.9814288603629
 21
244.3709516061341
 31
0.0
  0
LINE
  5
AFA
330
ADC
100
AcDbEntity
  8
0
 62
     0
100
AcDbLine
 10
133.8098559851092
 20
242.3709516061339
 30
0.0
 11
131.8098559851091
 21
244.3709516061341
 31
0.0
  0
LINE
  5
AFB
330
ADC
100
AcDbEntity
  8
0
 62
     0
100
AcDbLine
 10
136.6382831098554
 20
242.3709516061339
 30
0.0
 11
134.6382831098553
 21
244.3709516061341
 31
0.0
  0
LINE
  5
AFC
330
ADC
100
AcDbEntity
  8
0
 62
     0
100
AcDbLine
 10
139.4667102346016
 20
242.3709516061339
 30
0.0
 11
137.4667102346015
 21
244.3709516061341
 31
0.0
  0
LINE
  5
AFD
330
ADC
100
AcDbEntity
  8
0
 62
     0
100
AcDbLine
 10
142.2951373593478
 20
242.3709516061339
 30
0.0
 11
140.2951373593477
 21
244.3709516061341
 31
0.0
  0
LINE
  5
AFE
330
ADC
100
AcDbEntity
  8
0
 62
     0
100
AcDbLine
 10
144.964345628288
 20
242.53017046194
 30
0.0
 11
143.1235644840939
 21
244.3709516061341
 31
0.0
  0
LINE
  5
AFF
330
ADC
100
AcDbEntity
  8
0
 62
     0
100
AcDbLine
 10
146.5432229313168
 20
243.7797202836574
 30
0.0
 11
145.0725032286225
 21
245.2504399863517
 31
0.0
  0
LINE
  5
B00
330
ADC
100
AcDbEntity
  8
0
 62
     0
100
AcDbLine
 10
147.5428615427644
 20
245.6085087969559
 30
0.0
 11
146.0679492585008
 21
247.0834210812196
 31
0.0
  0
LINE
  5
B01
330
ADC
100
AcDbEntity
  8
0
 62
     0
100
AcDbLine
 10
148.6931052211474
 20
247.2866922433191
 30
0.0
 11
147.2461638248047
 21
248.7336336396618
 31
0.0
  0
LINE
  5
B02
330
ADC
100
AcDbEntity
  8
0
 62
     0
100
AcDbLine
 10
151.4372729830788
 20
247.3709516061339
 30
0.0
 11
149.4372729830788
 21
249.3709516061339
 31
0.0
  0
LINE
  5
B03
330
ADC
100
AcDbEntity
  8
0
 62
     0
100
AcDbLine
 10
154.265700107825
 20
247.3709516061339
 30
0.0
 11
152.265700107825
 21
249.3709516061339
 31
0.0
  0
LINE
  5
B04
330
ADC
100
AcDbEntity
  8
0
 62
     0
100
AcDbLine
 10
157.0941272325712
 20
247.3709516061339
 30
0.0
 11
155.0941272325712
 21
249.3709516061339
 31
0.0
  0
LINE
  5
B05
330
ADC
100
AcDbEntity
  8
0
 62
     0
100
AcDbLine
 10
159.4999999999999
 20
247.7935059634514
 30
0.0
 11
157.9225543573174
 21
249.3709516061339
 31
0.0
  0
LINE
  5
B06
330
ADC
100
AcDbEntity
  8
0
 62
     0
100
AcDbLine
 10
172.5754698853896
 20
240.3748903275541
 30
0.0
 11
172.5531504640091
 21
240.3972097489345
 31
0.0
  0
LINE
  5
B07
330
ADC
100
AcDbEntity
  8
0
 62
     0
100
AcDbLine
 10
174.3590785061722
 20
241.4197088315177
 30
0.0
 11
171.6103414224271
 21
244.1684459152628
 31
0.0
  0
LINE
  5
B08
330
ADC
100
AcDbEntity
  8
0
 62
     0
100
AcDbLine
 10
173.4162694645901
 20
245.190944997846
 30
0.0
 11
169.5
 21
249.1072144624361
 31
0.0
  0
ENDBLK
  5
B09
330
ADC
100
AcDbEntity
  8
0
100
AcDbBlockEnd
  0
ENDSEC
  0
SECTION
  2
ENTITIES
  0
TEXT
  5
24E
330
1E
100
AcDbEntity
  8
VOLL
100
AcDbText
 10
264.7033033393503
 20
194.5904804762389
 30
0.0
 40
1.8
  1

  7
GREEKS
100
AcDbText
  0
TEXT
  5
60E
330
1E
100
AcDbEntity
  8
VOLL
100
AcDbText
 10
586.8479967437134
 20
39.84115606137584
 30
0.0
 40
1.8
  1

  7
GREEKS
100
AcDbText
  0
LINE
  5
61A
330
1E
100
AcDbEntity
  8
MITTEL
100
AcDbLine
 10
164.438430897767
 20
532.6232089779475
 30
0.0
 11
164.438430897767
 21
222.6186800640984
 31
0.0
  0
LINE
  5
61B
330
1E
100
AcDbEntity
  8
STEMPEL
100
AcDbLine
 10
208.3321219931548
 20
227.6186800640984
 30
0.0
 11
120.544739802379
 21
227.6186800640985
 31
0.0
  0
TEXT
  5
61E
330
1E
100
AcDbEntity
  8
TEXT
 62
     1
100
AcDbText
 10
157.9776704219471
 20
501.173817997222
 30
0.0
 40
7.0
  1
DN80
 50
90.0
 41
0.8
  7
GREEKS
100
AcDbText
  0
LINE
  5
61F
330
1E
100
AcDbEntity
  8
STEMPEL
100
AcDbLine
 10
116.6730262274275
 20
527.6232089779455
 30
0.0
 11
212.2038355681074
 21
527.6232089779437
 31
0.0
  0
LINE
  5
620
330
1E
100
AcDbEntity
  8
STEMPEL
100
AcDbLine
 10
215.5384308977669
 20
515.0184575153734
 30
0.0
 11
215.5384308977669
 21
508.0596340353435
 31
0.0
  0
LINE
  5
621
330
1E
100
AcDbEntity
  8
STEMPEL
100
AcDbLine
 10
113.338430897767
 20
515.0184575153734
 30
0.0
 11
113.338430897767
 21
508.0596340353435
 31
0.0
  0
LINE
  5
625
330
1E
100
AcDbEntity
  8
HILF
100
AcDbLine
 10
121.1589297996704
 20
464.9891362075343
 30
0.0
 11
207.7179319958637
 21
464.9891362075343
 31
0.0
  0
LINE
  5
626
330
1E
100
AcDbEntity
  8
HILF
100
AcDbLine
 10
118.8495570873718
 20
470.1166979266899
 30
0.0
 11
210.0273047081622
 21
470.1166979266899
 31
0.0
  0
LINE
  5
627
330
1E
100
AcDbEntity
  8
HILF
100
AcDbLine
 10
118.1085442397642
 20
495.2603383973917
 30
0.0
 11
210.7683175557698
 21
495.2603383973917
 31
0.0
  0
LINE
  5
628
330
1E
100
AcDbEntity
  8
STEMPEL
100
AcDbLine
 10
116.838430897767
 20
492.2830759147493
 30
0.0
 11
116.838430897767
 21
473.0119353953615
 31
0.0
  0
ARC
  5
629
330
1E
100
AcDbEntity
  8
STEMPEL
100
AcDbCircle
 10
128.838430897767
 20
473.0119353953615
 30
0.0
 40
12.0
100
AcDbArc
 50
180.0
 51
212.328064122161
  0
ARC
  5
62A
330
1E
100
AcDbEntity
  8
STEMPEL
100
AcDbCircle
 10
111.9384308977671
 20
462.3166093133759
 30
0.0
 40
8.0
100
AcDbArc
 50
0.0
 51
32.32806412216098
  0
ARC
  5
62B
330
1E
100
AcDbEntity
  8
STEMPEL
100
AcDbCircle
 10
104.838430897767
 20
492.2830759147493
 30
0.0
 40
12.0
100
AcDbArc
 50
0.0
 51
25.30772309802218
  0
ARC
  5
62C
330
1E
100
AcDbEntity
  8
STEMPEL
100
AcDbCircle
 10
138.338430897767
 20
507.9913539871543
 30
0.0
 40
25.00009324312574
100
AcDbArc
 50
179.8435140456526
 51
205.0329424415661
  0
LINE
  5
62D
330
1E
100
AcDbEntity
  8
STEMPEL
100
AcDbLine
 10
212.0384308977671
 20
492.2830759147493
 30
0.0
 11
212.0384308977671
 21
473.0119353953615
 31
0.0
  0
ARC
  5
62E
330
1E
100
AcDbEntity
  8
STEMPEL
100
AcDbCircle
 10
200.038430897767
 20
473.0119353953615
 30
0.0
 40
12.0
100
AcDbArc
 50
327.671935877839
 51
0.0
  0
ARC
  5
62F
330
1E
100
AcDbEntity
  8
STEMPEL
100
AcDbCircle
 10
216.938430897767
 20
462.3166093133759
 30
0.0
 40
8.0
100
AcDbArc
 50
147.6719358778389
 51
180.0
  0
ARC
  5
630
330
1E
100
AcDbEntity
  8
STEMPEL
100
AcDbCircle
 10
224.0384308977671
 20
492.2830759147493
 30
0.0
 40
12.0
100
AcDbArc
 50
154.6922769019807
 51
180.0
  0
ARC
  5
631
330
1E
100
AcDbEntity
  8
STEMPEL
100
AcDbCircle
 10
190.5384308977669
 20
507.9913539871543
 30
0.0
 40
25.00009324312574
100
AcDbArc
 50
334.9670575584356
 51
0.1564859543473851
  0
ARC
  5
632
330
1E
100
AcDbEntity
  8
STEMPEL
100
AcDbCircle
 10
137.938430897767
 20
515.0184575153734
 30
0.0
 40
24.6
100
AcDbArc
 50
155.0000000000052
 51
180.0
  0
LINE
  5
633
330
1E
100
AcDbEntity
  8
STEMPEL
100
AcDbLine
 10
116.6730262274271
 20
527.6232089779445
 30
0.0
 11
115.6432593366655
 21
525.4148667541946
 31
0.0
  0
ARC
  5
634
330
1E
100
AcDbEntity
  8
STEMPEL
100
AcDbCircle
 10
190.9384308977669
 20
515.0184575153734
 30
0.0
 40
24.6
100
AcDbArc
 50
0.0
 51
24.99999999999048
  0
LINE
  5
635
330
1E
100
AcDbEntity
  8
STEMPEL
100
AcDbLine
 10
212.2038355681069
 20
527.6232089779445
 30
0.0
 11
213.2336024588685
 21
525.4148667541946
 31
0.0
  0
LINE
  5
636
330
1E
100
AcDbEntity
  8
HILF
100
AcDbLine
 10
207.338430897767
 20
234.6186800640984
 30
0.0
 11
121.5384308977669
 21
234.6186800640984
 31
0.0
  0
LINE
  5
637
330
1E
100
AcDbEntity
  8
STEMPEL
100
AcDbLine
 10
119.938430897767
 20
234.5488225554442
 30
0.0
 11
120.544739802379
 21
227.6186800640985
 31
0.0
  0
LINE
  5
638
330
1E
100
AcDbEntity
  8
STEMPEL
100
AcDbLine
 10
208.938430897767
 20
234.5488225554445
 30
0.0
 11
208.3321219931548
 21
227.6186800640984
 31
0.0
  0
LINE
  5
63D
330
1E
100
AcDbEntity
  8
STEMPEL
100
AcDbLine
 10
208.938430897767
 20
462.3166093133759
 30
0.0
 11
208.938430897767
 21
234.5488225554445
 31
0.0
  0
LINE
  5
63E
102
{ACAD_REACTORS
330
A2C
102
}
330
1E
100
AcDbEntity
  8
STEMPEL
100
AcDbLine
 10
119.9384308977671
 20
462.3166093133759
 30
0.0
 11
119.9384308977671
 21
419.7186800640984
 31
0.0
  0
DIMENSION
  5
745
330
1E
100
AcDbEntity
  8
BEM
100
AcDbDimension
  2
*D1
 10
358.953414520691
 20
205.1108544854842
 30
0.0
 11
314.453414520691
 21
211.6108544854842
 31
0.0
 70
    32
  1
%%C<>
 71
     5
 42
89.0
  3
Standard
100
AcDbAlignedDimension
 13
269.953414520691
 23
234.5488225554442
 33
0.0
 14
358.953414520691
 24
234.5488225554445
 34
0.0
100
AcDbRotatedDimension
1001
ACAD
1000
DSTYLE
1002
{
1070
    40
1040
2.0
1070
    41
1040
3.5
1070
    42
1040
1.0
1070
    43
1040
7.0
1070
    44
1040
1.0
1070
    73
1070
     0
1070
    74
1070
     0
1070
    77
1070
     1
1070
    78
1070
     8
1070
    79
1070
     2
1070
   140
1040
3.5
1070
   141
1040
1.5
1070
   146
1040
0.5142857142857144
1070
   147
1040
1.5
1070
   172
1070
     1
1070
   178
1070
     1
1070
   179
1070
     2
1070
   271
1070
     2
1070
   272
1070
     2
1070
   284
1070
     8
1070
   285
1070
     8
1070
   286
1070
     8
1002
}
  0
LINE
  5
746
330
1E
100
AcDbEntity
  8
STEMPEL
100
AcDbLine
 10
269.953414520691
 20
462.3166093133759
 30
0.0
 11
269.953414520691
 21
393.1308715608643
 31
0.0
  0
LINE
  5
747
330
1E
100
AcDbEntity
  8
STEMPEL
100
AcDbLine
 10
358.953414520691
 20
462.3166093133759
 30
0.0
 11
358.953414520691
 21
393.1308715608644
 31
0.0
  0
LINE
  5
748
330
1E
100
AcDbEntity
  8
STEMPEL
100
AcDbLine
 10
358.953414520691
 20
234.5488225554445
 30
0.0
 11
358.3471056160788
 21
227.6186800640983
 31
0.0
  0
LINE
  5
749
330
1E
100
AcDbEntity
  8
STEMPEL
100
AcDbLine
 10
269.953414520691
 20
234.5488225554442
 30
0.0
 11
270.559723425303
 21
227.6186800640985
 31
0.0
  0
LINE
  5
74A
330
1E
100
AcDbEntity
  8
HILF
100
AcDbLine
 10
357.353414520691
 20
234.6186800640984
 30
0.0
 11
271.5534145206909
 21
234.6186800640984
 31
0.0
  0
LINE
  5
74B
330
1E
100
AcDbEntity
  8
STEMPEL
100
AcDbLine
 10
362.2188191910309
 20
527.6232089779445
 30
0.0
 11
363.2485860817925
 21
525.4148667541946
 31
0.0
  0
ARC
  5
74C
330
1E
100
AcDbEntity
  8
STEMPEL
100
AcDbCircle
 10
340.9534145206909
 20
515.0184575153734
 30
0.0
 40
24.6
100
AcDbArc
 50
0.0
 51
24.99999999999048
  0
LINE
  5
74D
330
1E
100
AcDbEntity
  8
STEMPEL
100
AcDbLine
 10
266.6880098503511
 20
527.6232089779445
 30
0.0
 11
265.6582429595894
 21
525.4148667541946
 31
0.0
  0
ARC
  5
74E
330
1E
100
AcDbEntity
  8
STEMPEL
100
AcDbCircle
 10
287.953414520691
 20
515.0184575153734
 30
0.0
 40
24.6
100
AcDbArc
 50
155.0000000000052
 51
180.0
  0
ARC
  5
74F
330
1E
100
AcDbEntity
  8
STEMPEL
100
AcDbCircle
 10
340.5534145206909
 20
507.9913539871543
 30
0.0
 40
25.00009324312574
100
AcDbArc
 50
334.9670575584356
 51
0.1564859543473851
  0
ARC
  5
750
330
1E
100
AcDbEntity
  8
STEMPEL
100
AcDbCircle
 10
374.053414520691
 20
492.2830759147493
 30
0.0
 40
12.0
100
AcDbArc
 50
154.6922769019807
 51
180.0
  0
ARC
  5
751
330
1E
100
AcDbEntity
  8
STEMPEL
100
AcDbCircle
 10
366.953414520691
 20
462.3166093133759
 30
0.0
 40
8.0
100
AcDbArc
 50
147.6719358778389
 51
180.0
  0
ARC
  5
752
330
1E
100
AcDbEntity
  8
STEMPEL
100
AcDbCircle
 10
350.053414520691
 20
473.0119353953615
 30
0.0
 40
12.0
100
AcDbArc
 50
327.671935877839
 51
0.0
  0
LINE
  5
753
330
1E
100
AcDbEntity
  8
STEMPEL
100
AcDbLine
 10
362.0534145206911
 20
492.2830759147493
 30
0.0
 11
362.0534145206911
 21
473.0119353953615
 31
0.0
  0
ARC
  5
754
330
1E
100
AcDbEntity
  8
STEMPEL
100
AcDbCircle
 10
288.353414520691
 20
507.9913539871543
 30
0.0
 40
25.00009324312574
100
AcDbArc
 50
179.8435140456526
 51
205.0329424415661
  0
ARC
  5
755
330
1E
100
AcDbEntity
  8
STEMPEL
100
AcDbCircle
 10
254.853414520691
 20
492.2830759147493
 30
0.0
 40
12.0
100
AcDbArc
 50
0.0
 51
25.30772309802218
  0
ARC
  5
756
330
1E
100
AcDbEntity
  8
STEMPEL
100
AcDbCircle
 10
261.953414520691
 20
462.3166093133759
 30
0.0
 40
8.0
100
AcDbArc
 50
0.0
 51
32.32806412216098
  0
ARC
  5
757
330
1E
100
AcDbEntity
  8
STEMPEL
100
AcDbCircle
 10
278.853414520691
 20
473.0119353953615
 30
0.0
 40
12.0
100
AcDbArc
 50
180.0
 51
212.328064122161
  0
LINE
  5
758
330
1E
100
AcDbEntity
  8
STEMPEL
100
AcDbLine
 10
266.8534145206911
 20
492.2830759147493
 30
0.0
 11
266.8534145206911
 21
473.0119353953615
 31
0.0
  0
LINE
  5
759
330
1E
100
AcDbEntity
  8
HILF
100
AcDbLine
 10
268.1235278626882
 20
495.2603383973917
 30
0.0
 11
360.7833011786938
 21
495.2603383973917
 31
0.0
  0
LINE
  5
75A
330
1E
100
AcDbEntity
  8
HILF
100
AcDbLine
 10
268.8645407102959
 20
470.1166979266899
 30
0.0
 11
360.0422883310862
 21
470.1166979266899
 31
0.0
  0
LINE
  5
75B
330
1E
100
AcDbEntity
  8
HILF
100
AcDbLine
 10
271.1739134225943
 20
464.9891362075343
 30
0.0
 11
357.7329156187876
 21
464.9891362075343
 31
0.0
  0
LINE
  5
75C
330
1E
100
AcDbEntity
  8
STEMPEL
100
AcDbLine
 10
263.3534145206911
 20
515.0184575153734
 30
0.0
 11
263.3534145206911
 21
508.0596340353435
 31
0.0
  0
LINE
  5
75D
330
1E
100
AcDbEntity
  8
STEMPEL
100
AcDbLine
 10
365.5534145206909
 20
515.0184575153734
 30
0.0
 11
365.5534145206909
 21
508.0596340353435
 31
0.0
  0
LINE
  5
75E
330
1E
100
AcDbEntity
  8
STEMPEL
100
AcDbLine
 10
266.6880098503516
 20
527.6232089779455
 30
0.0
 11
362.2188191910313
 21
527.6232089779437
 31
0.0
  0
TEXT
  5
75F
330
1E
100
AcDbEntity
  8
TEXT
 62
     1
100
AcDbText
 10
307.9926540448711
 20
501.173817997222
 30
0.0
 40
7.0
  1
DN80
 50
90.0
 41
0.8
  7
GREEKS
100
AcDbText
  0
LINE
  5
760
330
1E
100
AcDbEntity
  8
STEMPEL
100
AcDbLine
 10
358.3471056160788
 20
227.6186800640983
 30
0.0
 11
270.559723425303
 21
227.6186800640985
 31
0.0
  0
LINE
  5
761
330
1E
100
AcDbEntity
  8
MITTEL
100
AcDbLine
 10
314.453414520691
 20
532.6232089779475
 30
0.0
 11
314.453414520691
 21
222.6186800640984
 31
0.0
  0
LINE
  5
77F
330
1E
100
AcDbEntity
  8
MITTEL
100
AcDbLine
 10
363.953414520691
 20
372.6186800640983
 30
0.0
 11
264.953414520691
 21
372.6186800640984
 31
0.0
  0
LINE
  5
780
330
1E
100
AcDbEntity
  8
MITTEL
100
AcDbLine
 10
164.438430897767
 20
372.6186800640983
 30
0.0
 11
102.338430897767
 21
372.6186800640984
 31
0.0
  0
LINE
  5
781
102
{ACAD_REACTORS
330
A2C
330
C1F
102
}
330
1E
100
AcDbEntity
  8
STEMPEL
100
AcDbLine
 10
114.338430897767
 20
418.1186800640984
 30
0.0
 11
114.338430897767
 21
327.1186800640984
 31
0.0
  0
LINE
  5
784
102
{ACAD_REACTORS
330
A2C
102
}
330
1E
100
AcDbEntity
  8
STEMPEL
100
AcDbLine
 10
115.9384308977669
 20
331.1186800640984
 30
0.0
 11
114.338430897767
 21
331.1186800640984
 31
0.0
  0
LINE
  5
785
102
{ACAD_REACTORS
330
A2C
102
}
330
1E
100
AcDbEntity
  8
STEMPEL
100
AcDbLine
 10
115.9384308977673
 20
414.1186800640984
 30
0.0
 11
114.338430897767
 21
414.1186800640984
 31
0.0
  0
LINE
  5
786
102
{ACAD_REACTORS
330
A2C
102
}
330
1E
100
AcDbEntity
  8
STEMPEL
100
AcDbLine
 10
115.9384308977671
 20
329.5186800640984
 30
0.0
 11
114.338430897767
 21
329.5186800640984
 31
0.0
  0
LINE
  5
787
102
{ACAD_REACTORS
330
A2C
102
}
330
1E
100
AcDbEntity
  8
STEMPEL
100
AcDbLine
 10
115.9384308977671
 20
415.7186800640984
 30
0.0
 11
114.338430897767
 21
415.7186800640984
 31
0.0
  0
LINE
  5
78A
102
{ACAD_REACTORS
330
A2C
102
}
330
1E
100
AcDbEntity
  8
STEMPEL
100
AcDbLine
 10
121.5384308977671
 20
443.4757242688198
 30
0.0
 11
121.538430897767
 21
419.7186800640984
 31
0.0
  0
LINE
  5
78B
102
{ACAD_REACTORS
330
A2C
102
}
330
1E
100
AcDbEntity
  8
STEMPEL
100
AcDbLine
 10
121.5384308977671
 20
325.5186800640984
 30
0.0
 11
121.5384308977671
 21
300.4051809363915
 31
0.0
  0
LINE
  5
794
102
{ACAD_REACTORS
330
A2C
102
}
330
1E
100
AcDbEntity
  8
STEMPEL
100
AcDbLine
 10
119.9384308977671
 20
325.5186800640984
 30
0.0
 11
119.938430897767
 21
234.5488225554442
 31
0.0
  0
ARC
  5
795
102
{ACAD_REACTORS
330
A2C
102
}
330
1E
100
AcDbEntity
  8
STEMPEL
100
AcDbCircle
 10
115.9384308977672
 20
419.7186800640984
 30
0.0
 40
4.0
100
AcDbArc
 50
270.0
 51
0.0
  0
ARC
  5
796
102
{ACAD_REACTORS
330
A2C
102
}
330
1E
100
AcDbEntity
  8
STEMPEL
100
AcDbCircle
 10
115.938430897767
 20
325.5186800640984
 30
0.0
 40
4.0
100
AcDbArc
 50
0.0
 51
89.99999999999969
  0
ARC
  5
797
102
{ACAD_REACTORS
330
A2C
102
}
330
1E
100
AcDbEntity
  8
STEMPEL
100
AcDbCircle
 10
115.938430897767
 20
325.5186800640984
 30
0.0
 40
5.599999999999999
100
AcDbArc
 50
0.0
 51
90.0
  0
ARC
  5
798
102
{ACAD_REACTORS
330
A2C
102
}
330
1E
100
AcDbEntity
  8
STEMPEL
100
AcDbCircle
 10
115.9384308977672
 20
419.7186800640984
 30
0.0
 40
5.599999999999999
100
AcDbArc
 50
270.0
 51
0.0
  0
LINE
  5
855
330
1E
100
AcDbEntity
  8
STEMPEL
100
AcDbLine
 10
410.0
 20
110.0
 30
0.0
 11
39.99999999999997
 21
110.0
 31
0.0
  0
LINE
  5
856
330
1E
100
AcDbEntity
  8
STEMPEL
100
AcDbLine
 10
136.0000000000001
 20
109.9999999999999
 30
0.0
 11
136.0
 21
9.999999999999971
 31
0.0
  0
LINE
  5
857
330
1E
100
AcDbEntity
  8
STEMPEL
100
AcDbLine
 10
220.0
 20
110.0
 30
0.0
 11
220.0
 21
9.999999999999971
 31
0.0
  0
LINE
  5
858
330
1E
100
AcDbEntity
  8
STEMPEL
100
AcDbLine
 10
332.0
 20
109.9999999999997
 30
0.0
 11
332.0
 21
40.0
 31
0.0
  0
LINE
  5
859
330
1E
100
AcDbEntity
  8
STEMPEL
100
AcDbLine
 10
135.9999999999999
 20
29.99999999999997
 30
0.0
 11
39.99999999999997
 21
29.99999999999997
 31
0.0
  0
LINE
  5
85A
330
1E
100
AcDbEntity
  8
STEMPEL
100
AcDbLine
 10
410.0
 20
40.0
 30
0.0
 11
136.0000000000001
 21
39.99999999999997
 31
0.0
  0
LINE
  5
85B
330
1E
100
AcDbEntity
  8
STEMPEL
100
AcDbLine
 10
410.0
 20
80.0
 30
0.0
 11
136.0000000000001
 21
79.99999999999994
 31
0.0
  0
LINE
  5
85C
330
1E
100
AcDbEntity
  8
VOLL
100
AcDbLine
 10
54.00000000000009
 20
110.0
 30
0.0
 11
53.99999999999997
 21
9.999999999999971
 31
0.0
  0
LINE
  5
85D
330
1E
100
AcDbEntity
  8
VOLL
100
AcDbLine
 10
94.00000000000011
 20
109.9999999999999
 30
0.0
 11
94.0
 21
9.999999999999971
 31
0.0
  0
LINE
  5
85E
330
1E
100
AcDbEntity
  8
VOLL
100
AcDbLine
 10
114.0000000000001
 20
109.9999999999999
 30
0.0
 11
114.0
 21
9.999999999999971
 31
0.0
  0
LINE
  5
85F
330
1E
100
AcDbEntity
  8
VOLL
100
AcDbLine
 10
154.0000000000001
 20
79.99999999999994
 30
0.0
 11
154.0000000000001
 21
39.99999999999997
 31
0.0
  0
LINE
  5
860
330
1E
100
AcDbEntity
  8
VOLL
100
AcDbLine
 10
180.0000000000001
 20
109.9999999999998
 30
0.0
 11
180.0
 21
39.99999999999997
 31
0.0
  0
LINE
  5
861
330
1E
100
AcDbEntity
  8
HILF
100
AcDbLine
 10
40.00000000000008
 20
100.0
 30
0.0
 11
136.0000000000001
 21
100.0
 31
0.0
  0
LINE
  5
862
330
1E
100
AcDbEntity
  8
HILF
100
AcDbLine
 10
40.00000000000008
 20
90.00000000000005
 30
0.0
 11
136.0000000000001
 21
90.00000000000005
 31
0.0
  0
LINE
  5
863
330
1E
100
AcDbEntity
  8
HILF
100
AcDbLine
 10
40.00000000000008
 20
79.99999999999994
 30
0.0
 11
136.0000000000001
 21
79.99999999999994
 31
0.0
  0
LINE
  5
864
330
1E
100
AcDbEntity
  8
HILF
100
AcDbLine
 10
40.00000000000008
 20
69.99999999999994
 30
0.0
 11
136.0000000000001
 21
69.99999999999994
 31
0.0
  0
LINE
  5
865
330
1E
100
AcDbEntity
  8
HILF
100
AcDbLine
 10
40.00000000000008
 20
59.99999999999997
 30
0.0
 11
136.0000000000001
 21
59.99999999999997
 31
0.0
  0
LINE
  5
866
330
1E
100
AcDbEntity
  8
HILF
100
AcDbLine
 10
40.00000000000008
 20
49.99999999999997
 30
0.0
 11
136.0000000000001
 21
49.99999999999997
 31
0.0
  0
LINE
  5
867
330
1E
100
AcDbEntity
  8
HILF
100
AcDbLine
 10
40.00000000000008
 20
39.99999999999997
 30
0.0
 11
136.0000000000001
 21
39.99999999999997
 31
0.0
  0
LINE
  5
868
330
1E
100
AcDbEntity
  8
HILF
100
AcDbLine
 10
136.0000000000001
 20
69.99999999999994
 30
0.0
 11
220.0
 21
69.99999999999994
 31
0.0
  0
LINE
  5
869
330
1E
100
AcDbEntity
  8
HILF
100
AcDbLine
 10
136.0000000000001
 20
59.99999999999997
 30
0.0
 11
220.0
 21
59.99999999999997
 31
0.0
  0
LINE
  5
86A
330
1E
100
AcDbEntity
  8
HILF
100
AcDbLine
 10
136.0000000000001
 20
49.99999999999997
 30
0.0
 11
220.0
 21
49.99999999999997
 31
0.0
  0
LINE
  5
86B
330
1E
100
AcDbEntity
  8
HILF
100
AcDbLine
 10
224.7736801096948
 20
84.03758247564139
 30
0.0
 11
324.8353916556311
 21
84.03758247564139
 31
0.0
  0
LINE
  5
86C
330
1E
100
AcDbEntity
  8
HILF
100
AcDbLine
 10
224.7736801096948
 20
69.99999999999994
 30
0.0
 11
324.835391655631
 21
69.99999999999994
 31
0.0
  0
LINE
  5
86D
330
1E
100
AcDbEntity
  8
HILF
100
AcDbLine
 10
224.7736801096948
 20
59.99999999999997
 30
0.0
 11
324.835391655631
 21
59.99999999999997
 31
0.0
  0
LINE
  5
86E
330
1E
100
AcDbEntity
  8
HILF
100
AcDbLine
 10
224.7736801096948
 20
49.99999999999997
 30
0.0
 11
324.835391655631
 21
49.99999999999997
 31
0.0
  0
LINE
  5
86F
330
1E
100
AcDbEntity
  8
VOLL
100
AcDbLine
 10
332.0
 20
60.0
 30
0.0
 11
410.0
 21
60.0
 31
0.0
  0
LINE
  5
870
330
1E
100
AcDbEntity
  8
HILF
100
AcDbLine
 10
336.7238616296993
 20
83.77983636955827
 30
0.0
 11
404.8588839326728
 21
83.77983636955827
 31
0.0
  0
LINE
  5
871
330
1E
100
AcDbEntity
  8
HILF
100
AcDbLine
 10
223.4909699289885
 20
14.89398258028314
 30
0.0
 11
404.8588839326728
 21
14.89398258028314
 31
0.0
  0
TEXT
  5
872
330
1E
100
AcDbEntity
  8
TEXT
100
AcDbText
 10
63.86165979631819
 20
18.67381894984132
 30
0.0
 40
4.0
  1
Änderung
 41
0.8
  7
GREEKS
 72
     1
 11
74.60451693917534
 21
18.67381894984132
 31
0.0
100
AcDbText
  0
TEXT
  5
873
330
1E
100
AcDbEntity
  8
TEXT
100
AcDbText
 10
143.5163572150377
 20
102.4620895087088
 30
0.0
 40
5.0
  1
Maßstab
 41
0.8
  7
GREEKS
100
AcDbText
  0
TEXT
  5
874
330
1E
100
AcDbEntity
  8
TEXT
100
AcDbText
 10
184.2858954734051
 20
102.4184168434819
 30
0.0
 40
5.0
  1
Zul. Abw.
 41
0.8
  7
GREEKS
100
AcDbText
  0
TEXT
  5
875
330
1E
100
AcDbEntity
  8
TEXT
100
AcDbText
 10
224.877940380901
 20
102.5489328011779
 30
0.0
 40
5.0
  1
Benennung
 41
0.8
  7
GREEKS
100
AcDbText
  0
TEXT
  5
876
330
1E
100
AcDbEntity
  8
TEXT
100
AcDbText
 10
336.178754957634
 20
102.3132034537136
 30
0.0
 40
5.0
  1
Zeichnungs Nr.
 41
0.8
  7
GREEKS
100
AcDbText
  0
TEXT
  5
877
330
1E
100
AcDbEntity
  8
TEXT
100
AcDbText
 10
224.742238391136
 20
30.84560570193057
 30
0.0
 40
5.0
  1
Bauvorhaben
 41
0.8
  7
GREEKS
100
AcDbText
  0
TEXT
  5
878
330
1E
100
AcDbEntity
  8
TEXT
100
AcDbText
 10
336.7238616296993
 20
73.1811823709997
 30
0.0
 40
5.0
  1
Ersatz für:
 41
0.8
  7
GREEKS
100
AcDbText
  0
TEXT
  5
879
330
1E
100
AcDbEntity
  8
TEXT
100
AcDbText
 10
48.26641107045756
 20
13.65465846027192
 30
0.0
 40
4.0
  1
Index
 50
90.0
 41
0.8
  7
GREEKS
100
AcDbText
  0
TEXT
  5
87A
330
1E
100
AcDbEntity
  8
TEXT
100
AcDbText
 10
100.0934676075481
 20
18.6715626933981
 30
0.0
 40
4.0
  1
Tag
 41
0.8
  7
GREEKS
 72
     1
 11
103.8268009408814
 21
18.6715626933981
 31
0.0
100
AcDbText
  0
TEXT
  5
87B
330
1E
100
AcDbEntity
  8
TEXT
100
AcDbText
 10
119.0122744386592
 20
18.59324216966408
 30
0.0
 40
4.0
  1
Name
 41
0.8
  7
GREEKS
 72
     1
 11
125.3360839624688
 21
18.59324216966408
 31
0.0
100
AcDbText
  0
TEXT
  5
87C
330
1E
100
AcDbEntity
  8
TEXT
100
AcDbText
 10
162.3311673153651
 20
73.31880501229926
 30
0.0
 40
4.0
  1
Tag
 41
0.8
  7
GREEKS
100
AcDbText
  0
TEXT
  5
87D
330
1E
100
AcDbEntity
  8
TEXT
100
AcDbText
 10
192.4626584226295
 20
73.30961091915225
 30
0.0
 40
4.0
  1
Name
 41
0.8
  7
GREEKS
100
AcDbText
  0
TEXT
  5
87E
330
1E
100
AcDbEntity
  8
TEXT
100
AcDbText
 10
137.5836127167615
 20
63.62990369617964
 30
0.0
 40
4.0
  1
Gez.
 41
0.8
  7
GREEKS
100
AcDbText
  0
TEXT
  5
87F
330
1E
100
AcDbEntity
  8
TEXT
100
AcDbText
 10
137.5515086571672
 20
53.68926291428377
 30
0.0
 40
4.0
  1
Gepr.
 41
0.8
  7
GREEKS
100
AcDbText
  0
TEXT
  5
880
330
1E
100
AcDbEntity
  8
TEXT
100
AcDbText
 10
137.6006777387304
 20
43.52946389649807
 30
0.0
 40
4.0
  1
Norm.
 41
0.8
  7
GREEKS
100
AcDbText
  0
LINE
  5
881
330
1E
100
AcDbEntity
  8
STEMPEL
100
AcDbLine
 10
49.99999999999989
 20
10.0
 30
0.0
 11
410.0
 21
10.0
 31
0.0
  0
TEXT
  5
882
330
1E
100
AcDbEntity
  8
TEXT
100
AcDbText
 10
337.2400861497006
 20
52.07416177878602
 30
0.0
 40
5.0
  1
ersetzt durch:
 41
0.8
  7
GREEKS
100
AcDbText
  0
LINE
  5
883
330
1E
100
AcDbEntity
  8
STEMPEL
100
AcDbLine
 10
410.0
 20
10.0
 30
0.0
 11
39.99999999999989
 21
10.0
 31
0.0
  0
LINE
  5
884
330
1E
100
AcDbEntity
  8
STEMPEL
100
AcDbLine
 10
410.0
 20
10.0
 30
0.0
 11
410.0
 21
584.0
 31
0.0
  0
LINE
  5
885
330
1E
100
AcDbEntity
  8
STEMPEL
100
AcDbLine
 10
40.0
 20
10.0
 30
0.0
 11
39.99999999999989
 21
584.0
 31
0.0
  0
LINE
  5
886
330
1E
100
AcDbEntity
  8
STEMPEL
100
AcDbLine
 10
410.0
 20
584.0
 30
0.0
 11
39.99999999999989
 21
584.0
 31
0.0
  0
LINE
  5
887
330
1E
100
AcDbEntity
  8
HILF
100
AcDbLine
 10
0.0
 20
0.0
 30
0.0
 11
-0.0000000000001137
 21
594.0
 31
0.0
  0
LINE
  5
888
330
1E
100
AcDbEntity
  8
HILF
100
AcDbLine
 10
419.9999999999999
 20
594.0000000000002
 30
0.0
 11
0.0
 21
594.0
 31
0.0
  0
LINE
  5
889
330
1E
100
AcDbEntity
  8
HILF
100
AcDbLine
 10
420.0
 20
0.0
 30
0.0
 11
0.0
 21
0.0
 31
0.0
  0
LINE
  5
88A
330
1E
100
AcDbEntity
  8
HILF
100
AcDbLine
 10
31.08767135713856
 20
297.0
 30
0.0
 11
0.0000000000001137
 21
297.0
 31
0.0
  0
TEXT
  5
88B
330
1E
100
AcDbEntity
  8
TEXT
100
AcDbText
 10
138.622109822104
 20
73.14025471151666
 30
0.0
 40
4.0
  1
2012
 41
0.8
  7
GREEKS
100
AcDbText
  0
LINE
  5
88C
330
1E
100
AcDbEntity
  8
HILF
100
AcDbLine
 10
420.0
 20
-0.0000000000001137
 30
0.0
 11
419.9999999999999
 21
594.0
 31
0.0
  0
TEXT
  5
88D
330
1E
100
AcDbEntity
  8
VOLL
100
AcDbText
 10
156.1535094339622
 20
62.05189552941169
 30
0.0
 40
3.6
  1

  7
GREEKS
100
AcDbText
  0
TEXT
  5
88E
330
1E
100
AcDbEntity
  8
TEXT
100
AcDbText
 10
41.85509950977674
 20
111.6719999999999
 30
0.0
 40
5.0
  1
Erstellt mit AUTOCAD 2004
 41
0.8
  7
GREEKS
100
AcDbText
  0
TEXT
  5
88F
330
1E
100
AcDbEntity
  8
TEXT
100
AcDbText
 10
194.4216048581257
 20
63.0896391972351
 30
0.0
 40
4.0
  1
Koeh
 41
0.8
  7
GREEKS
 72
     1
 11
199.6787477152685
 21
63.0896391972351
 31
0.0
100
AcDbText
  0
TEXT
  5
890
330
1E
100
AcDbEntity
  8
TEXT
 62
     1
100
AcDbText
 10
348.2001810397053
 20
88.14901428913959
 30
0.0
 40
7.0
  1
5550080W
 41
0.8
  7
GREEKS
 72
     1
 11
369.5335143730387
 21
88.14901428913959
 31
0.0
100
AcDbText
  0
TEXT
  5
891
330
1E
100
AcDbEntity
  8
TEXT
 62
     1
100
AcDbText
 10
150.5006306481887
 20
88.14901428913959
 30
0.0
 40
7.0
  1
1:2
 41
0.8
  7
GREEKS
100
AcDbText
  0
TEXT
  5
892
330
1E
100
AcDbEntity
  8
TEXT
100
AcDbText
 10
161.0085209177598
 20
63.10765040825732
 30
0.0
 40
4.0
  1
17.01.
 41
0.8
  7
GREEKS
 72
     1
 11
167.4085209177598
 21
63.10765040825732
 31
0.0
100
AcDbText
  0
TEXT
  5
893
330
1E
100
AcDbEntity
  8
TEXT
 62
     1
100
AcDbText
 10
226.8935731057402
 20
87.41748789253779
 30
0.0
 40
7.0
  1
Reinigungsrohr DN80
 41
0.8
  7
GREEKS
100
AcDbText
  0
TEXT
  5
896
330
1E
100
AcDbEntity
  8
TEXT
100
AcDbText
 10
225.1296391125315
 20
51.64011943042158
 30
0.0
 40
5.0
  1
EDV-Art.Nr. 5.550.080C
 41
0.8
  7
GREEKS
100
AcDbText
  0
TEXT
  5
897
330
1E
100
AcDbEntity
  8
TEXT
100
AcDbText
 10
224.9837501577827
 20
42.62974153022632
 30
0.0
 40
4.0
  1
5550080W.DWG
 41
0.8
  7
GREEKS
100
AcDbText
  0
TEXT
  5
898
330
1E
100
AcDbEntity
  8
TEXT
100
AcDbText
 10
182.626132208084
 20
90.76363841023022
 30
0.0
 40
4.0
  1
DIN EN1123-2
 41
0.8
  7
GREEKS
 72
     1
 11
199.6166083985602
 21
90.76363841023022
 31
0.0
100
AcDbText
  0
INSERT
  5
899
330
1E
100
AcDbEntity
  8
STEMPEL
100
AcDbBlockReference
  2
LOGO
 10
140.9955485457794
 20
45.02105276448322
 30
0.0
 41
2.0
 42
2.0
 43
2.0
  0
TEXT
  5
89A
330
1E
100
AcDbEntity
  8
BEM
100
AcDbText
 10
417.3022923857165
 20
10.16790107998849
 30
0.0
 40
4.0
  1
Diese Zeichnung ist urheberrechtlich geschützt und bleibt unser Eigentum. Sie darf weder ganz noch teilweise verfielfältigt und nicht an Dritte weitergegeben werden.
 50
90.0
 41
0.8
  7
GREEKS
100
AcDbText
  0
DIMENSION
  5
8D2
330
1E
100
AcDbEntity
  8
BEM
100
AcDbDimension
  2
*D2
 10
230.6757133354022
 20
527.6232089779437
 30
0.0
 11
224.1757133354021
 21
377.6209445210211
 31
0.0
 70
    32
 71
     5
 42
300.0045289138453
  3
Standard
100
AcDbAlignedDimension
 13
208.3321219931548
 23
227.6186800640984
 33
0.0
 14
212.2038355681074
 24
527.6232089779437
 34
0.0
 50
90.0
100
AcDbRotatedDimension
1001
ACAD
1000
DSTYLE
1002
{
1070
    40
1040
2.0
1070
    41
1040
3.5
1070
    42
1040
1.0
1070
    43
1040
7.0
1070
    44
1040
1.0
1070
    73
1070
     0
1070
    74
1070
     0
1070
    77
1070
     1
1070
    78
1070
     8
1070
    79
1070
     2
1070
   140
1040
3.5
1070
   141
1040
1.5
1070
   146
1040
0.5142857142857144
1070
   147
1040
1.5
1070
   172
1070
     1
1070
   178
1070
     1
1070
   179
1070
     2
1070
   271
1070
     2
1070
   272
1070
     2
1070
   284
1070
     8
1070
   285
1070
     8
1070
   286
1070
     8
1002
}
  0
DIMENSION
  5
8DF
330
1E
100
AcDbEntity
  8
BEM
100
AcDbDimension
  2
*D3
 10
380.7511874847382
 20
372.6186800640983
 30
0.0
 11
374.2511874847382
 21
300.1186800640984
 31
0.0
 70
    32
 71
     5
 42
145.0
  3
Standard
100
AcDbAlignedDimension
 13
358.3471056160788
 23
227.6186800640983
 33
0.0
 14
363.953414520691
 24
372.6186800640983
 34
0.0
 50
90.0
100
AcDbRotatedDimension
1001
ACAD
1000
DSTYLE
1002
{
1070
    40
1040
2.0
1070
    41
1040
3.5
1070
    42
1040
1.0
1070
    43
1040
7.0
1070
    44
1040
1.0
1070
    73
1070
     0
1070
    74
1070
     0
1070
    77
1070
     1
1070
    78
1070
     8
1070
    79
1070
     2
1070
   140
1040
3.5
1070
   141
1040
1.5
1070
   146
1040
0.5142857142857144
1070
   147
1040
1.5
1070
   172
1070
     1
1070
   178
1070
     1
1070
   179
1070
     2
1070
   271
1070
     2
1070
   272
1070
     2
1070
   284
1070
     8
1070
   285
1070
     8
1070
   286
1070
     8
1002
}
  0
LINE
  5
8F4
330
1E
100
AcDbEntity
  8
MITTEL
100
AcDbLine
 10
119.9384308977671
 20
424.6186800640983
 30
0.0
 11
94.33843089776702
 21
424.6186800640984
 31
0.0
  0
LINE
  5
90D
330
1E
100
AcDbEntity
  8
HILF
100
AcDbLine
 10
119.9384308977671
 20
427.6186800640983
 30
0.0
 11
107.338430897767
 21
427.6186800640984
 31
0.0
  0
LINE
  5
90E
330
1E
100
AcDbEntity
  8
HILF
100
AcDbLine
 10
119.9384308977671
 20
421.6186800640984
 30
0.0
 11
107.338430897767
 21
421.6186800640983
 31
0.0
  0
LINE
  5
90F
330
1E
100
AcDbEntity
  8
STEMPEL
100
AcDbLine
 10
119.9384308977671
 20
428.6186800640983
 30
0.0
 11
107.338430897767
 21
428.6186800640983
 31
0.0
  0
LINE
  5
910
330
1E
100
AcDbEntity
  8
STEMPEL
100
AcDbLine
 10
119.9384308977671
 20
420.6186800640983
 30
0.0
 11
107.338430897767
 21
420.6186800640985
 31
0.0
  0
LINE
  5
917
330
1E
100
AcDbEntity
  8
STEMPEL
100
AcDbLine
 10
119.938430897767
 20
324.6186800640984
 30
0.0
 11
107.338430897767
 21
324.6186800640984
 31
0.0
  0
LINE
  5
918
330
1E
100
AcDbEntity
  8
STEMPEL
100
AcDbLine
 10
119.938430897767
 20
316.6186800640984
 30
0.0
 11
107.338430897767
 21
316.6186800640984
 31
0.0
  0
LINE
  5
919
330
1E
100
AcDbEntity
  8
HILF
100
AcDbLine
 10
119.938430897767
 20
323.6186800640985
 30
0.0
 11
107.338430897767
 21
323.6186800640985
 31
0.0
  0
LINE
  5
91A
330
1E
100
AcDbEntity
  8
HILF
100
AcDbLine
 10
119.938430897767
 20
317.6186800640985
 30
0.0
 11
107.338430897767
 21
317.6186800640985
 31
0.0
  0
LINE
  5
91C
330
1E
100
AcDbEntity
  8
MITTEL
100
AcDbLine
 10
119.938430897767
 20
320.6186800640984
 30
0.0
 11
94.33843089776726
 21
320.6186800640984
 31
0.0
  0
LINE
  5
93F
330
1E
100
AcDbEntity
  8
HILF
100
AcDbLine
 10
121.0295997223103
 20
414.6275112395552
 30
0.0
 11
164.438430897767
 21
372.6186800640983
 31
0.0
  0
LINE
  5
940
330
1E
100
AcDbEntity
  8
HILF
100
AcDbLine
 10
164.438430897767
 20
372.6186800640983
 30
0.0
 11
121.0295997223101
 21
330.6098488886415
 31
0.0
  0
SPLINE
  5
9E6
102
{ACAD_REACTORS
330
A2C
102
}
330
1E
100
AcDbEntity
  8
HILF
100
AcDbSpline
210
0.0
220
0.0
230
1.0
 70
     8
 71
     3
 72
    12
 73
     8
 74
     0
 42
0.0000000001
 43
0.0000000001
 40
4.128654811007312
 40
4.128654811007312
 40
4.128654811007312
 40
4.128654811007312
 40
29.37422943231415
 40
72.58420633840865
 40
121.4504728801434
 40
161.1852731972503
 40
177.1200142969379
 40
177.1200142969379
 40
177.1200142969379
 40
177.1200142969379
 10
119.9384308977671
 20
444.2965711413116
 30
0.0
 10
127.7813931546318
 20
440.3060031655492
 30
0.0
 10
148.1712535145381
 20
428.7800766110931
 30
0.0
 10
154.1190772885983
 20
385.7113738653574
 30
0.0
 10
159.6021209320777
 20
343.820554891292
 30
0.0
 10
142.8941451974577
 20
306.7616587977126
 30
0.0
 10
125.2498704421595
 20
301.2053424289062
 30
0.0
 10
119.938430897767
 20
300.0379803751282
 30
0.0
  0
HATCH
  5
A2C
330
1E
100
AcDbEntity
  8
SCHRAFF
100
AcDbHatch
 10
0.0
 20
0.0
 30
0.0
210
0.0
220
0.0
230
1.0
  2
_USER
 70
     0
 71
     1
 91
        2
 92
        5
 93
        8
 72
     4
 94
        3
 73
     0
 74
     0
 95
        8
 96
        4
 40
4.128654811007312
 40
4.128654811007312
 40
4.128654811007312
 40
4.128654811007312
 40
5.850911090788756
 40
5.850911090788756
 40
5.850911090788756
 40
5.850911090788756
 10
121.538430897767
 20
443.4757242688197
 10
121.0070214057371
 20
443.7508867563147
 10
120.4734787705762
 20
444.0243340914823
 10
119.9384308977671
 20
444.2965711413116
 72
     1
 10
119.9384308977671
 20
444.2965711413116
 11
119.9384308977671
 21
419.7186800640984
 72
     2
 10
115.9384308977671
 20
419.7186800640984
 40
4.0
 50
360.0
 51
450.0
 73
     0
 72
     1
 10
115.9384308977671
 20
415.7186800640984
 11
114.338430897767
 21
415.7186800640984
 72
     1
 10
114.338430897767
 20
415.7186800640984
 11
114.338430897767
 21
414.1186800640984
 72
     1
 10
114.338430897767
 20
414.1186800640984
 11
115.9384308977673
 21
414.1186800640984
 72
     2
 10
115.938430897767
 20
419.7186800640984
 40
5.600000000000008
 50
270.0000000000025
 51
360.0
 73
     1
 72
     1
 10
121.538430897767
 20
419.7186800640984
 11
121.5384308977671
 21
443.4757242688196
 97
        8
330
9E6
330
63E
330
795
330
787
330
781
330
785
330
798
330
78A
 92
        5
 93
        8
 72
     2
 10
115.9384308977671
 20
325.5186800640985
 40
5.600000000000008
 50
359.9999999999988
 51
450.0000000000021
 73
     1
 72
     1
 10
115.9384308977669
 20
331.1186800640984
 11
114.3384308977669
 21
331.1186800640983
 72
     1
 10
114.3384308977669
 20
331.1186800640983
 11
114.3384308977669
 21
329.5186800640984
 72
     1
 10
114.3384308977669
 20
329.5186800640984
 11
115.9384308977671
 21
329.5186800640984
 72
     2
 10
115.9384308977671
 20
325.5186800640984
 40
3.999999999999997
 50
270.0
 51
360.0
 73
     0
 72
     1
 10
119.9384308977671
 20
325.5186800640984
 11
119.9384308977671
 21
300.0379803751282
 72
     4
 94
        3
 73
     0
 74
     0
 95
        8
 96
        4
 40
175.5115254565681
 40
175.5115254565681
 40
175.5115254565681
 40
175.5115254565681
 40
177.1200142969379
 40
177.1200142969379
 40
177.1200142969379
 40
177.1200142969379
 10
119.938430897767
 20
300.0379803751282
 10
120.4745796296483
 20
300.155816543562
 10
121.0080691809686
 20
300.2779634869991
 10
121.5384308977671
 20
300.4051809363916
 72
     1
 10
121.5384308977671
 20
300.4051809363916
 11
121.5384308977671
 21
325.5186800640984
 97
        8
330
797
330
784
330
781
330
786
330
796
330
794
330
9E6
330
78B
 75
     0
 76
     0
 52
135.0
 41
2.0
 77
     0
 78
     1
 53
135.0
 43
0.0
 44
0.0
 45
-1.414213562373095
 46
-1.414213562373094
 79
     0
 47
0.3137384568726242
 98
        2
 10
120.837309402591
 20
427.9819097483287
 10
120.837309402591
 20
317.8597108856436
  0
LINE
  5
B7C
330
1E
100
AcDbEntity
  8
STEMPEL
100
AcDbLine
 10
116.338430897767
 20
432.6783950638079
 30
0.0
 11
115.8533596476943
 21
434.6186800640985
 31
0.0
  0
LINE
  5
B7D
330
1E
100
AcDbEntity
  8
STEMPEL
100
AcDbLine
 10
109.610824022658
 20
433.0580461578394
 30
0.0
 11
115.8533596476943
 21
434.6186800640985
 31
0.0
  0
ARC
  5
B7E
330
1E
100
AcDbEntity
  8
STEMPEL
100
AcDbCircle
 10
110.338430897767
 20
430.1476186574034
 30
0.0
 40
1.0
100
AcDbArc
 50
104.0362434679269
 51
180.0
  0
LINE
  5
B7F
330
1E
100
AcDbEntity
  8
STEMPEL
100
AcDbLine
 10
107.338430897767
 20
429.6186800640986
 30
0.0
 11
109.338430897767
 21
429.6186800640986
 31
0.0
  0
LINE
  5
B80
330
1E
100
AcDbEntity
  8
STEMPEL
100
AcDbLine
 10
107.338430897767
 20
419.6186800640985
 30
0.0
 11
109.338430897767
 21
419.6186800640985
 31
0.0
  0
ARC
  5
B81
330
1E
100
AcDbEntity
  8
STEMPEL
100
AcDbCircle
 10
110.338430897767
 20
430.1476186574034
 30
0.0
 40
3.0
100
AcDbArc
 50
104.0362434679269
 51
180.0
  0
LINE
  5
B82
330
1E
100
AcDbEntity
  8
STEMPEL
100
AcDbLine
 10
110.0958952727307
 20
431.1177611575488
 30
0.0
 11
116.338430897767
 21
432.6783950638079
 31
0.0
  0
ARC
  5
B83
102
{ACAD_REACTORS
330
C1F
102
}
330
1E
100
AcDbEntity
  8
STEMPEL
100
AcDbCircle
 10
110.338430897767
 20
409.2135552261451
 30
0.0
 40
1.0
100
AcDbArc
 50
180.0
 51
241.4947254476708
  0
ARC
  5
B84
330
1E
100
AcDbEntity
  8
STEMPEL
100
AcDbCircle
 10
110.338430897767
 20
409.2135552261451
 30
0.0
 40
3.0
100
AcDbArc
 50
180.0
 51
241.4947254476708
  0
LINE
  5
B85
102
{ACAD_REACTORS
330
C1F
102
}
330
1E
100
AcDbEntity
  8
STEMPEL
100
AcDbLine
 10
109.8611912371159
 20
408.3347820436335
 30
0.0
 11
112.7701498797205
 21
406.7549996116333
 31
0.0
  0
ARC
  5
B86
330
1E
100
AcDbEntity
  8
STEMPEL
100
AcDbCircle
 10
111.3384308977669
 20
404.1186800640985
 30
0.0
 40
1.0
100
AcDbArc
 50
0.0
 51
61.49472544767079
  0
ARC
  5
B87
102
{ACAD_REACTORS
330
C1F
102
}
330
1E
100
AcDbEntity
  8
STEMPEL
100
AcDbCircle
 10
111.3384308977669
 20
404.1186800640985
 30
0.0
 40
3.0
100
AcDbArc
 50
0.0
 51
61.49472544767079
  0
LINE
  5
B88
330
1E
100
AcDbEntity
  8
STEMPEL
100
AcDbLine
 10
108.9067119158136
 20
406.5772356786103
 30
0.0
 11
111.8156705584182
 21
404.9974532466102
 31
0.0
  0
ARC
  5
B89
330
1E
100
AcDbEntity
  8
STEMPEL
100
AcDbCircle
 10
111.738430897767
 20
378.0714578418763
 30
0.0
 40
0.4
100
AcDbArc
 50
90.0
 51
180.0
  0
LINE
  5
B8A
330
1E
100
AcDbEntity
  8
STEMPEL
100
AcDbLine
 10
111.9384308977669
 20
378.4714578418763
 30
0.0
 11
111.738430897767
 21
378.4714578418763
 31
0.0
  0
ARC
  5
B8B
330
1E
100
AcDbEntity
  8
STEMPEL
100
AcDbCircle
 10
111.738430897767
 20
373.0547911752097
 30
0.0
 40
0.4
100
AcDbArc
 50
90.0
 51
180.0
  0
ARC
  5
B8C
330
1E
100
AcDbEntity
  8
STEMPEL
100
AcDbCircle
 10
111.738430897767
 20
371.3659022863209
 30
0.0
 40
0.4
100
AcDbArc
 50
180.0
 51
270.0
  0
LINE
  5
B8D
330
1E
100
AcDbEntity
  8
STEMPEL
100
AcDbLine
 10
111.9384308977669
 20
370.9659022863209
 30
0.0
 11
111.738430897767
 21
370.9659022863208
 31
0.0
  0
LINE
  5
B8E
330
1E
100
AcDbEntity
  8
STEMPEL
100
AcDbLine
 10
111.9384308977669
 20
373.4547911752098
 30
0.0
 11
111.738430897767
 21
373.4547911752098
 31
0.0
  0
ARC
  5
B8F
330
1E
100
AcDbEntity
  8
STEMPEL
100
AcDbCircle
 10
111.9384308977668
 20
373.8547911752097
 30
0.0
 40
0.4
100
AcDbArc
 50
270.0
 51
0.0
  0
ARC
  5
B90
330
1E
100
AcDbEntity
  8
STEMPEL
100
AcDbCircle
 10
111.9384308977668
 20
378.8714578418763
 30
0.0
 40
0.4
100
AcDbArc
 50
270.0
 51
0.0
  0
ARC
  5
B91
330
1E
100
AcDbEntity
  8
STEMPEL
100
AcDbCircle
 10
111.738430897767
 20
368.8547911752098
 30
0.0
 40
0.4
100
AcDbArc
 50
90.0
 51
180.0
  0
ARC
  5
B92
330
1E
100
AcDbEntity
  8
STEMPEL
100
AcDbCircle
 10
111.738430897767
 20
367.1659022863208
 30
0.0
 40
0.4
100
AcDbArc
 50
180.0
 51
270.0
  0
LINE
  5
B93
330
1E
100
AcDbEntity
  8
STEMPEL
100
AcDbLine
 10
111.938430897767
 20
366.7659022863208
 30
0.0
 11
111.738430897767
 21
366.7659022863208
 31
0.0
  0
LINE
  5
B94
330
1E
100
AcDbEntity
  8
STEMPEL
100
AcDbLine
 10
111.9384308977669
 20
369.2547911752098
 30
0.0
 11
111.738430897767
 21
369.2547911752098
 31
0.0
  0
LINE
  5
B95
330
1E
100
AcDbEntity
  8
STEMPEL
100
AcDbLine
 10
112.3384308977668
 20
369.6547911752098
 30
0.0
 11
112.3384308977668
 21
370.5659022863209
 31
0.0
  0
ARC
  5
B96
330
1E
100
AcDbEntity
  8
STEMPEL
100
AcDbCircle
 10
111.9384308977668
 20
369.6547911752098
 30
0.0
 40
0.4
100
AcDbArc
 50
270.0
 51
0.0
  0
ARC
  5
B97
330
1E
100
AcDbEntity
  8
STEMPEL
100
AcDbCircle
 10
111.938430897767
 20
366.3659022863208
 30
0.0
 40
0.4
100
AcDbArc
 50
0.0
 51
90.0
  0
LINE
  5
B98
330
1E
100
AcDbEntity
  8
STEMPEL
100
AcDbLine
 10
111.3384308977671
 20
367.1659022863208
 30
0.0
 11
111.338430897767
 21
378.0714578418763
 31
0.0
  0
ARC
  5
B99
330
1E
100
AcDbEntity
  8
STEMPEL
100
AcDbCircle
 10
111.9384308977669
 20
370.5659022863209
 30
0.0
 40
0.4
100
AcDbArc
 50
0.0
 51
90.0
  0
LINE
  5
B9A
330
1E
100
AcDbEntity
  8
STEMPEL
100
AcDbLine
 10
112.3384308977668
 20
373.8547911752097
 30
0.0
 11
112.3384308977668
 21
404.1186800640985
 31
0.0
  0
ARC
  5
B9B
330
1E
100
AcDbEntity
  8
STEMPEL
100
AcDbCircle
 10
320.2257018284463
 20
369.0603467307651
 30
0.0
 40
2.294444444444444
100
AcDbArc
 50
190.0000000000002
 51
270.0
  0
ARC
  5
B9C
330
1E
100
AcDbEntity
  8
STEMPEL
100
AcDbCircle
 10
320.7310634440318
 20
369.6436800640984
 30
0.0
 40
0.3888888888888889
100
AcDbArc
 50
189.5550026106586
 51
270.0
  0
LINE
  5
B9D
330
1E
100
AcDbEntity
  8
STEMPEL
100
AcDbLine
 10
320.7310634440318
 20
369.2547911752094
 30
0.0
 11
321.5541976216517
 21
369.2547911752096
 31
0.0
  0
ARC
  5
B9E
330
1E
100
AcDbEntity
  8
STEMPEL
100
AcDbCircle
 10
316.8936922984688
 20
371.1214578418761
 30
0.0
 40
3.150000000000008
100
AcDbArc
 50
10.00000000000019
 51
38.69301093833255
  0
LINE
  5
B9F
330
1E
100
AcDbEntity
  8
STEMPEL
100
AcDbLine
 10
320.3475697253215
 20
369.5791267093367
 30
0.0
 11
319.9974780832483
 21
371.6589248267791
 31
0.0
  0
LINE
  5
BA0
330
1E
100
AcDbEntity
  8
STEMPEL
100
AcDbLine
 10
317.976110248426
 20
368.6734972309261
 30
0.0
 11
317.5431182835025
 21
371.245783356304
 31
0.0
  0
LINE
  5
BA1
330
1E
100
AcDbEntity
  8
STEMPEL
100
AcDbLine
 10
320.2257018284463
 20
366.7659022863206
 30
0.0
 11
326.3436922984688
 21
366.7659022863206
 31
0.0
  0
CIRCLE
  5
BA2
330
1E
100
AcDbEntity
  8
STEMPEL
100
AcDbCircle
 10
326.3436922984688
 20
372.6186800640984
 30
0.0
 40
3.363888888888853
  0
ARC
  5
BA3
330
1E
100
AcDbEntity
  8
STEMPEL
100
AcDbCircle
 10
326.3436922984688
 20
372.6186800640984
 30
0.0
 40
5.852777777777742
100
AcDbArc
 50
270.0
 51
215.0821845754594
  0
LINE
  5
BA4
330
1E
100
AcDbEntity
  8
HILF
100
AcDbLine
 10
323.7763100508311
 20
317.0213877931453
 30
0.0
 11
346.7666367764534
 21
339.3543967518771
 31
0.0
  0
LINE
  5
BA5
330
1E
100
AcDbEntity
  8
STEMPEL
100
AcDbLine
 10
325.6001417269255
 20
315.1404191945332
 30
0.0
 11
348.5902665897842
 21
337.4665061510549
 31
0.0
  0
LINE
  5
BA6
330
1E
100
AcDbEntity
  8
STEMPEL
100
AcDbLine
 10
109.338430897767
 20
409.2135552261452
 30
0.0
 11
109.338430897767
 21
420.6186800640983
 31
0.0
  0
ARC
  5
BA9
102
{ACAD_REACTORS
330
C1F
102
}
330
1E
100
AcDbEntity
  8
STEMPEL
100
AcDbCircle
 10
110.3384308977668
 20
336.0238049020519
 30
0.0
 40
1.0
100
AcDbArc
 50
118.5052745523292
 51
180.0
  0
ARC
  5
BAA
330
1E
100
AcDbEntity
  8
STEMPEL
100
AcDbCircle
 10
110.3384308977668
 20
336.0238049020519
 30
0.0
 40
3.0
100
AcDbArc
 50
118.5052745523292
 51
180.0
  0
LINE
  5
BAB
330
1E
100
AcDbEntity
  8
STEMPEL
100
AcDbLine
 10
108.9067119158135
 20
338.6601244495867
 30
0.0
 11
111.8156705584181
 21
340.2399068815869
 31
0.0
  0
ARC
  5
BAC
102
{ACAD_REACTORS
330
C1F
102
}
330
1E
100
AcDbEntity
  8
STEMPEL
100
AcDbCircle
 10
111.3384308977668
 20
341.1186800640985
 30
0.0
 40
3.0
100
AcDbArc
 50
298.5052745523292
 51
0.0
  0
ARC
  5
BAD
330
1E
100
AcDbEntity
  8
STEMPEL
100
AcDbCircle
 10
111.3384308977668
 20
341.1186800640985
 30
0.0
 40
1.0
100
AcDbArc
 50
298.5052745523292
 51
0.0
  0
LINE
  5
BAE
102
{ACAD_REACTORS
330
C1F
102
}
330
1E
100
AcDbEntity
  8
STEMPEL
100
AcDbLine
 10
109.8611912371157
 20
336.9025780845634
 30
0.0
 11
112.7701498797204
 21
338.4823605165637
 31
0.0
  0
LINE
  5
BAF
330
1E
100
AcDbEntity
  8
STEMPEL
100
AcDbLine
 10
107.338430897767
 20
325.6186800640985
 30
0.0
 11
109.338430897767
 21
325.6186800640985
 31
0.0
  0
ARC
  5
BB0
330
1E
100
AcDbEntity
  8
STEMPEL
100
AcDbCircle
 10
110.3384308977669
 20
315.0897414707936
 30
0.0
 40
1.0
100
AcDbArc
 50
180.0
 51
255.9637565320731
  0
LINE
  5
BB1
330
1E
100
AcDbEntity
  8
STEMPEL
100
AcDbLine
 10
107.338430897767
 20
315.6186800640985
 30
0.0
 11
109.338430897767
 21
315.6186800640985
 31
0.0
  0
ARC
  5
BB2
330
1E
100
AcDbEntity
  8
STEMPEL
100
AcDbCircle
 10
110.3384308977669
 20
315.0897414707936
 30
0.0
 40
3.0
100
AcDbArc
 50
180.0
 51
255.9637565320731
  0
LINE
  5
BB3
330
1E
100
AcDbEntity
  8
STEMPEL
100
AcDbLine
 10
116.3384308977669
 20
312.5589650643892
 30
0.0
 11
115.8533596476942
 21
310.6186800640986
 31
0.0
  0
LINE
  5
BB4
330
1E
100
AcDbEntity
  8
STEMPEL
100
AcDbLine
 10
109.6108240226579
 20
312.1793139703577
 30
0.0
 11
115.8533596476942
 21
310.6186800640986
 31
0.0
  0
LINE
  5
BB5
330
1E
100
AcDbEntity
  8
STEMPEL
100
AcDbLine
 10
110.0958952727306
 20
314.1195989706483
 30
0.0
 11
116.3384308977669
 21
312.5589650643892
 31
0.0
  0
LINE
  5
BB6
330
1E
100
AcDbEntity
  8
STEMPEL
100
AcDbLine
 10
109.338430897767
 20
315.0897414707936
 30
0.0
 11
109.3384308977669
 21
316.6186800640984
 31
0.0
  0
LINE
  5
BB7
330
1E
100
AcDbEntity
  8
HILF
100
AcDbLine
 10
346.7666367764535
 20
405.8829633763196
 30
0.0
 11
323.7763100508311
 21
428.2159723350515
 31
0.0
  0
LINE
  5
BB8
330
1E
100
AcDbEntity
  8
STEMPEL
100
AcDbLine
 10
348.5902665897842
 20
407.7708539771418
 30
0.0
 11
325.6001417269256
 21
430.0969409336636
 31
0.0
  0
ARC
  5
BBA
330
1E
100
AcDbEntity
  8
STEMPEL
100
AcDbCircle
 10
314.453414520691
 20
372.6186800640984
 30
0.0
 40
48.99999999999997
100
AcDbArc
 50
314.1604804299516
 51
45.83951957004841
  0
ARC
  5
BBB
330
1E
100
AcDbEntity
  8
HILF
100
AcDbCircle
 10
314.453414520691
 20
372.6186800640984
 30
0.0
 40
46.37517522151287
100
AcDbArc
 50
314.1691058674063
 51
45.83089413259136
  0
INSERT
  5
BBC
330
1E
100
AcDbEntity
  8
SCHRAFF
100
AcDbBlockReference
  2
*X4
 10
356.709382503901
 20
260.1186800640986
 30
0.0
 50
90.0
1001
ACAD
1000
HATCH
1002
{
1070
    16
1000
_U,I
1040
2.0
1040
2.356194490192344
1070
     0
1002
}
  0
LINE
  5
BBD
330
1E
100
AcDbEntity
  8
STEMPEL
100
AcDbLine
 10
114.338430897767
 20
341.1186800640986
 30
0.0
 11
114.338430897767
 21
404.1186800640985
 31
0.0
  0
LINE
  5
BBE
330
1E
100
AcDbEntity
  8
STEMPEL
100
AcDbLine
 10
116.338430897767
 20
312.5589650643892
 30
0.0
 11
116.338430897767
 21
316.6186800640984
 31
0.0
  0
LINE
  5
BBF
330
1E
100
AcDbEntity
  8
STEMPEL
100
AcDbLine
 10
107.338430897767
 20
315.0897414707936
 30
0.0
 11
107.338430897767
 21
430.1476186574034
 31
0.0
  0
LINE
  5
BC0
330
1E
100
AcDbEntity
  8
STEMPEL
100
AcDbLine
 10
112.3384308977668
 20
341.1186800640986
 30
0.0
 11
112.3384308977668
 21
366.3659022863208
 31
0.0
  0
LINE
  5
BC1
330
1E
100
AcDbEntity
  8
STEMPEL
100
AcDbLine
 10
313.7436922984688
 20
374.2714578418761
 30
0.0
 11
316.6992478540244
 21
374.2714578418761
 31
0.0
  0
LINE
  5
BC2
330
1E
100
AcDbEntity
  8
STEMPEL
100
AcDbLine
 10
313.7436922984689
 20
371.7825689529872
 30
0.0
 11
316.8936922984688
 21
371.7825689529872
 31
0.0
  0
LINE
  5
BC3
330
1E
100
AcDbEntity
  8
STEMPEL
100
AcDbLine
 10
313.7436922984689
 20
371.7825689529872
 30
0.0
 11
313.7436922984689
 21
368.010346730765
 31
0.0
  0
LINE
  5
BC4
330
1E
100
AcDbEntity
  8
STEMPEL
100
AcDbLine
 10
311.2548034095799
 20
369.807293110131
 30
0.0
 11
311.25480340958
 21
368.010346730765
 31
0.0
  0
ARC
  5
BC5
330
1E
100
AcDbEntity
  8
STEMPEL
100
AcDbCircle
 10
312.4992478540244
 20
368.010346730765
 30
0.0
 40
1.244444444444462
100
AcDbArc
 50
180.0
 51
0.0
  0
ARC
  5
BC6
330
1E
100
AcDbEntity
  8
STEMPEL
100
AcDbCircle
 10
306.1214700762466
 20
372.6186800640984
 30
0.0
 40
5.852777777777742
100
AcDbArc
 50
270.0
 51
331.2916789772531
  0
LINE
  5
BC7
330
1E
100
AcDbEntity
  8
STEMPEL
100
AcDbLine
 10
312.0325811873577
 20
378.4714578418761
 30
0.0
 11
316.6992478540244
 21
378.4714578418761
 31
0.0
  0
LINE
  5
BC8
330
1E
100
AcDbEntity
  8
STEMPEL
100
AcDbLine
 10
313.7436922984688
 20
375.9825689529872
 30
0.0
 11
316.6992478540244
 21
375.9825689529872
 31
0.0
  0
LINE
  5
BC9
330
1E
100
AcDbEntity
  8
STEMPEL
100
AcDbLine
 10
311.2548034095799
 20
377.6936800640984
 30
0.0
 11
311.2548034095799
 21
375.4300670180658
 31
0.0
  0
ARC
  5
BCA
330
1E
100
AcDbEntity
  8
STEMPEL
100
AcDbCircle
 10
312.0325811873577
 20
377.6936800640984
 30
0.0
 40
0.7777777777777778
100
AcDbArc
 50
89.99999999999998
 51
180.0
  0
LINE
  5
BCB
330
1E
100
AcDbEntity
  8
STEMPEL
100
AcDbLine
 10
313.7436922984688
 20
375.9825689529872
 30
0.0
 11
313.7436922984688
 21
374.2714578418761
 31
0.0
  0
LINE
  5
BCC
330
1E
100
AcDbEntity
  8
STEMPEL
100
AcDbLine
 10
299.5881367429133
 20
369.2547911752096
 30
0.0
 11
301.3319753994303
 21
369.2547911752096
 31
0.0
  0
ARC
  5
BCD
330
1E
100
AcDbEntity
  8
STEMPEL
100
AcDbCircle
 10
299.0048034095799
 20
369.0603467307651
 30
0.0
 40
2.294444444444444
100
AcDbArc
 50
180.0
 51
270.0
  0
ARC
  5
BCE
330
1E
100
AcDbEntity
  8
STEMPEL
100
AcDbCircle
 10
299.5881367429133
 20
369.6436800640985
 30
0.0
 40
0.3888888888888889
100
AcDbArc
 50
180.0
 51
270.0
  0
ARC
  5
BCF
330
1E
100
AcDbEntity
  8
STEMPEL
100
AcDbCircle
 10
297.9548034095799
 20
377.2270133974317
 30
0.0
 40
1.244444444444462
100
AcDbArc
 50
0.0
 51
180.0
  0
LINE
  5
BD0
330
1E
100
AcDbEntity
  8
STEMPEL
100
AcDbLine
 10
299.1992478540244
 20
377.2270133974317
 30
0.0
 11
299.1992478540244
 21
369.6436800640985
 31
0.0
  0
LINE
  5
BD1
330
1E
100
AcDbEntity
  8
STEMPEL
100
AcDbLine
 10
296.7103589651355
 20
377.2270133974317
 30
0.0
 11
296.7103589651355
 21
369.0603467307651
 31
0.0
  0
ARC
  5
BD2
330
1E
100
AcDbEntity
  8
STEMPEL
100
AcDbCircle
 10
306.1214700762466
 20
372.6186800640984
 30
0.0
 40
5.852777777777742
100
AcDbArc
 50
28.70832102274838
 51
215.0821845754639
  0
CIRCLE
  5
BD3
330
1E
100
AcDbEntity
  8
STEMPEL
100
AcDbCircle
 10
306.1214700762466
 20
372.6186800640984
 30
0.0
 40
3.363888888888853
  0
LINE
  5
BD4
330
1E
100
AcDbEntity
  8
STEMPEL
100
AcDbLine
 10
299.0048034095799
 20
366.7659022863206
 30
0.0
 11
306.1214700762466
 21
366.7659022863206
 31
0.0
  0
LINE
  5
BD5
330
1E
100
AcDbEntity
  8
STEMPEL
100
AcDbLine
 10
280.3165624515979
 20
337.466506151055
 30
0.0
 11
303.3066873144566
 21
315.1404191945332
 31
0.0
  0
LINE
  5
BD6
330
1E
100
AcDbEntity
  8
HILF
100
AcDbLine
 10
282.1401922649286
 20
339.3543967518771
 30
0.0
 11
305.1305189905511
 21
317.0213877931453
 31
0.0
  0
LINE
  5
BD7
330
1E
100
AcDbEntity
  8
STEMPEL
100
AcDbLine
 10
303.3066873144566
 20
430.0969409336636
 30
0.0
 11
280.316562451598
 21
407.7708539771418
 31
0.0
  0
LINE
  5
BD8
330
1E
100
AcDbEntity
  8
HILF
100
AcDbLine
 10
305.1305189905511
 20
428.2159723350515
 30
0.0
 11
282.1401922649287
 21
405.8829633763196
 31
0.0
  0
ARC
  5
BDA
330
1E
100
AcDbEntity
  8
HILF
100
AcDbCircle
 10
314.453414520691
 20
372.6186800640984
 30
0.0
 40
46.37517522151287
100
AcDbArc
 50
134.1691058674086
 51
225.8308941325913
  0
ARC
  5
BDB
330
1E
100
AcDbEntity
  8
STEMPEL
100
AcDbCircle
 10
314.453414520691
 20
372.6186800640984
 30
0.0
 40
48.99999999999997
100
AcDbArc
 50
134.1604804299516
 51
225.8395195700484
  0
CIRCLE
  5
BDC
330
1E
100
AcDbEntity
  8
HILF
100
AcDbCircle
 10
314.453414520691
 20
372.6186800640984
 30
0.0
 40
35.06111457868633
  0
CIRCLE
  5
BDD
330
1E
100
AcDbEntity
  8
STEMPEL
100
AcDbCircle
 10
314.453414520691
 20
372.6186800640984
 30
0.0
 40
31.5
  0
ARC
  5
BDE
330
1E
100
AcDbEntity
  8
STEMPEL
100
AcDbCircle
 10
314.453414520691
 20
418.6186800640983
 30
0.0
 40
16.0
100
AcDbArc
 50
45.83951957004841
 51
134.1604804299516
  0
ARC
  5
BDF
330
1E
100
AcDbEntity
  8
HILF
100
AcDbCircle
 10
314.453414520691
 20
418.6186800640983
 30
0.0
 40
13.38
100
AcDbArc
 50
45.83089413259136
 51
57.17400579163879
  0
ARC
  5
BE3
330
1E
100
AcDbEntity
  8
HILF
100
AcDbCircle
 10
314.453414520691
 20
326.6186800640984
 30
0.0
 40
13.38
100
AcDbArc
 50
225.8308941325913
 51
237.1740057916379
  0
ARC
  5
BE4
330
1E
100
AcDbEntity
  8
STEMPEL
100
AcDbCircle
 10
314.453414520691
 20
326.6186800640984
 30
0.0
 40
16.0
100
AcDbArc
 50
225.8395195700484
 51
314.1604804299516
  0
ARC
  5
BE7
330
1E
100
AcDbEntity
  8
STEMPEL
100
AcDbCircle
 10
316.6992478540244
 20
375.1270133974315
 30
0.0
 40
3.344444444444391
100
AcDbArc
 50
322.4919601629167
 51
89.99999999999998
  0
ARC
  5
BE8
330
1E
100
AcDbEntity
  8
STEMPEL
100
AcDbCircle
 10
316.6992478540244
 20
375.1270133974315
 30
0.0
 40
0.8555555555555024
100
AcDbArc
 50
270.0
 51
89.99999999999998
  0
ARC
  5
BE9
330
1E
100
AcDbEntity
  8
STEMPEL
100
AcDbCircle
 10
316.8936922984688
 20
371.1214578418761
 30
0.0
 40
0.6611111111111199
100
AcDbArc
 50
10.00000000000019
 51
89.99999999999998
  0
LINE
  5
BF4
102
{ACAD_REACTORS
330
C1F
102
}
330
1E
100
AcDbEntity
  8
STEMPEL
100
AcDbLine
 10
109.338430897767
 20
418.1186800640984
 30
0.0
 11
109.338430897767
 21
409.2135552261451
 31
0.0
  0
LINE
  5
BF5
102
{ACAD_REACTORS
330
C1F
102
}
330
1E
100
AcDbEntity
  8
STEMPEL
100
AcDbLine
 10
114.338430897767
 20
418.1186800640983
 30
0.0
 11
109.338430897767
 21
418.1186800640984
 31
0.0
  0
LINE
  5
BF6
102
{ACAD_REACTORS
330
C1F
102
}
330
1E
100
AcDbEntity
  8
STEMPEL
100
AcDbLine
 10
114.338430897767
 20
327.1186800640984
 30
0.0
 11
109.338430897767
 21
327.1186800640984
 31
0.0
  0
LINE
  5
BFB
330
1E
100
AcDbEntity
  8
STEMPEL
100
AcDbLine
 10
269.953414520691
 20
352.1064885673325
 30
0.0
 11
269.953414520691
 21
234.5488225554442
 31
0.0
  0
LINE
  5
BFC
330
1E
100
AcDbEntity
  8
STEMPEL
100
AcDbLine
 10
358.953414520691
 20
352.1064885673324
 30
0.0
 11
358.953414520691
 21
234.5488225554445
 31
0.0
  0
LINE
  5
BFF
330
1E
100
AcDbEntity
  8
STEMPEL
100
AcDbLine
 10
116.338430897767
 20
428.6186800640983
 30
0.0
 11
116.338430897767
 21
432.6783950638078
 31
0.0
  0
LINE
  5
C00
330
1E
100
AcDbEntity
  8
STEMPEL
100
AcDbLine
 10
109.3384308977671
 20
428.6186800640983
 30
0.0
 11
109.3384308977671
 21
430.1476186574034
 31
0.0
  0
LINE
  5
C01
330
1E
100
AcDbEntity
  8
STEMPEL
100
AcDbLine
 10
116.338430897767
 20
415.7387303156719
 30
0.0
 11
116.338430897767
 21
420.6186800640983
 31
0.0
  0
LINE
  5
C02
330
1E
100
AcDbEntity
  8
STEMPEL
100
AcDbLine
 10
109.338430897767
 20
336.0238049020519
 30
0.0
 11
109.338430897767
 21
327.1186800640984
 31
0.0
  0
LINE
  5
C0B
330
1E
100
AcDbEntity
  8
STEMPEL
100
AcDbLine
 10
116.338430897767
 20
324.6186800640984
 30
0.0
 11
116.338430897767
 21
329.4986298125248
 31
0.0
  0
LINE
  5
C0C
102
{ACAD_REACTORS
330
C1F
102
}
330
1E
100
AcDbEntity
  8
STEMPEL
100
AcDbLine
 10
109.338430897767
 20
324.6186800640984
 30
0.0
 11
109.338430897767
 21
336.0238049020519
 31
0.0
  0
HATCH
  5
C1F
330
1E
100
AcDbEntity
  8
SCHRAFF
100
AcDbHatch
 10
0.0
 20
0.0
 30
0.0
210
0.0
220
0.0
230
1.0
  2
NET
 70
     0
 71
     1
 91
        2
 92
        7
 72
     1
 73
     1
 93
        6
 10
114.338430897767
 20
418.1186800640983
 42
0.0
 10
109.338430897767
 20
418.1186800640985
 42
0.0
 10
109.338430897767
 20
409.2135552261451
 42
0.2749517555998618
 10
109.8611912371159
 20
408.3347820436335
 42
0.0
 10
112.7701498797205
 20
406.7549996116333
 42
-0.2749517555998637
 10
114.338430897767
 20
404.1186800640986
 42
0.0
 97
        6
330
BF5
330
BF4
330
B83
330
B85
330
B87
330
781
 92
        7
 72
     1
 73
     1
 93
        6
 10
114.338430897767
 20
341.1186800640985
 42
-0.2749517555998718
 10
112.7701498797204
 20
338.4823605165637
 42
0.0
 10
109.8611912371157
 20
336.9025780845634
 42
0.2749517555998588
 10
109.338430897767
 20
336.0238049020519
 42
0.0
 10
109.338430897767
 20
327.1186800640984
 42
0.0
 10
114.338430897767
 20
327.1186800640984
 42
0.0
 97
        6
330
BAC
330
BAE
330
BA9
330
C0C
330
BF6
330
781
 75
     0
 76
     1
 52
45.0
 41
10.0
 77
     0
 78
     2
 53
45.0
 43
0.0
 44
0.0
 45
-0.8838834764831842
 46
0.8838834764831844
 79
     0
 53
135.0
 43
0.0
 44
0.0
 45
-0.8838834764831844
 46
-0.8838834764831842
 79
     0
 47
0.2737567629236785
 98
        2
 10
112.1309507103619
 20
412.3450518559534
 10
111.5830502850099
 20
332.1343205475034
  0
LINE
  5
C9E
330
1E
100
AcDbEntity
  8
TEXT
 62
     2
100
AcDbLine
 10
69.44914833504367
 20
467.8381559419591
 30
0.0
 11
112.6243846192631
 21
432.388002706613
 31
0.0
  0
LINE
  5
CA1
330
1E
100
AcDbEntity
  8
TEXT
 62
     2
100
AcDbLine
 10
69.44914833504367
 20
467.8381559419591
 30
0.0
 11
69.44914833504367
 21
575.0021465476992
 31
0.0
  0
TEXT
  5
CA2
330
1E
100
AcDbEntity
  8
TEXT
 62
     1
100
AcDbText
 10
78.97390335955401
 20
468.298834744731
 30
0.0
 40
7.0
  1
EDV-Art.Nr. 55880.080C
 50
90.0
 41
0.8
  7
GREEKS
100
AcDbText
  0
TEXT
  5
CA3
330
1E
100
AcDbEntity
  8
TEXT
 62
     1
100
AcDbText
 10
66.0692429181471
 20
468.298834744731
 30
0.0
 40
7.0
  1
Deckel DN80
 50
90.0
 41
0.8
  7
GREEKS
100
AcDbText
  0
LINE
  5
D04
330
1E
100
AcDbEntity
  8
STEMPEL
100
AcDbLine
 10
99.33843089776699
 20
314.1186800640984
 30
0.0
 11
99.33843089776699
 21
327.1186800640984
 31
0.0
  0
LINE
  5
D05
330
1E
100
AcDbEntity
  8
STEMPEL
100
AcDbLine
 10
105.7925708436565
 20
328.1242335635635
 30
0.0
 11
99.60786814589496
 21
328.1242335635635
 31
0.0
  0
LINE
  5
D06
330
1E
100
AcDbEntity
  8
STEMPEL
100
AcDbLine
 10
105.7925708436565
 20
324.371456813831
 30
0.0
 11
99.60786814589496
 21
324.371456813831
 31
0.0
  0
LINE
  5
D07
330
1E
100
AcDbEntity
  8
STEMPEL
100
AcDbLine
 10
105.7925708436565
 20
316.8659033143659
 30
0.0
 11
99.60786814589496
 21
316.8659033143659
 31
0.0
  0
LINE
  5
D08
330
1E
100
AcDbEntity
  8
HILF
100
AcDbLine
 10
106.1746153252954
 20
329.1738921500938
 30
0.0
 11
106.1746153252954
 21
312.063467978103
 31
0.0
  0
LINE
  5
D09
330
1E
100
AcDbEntity
  8
STEMPEL
100
AcDbLine
 10
107.338430897767
 20
328.9686800640984
 30
0.0
 11
107.338430897767
 21
312.2686800640984
 31
0.0
  0
LINE
  5
D0A
330
1E
100
AcDbEntity
  8
STEMPEL
100
AcDbLine
 10
105.7925708436564
 20
313.1131265646333
 30
0.0
 11
99.60786814589496
 21
313.1131265646333
 31
0.0
  0
LINE
  5
D0B
330
1E
100
AcDbEntity
  8
STEMPEL
100
AcDbLine
 10
99.33843089776699
 20
314.1186800640984
 30
0.0
 11
99.60786814589496
 21
313.1131265646333
 31
0.0
  0
LINE
  5
D0C
330
1E
100
AcDbEntity
  8
STEMPEL
100
AcDbLine
 10
99.60786814589496
 20
328.1242335635635
 30
0.0
 11
99.33843089776699
 21
327.1186800640984
 31
0.0
  0
LINE
  5
D0D
330
1E
100
AcDbEntity
  8
STEMPEL
100
AcDbLine
 10
106.1746153252954
 20
329.1738921500938
 30
0.0
 11
105.7925708436565
 21
328.1242335635635
 31
0.0
  0
LINE
  5
D0E
330
1E
100
AcDbEntity
  8
STEMPEL
100
AcDbLine
 10
105.7925708436564
 20
313.1131265646333
 30
0.0
 11
106.1746153252954
 21
312.063467978103
 31
0.0
  0
ARC
  5
D0F
330
1E
100
AcDbEntity
  8
STEMPEL
100
AcDbCircle
 10
106.738430897767
 20
312.2686800640984
 30
0.0
 40
0.5999999999999993
100
AcDbArc
 50
200.0000000000001
 51
0.0
  0
ARC
  5
D10
330
1E
100
AcDbEntity
  8
STEMPEL
100
AcDbCircle
 10
106.738430897767
 20
328.9686800640984
 30
0.0
 40
0.5999999999999999
100
AcDbArc
 50
0.0
 51
159.9999999999999
  0
ARC
  5
D11
330
1E
100
AcDbEntity
  8
STEMPEL
100
AcDbCircle
 10
125.6078681458943
 20
320.6186800640984
 30
0.0
 40
26.26943724812735
100
AcDbArc
 50
171.7867892982604
 51
188.2132107017395
  0
ARC
  5
D12
330
1E
100
AcDbEntity
  8
STEMPEL
100
AcDbCircle
 10
106.0068291778469
 20
314.9895149394996
 30
0.0
 40
6.668398280079905
100
AcDbArc
 50
163.657106694017
 51
196.3428933059829
  0
ARC
  5
D13
330
1E
100
AcDbEntity
  8
STEMPEL
100
AcDbCircle
 10
106.0068291778468
 20
326.2478451886973
 30
0.0
 40
6.668398280079882
100
AcDbArc
 50
163.657106694017
 51
196.3428933059829
  0
ARC
  5
D14
330
1E
100
AcDbEntity
  8
STEMPEL
100
AcDbCircle
 10
124.8495460656447
 20
320.6186800640984
 30
0.0
 40
19.42296676475576
100
AcDbArc
 50
168.859627838891
 51
191.140372161109
  0
ARC
  5
D15
330
1E
100
AcDbEntity
  8
STEMPEL
100
AcDbCircle
 10
110.4210817510706
 20
314.9895149394996
 30
0.0
 40
4.994391509822305
100
AcDbArc
 50
157.9324721810055
 51
202.0675278189945
  0
ARC
  5
D16
330
1E
100
AcDbEntity
  8
STEMPEL
100
AcDbCircle
 10
110.4210817510706
 20
326.2478451886973
 30
0.0
 40
4.994391509822305
100
AcDbArc
 50
157.9324721810055
 51
202.0675278189945
  0
ARC
  5
D17
330
1E
100
AcDbEntity
  8
STEMPEL
100
AcDbCircle
 10
110.4210817510707
 20
430.2478451886972
 30
0.0
 40
4.994391509822305
100
AcDbArc
 50
157.9324721810055
 51
202.0675278189945
  0
ARC
  5
D18
330
1E
100
AcDbEntity
  8
STEMPEL
100
AcDbCircle
 10
110.4210817510707
 20
418.9895149394995
 30
0.0
 40
4.994391509822305
100
AcDbArc
 50
157.9324721810055
 51
202.0675278189945
  0
ARC
  5
D19
330
1E
100
AcDbEntity
  8
STEMPEL
100
AcDbCircle
 10
124.8495460656448
 20
424.6186800640983
 30
0.0
 40
19.42296676475576
100
AcDbArc
 50
168.859627838891
 51
191.140372161109
  0
ARC
  5
D1A
330
1E
100
AcDbEntity
  8
STEMPEL
100
AcDbCircle
 10
106.0068291778469
 20
430.2478451886972
 30
0.0
 40
6.668398280079882
100
AcDbArc
 50
163.657106694017
 51
196.3428933059829
  0
ARC
  5
D1B
330
1E
100
AcDbEntity
  8
STEMPEL
100
AcDbCircle
 10
106.0068291778469
 20
418.9895149394995
 30
0.0
 40
6.668398280079905
100
AcDbArc
 50
163.657106694017
 51
196.3428933059829
  0
ARC
  5
D1C
330
1E
100
AcDbEntity
  8
STEMPEL
100
AcDbCircle
 10
125.6078681458944
 20
424.6186800640983
 30
0.0
 40
26.26943724812735
100
AcDbArc
 50
171.7867892982604
 51
188.2132107017395
  0
ARC
  5
D1D
330
1E
100
AcDbEntity
  8
STEMPEL
100
AcDbCircle
 10
106.738430897767
 20
432.9686800640983
 30
0.0
 40
0.5999999999999999
100
AcDbArc
 50
0.0
 51
159.9999999999999
  0
ARC
  5
D1E
330
1E
100
AcDbEntity
  8
STEMPEL
100
AcDbCircle
 10
106.738430897767
 20
416.2686800640983
 30
0.0
 40
0.5999999999999993
100
AcDbArc
 50
200.0000000000001
 51
0.0
  0
LINE
  5
D1F
330
1E
100
AcDbEntity
  8
STEMPEL
100
AcDbLine
 10
105.7925708436565
 20
417.1131265646332
 30
0.0
 11
106.1746153252955
 21
416.063467978103
 31
0.0
  0
LINE
  5
D20
330
1E
100
AcDbEntity
  8
STEMPEL
100
AcDbLine
 10
106.1746153252955
 20
433.1738921500937
 30
0.0
 11
105.7925708436565
 21
432.1242335635635
 31
0.0
  0
LINE
  5
D21
330
1E
100
AcDbEntity
  8
STEMPEL
100
AcDbLine
 10
99.60786814589503
 20
432.1242335635635
 30
0.0
 11
99.33843089776704
 21
431.1186800640983
 31
0.0
  0
LINE
  5
D22
330
1E
100
AcDbEntity
  8
STEMPEL
100
AcDbLine
 10
99.33843089776704
 20
418.1186800640984
 30
0.0
 11
99.60786814589502
 21
417.1131265646332
 31
0.0
  0
LINE
  5
D23
330
1E
100
AcDbEntity
  8
STEMPEL
100
AcDbLine
 10
105.7925708436565
 20
417.1131265646332
 30
0.0
 11
99.60786814589502
 21
417.1131265646332
 31
0.0
  0
LINE
  5
D24
330
1E
100
AcDbEntity
  8
STEMPEL
100
AcDbLine
 10
107.338430897767
 20
432.9686800640983
 30
0.0
 11
107.338430897767
 21
416.2686800640983
 31
0.0
  0
LINE
  5
D25
330
1E
100
AcDbEntity
  8
HILF
100
AcDbLine
 10
106.1746153252955
 20
433.1738921500937
 30
0.0
 11
106.1746153252955
 21
416.063467978103
 31
0.0
  0
LINE
  5
D26
330
1E
100
AcDbEntity
  8
STEMPEL
100
AcDbLine
 10
105.7925708436565
 20
420.8659033143658
 30
0.0
 11
99.60786814589503
 21
420.8659033143658
 31
0.0
  0
LINE
  5
D27
330
1E
100
AcDbEntity
  8
STEMPEL
100
AcDbLine
 10
105.7925708436565
 20
428.3714568138309
 30
0.0
 11
99.60786814589503
 21
428.3714568138309
 31
0.0
  0
LINE
  5
D28
330
1E
100
AcDbEntity
  8
STEMPEL
100
AcDbLine
 10
105.7925708436565
 20
432.1242335635635
 30
0.0
 11
99.60786814589503
 21
432.1242335635635
 31
0.0
  0
LINE
  5
D29
330
1E
100
AcDbEntity
  8
STEMPEL
100
AcDbLine
 10
99.33843089776704
 20
418.1186800640984
 30
0.0
 11
99.33843089776704
 21
431.1186800640983
 31
0.0
  0
LWPOLYLINE
  5
D45
330
1E
100
AcDbEntity
  8
STEMPEL
100
AcDbPolyline
 90
        6
 70
     1
 43
0.0
 10
307.953414520691
 20
420.8659033143658
 10
314.453414520691
 20
417.1131265646332
 10
320.953414520691
 20
420.8659033143658
 10
320.953414520691
 20
428.3714568138309
 10
314.453414520691
 20
432.1242335635635
 10
307.953414520691
 20
428.3714568138309
  0
CIRCLE
  5
D46
330
1E
100
AcDbEntity
  8
STEMPEL
100
AcDbCircle
 10
314.453414520691
 20
424.6186800640983
 30
0.0
 40
8.949999999999997
  0
CIRCLE
  5
D47
330
1E
100
AcDbEntity
  8
HILF
100
AcDbCircle
 10
314.453414520691
 20
424.6186800640983
 30
0.0
 40
8.5552120859954
  0
CIRCLE
  5
D48
330
1E
100
AcDbEntity
  8
STEMPEL
100
AcDbCircle
 10
314.453414520691
 20
424.6186800640983
 30
0.0
 40
4.0
  0
ARC
  5
D49
330
1E
100
AcDbEntity
  8
HILF
100
AcDbCircle
 10
314.453414520691
 20
424.6186800640983
 30
0.0
 40
3.0
100
AcDbArc
 50
74.99999999999926
 51
15.00000000000074
  0
LINE
  5
D4A
330
1E
100
AcDbEntity
  8
MITTEL
100
AcDbLine
 10
300.503414520691
 20
424.6186800640983
 30
0.0
 11
328.403414520691
 21
424.6186800640983
 31
0.0
  0
CIRCLE
  5
D4B
330
1E
100
AcDbEntity
  8
STEMPEL
100
AcDbCircle
 10
314.453414520691
 20
424.6186800640983
 30
0.0
 40
6.499999999999993
  0
LWPOLYLINE
  5
D5C
330
1E
100
AcDbEntity
  8
STEMPEL
100
AcDbPolyline
 90
        6
 70
     1
 43
0.0
 10
307.953414520691
 20
316.8659033143658
 10
314.453414520691
 20
313.1131265646332
 10
320.953414520691
 20
316.8659033143658
 10
320.953414520691
 20
324.3714568138309
 10
314.453414520691
 20
328.1242335635635
 10
307.953414520691
 20
324.3714568138309
  0
CIRCLE
  5
D5D
330
1E
100
AcDbEntity
  8
STEMPEL
100
AcDbCircle
 10
314.453414520691
 20
320.6186800640983
 30
0.0
 40
8.949999999999997
  0
CIRCLE
  5
D5E
330
1E
100
AcDbEntity
  8
HILF
100
AcDbCircle
 10
314.453414520691
 20
320.6186800640983
 30
0.0
 40
8.5552120859954
  0
CIRCLE
  5
D5F
330
1E
100
AcDbEntity
  8
STEMPEL
100
AcDbCircle
 10
314.453414520691
 20
320.6186800640983
 30
0.0
 40
4.0
  0
ARC
  5
D60
330
1E
100
AcDbEntity
  8
HILF
100
AcDbCircle
 10
314.453414520691
 20
320.6186800640983
 30
0.0
 40
3.0
100
AcDbArc
 50
74.99999999999926
 51
15.00000000000074
  0
LINE
  5
D61
330
1E
100
AcDbEntity
  8
MITTEL
100
AcDbLine
 10
300.503414520691
 20
320.6186800640983
 30
0.0
 11
328.403414520691
 21
320.6186800640983
 31
0.0
  0
CIRCLE
  5
D62
330
1E
100
AcDbEntity
  8
STEMPEL
100
AcDbCircle
 10
314.453414520691
 20
320.6186800640983
 30
0.0
 40
6.499999999999993
  0
ARC
  5
D63
330
1E
100
AcDbEntity
  8
HILF
100
AcDbCircle
 10
314.453414520691
 20
326.6186800640984
 30
0.0
 40
13.38
100
AcDbArc
 50
302.8259942083612
 51
314.1691058674086
  0
ARC
  5
D64
330
1E
100
AcDbEntity
  8
HILF
100
AcDbCircle
 10
314.453414520691
 20
418.6186800640983
 30
0.0
 40
13.38
100
AcDbArc
 50
122.8259942083612
 51
134.1691058674086
  0
TEXT
  5
D74
330
1E
100
AcDbEntity
  8
TEXT
 62
     1
100
AcDbText
 10
191.136928318629
 20
139.6010238202559
 30
0.0
 40
7.0
  1
Werkstoff: Edelstahl
 41
0.8
  7
GREEKS
100
AcDbText
  0
ENDSEC
  0
SECTION
  2
OBJECTS
  0
DICTIONARY
  5
C
330
0
100
AcDbDictionary
281
     1
  3
ACAD_COLOR
350
11A
  3
ACAD_GROUP
350
D
  3
ACAD_LAYOUT
350
19
  3
ACAD_MATERIAL
350
119
  3
ACAD_MLINESTYLE
350
16
  3
ACAD_PLOTSETTINGS
350
18
  3
ACAD_PLOTSTYLENAME
350
E
  3
AcDbVariableDictionary
350
125
  0
DICTIONARY
  5
DB
330
1E
100
AcDbDictionary
280
     1
281
     1
  3
ACAD_LAYOUTSELFREF
360
10F
  0
DICTIONARY
  5
DD
330
1A
100
AcDbDictionary
280
     1
281
     1
  3
ACAD_LAYOUTSELFREF
360
10E
  0
DICTIONARY
  5
11A
102
{ACAD_REACTORS
330
C
102
}
330
C
100
AcDbDictionary
281
     1
  0
DICTIONARY
  5
D
102
{ACAD_REACTORS
330
C
102
}
330
C
100
AcDbDictionary
281
     1
  0
DICTIONARY
  5
19
102
{ACAD_REACTORS
330
C
102
}
330
C
100
AcDbDictionary
281
     1
  3
Layout1
350
1D
  3
Model
350
21
  0
DICTIONARY
  5
119
102
{ACAD_REACTORS
330
C
102
}
330
C
100
AcDbDictionary
281
     1
  0
DICTIONARY
  5
16
102
{ACAD_REACTORS
330
C
102
}
330
C
100
AcDbDictionary
281
     1
  3
Standard
350
17
  0
DICTIONARY
  5
18
102
{ACAD_REACTORS
330
C
102
}
330
C
100
AcDbDictionary
281
     1
  0
ACDBDICTIONARYWDFLT
  5
E
102
{ACAD_REACTORS
330
C
102
}
330
C
100
AcDbDictionary
281
     1
  3
Normal
350
F
100
AcDbDictionaryWithDefault
340
F
  0
DICTIONARY
  5
125
102
{ACAD_REACTORS
330
C
102
}
330
C
100
AcDbDictionary
281
     1
  3
DIMASSOC
350
126
  3
PROJECTNAME
350
127
  0
XRECORD
  5
10F
102
{ACAD_REACTORS
330
DB
102
}
330
DB
100
AcDbXrecord
280
     1
340
1E
  0
XRECORD
  5
10E
102
{ACAD_REACTORS
330
DD
102
}
330
DD
100
AcDbXrecord
280
     1
340
1A
  0
LAYOUT
  5
1D
102
{ACAD_REACTORS
330
19
102
}
330
19
100
AcDbPlotSettings
  1

  2
\\NT_WORK01\HP LaserJet 5000 PCL 6
  4

  6

 40
0.0
 41
0.0
 42
0.0
 43
0.0
 44
0.0
 45
0.0
 46
0.0
 47
0.0
 48
0.0
 49
0.0
140
0.0
141
0.0
142
1.0
143
1.0
 70
   688
 72
     0
 73
     0
 74
     5
  7

 75
    16
147
1.0
 76
     0
 77
     2
 78
   300
148
0.0
149
0.0
100
AcDbLayout
  1
Layout1
 70
     0
 71
     1
 10
0.0
 20
0.0
 11
12.0
 21
9.0
 12
0.0
 22
0.0
 32
0.0
 14
1.000000000000000E+20
 24
1.000000000000000E+20
 34
1.000000000000000E+20
 15
-1.000000000000000E+20
 25
-1.000000000000000E+20
 35
-1.000000000000000E+20
146
0.0
 13
0.0
 23
0.0
 33
0.0
 16
1.0
 26
0.0
 36
0.0
 17
0.0
 27
1.0
 37
0.0
 76
     0
330
1A
  0
LAYOUT
  5
21
102
{ACAD_REACTORS
330
19
102
}
330
19
100
AcDbPlotSettings
  1

  2
none_device
  4
Letter_(8.50_x_11.00_Inches)
  6

 40
6.349999904632568
 41
6.349999904632568
 42
6.350006103515625
 43
6.350006103515625
 44
215.8999938964844
 45
279.3999938964844
 46
0.0
 47
0.0
 48
0.0
 49
0.0
140
0.0
141
0.0
142
1.0
143
1.0
 70
 11952
 72
     0
 73
     1
 74
     0
  7

 75
     0
147
1.0
 76
     0
 77
     2
 78
   300
148
2209.800000000001
149
0.0
100
AcDbLayout
  1
Model
 70
     1
 71
     0
 10
0.0
 20
0.0
 11
12.0
 21
9.0
 12
0.0
 22
0.0
 32
0.0
 14
0.0
 24
0.0
 34
0.0
 15
0.0
 25
0.0
 35
0.0
146
0.0
 13
0.0
 23
0.0
 33
0.0
 16
1.0
 26
0.0
 36
0.0
 17
0.0
 27
1.0
 37
0.0
 76
     0
330
1E
  0
MLINESTYLE
  5
17
102
{ACAD_REACTORS
330
16
102
}
330
16
100
AcDbMlineStyle
  2
STANDARD
 70
     0
  3

 62
   256
 51
90.0
 52
90.0
 71
     2
 49
0.5
 62
   256
  6
BYLAYER
 49
-0.5
 62
   256
  6
BYLAYER
  0
ACDBPLACEHOLDER
  5
F
102
{ACAD_REACTORS
330
E
102
}
330
E
  0
DICTIONARYVAR
  5
126
102
{ACAD_REACTORS
330
125
102
}
330
125
100
DictionaryVariables
280
     0
  1
1
  0
DICTIONARYVAR
  5
127
102
{ACAD_REACTORS
330
125
102
}
330
125
100
DictionaryVariables
280
     0
  1

  0
ENDSEC
  0
EOF
