  0
SECTION
  2
HEADER
  9
$ACADVER
  1
AC1018
  9
$ACADMAINTVER
 70
     2
  9
$DWGCODEPAGE
  3
ANSI_1252
  9
$INSBASE
 10
0.0
 20
0.0
 30
0.0
  9
$EXTMIN
 10
-0.02563359212877
 20
-0.0362532231533805
 30
-0.0000000349181948
  9
$EXTMAX
 10
420.0256375038029
 20
594.0362587553789
 30
0.0000000814935746
  9
$LIMMIN
 10
0.0
 20
0.0
  9
$LIMMAX
 10
419.9999999999999
 20
594.0000000000002
  9
$ORTHOMODE
 70
     1
  9
$REGENMODE
 70
     1
  9
$FILLMODE
 70
     1
  9
$QTEXTMODE
 70
     0
  9
$MIRRTEXT
 70
     1
  9
$LTSCALE
 40
20.0
  9
$ATTMODE
 70
     1
  9
$TEXTSIZE
 40
3.5
  9
$TRACEWID
 40
1.0
  9
$TEXTSTYLE
  7
STANDARD
  9
$CLAYER
  8
SCHRAFF
  9
$CELTYPE
  6
ByLayer
  9
$CECOLOR
 62
   256
  9
$CELTSCALE
 40
1.0
  9
$DISPSILH
 70
     0
  9
$DIMSCALE
 40
2.0
  9
$DIMASZ
 40
3.5
  9
$DIMEXO
 40
1.0
  9
$DIMDLI
 40
7.0
  9
$DIMRND
 40
0.0
  9
$DIMDLE
 40
0.0
  9
$DIMEXE
 40
1.0
  9
$DIMTP
 40
0.0
  9
$DIMTM
 40
0.0
  9
$DIMTXT
 40
3.5
  9
$DIMCEN
 40
1.5
  9
$DIMTSZ
 40
0.0
  9
$DIMTOL
 70
     0
  9
$DIMLIM
 70
     0
  9
$DIMTIH
 70
     0
  9
$DIMTOH
 70
     0
  9
$DIMSE1
 70
     0
  9
$DIMSE2
 70
     0
  9
$DIMTAD
 70
     1
  9
$DIMZIN
 70
     8
  9
$DIMBLK
  1

  9
$DIMASO
 70
     1
  9
$DIMSHO
 70
     0
  9
$DIMPOST
  1

  9
$DIMAPOST
  1

  9
$DIMALT
 70
     0
  9
$DIMALTD
 70
     2
  9
$DIMALTF
 40
25.4
  9
$DIMLFAC
 40
1.0
  9
$DIMTOFL
 70
     1
  9
$DIMTVP
 40
0.0
  9
$DIMTIX
 70
     0
  9
$DIMSOXD
 70
     0
  9
$DIMSAH
 70
     0
  9
$DIMBLK1
  1

  9
$DIMBLK2
  1

  9
$DIMSTYLE
  2
Standard
  9
$DIMCLRD
 70
     0
  9
$DIMCLRE
 70
     0
  9
$DIMCLRT
 70
     1
  9
$DIMTFAC
 40
0.5142857142857144
  9
$DIMGAP
 40
1.5
  9
$DIMJUST
 70
     0
  9
$DIMSD1
 70
     0
  9
$DIMSD2
 70
     0
  9
$DIMTOLJ
 70
     1
  9
$DIMTZIN
 70
     8
  9
$DIMALTZ
 70
     8
  9
$DIMALTTZ
 70
     8
  9
$DIMUPT
 70
     0
  9
$DIMDEC
 70
     2
  9
$DIMTDEC
 70
     2
  9
$DIMALTU
 70
     2
  9
$DIMALTTD
 70
     2
  9
$DIMTXSTY
  7
STANDARD
  9
$DIMAUNIT
 70
     0
  9
$DIMADEC
 70
     2
  9
$DIMALTRND
 40
0.0
  9
$DIMAZIN
 70
     2
  9
$DIMDSEP
 70
    46
  9
$DIMATFIT
 70
     3
  9
$DIMFRAC
 70
     0
  9
$DIMLDRBLK
  1

  9
$DIMLUNIT
 70
     2
  9
$DIMLWD
 70
    -2
  9
$DIMLWE
 70
    -2
  9
$DIMTMOVE
 70
     0
  9
$LUNITS
 70
     2
  9
$LUPREC
 70
     2
  9
$SKETCHINC
 40
1.0
  9
$FILLETRAD
 40
4.0
  9
$AUNITS
 70
     0
  9
$AUPREC
 70
     0
  9
$MENU
  1
ACAD
  9
$ELEVATION
 40
0.0
  9
$PELEVATION
 40
0.0
  9
$THICKNESS
 40
0.0
  9
$LIMCHECK
 70
     0
  9
$CHAMFERA
 40
0.0
  9
$CHAMFERB
 40
0.0
  9
$CHAMFERC
 40
0.0
  9
$CHAMFERD
 40
0.0
  9
$SKPOLY
 70
     0
  9
$TDCREATE
 40
2455397.825393172
  9
$TDUCREATE
 40
2455397.783726505
  9
$TDUPDATE
 40
2455944.314643183
  9
$TDUUPDATE
 40
2455944.272976516
  9
$TDINDWG
 40
0.1009302894
  9
$TDUSRTIMER
 40
0.1009302894
  9
$USRTIMER
 70
     1
  9
$ANGBASE
 50
0.0
  9
$ANGDIR
 70
     0
  9
$PDMODE
 70
     0
  9
$PDSIZE
 40
0.0
  9
$PLINEWID
 40
0.0
  9
$SPLFRAME
 70
     0
  9
$SPLINETYPE
 70
     6
  9
$SPLINESEGS
 70
     8
  9
$HANDSEED
  5
AE0
  9
$SURFTAB1
 70
     6
  9
$SURFTAB2
 70
     6
  9
$SURFTYPE
 70
     6
  9
$SURFU
 70
     6
  9
$SURFV
 70
     6
  9
$UCSBASE
  2

  9
$UCSNAME
  2

  9
$UCSORG
 10
0.0
 20
0.0
 30
0.0
  9
$UCSXDIR
 10
1.0
 20
0.0
 30
0.0
  9
$UCSYDIR
 10
0.0
 20
1.0
 30
0.0
  9
$UCSORTHOREF
  2

  9
$UCSORTHOVIEW
 70
     0
  9
$UCSORGTOP
 10
0.0
 20
0.0
 30
0.0
  9
$UCSORGBOTTOM
 10
0.0
 20
0.0
 30
0.0
  9
$UCSORGLEFT
 10
0.0
 20
0.0
 30
0.0
  9
$UCSORGRIGHT
 10
0.0
 20
0.0
 30
0.0
  9
$UCSORGFRONT
 10
0.0
 20
0.0
 30
0.0
  9
$UCSORGBACK
 10
0.0
 20
0.0
 30
0.0
  9
$PUCSBASE
  2

  9
$PUCSNAME
  2

  9
$PUCSORG
 10
0.0
 20
0.0
 30
0.0
  9
$PUCSXDIR
 10
1.0
 20
0.0
 30
0.0
  9
$PUCSYDIR
 10
0.0
 20
1.0
 30
0.0
  9
$PUCSORTHOREF
  2

  9
$PUCSORTHOVIEW
 70
     0
  9
$PUCSORGTOP
 10
0.0
 20
0.0
 30
0.0
  9
$PUCSORGBOTTOM
 10
0.0
 20
0.0
 30
0.0
  9
$PUCSORGLEFT
 10
0.0
 20
0.0
 30
0.0
  9
$PUCSORGRIGHT
 10
0.0
 20
0.0
 30
0.0
  9
$PUCSORGFRONT
 10
0.0
 20
0.0
 30
0.0
  9
$PUCSORGBACK
 10
0.0
 20
0.0
 30
0.0
  9
$USERI1
 70
     0
  9
$USERI2
 70
     0
  9
$USERI3
 70
     0
  9
$USERI4
 70
     0
  9
$USERI5
 70
     0
  9
$USERR1
 40
0.0
  9
$USERR2
 40
0.0
  9
$USERR3
 40
0.0
  9
$USERR4
 40
0.0
  9
$USERR5
 40
0.0
  9
$WORLDVIEW
 70
     1
  9
$SHADEDGE
 70
     3
  9
$SHADEDIF
 70
    70
  9
$TILEMODE
 70
     1
  9
$MAXACTVP
 70
    16
  9
$PINSBASE
 10
0.0
 20
0.0
 30
0.0
  9
$PLIMCHECK
 70
     0
  9
$PEXTMIN
 10
1.000000000000000E+20
 20
1.000000000000000E+20
 30
1.000000000000000E+20
  9
$PEXTMAX
 10
-1.000000000000000E+20
 20
-1.000000000000000E+20
 30
-1.000000000000000E+20
  9
$PLIMMIN
 10
0.0
 20
0.0
  9
$PLIMMAX
 10
12.0
 20
9.0
  9
$UNITMODE
 70
     0
  9
$VISRETAIN
 70
     0
  9
$PLINEGEN
 70
     0
  9
$PSLTSCALE
 70
     0
  9
$TREEDEPTH
 70
  3020
  9
$CMLSTYLE
  2
Standard
  9
$CMLJUST
 70
     0
  9
$CMLSCALE
 40
1.0
  9
$PROXYGRAPHICS
 70
     1
  9
$MEASUREMENT
 70
     0
  9
$CELWEIGHT
370
    -1
  9
$ENDCAPS
280
     0
  9
$JOINSTYLE
280
     0
  9
$LWDISPLAY
290
     0
  9
$INSUNITS
 70
     0
  9
$HYPERLINKBASE
  1

  9
$STYLESHEET
  1
monochrome 1.ctb
  9
$XEDIT
290
     1
  9
$CEPSNTYPE
380
     0
  9
$PSTYLEMODE
290
     1
  9
$FINGERPRINTGUID
  2
{D68B0D0D-A558-11D7-B632-000102183313}
  9
$VERSIONGUID
  2
{DCAED64C-6555-4466-94B0-0F52580848D0}
  9
$EXTNAMES
290
     1
  9
$PSVPSCALE
 40
0.0
  9
$OLESTARTUP
290
     0
  9
$SORTENTS
280
   127
  9
$INDEXCTL
280
     0
  9
$HIDETEXT
280
     0
  9
$XCLIPFRAME
290
     0
  9
$HALOGAP
280
     0
  9
$OBSCOLOR
 70
   257
  9
$OBSLTYPE
280
     0
  9
$INTERSECTIONDISPLAY
280
     0
  9
$INTERSECTIONCOLOR
 70
   257
  9
$DIMASSOC
280
     1
  9
$PROJECTNAME
  1

  0
ENDSEC
  0
SECTION
  2
CLASSES
  0
CLASS
  1
ACDBDICTIONARYWDFLT
  2
AcDbDictionaryWithDefault
  3
ObjectDBX Classes
 90
        0
 91
        1
280
     0
281
     0
  0
CLASS
  1
DICTIONARYVAR
  2
AcDbDictionaryVar
  3
ObjectDBX Classes
 90
        0
 91
        2
280
     0
281
     0
  0
ENDSEC
  0
SECTION
  2
TABLES
  0
TABLE
  2
VPORT
  5
8
330
0
100
AcDbSymbolTable
 70
     3
  0
VPORT
  5
ADF
330
8
100
AcDbSymbolTableRecord
100
AcDbViewportTableRecord
  2
*Active
 70
     0
 10
0.0
 20
0.0
 11
1.0
 21
1.0
 12
210.0
 22
297.0000000000001
 13
0.0
 23
0.0
 14
1.0
 24
1.0
 15
10.0
 25
10.0
 16
0.0
 26
0.0
 36
1.0
 17
0.0
 27
0.0
 37
0.0
 40
594.0000000000002
 41
1.352941176470588
 42
50.0
 43
0.0
 44
0.0
 50
0.0
 51
0.0
 71
     0
 72
  1500
 73
     1
 74
     0
 75
     0
 76
     0
 77
     0
 78
     0
281
     0
 65
     1
110
0.0
120
0.0
130
0.0
111
1.0
121
0.0
131
0.0
112
0.0
122
1.0
132
0.0
 79
     0
146
0.0
  0
ENDTAB
  0
TABLE
  2
LTYPE
  5
5
330
0
100
AcDbSymbolTable
 70
     2
  0
LTYPE
  5
13
330
5
100
AcDbSymbolTableRecord
100
AcDbLinetypeTableRecord
  2
ByBlock
 70
     0
  3

 72
    65
 73
     0
 40
0.0
  0
LTYPE
  5
14
330
5
100
AcDbSymbolTableRecord
100
AcDbLinetypeTableRecord
  2
ByLayer
 70
     0
  3

 72
    65
 73
     0
 40
0.0
  0
LTYPE
  5
15
330
5
100
AcDbSymbolTableRecord
100
AcDbLinetypeTableRecord
  2
Continuous
 70
     0
  3
Solid line
 72
    65
 73
     0
 40
0.0
  0
LTYPE
  5
25
330
5
100
AcDbSymbolTableRecord
100
AcDbLinetypeTableRecord
  2
STRICHPUNKT
 70
     0
  3
__ . __ . __ . __ . __ . __ . __ . __ . __ . __
 72
    65
 73
     4
 40
1.0
 49
0.5
 74
     0
 49
-0.25
 74
     0
 49
0.0
 74
     0
 49
-0.25
 74
     0
  0
ENDTAB
  0
TABLE
  2
LAYER
  5
2
330
0
100
AcDbSymbolTable
 70
     9
  0
LAYER
  5
10
330
2
100
AcDbSymbolTableRecord
100
AcDbLayerTableRecord
  2
0
 70
     0
 62
     7
  6
Continuous
370
    -3
390
F
  0
LAYER
  5
2B
330
2
100
AcDbSymbolTableRecord
100
AcDbLayerTableRecord
  2
VOLL
 70
     0
 62
     1
  6
Continuous
370
    -3
390
F
  0
LAYER
  5
2C
330
2
100
AcDbSymbolTableRecord
100
AcDbLayerTableRecord
  2
HILF
 70
     0
 62
     2
  6
Continuous
370
    -3
390
F
  0
LAYER
  5
2D
330
2
100
AcDbSymbolTableRecord
100
AcDbLayerTableRecord
  2
MITTEL
 70
     0
 62
     2
  6
STRICHPUNKT
370
    -3
390
F
  0
LAYER
  5
2F
330
2
100
AcDbSymbolTableRecord
100
AcDbLayerTableRecord
  2
BEM
 70
     0
 62
     7
  6
Continuous
370
    -3
390
F
  0
LAYER
  5
30
330
2
100
AcDbSymbolTableRecord
100
AcDbLayerTableRecord
  2
STEMPEL
 70
     0
 62
     3
  6
Continuous
370
    -3
390
F
  0
LAYER
  5
33
330
2
100
AcDbSymbolTableRecord
100
AcDbLayerTableRecord
  2
TEXT
 70
     0
 62
     7
  6
Continuous
370
    -3
390
F
  0
LAYER
  5
1A3
330
2
100
AcDbSymbolTableRecord
100
AcDbLayerTableRecord
  2
Defpoints
 70
     0
 62
     7
  6
Continuous
290
     0
370
    -3
390
F
  0
LAYER
  5
1A4
330
2
100
AcDbSymbolTableRecord
100
AcDbLayerTableRecord
  2
SCHRAFF
 70
     0
 62
     7
  6
Continuous
370
    -3
390
F
  0
ENDTAB
  0
TABLE
  2
STYLE
  5
3
330
0
100
AcDbSymbolTable
 70
     2
  0
STYLE
  5
11
330
3
100
AcDbSymbolTableRecord
100
AcDbTextStyleTableRecord
  2
STANDARD
 70
     0
 40
0.0
 41
0.8
 50
0.0
 71
     0
 42
3.5
  3
simplex.shx
  4

  0
STYLE
  5
24
330
3
100
AcDbSymbolTableRecord
100
AcDbTextStyleTableRecord
  2
GREEKS
 70
     0
 40
0.0
 41
0.8
 50
0.0
 71
     0
 42
2.5
  3
SIMPLEX.shx
  4

  0
ENDTAB
  0
TABLE
  2
VIEW
  5
6
330
0
100
AcDbSymbolTable
 70
     0
  0
ENDTAB
  0
TABLE
  2
UCS
  5
7
330
0
100
AcDbSymbolTable
 70
     0
  0
ENDTAB
  0
TABLE
  2
APPID
  5
9
330
0
100
AcDbSymbolTable
 70
     1
  0
APPID
  5
12
330
9
100
AcDbSymbolTableRecord
100
AcDbRegAppTableRecord
  2
ACAD
 70
     0
  0
ENDTAB
  0
TABLE
  2
DIMSTYLE
  5
A
330
0
100
AcDbSymbolTable
 70
     1
100
AcDbDimStyleTable
 71
     1
340
A2
  0
DIMSTYLE
105
A2
102
{ACAD_REACTORS
330
53A
330
31B
330
3F3
102
}
330
A
100
AcDbSymbolTableRecord
100
AcDbDimStyleTableRecord
  2
Standard
 70
     0
340
11
  0
ENDTAB
  0
TABLE
  2
BLOCK_RECORD
  5
1
330
0
100
AcDbSymbolTable
 70
     6
  0
BLOCK_RECORD
  5
1E
102
{ACAD_XDICTIONARY
360
DB
102
}
330
1
100
AcDbSymbolTableRecord
100
AcDbBlockTableRecord
  2
*Model_Space
340
21
  0
BLOCK_RECORD
  5
1A
102
{ACAD_XDICTIONARY
360
DD
102
}
330
1
100
AcDbSymbolTableRecord
100
AcDbBlockTableRecord
  2
*Paper_Space
340
1D
  0
BLOCK_RECORD
  5
22
330
1
100
AcDbSymbolTableRecord
100
AcDbBlockTableRecord
  2
LOGO
340
0
102
{BLKREFS
331
6BC
102
}
  0
BLOCK_RECORD
  5
340
330
1
100
AcDbSymbolTableRecord
100
AcDbBlockTableRecord
  2
*D1
340
0
  0
BLOCK_RECORD
  5
3F4
330
1
100
AcDbSymbolTableRecord
100
AcDbBlockTableRecord
  2
*D2
340
0
  0
BLOCK_RECORD
  5
53B
330
1
100
AcDbSymbolTableRecord
100
AcDbBlockTableRecord
  2
*D3
340
0
  0
BLOCK_RECORD
  5
842
330
1
100
AcDbSymbolTableRecord
100
AcDbBlockTableRecord
  2
*X4
340
0
102
{BLKREFS
331
993
102
}
  0
BLOCK_RECORD
  5
85A
330
1
100
AcDbSymbolTableRecord
100
AcDbBlockTableRecord
  2
*X5
340
0
102
{BLKREFS
331
995
102
}
  0
ENDTAB
  0
ENDSEC
  0
SECTION
  2
BLOCKS
  0
BLOCK
  5
37
330
1E
100
AcDbEntity
  8
0
100
AcDbBlockBegin
  2
*Model_Space
 70
     0
 10
0.0
 20
0.0
 30
0.0
  3
*Model_Space
  1

  0
ENDBLK
  5
38
330
1E
100
AcDbEntity
  8
0
100
AcDbBlockEnd
  0
BLOCK
  5
35
330
1A
100
AcDbEntity
 67
     1
  8
0
100
AcDbBlockBegin
  2
*Paper_Space
 70
     0
 10
0.0
 20
0.0
 30
0.0
  3
*Paper_Space
  1

  0
ENDBLK
  5
36
330
1A
100
AcDbEntity
 67
     1
  8
0
100
AcDbBlockEnd
  0
BLOCK
  5
39
330
22
100
AcDbEntity
  8
0
100
AcDbBlockBegin
  2
LOGO
 70
     0
 10
0.0
 20
0.0
 30
0.0
  3
LOGO
  1

  0
ARC
  5
3A
330
22
100
AcDbEntity
  8
0
100
AcDbCircle
 10
11.59973089678112
 20
-9.271599258481501
 30
0.0
 40
4.5
100
AcDbArc
 50
270.0
 51
231.0575587310159
  0
LINE
  5
3B
330
22
100
AcDbEntity
  8
0
100
AcDbLine
 10
3.599730896781125
 20
-4.771599258481529
 30
0.0
 11
3.599730896781153
 21
-11.77159925848133
 31
0.0
  0
LINE
  5
3C
330
22
100
AcDbEntity
  8
0
100
AcDbLine
 10
2.599730896781125
 20
-4.771599258481529
 30
0.0
 11
2.599730896781153
 21
-11.77159925848133
 31
0.0
  0
CIRCLE
  5
3D
330
22
100
AcDbEntity
  8
0
100
AcDbCircle
 10
11.59973089678112
 20
-9.271599258481501
 30
0.0
 40
3.5
  0
ARC
  5
3E
330
22
100
AcDbEntity
  8
0
100
AcDbCircle
 10
31.59973089678115
 20
-9.271599258481472
 30
0.0
 40
4.5
100
AcDbArc
 50
270.0
 51
231.0575587310182
  0
LINE
  5
3F
330
22
100
AcDbEntity
  8
0
100
AcDbLine
 10
17.59973089678112
 20
-4.771599258481472
 30
0.0
 11
17.59973089678115
 21
-13.77159925848147
 31
0.0
  0
ARC
  5
40
330
22
100
AcDbEntity
  8
0
100
AcDbCircle
 10
22.59973089678116
 20
-7.271599258481472
 30
0.0
 40
2.5
100
AcDbArc
 50
293.1161887722295
 51
90.0
  0
CIRCLE
  5
41
330
22
100
AcDbEntity
  8
0
100
AcDbCircle
 10
31.59973089678115
 20
-9.271599258481472
 30
0.0
 40
3.5
  0
ARC
  5
42
330
22
100
AcDbEntity
  8
0
100
AcDbCircle
 10
4.599730896781153
 20
-11.77159925848133
 30
0.0
 40
1.0
100
AcDbArc
 50
180.0
 51
270.0
  0
ARC
  5
43
330
22
100
AcDbEntity
  8
0
100
AcDbCircle
 10
4.599730896781153
 20
-11.77159925848133
 30
0.0
 40
2.0
100
AcDbArc
 50
179.9999999999992
 51
270.0
  0
LINE
  5
44
330
22
100
AcDbEntity
  8
0
100
AcDbLine
 10
11.59973089678115
 20
-13.77159925848144
 30
0.0
 11
4.599730896781153
 21
-13.77159925848147
 31
0.0
  0
LINE
  5
45
330
22
100
AcDbEntity
  8
0
100
AcDbLine
 10
8.771303772034769
 20
-12.77159925848136
 30
0.0
 11
4.599730896781153
 21
-12.77159925848133
 31
0.0
  0
LINE
  5
46
330
22
100
AcDbEntity
  8
0
100
AcDbLine
 10
31.59973089678115
 20
-13.77159925848147
 30
0.0
 11
23.6715276665056
 21
-13.77159925848144
 31
0.0
  0
LINE
  5
47
330
22
100
AcDbEntity
  8
0
100
AcDbLine
 10
23.56565672307022
 20
-9.51278021337896
 30
0.0
 11
24.4388546544846
 21
-12.77159925848144
 31
0.0
  0
LINE
  5
48
330
22
100
AcDbEntity
  8
0
100
AcDbLine
 10
22.59973089678116
 20
-9.771599258481472
 30
0.0
 11
18.59973089678112
 21
-9.771599258481472
 31
0.0
  0
LINE
  5
49
330
22
100
AcDbEntity
  8
0
100
AcDbLine
 10
18.59973089678115
 20
-13.77159925848144
 30
0.0
 11
17.59973089678115
 21
-13.77159925848144
 31
0.0
  0
LINE
  5
4A
330
22
100
AcDbEntity
  8
0
100
AcDbLine
 10
18.59973089678115
 20
-9.771599258481472
 30
0.0
 11
18.59973089678115
 21
-13.77159925848144
 31
0.0
  0
LINE
  5
4B
330
22
100
AcDbEntity
  8
0
100
AcDbLine
 10
22.59973089678116
 20
-9.771599258481472
 30
0.0
 11
23.67152766650562
 21
-13.77159925848147
 31
0.0
  0
ARC
  5
4C
330
22
100
AcDbEntity
  8
0
100
AcDbCircle
 10
22.59973089678116
 20
-7.271599258481472
 30
0.0
 40
2.5
100
AcDbArc
 50
270.0
 51
270.0000000000007
  0
LINE
  5
4D
330
22
100
AcDbEntity
  8
0
100
AcDbLine
 10
28.77130377203494
 20
-12.77159925848147
 30
0.0
 11
24.43885465448463
 21
-12.77159925848144
 31
0.0
  0
LINE
  5
4E
330
22
100
AcDbEntity
  8
0
100
AcDbLine
 10
3.599730896781125
 20
-4.771599258481472
 30
0.0
 11
2.599730896781125
 21
-4.771599258481472
 31
0.0
  0
LINE
  5
4F
330
22
100
AcDbEntity
  8
0
100
AcDbLine
 10
22.59973089678116
 20
-8.771599258481472
 30
0.0
 11
18.59973089678115
 21
-8.771599258481472
 31
0.0
  0
LINE
  5
50
330
22
100
AcDbEntity
  8
0
100
AcDbLine
 10
22.59973089678116
 20
-5.771599258481472
 30
0.0
 11
18.59973089678115
 21
-5.771599258481472
 31
0.0
  0
LINE
  5
51
330
22
100
AcDbEntity
  8
0
100
AcDbLine
 10
22.59973089678116
 20
-4.771599258481472
 30
0.0
 11
17.59973089678115
 21
-4.771599258481472
 31
0.0
  0
LINE
  5
52
330
22
100
AcDbEntity
  8
0
100
AcDbLine
 10
18.59973089678115
 20
-5.771599258481472
 30
0.0
 11
18.59973089678115
 21
-8.771599258481472
 31
0.0
  0
ARC
  5
53
330
22
100
AcDbEntity
  8
0
100
AcDbCircle
 10
22.59973089678116
 20
-7.271599258481472
 30
0.0
 40
1.5
100
AcDbArc
 50
270.0
 51
90.0
  0
ENDBLK
  5
54
330
22
100
AcDbEntity
  8
0
100
AcDbBlockEnd
  0
BLOCK
  5
34A
330
340
100
AcDbEntity
  8
0
100
AcDbBlockBegin
  2
*D1
 70
     1
 10
0.0
 20
0.0
 30
0.0
  3
*D1
  1

  0
LINE
  5
72C
330
340
100
AcDbEntity
  8
BEM
 62
     0
370
    -2
100
AcDbLine
 10
283.6236486170567
 20
236.9449885989136
 30
0.0
 11
283.6236486170567
 21
207.5804775145491
 31
0.0
  0
LINE
  5
72D
330
340
100
AcDbEntity
  8
BEM
 62
     0
370
    -2
100
AcDbLine
 10
356.6236486170566
 20
236.9449885989136
 30
0.0
 11
356.6236486170566
 21
207.5804775145491
 31
0.0
  0
LINE
  5
72E
330
340
100
AcDbEntity
  8
BEM
 62
     0
370
    -2
100
AcDbLine
 10
290.6236486170567
 20
209.5804775145491
 30
0.0
 11
349.6236486170566
 21
209.5804775145491
 31
0.0
  0
SOLID
  5
72F
330
340
100
AcDbEntity
  8
BEM
 62
     0
100
AcDbTrace
 10
290.6236486170567
 20
210.7471441812158
 30
0.0
 11
290.6236486170567
 21
208.4138108478824
 31
0.0
 12
283.6236486170567
 22
209.5804775145491
 32
0.0
 13
283.6236486170567
 23
209.5804775145491
 33
0.0
  0
SOLID
  5
730
330
340
100
AcDbEntity
  8
BEM
 62
     0
100
AcDbTrace
 10
349.6236486170566
 20
210.7471441812158
 30
0.0
 11
349.6236486170566
 21
208.4138108478824
 31
0.0
 12
356.6236486170566
 22
209.5804775145491
 32
0.0
 13
356.6236486170566
 23
209.5804775145491
 33
0.0
  0
MTEXT
  5
731
330
340
100
AcDbEntity
  8
BEM
 62
     1
100
AcDbMText
 10
320.1236486170566
 20
216.0804775145491
 30
0.0
 40
7.0
 41
0.0
 71
     5
 72
     1
  1
\A1;%%C73
 73
     1
 44
1.0
  0
POINT
  5
732
330
340
100
AcDbEntity
  8
Defpoints
 62
     0
100
AcDbPoint
 10
283.6236486170567
 20
238.9449885989136
 30
0.0
  0
POINT
  5
733
330
340
100
AcDbEntity
  8
Defpoints
 62
     0
100
AcDbPoint
 10
356.6236486170566
 20
238.9449885989136
 30
0.0
  0
POINT
  5
734
330
340
100
AcDbEntity
  8
Defpoints
 62
     0
100
AcDbPoint
 10
356.6236486170566
 20
209.5804775145491
 30
0.0
  0
ENDBLK
  5
34B
330
340
100
AcDbEntity
  8
0
100
AcDbBlockEnd
  0
BLOCK
  5
3FE
330
3F4
100
AcDbEntity
  8
0
100
AcDbBlockBegin
  2
*D2
 70
     1
 10
0.0
 20
0.0
 30
0.0
  3
*D2
  1

  0
LINE
  5
73E
330
3F4
100
AcDbEntity
  8
BEM
 62
     0
370
    -2
100
AcDbLine
 10
203.5279673340931
 20
232.0148461075751
 30
0.0
 11
228.2520504741207
 21
232.0148461075751
 31
0.0
  0
LINE
  5
73F
330
3F4
100
AcDbEntity
  8
BEM
 62
     0
370
    -2
100
AcDbLine
 10
207.3996735669816
 20
487.0117242271915
 30
0.0
 11
228.2520504741208
 21
487.0117242271915
 31
0.0
  0
LINE
  5
740
330
3F4
100
AcDbEntity
  8
BEM
 62
     0
370
    -2
100
AcDbLine
 10
226.2520504741207
 20
239.0148461075751
 30
0.0
 11
226.2520504741208
 21
480.0117242271915
 31
0.0
  0
SOLID
  5
741
330
3F4
100
AcDbEntity
  8
BEM
 62
     0
100
AcDbTrace
 10
225.0853838074541
 20
239.0148461075751
 30
0.0
 11
227.4187171407874
 21
239.0148461075751
 31
0.0
 12
226.2520504741207
 22
232.0148461075751
 32
0.0
 13
226.2520504741207
 23
232.0148461075751
 33
0.0
  0
SOLID
  5
742
330
3F4
100
AcDbEntity
  8
BEM
 62
     0
100
AcDbTrace
 10
225.0853838074541
 20
480.0117242271915
 30
0.0
 11
227.4187171407874
 21
480.0117242271915
 31
0.0
 12
226.2520504741208
 22
487.0117242271915
 32
0.0
 13
226.2520504741208
 23
487.0117242271915
 33
0.0
  0
MTEXT
  5
743
330
3F4
100
AcDbEntity
  8
BEM
 62
     1
100
AcDbMText
 10
219.7520504741207
 20
359.5132851673834
 30
0.0
 40
7.0
 41
0.0
 71
     5
 72
     1
  1
\A1;255
 11
0.0000000000000001
 21
1.0
 31
0.0
 73
     1
 44
1.0
  0
POINT
  5
744
330
3F4
100
AcDbEntity
  8
Defpoints
 62
     0
100
AcDbPoint
 10
201.5279673340931
 20
232.0148461075751
 30
0.0
  0
POINT
  5
745
330
3F4
100
AcDbEntity
  8
Defpoints
 62
     0
100
AcDbPoint
 10
205.3996735669816
 20
487.0117242271915
 30
0.0
  0
POINT
  5
746
330
3F4
100
AcDbEntity
  8
Defpoints
 62
     0
100
AcDbPoint
 10
226.2520504741208
 20
487.0117242271915
 30
0.0
  0
ENDBLK
  5
3FF
330
3F4
100
AcDbEntity
  8
0
100
AcDbBlockEnd
  0
BLOCK
  5
545
330
53B
100
AcDbEntity
  8
0
100
AcDbBlockBegin
  2
*D3
 70
     1
 10
0.0
 20
0.0
 30
0.0
  3
*D3
  1

  0
LINE
  5
824
330
53B
100
AcDbEntity
  8
SCHRAFF
 62
     0
370
    -2
100
AcDbLine
 10
358.0173397124452
 20
232.0148461075751
 30
0.0
 11
382.0518931192239
 21
232.0148461075751
 31
0.0
  0
LINE
  5
825
330
53B
100
AcDbEntity
  8
SCHRAFF
 62
     0
370
    -2
100
AcDbLine
 10
367.1236486170566
 20
357.014846107575
 30
0.0
 11
382.0518931192239
 21
357.014846107575
 31
0.0
  0
LINE
  5
826
330
53B
100
AcDbEntity
  8
SCHRAFF
 62
     0
370
    -2
100
AcDbLine
 10
380.0518931192239
 20
239.0148461075751
 30
0.0
 11
380.0518931192239
 21
350.0148461075749
 31
0.0
  0
SOLID
  5
827
330
53B
100
AcDbEntity
  8
SCHRAFF
 62
     0
100
AcDbTrace
 10
378.8852264525572
 20
239.0148461075751
 30
0.0
 11
381.2185597858906
 21
239.0148461075751
 31
0.0
 12
380.0518931192239
 22
232.0148461075751
 32
0.0
 13
380.0518931192239
 23
232.0148461075751
 33
0.0
  0
SOLID
  5
828
330
53B
100
AcDbEntity
  8
SCHRAFF
 62
     0
100
AcDbTrace
 10
378.8852264525572
 20
350.0148461075749
 30
0.0
 11
381.2185597858906
 21
350.0148461075749
 31
0.0
 12
380.0518931192239
 22
357.014846107575
 32
0.0
 13
380.0518931192239
 23
357.014846107575
 33
0.0
  0
MTEXT
  5
829
330
53B
100
AcDbEntity
  8
SCHRAFF
 62
     1
100
AcDbMText
 10
373.5518931192239
 20
294.5148461075751
 30
0.0
 40
7.0
 41
0.0
 71
     5
 72
     1
  1
\A1;125
 11
0.0000000000000001
 21
1.0
 31
0.0
 73
     1
 44
1.0
  0
POINT
  5
82A
330
53B
100
AcDbEntity
  8
Defpoints
 62
     0
100
AcDbPoint
 10
356.0173397124452
 20
232.0148461075751
 30
0.0
  0
POINT
  5
82B
330
53B
100
AcDbEntity
  8
Defpoints
 62
     0
100
AcDbPoint
 10
365.1236486170566
 20
357.014846107575
 30
0.0
  0
POINT
  5
82C
330
53B
100
AcDbEntity
  8
Defpoints
 62
     0
100
AcDbPoint
 10
380.0518931192239
 20
357.014846107575
 30
0.0
  0
ENDBLK
  5
546
330
53B
100
AcDbEntity
  8
0
100
AcDbBlockEnd
  0
BLOCK
  5
843
330
842
100
AcDbEntity
  8
0
100
AcDbBlockBegin
  2
*X4
 70
     1
 10
0.0
 20
0.0
 30
0.0
  3
*X4
  1

  0
LINE
  5
844
330
842
100
AcDbEntity
  8
0
 62
     0
100
AcDbLine
 10
552.5815925013318
 20
616.221202808121
 30
0.0
 11
552.8016944405506
 21
616.4413047473399
 31
0.0
  0
LINE
  5
845
330
842
100
AcDbEntity
  8
0
 62
     0
100
AcDbLine
 10
549.9299420718822
 20
616.221202808121
 30
0.0
 11
552.8016944405506
 21
619.0929551767895
 31
0.0
  0
LINE
  5
846
330
842
100
AcDbEntity
  8
0
 62
     0
100
AcDbLine
 10
547.8016944405506
 20
616.744605606239
 30
0.0
 11
552.8016944405506
 21
621.744605606239
 31
0.0
  0
LINE
  5
847
330
842
100
AcDbEntity
  8
0
 62
     0
100
AcDbLine
 10
547.8016944405506
 20
619.3962560356886
 30
0.0
 11
552.8016944405506
 21
624.3962560356886
 31
0.0
  0
LINE
  5
848
330
842
100
AcDbEntity
  8
0
 62
     0
100
AcDbLine
 10
547.8016944405506
 20
622.0479064651381
 30
0.0
 11
550.9749907835336
 21
625.221202808121
 31
0.0
  0
LINE
  5
849
330
842
100
AcDbEntity
  8
0
 62
     0
100
AcDbLine
 10
547.8016944405506
 20
624.6995568945877
 30
0.0
 11
548.323340354084
 21
625.221202808121
 31
0.0
  0
LINE
  5
84A
330
842
100
AcDbEntity
  8
0
 62
     0
100
AcDbLine
 10
547.8016944405506
 20
558.4082961583488
 30
0.0
 11
549.6146010903228
 21
560.2212028081209
 31
0.0
  0
LINE
  5
84B
330
842
100
AcDbEntity
  8
0
 62
     0
100
AcDbLine
 10
547.8016944405506
 20
555.7566457288993
 30
0.0
 11
552.2662515197723
 21
560.2212028081209
 31
0.0
  0
LINE
  5
84C
330
842
100
AcDbEntity
  8
0
 62
     0
100
AcDbLine
 10
547.8016944405506
 20
553.1049952994497
 30
0.0
 11
552.8016944405506
 21
558.1049952994497
 31
0.0
  0
LINE
  5
84D
330
842
100
AcDbEntity
  8
0
 62
     0
100
AcDbLine
 10
548.5695523786715
 20
551.221202808121
 30
0.0
 11
552.8016944405506
 21
555.4533448700002
 31
0.0
  0
LINE
  5
84E
330
842
100
AcDbEntity
  8
0
 62
     0
100
AcDbLine
 10
551.221202808121
 20
551.221202808121
 30
0.0
 11
552.8016944405506
 21
552.8016944405506
 31
0.0
  0
LINE
  5
84F
330
842
100
AcDbEntity
  8
0
 62
     0
100
AcDbLine
 10
552.8016944405506
 20
558.2398354988117
 30
0.0
 11
550.8203271312415
 21
560.2212028081209
 31
0.0
  0
LINE
  5
850
330
842
100
AcDbEntity
  8
0
 62
     0
100
AcDbLine
 10
552.8016944405506
 20
555.5881850693622
 30
0.0
 11
548.1686767017919
 21
560.2212028081209
 31
0.0
  0
LINE
  5
851
330
842
100
AcDbEntity
  8
0
 62
     0
100
AcDbLine
 10
552.8016944405506
 20
552.9365346399126
 30
0.0
 11
547.8016944405506
 21
557.9365346399127
 31
0.0
  0
LINE
  5
852
330
842
100
AcDbEntity
  8
0
 62
     0
100
AcDbLine
 10
551.8653758428928
 20
551.221202808121
 30
0.0
 11
547.8016944405506
 21
555.2848842104631
 31
0.0
  0
LINE
  5
853
330
842
100
AcDbEntity
  8
0
 62
     0
100
AcDbLine
 10
549.2137254134433
 20
551.221202808121
 30
0.0
 11
547.8016944405506
 21
552.6332337810136
 31
0.0
  0
LINE
  5
854
330
842
100
AcDbEntity
  8
0
 62
     0
100
AcDbLine
 10
550.5049861496821
 20
616.221202808121
 30
0.0
 11
547.8016944405506
 21
618.9244945172524
 31
0.0
  0
LINE
  5
855
330
842
100
AcDbEntity
  8
0
 62
     0
100
AcDbLine
 10
552.8016944405506
 20
616.5761449467019
 30
0.0
 11
547.8016944405506
 21
621.576144946702
 31
0.0
  0
LINE
  5
856
330
842
100
AcDbEntity
  8
0
 62
     0
100
AcDbLine
 10
552.8016944405506
 20
619.2277953761515
 30
0.0
 11
547.8016944405506
 21
624.2277953761515
 31
0.0
  0
LINE
  5
857
330
842
100
AcDbEntity
  8
0
 62
     0
100
AcDbLine
 10
552.8016944405506
 20
621.879445805601
 30
0.0
 11
549.4599374380308
 21
625.221202808121
 31
0.0
  0
LINE
  5
858
330
842
100
AcDbEntity
  8
0
 62
     0
100
AcDbLine
 10
552.8016944405506
 20
624.5310962350506
 30
0.0
 11
552.1115878674804
 21
625.221202808121
 31
0.0
  0
ENDBLK
  5
859
330
842
100
AcDbEntity
  8
0
100
AcDbBlockEnd
  0
BLOCK
  5
85B
330
85A
100
AcDbEntity
  8
0
100
AcDbBlockBegin
  2
*X5
 70
     1
 10
0.0
 20
0.0
 30
0.0
  3
*X5
  1

  0
LINE
  5
85C
330
85A
100
AcDbEntity
  8
0
 62
     0
100
AcDbLine
 10
566.3841781840903
 20
726.2070178249183
 30
0.0
 11
564.8841781840904
 21
727.7070178249183
 31
0.0
  0
LINE
  5
85D
330
85A
100
AcDbEntity
  8
0
 62
     0
100
AcDbLine
 10
565.6102446070077
 20
724.1525242772548
 30
0.0
 11
564.7320653951234
 21
725.0307034891392
 31
0.0
  0
LINE
  5
85E
330
85A
100
AcDbEntity
  8
0
 62
     0
100
AcDbLine
 10
565.4841781840905
 20
721.4501635754259
 30
0.0
 11
563.9841781840905
 21
722.9501635754258
 31
0.0
  0
LINE
  5
85F
330
85A
100
AcDbEntity
  8
0
 62
     0
100
AcDbLine
 10
565.4841781840905
 20
718.6217364506798
 30
0.0
 11
563.9841781840905
 21
720.1217364506797
 31
0.0
  0
LINE
  5
860
330
85A
100
AcDbEntity
  8
0
 62
     0
100
AcDbLine
 10
565.4841781840905
 20
715.7933093259336
 30
0.0
 11
563.9841781840905
 21
717.2933093259335
 31
0.0
  0
LINE
  5
861
330
85A
100
AcDbEntity
  8
0
 62
     0
100
AcDbLine
 10
565.4841781840905
 20
712.9648822011874
 30
0.0
 11
563.9841781840905
 21
714.4648822011873
 31
0.0
  0
LINE
  5
862
330
85A
100
AcDbEntity
  8
0
 62
     0
100
AcDbLine
 10
565.4841781840905
 20
710.1364550764412
 30
0.0
 11
563.9841781840905
 21
711.6364550764411
 31
0.0
  0
LINE
  5
863
330
85A
100
AcDbEntity
  8
0
 62
     0
100
AcDbLine
 10
565.4841781840905
 20
707.308027951695
 30
0.0
 11
563.9841781840905
 21
708.8080279516949
 31
0.0
  0
LINE
  5
864
330
85A
100
AcDbEntity
  8
0
 62
     0
100
AcDbLine
 10
565.4841781840905
 20
704.4796008269488
 30
0.0
 11
563.9841781840905
 21
705.9796008269488
 31
0.0
  0
LINE
  5
865
330
85A
100
AcDbEntity
  8
0
 62
     0
100
AcDbLine
 10
566.9841781840906
 20
700.1511737022024
 30
0.0
 11
563.9841781840905
 21
703.1511737022026
 31
0.0
  0
LINE
  5
866
330
85A
100
AcDbEntity
  8
0
 62
     0
100
AcDbLine
 10
566.9841781840906
 20
697.3227465774562
 30
0.0
 11
565.4841781840905
 21
698.8227465774563
 31
0.0
  0
LINE
  5
867
330
85A
100
AcDbEntity
  8
0
 62
     0
100
AcDbLine
 10
566.9841781840906
 20
694.4943194527101
 30
0.0
 11
565.4841781840905
 21
695.9943194527101
 31
0.0
  0
LINE
  5
868
330
85A
100
AcDbEntity
  8
0
 62
     0
100
AcDbLine
 10
566.9841781840906
 20
691.6658923279639
 30
0.0
 11
565.4841781840905
 21
693.1658923279639
 31
0.0
  0
LINE
  5
869
330
85A
100
AcDbEntity
  8
0
 62
     0
100
AcDbLine
 10
566.9841781840906
 20
683.1806109537252
 30
0.0
 11
565.6167874203405
 21
684.5480017174755
 31
0.0
  0
LINE
  5
86A
330
85A
100
AcDbEntity
  8
0
 62
     0
100
AcDbLine
 10
566.849684695236
 20
680.4866773178338
 30
0.0
 11
565.4841781840905
 21
681.8521838289791
 31
0.0
  0
LINE
  5
86B
330
85A
100
AcDbEntity
  8
0
 62
     0
100
AcDbLine
 10
565.4976719211365
 20
679.010262967187
 30
0.0
 11
564.3319169696332
 21
680.1760179186904
 31
0.0
  0
LINE
  5
86C
330
85A
100
AcDbEntity
  8
0
 62
     0
100
AcDbLine
 10
563.4285538059237
 20
678.2509539576537
 30
0.0
 11
562.258244792859
 21
679.4212629707184
 31
0.0
  0
LINE
  5
86D
330
85A
100
AcDbEntity
  8
0
 62
     0
100
AcDbLine
 10
566.3841781840903
 20
729.0354449496646
 30
0.0
 11
566.3716214162795
 21
729.0480017174754
 31
0.0
  0
LINE
  5
86E
330
85A
100
AcDbEntity
  8
0
 62
     0
100
AcDbLine
 10
566.3716214162795
 20
729.0480017174754
 30
0.0
 11
564.8841781840904
 21
730.5354449496645
 31
0.0
  0
LINE
  5
86F
330
85A
100
AcDbEntity
  8
0
 62
     0
100
AcDbLine
 10
566.3841781840905
 20
731.8638720744107
 30
0.0
 11
563.9841781840905
 21
734.2638720744107
 31
0.0
  0
LINE
  5
870
330
85A
100
AcDbEntity
  8
0
 62
     0
100
AcDbLine
 10
565.4841781840905
 20
735.5922991991568
 30
0.0
 11
563.9841781840905
 21
737.0922991991569
 31
0.0
  0
LINE
  5
871
330
85A
100
AcDbEntity
  8
0
 62
     0
100
AcDbLine
 10
565.4841781840905
 20
738.420726323903
 30
0.0
 11
563.9841781840905
 21
739.9207263239031
 31
0.0
  0
LINE
  5
872
330
85A
100
AcDbEntity
  8
0
 62
     0
100
AcDbLine
 10
565.4841781840905
 20
741.2491534486492
 30
0.0
 11
563.9841781840905
 21
742.7491534486493
 31
0.0
  0
LINE
  5
873
330
85A
100
AcDbEntity
  8
0
 62
     0
100
AcDbLine
 10
565.4841781840905
 20
744.0775805733955
 30
0.0
 11
563.9841781840905
 21
745.5775805733955
 31
0.0
  0
LINE
  5
874
330
85A
100
AcDbEntity
  8
0
 62
     0
100
AcDbLine
 10
565.4841781840905
 20
746.9060076981417
 30
0.0
 11
563.9841781840905
 21
748.4060076981417
 31
0.0
  0
LINE
  5
875
330
85A
100
AcDbEntity
  8
0
 62
     0
100
AcDbLine
 10
565.4841781840905
 20
749.7344348228878
 30
0.0
 11
563.9841781840905
 21
751.2344348228878
 31
0.0
  0
LINE
  5
876
330
85A
100
AcDbEntity
  8
0
 62
     0
100
AcDbLine
 10
565.4841781840905
 20
752.562861947634
 30
0.0
 11
563.9841781840905
 21
754.062861947634
 31
0.0
  0
LINE
  5
877
330
85A
100
AcDbEntity
  8
0
 62
     0
100
AcDbLine
 10
565.7949247600629
 20
755.0805424964076
 30
0.0
 11
564.6091421359268
 21
756.2663251205438
 31
0.0
  0
LINE
  5
878
330
85A
100
AcDbEntity
  8
0
 62
     0
100
AcDbLine
 10
566.9841781840906
 20
756.7197161971262
 30
0.0
 11
565.4841781840905
 21
758.2197161971263
 31
0.0
  0
LINE
  5
879
330
85A
100
AcDbEntity
  8
0
 62
     0
100
AcDbLine
 10
566.9841781840906
 20
759.5481433218724
 30
0.0
 11
565.4841781840905
 21
761.0481433218725
 31
0.0
  0
LINE
  5
87A
330
85A
100
AcDbEntity
  8
0
 62
     0
100
AcDbLine
 10
566.9841781840906
 20
762.3765704466186
 30
0.0
 11
565.4841781840905
 21
763.8765704466187
 31
0.0
  0
LINE
  5
87B
330
85A
100
AcDbEntity
  8
0
 62
     0
100
AcDbLine
 10
566.9841781840906
 20
765.2049975713648
 30
0.0
 11
565.6411740379799
 21
766.5480017174756
 31
0.0
  0
LINE
  5
87C
330
85A
100
AcDbEntity
  8
0
 62
     0
100
AcDbLine
 10
566.9841781840906
 20
773.6902789456033
 30
0.0
 11
565.4841781840905
 21
775.1902789456035
 31
0.0
  0
LINE
  5
87D
330
85A
100
AcDbEntity
  8
0
 62
     0
100
AcDbLine
 10
561.8517730499852
 20
778.8226840797088
 30
0.0
 11
561.1314282132548
 21
779.5430289164392
 31
0.0
  0
LINE
  5
87E
330
85A
100
AcDbEntity
  8
0
 62
     0
100
AcDbLine
 10
566.9841781840906
 20
776.5187060703496
 30
0.0
 11
563.7890416062938
 21
779.7138426481465
 31
0.0
  0
ENDBLK
  5
87F
330
85A
100
AcDbEntity
  8
0
100
AcDbBlockEnd
  0
ENDSEC
  0
SECTION
  2
ENTITIES
  0
TEXT
  5
24E
330
1E
100
AcDbEntity
  8
VOLL
100
AcDbText
 10
264.7033033393503
 20
194.5904804762389
 30
0.0
 40
1.8
  1

  7
GREEKS
100
AcDbText
  0
LINE
  5
25A
330
1E
100
AcDbEntity
  8
MITTEL
100
AcDbLine
 10
165.6342762387046
 20
492.0117242271951
 30
0.0
 11
165.6342762387046
 21
227.0148461075751
 31
0.0
  0
LINE
  5
25B
330
1E
100
AcDbEntity
  8
STEMPEL
100
AcDbLine
 10
201.5279673340931
 20
232.0148461075751
 30
0.0
 11
129.740585143316
 21
232.0148461075751
 31
0.0
  0
TEXT
  5
25E
330
1E
100
AcDbEntity
  8
TEXT
 62
     1
100
AcDbText
 10
157.9587897266357
 20
459.4076898675637
 30
0.0
 40
7.0
  1
DN70
 50
90.0
 41
0.8
  7
GREEKS
100
AcDbText
  0
LINE
  5
25F
330
1E
100
AcDbEntity
  8
STEMPEL
100
AcDbLine
 10
207.7342762387045
 20
476.4628018200765
 30
0.0
 11
207.7342762387045
 21
467.4500042753859
 31
0.0
  0
LINE
  5
260
330
1E
100
AcDbEntity
  8
STEMPEL
100
AcDbLine
 10
123.5342762387046
 20
476.4628018200765
 30
0.0
 11
123.5342762387046
 21
467.4500042753859
 31
0.0
  0
LINE
  5
261
330
1E
100
AcDbEntity
  8
HILF
  6
Continuous
100
AcDbLine
 10
127.4025646123749
 20
456.511497408584
 30
0.0
 11
203.8659878650342
 21
456.511497408584
 31
0.0
  0
LINE
  5
262
330
1E
100
AcDbEntity
  8
HILF
  6
Continuous
100
AcDbLine
 10
128.0454024283093
 20
434.5052131759405
 30
0.0
 11
203.2231500490998
 21
434.5052131759405
 31
0.0
  0
LINE
  5
263
330
1E
100
AcDbEntity
  8
HILF
  6
Continuous
100
AcDbLine
 10
130.3547751406079
 20
429.377651456785
 30
0.0
 11
200.9137773368013
 21
429.377651456785
 31
0.0
  0
LINE
  5
264
330
1E
100
AcDbEntity
  8
STEMPEL
100
AcDbLine
 10
126.0342762387046
 20
454.0117242271951
 30
0.0
 11
126.0342762387046
 21
437.4004506446121
 31
0.0
  0
ARC
  5
265
330
1E
100
AcDbEntity
  8
STEMPEL
100
AcDbCircle
 10
121.1342762387046
 20
426.7051245626267
 30
0.0
 40
8.0
100
AcDbArc
 50
0.0
 51
32.3280641221617
  0
ARC
  5
267
330
1E
100
AcDbEntity
  8
STEMPEL
100
AcDbCircle
 10
138.0342762387044
 20
437.4004506446122
 30
0.0
 40
12.0
100
AcDbArc
 50
180.0
 51
212.3280641221617
  0
ARC
  5
268
330
1E
100
AcDbEntity
  8
STEMPEL
100
AcDbCircle
 10
114.0342762387045
 20
454.0117242271952
 30
0.0
 40
12.0
100
AcDbArc
 50
0.0
 51
21.18315439303492
  0
ARC
  5
269
330
1E
100
AcDbEntity
  8
STEMPEL
100
AcDbCircle
 10
148.5342762387045
 20
467.3817242271953
 30
0.0
 40
25.00009324312574
100
AcDbArc
 50
179.8435140456477
 51
201.1831543930349
  0
LINE
  5
26A
330
1E
100
AcDbEntity
  8
STEMPEL
100
AcDbLine
 10
205.2342762387045
 20
454.0117242271951
 30
0.0
 11
205.2342762387045
 21
437.4004506446121
 31
0.0
  0
ARC
  5
26B
330
1E
100
AcDbEntity
  8
STEMPEL
100
AcDbCircle
 10
210.1342762387044
 20
426.7051245626267
 30
0.0
 40
8.0
100
AcDbArc
 50
147.6719358778383
 51
180.0
  0
ARC
  5
26E
330
1E
100
AcDbEntity
  8
STEMPEL
100
AcDbCircle
 10
193.2342762387045
 20
437.4004506446122
 30
0.0
 40
12.0
100
AcDbArc
 50
327.6719358778383
 51
0.0
  0
ARC
  5
26F
330
1E
100
AcDbEntity
  8
STEMPEL
100
AcDbCircle
 10
217.2342762387045
 20
454.0117242271952
 30
0.0
 40
12.0
100
AcDbArc
 50
158.8168456069651
 51
180.0
  0
ARC
  5
270
330
1E
100
AcDbEntity
  8
STEMPEL
100
AcDbCircle
 10
182.7342762387045
 20
467.3817242271953
 30
0.0
 40
25.00009324312574
100
AcDbArc
 50
338.8168456069651
 51
0.1564859543522612
  0
ARC
  5
271
330
1E
100
AcDbEntity
  8
STEMPEL
100
AcDbCircle
 10
148.5342762387045
 20
476.4628018200765
 30
0.0
 40
25.0
100
AcDbArc
 50
155.0418036876904
 51
180.0
  0
ARC
  5
272
330
1E
100
AcDbEntity
  8
STEMPEL
100
AcDbCircle
 10
182.7342762387045
 20
476.4628018200765
 30
0.0
 40
25.0
100
AcDbArc
 50
0.0
 51
24.95819631230589
  0
LINE
  5
273
330
1E
100
AcDbEntity
  8
STEMPEL
100
AcDbLine
 10
125.8688789104281
 20
487.0117242271929
 30
0.0
 11
205.3996735669816
 21
487.0117242271915
 31
0.0
  0
LINE
  5
274
330
1E
100
AcDbEntity
  8
HILF
100
AcDbLine
 10
200.5342762387053
 20
239.0148461075751
 30
0.0
 11
130.7342762387038
 21
239.0148461075751
 31
0.0
  0
LINE
  5
275
330
1E
100
AcDbEntity
  8
STEMPEL
100
AcDbLine
 10
129.1342762387046
 20
238.9449885989136
 30
0.0
 11
129.740585143316
 21
232.0148461075751
 31
0.0
  0
LINE
  5
276
330
1E
100
AcDbEntity
  8
STEMPEL
100
AcDbLine
 10
202.1342762387045
 20
238.9449885989136
 30
0.0
 11
201.5279673340931
 21
232.0148461075751
 31
0.0
  0
LINE
  5
27C
330
1E
100
AcDbEntity
  8
STEMPEL
100
AcDbLine
 10
202.1342762387046
 20
426.7051245626267
 30
0.0
 11
202.1342762387045
 21
238.9449885989136
 31
0.0
  0
LINE
  5
27D
330
1E
100
AcDbEntity
  8
STEMPEL
100
AcDbLine
 10
129.1342762387046
 20
426.7051245626267
 30
0.0
 11
129.1342762387046
 21
394.8648461075751
 31
0.0
  0
LINE
  5
319
330
1E
100
AcDbEntity
  8
STEMPEL
100
AcDbLine
 10
283.6236486170567
 20
426.7051245626267
 30
0.0
 11
283.6236486170567
 21
373.3779142795285
 31
0.0
  0
LINE
  5
31A
330
1E
100
AcDbEntity
  8
STEMPEL
100
AcDbLine
 10
356.6236486170567
 20
426.7051245626267
 30
0.0
 11
356.6236486170567
 21
373.3779142795282
 31
0.0
  0
DIMENSION
  5
31B
330
1E
100
AcDbEntity
  8
BEM
100
AcDbDimension
  2
*D1
 10
356.6236486170566
 20
209.5804775145491
 30
0.0
 11
320.1236486170566
 21
216.0804775145491
 31
0.0
 70
    32
  1
%%C<>
 71
     5
 42
72.99999999999989
  3
Standard
100
AcDbAlignedDimension
 13
283.6236486170567
 23
238.9449885989136
 33
0.0
 14
356.6236486170566
 24
238.9449885989136
 34
0.0
100
AcDbRotatedDimension
1001
ACAD
1000
DSTYLE
1002
{
1070
    40
1040
2.0
1070
    41
1040
3.5
1070
    42
1040
1.0
1070
    43
1040
7.0
1070
    44
1040
1.0
1070
    73
1070
     0
1070
    74
1070
     0
1070
    77
1070
     1
1070
    78
1070
     8
1070
    79
1070
     2
1070
   140
1040
3.5
1070
   141
1040
1.5
1070
   146
1040
0.5142857142857144
1070
   147
1040
1.5
1070
   172
1070
     1
1070
   178
1070
     1
1070
   179
1070
     2
1070
   271
1070
     2
1070
   272
1070
     2
1070
   284
1070
     8
1070
   285
1070
     8
1070
   286
1070
     8
1002
}
  0
LINE
  5
31C
330
1E
100
AcDbEntity
  8
STEMPEL
100
AcDbLine
 10
356.6236486170566
 20
238.9449885989136
 30
0.0
 11
356.0173397124452
 21
232.0148461075751
 31
0.0
  0
LINE
  5
31D
330
1E
100
AcDbEntity
  8
STEMPEL
100
AcDbLine
 10
283.6236486170567
 20
238.9449885989136
 30
0.0
 11
284.2299575216681
 21
232.0148461075751
 31
0.0
  0
LINE
  5
31E
330
1E
100
AcDbEntity
  8
HILF
100
AcDbLine
 10
355.0236486170573
 20
239.0148461075751
 30
0.0
 11
285.2236486170559
 21
239.0148461075751
 31
0.0
  0
LINE
  5
31F
330
1E
100
AcDbEntity
  8
STEMPEL
100
AcDbLine
 10
280.3582512887802
 20
487.0117242271929
 30
0.0
 11
359.8890459453337
 21
487.0117242271915
 31
0.0
  0
ARC
  5
320
330
1E
100
AcDbEntity
  8
STEMPEL
100
AcDbCircle
 10
337.2236486170566
 20
476.4628018200765
 30
0.0
 40
25.0
100
AcDbArc
 50
0.0
 51
24.95819631230589
  0
ARC
  5
321
330
1E
100
AcDbEntity
  8
STEMPEL
100
AcDbCircle
 10
303.0236486170565
 20
476.4628018200765
 30
0.0
 40
25.0
100
AcDbArc
 50
155.0418036876904
 51
180.0
  0
ARC
  5
322
330
1E
100
AcDbEntity
  8
STEMPEL
100
AcDbCircle
 10
337.2236486170566
 20
467.3817242271953
 30
0.0
 40
25.00009324312574
100
AcDbArc
 50
338.8168456069651
 51
0.1564859543522612
  0
ARC
  5
323
330
1E
100
AcDbEntity
  8
STEMPEL
100
AcDbCircle
 10
371.7236486170566
 20
454.0117242271952
 30
0.0
 40
12.0
100
AcDbArc
 50
158.8168456069651
 51
180.0
  0
ARC
  5
324
330
1E
100
AcDbEntity
  8
STEMPEL
100
AcDbCircle
 10
347.7236486170566
 20
437.4004506446122
 30
0.0
 40
12.0
100
AcDbArc
 50
327.6719358778383
 51
0.0
  0
ARC
  5
325
330
1E
100
AcDbEntity
  8
STEMPEL
100
AcDbCircle
 10
364.6236486170565
 20
426.7051245626267
 30
0.0
 40
8.0
100
AcDbArc
 50
147.6719358778383
 51
180.0
  0
LINE
  5
326
330
1E
100
AcDbEntity
  8
STEMPEL
100
AcDbLine
 10
359.7236486170566
 20
454.0117242271951
 30
0.0
 11
359.7236486170566
 21
437.4004506446121
 31
0.0
  0
ARC
  5
327
330
1E
100
AcDbEntity
  8
STEMPEL
100
AcDbCircle
 10
303.0236486170565
 20
467.3817242271953
 30
0.0
 40
25.00009324312574
100
AcDbArc
 50
179.8435140456477
 51
201.1831543930349
  0
ARC
  5
328
330
1E
100
AcDbEntity
  8
STEMPEL
100
AcDbCircle
 10
268.5236486170566
 20
454.0117242271952
 30
0.0
 40
12.0
100
AcDbArc
 50
0.0
 51
21.18315439303492
  0
ARC
  5
329
330
1E
100
AcDbEntity
  8
STEMPEL
100
AcDbCircle
 10
292.5236486170565
 20
437.4004506446122
 30
0.0
 40
12.0
100
AcDbArc
 50
180.0
 51
212.3280641221617
  0
ARC
  5
32A
330
1E
100
AcDbEntity
  8
STEMPEL
100
AcDbCircle
 10
275.6236486170567
 20
426.7051245626267
 30
0.0
 40
8.0
100
AcDbArc
 50
0.0
 51
32.3280641221617
  0
LINE
  5
32B
330
1E
100
AcDbEntity
  8
STEMPEL
100
AcDbLine
 10
280.5236486170567
 20
454.0117242271951
 30
0.0
 11
280.5236486170567
 21
437.4004506446121
 31
0.0
  0
LINE
  5
32C
330
1E
100
AcDbEntity
  8
HILF
  6
Continuous
100
AcDbLine
 10
284.84414751896
 20
429.377651456785
 30
0.0
 11
355.4031497151534
 21
429.377651456785
 31
0.0
  0
LINE
  5
32D
330
1E
100
AcDbEntity
  8
HILF
  6
Continuous
100
AcDbLine
 10
282.5347748066614
 20
434.5052131759405
 30
0.0
 11
357.7125224274519
 21
434.5052131759405
 31
0.0
  0
LINE
  5
32E
330
1E
100
AcDbEntity
  8
HILF
  6
Continuous
100
AcDbLine
 10
281.891936990727
 20
456.511497408584
 30
0.0
 11
358.3553602433863
 21
456.511497408584
 31
0.0
  0
LINE
  5
32F
330
1E
100
AcDbEntity
  8
STEMPEL
100
AcDbLine
 10
278.0236486170567
 20
476.4628018200765
 30
0.0
 11
278.0236486170567
 21
467.4500042753859
 31
0.0
  0
LINE
  5
330
330
1E
100
AcDbEntity
  8
STEMPEL
100
AcDbLine
 10
362.2236486170566
 20
476.4628018200765
 30
0.0
 11
362.2236486170566
 21
467.4500042753859
 31
0.0
  0
TEXT
  5
331
330
1E
100
AcDbEntity
  8
TEXT
 62
     1
100
AcDbText
 10
312.4481621049878
 20
459.4076898675637
 30
0.0
 40
7.0
  1
DN70
 50
90.0
 41
0.8
  7
GREEKS
100
AcDbText
  0
LINE
  5
332
330
1E
100
AcDbEntity
  8
STEMPEL
100
AcDbLine
 10
356.0173397124452
 20
232.0148461075751
 30
0.0
 11
284.2299575216681
 21
232.0148461075751
 31
0.0
  0
LINE
  5
333
330
1E
100
AcDbEntity
  8
MITTEL
100
AcDbLine
 10
320.1236486170567
 20
492.0117242271951
 30
0.0
 11
320.1236486170566
 21
227.0148461075751
 31
0.0
  0
DIMENSION
  5
3F3
330
1E
100
AcDbEntity
  8
BEM
100
AcDbDimension
  2
*D2
 10
226.2520504741208
 20
487.0117242271915
 30
0.0
 11
219.7520504741207
 21
359.5132851673834
 31
0.0
 70
    32
 71
     5
 42
254.9968781196164
  3
Standard
100
AcDbAlignedDimension
 13
201.5279673340931
 23
232.0148461075751
 33
0.0
 14
205.3996735669816
 24
487.0117242271915
 34
0.0
 50
90.0
100
AcDbRotatedDimension
1001
ACAD
1000
DSTYLE
1002
{
1070
    40
1040
2.0
1070
    41
1040
3.5
1070
    42
1040
1.0
1070
    43
1040
7.0
1070
    44
1040
1.0
1070
    73
1070
     0
1070
    74
1070
     0
1070
    77
1070
     1
1070
    78
1070
     8
1070
    79
1070
     2
1070
   140
1040
3.5
1070
   141
1040
1.5
1070
   146
1040
0.5142857142857144
1070
   147
1040
1.5
1070
   172
1070
     1
1070
   178
1070
     1
1070
   179
1070
     2
1070
   271
1070
     2
1070
   272
1070
     2
1070
   284
1070
     8
1070
   285
1070
     8
1070
   286
1070
     8
1002
}
  0
LINE
  5
409
330
1E
100
AcDbEntity
  8
STEMPEL
100
AcDbLine
 10
123.6342762387046
 20
394.0148461075751
 30
0.0
 11
123.6342762387046
 21
320.0148461075751
 31
0.0
  0
LINE
  5
40B
330
1E
100
AcDbEntity
  8
STEMPEL
100
AcDbLine
 10
125.1342762387046
 20
324.7648461075751
 30
0.0
 11
123.6342762387046
 21
324.7648461075751
 31
0.0
  0
LINE
  5
40C
330
1E
100
AcDbEntity
  8
STEMPEL
100
AcDbLine
 10
125.1342762387046
 20
389.2648461075751
 30
0.0
 11
123.6342762387046
 21
389.2648461075751
 31
0.0
  0
LINE
  5
40D
330
1E
100
AcDbEntity
  8
STEMPEL
100
AcDbLine
 10
125.1342762387046
 20
390.8648461075751
 30
0.0
 11
123.6342762387046
 21
390.8648461075751
 31
0.0
  0
LINE
  5
40E
330
1E
100
AcDbEntity
  8
STEMPEL
100
AcDbLine
 10
125.1342762387046
 20
323.164846107575
 30
0.0
 11
123.6342762387046
 21
323.164846107575
 31
0.0
  0
LINE
  5
40F
330
1E
100
AcDbEntity
  8
STEMPEL
100
AcDbLine
 10
130.7342762387046
 20
410.2158562688311
 30
0.0
 11
130.7342762387046
 21
394.8648461075751
 31
0.0
  0
LINE
  5
410
330
1E
100
AcDbEntity
  8
STEMPEL
100
AcDbLine
 10
130.7342762387046
 20
319.1648461075751
 30
0.0
 11
130.7342762387045
 21
291.5995400017358
 31
0.0
  0
LINE
  5
411
330
1E
100
AcDbEntity
  8
STEMPEL
100
AcDbLine
 10
129.1342762387046
 20
319.1648461075751
 30
0.0
 11
129.1342762387046
 21
238.9449885989136
 31
0.0
  0
LINE
  5
412
330
1E
100
AcDbEntity
  8
MITTEL
100
AcDbLine
 10
365.1236486170566
 20
357.014846107575
 30
0.0
 11
275.1236486170566
 21
357.0148461075751
 31
0.0
  0
ARC
  5
41D
330
1E
100
AcDbEntity
  8
STEMPEL
100
AcDbCircle
 10
125.1342762387046
 20
394.8648461075752
 30
0.0
 40
4.0
100
AcDbArc
 50
270.0
 51
0.0
  0
ARC
  5
41E
330
1E
100
AcDbEntity
  8
STEMPEL
100
AcDbCircle
 10
125.1342762387046
 20
319.1648461075752
 30
0.0
 40
4.0
100
AcDbArc
 50
0.0
 51
90.0000000000003
  0
ARC
  5
41F
330
1E
100
AcDbEntity
  8
STEMPEL
100
AcDbCircle
 10
125.1342762387046
 20
319.1648461075752
 30
0.0
 40
5.599999999999999
100
AcDbArc
 50
0.0
 51
90.0000000000003
  0
ARC
  5
420
330
1E
100
AcDbEntity
  8
STEMPEL
100
AcDbCircle
 10
125.1342762387046
 20
394.8648461075752
 30
0.0
 40
5.599999999999999
100
AcDbArc
 50
270.0
 51
0.0
  0
ARC
  5
441
330
1E
100
AcDbEntity
  8
HILF
100
AcDbCircle
 10
115.4448835740406
 20
357.0148461075752
 30
0.0
 40
36.53554705252935
100
AcDbArc
 50
294.5922447410504
 51
65.40775525894973
  0
POLYLINE
  5
484
330
1E
100
AcDbEntity
  8
HILF
100
AcDb2dPolyline
 66
     1
 10
0.0
 20
0.0
 30
0.0
  0
VERTEX
  5
485
330
484
100
AcDbEntity
  8
HILF
100
AcDbVertex
100
AcDb2dVertex
 10
129.1342762387046
 20
410.9910964405558
 30
0.0
 42
-0.0645245057202325
  0
VERTEX
  5
486
330
484
100
AcDbEntity
  8
HILF
100
AcDbVertex
100
AcDb2dVertex
 10
143.0595689882333
 20
402.1396282707591
 30
0.0
 42
-0.09878736295527
  0
VERTEX
  5
487
330
484
100
AcDbEntity
  8
HILF
100
AcDbVertex
100
AcDb2dVertex
 10
151.853988279364
 20
391.2370916138548
 30
0.0
 42
-0.0182993810447475
  0
VERTEX
  5
488
330
484
100
AcDbEntity
  8
HILF
100
AcDbVertex
100
AcDb2dVertex
 10
157.2413747507902
 20
379.9476367096527
 30
0.0
 42
-0.0335236973831473
  0
VERTEX
  5
489
330
484
100
AcDbEntity
  8
HILF
100
AcDbVertex
100
AcDb2dVertex
 10
159.5307885084126
 20
373.5089373604265
 30
0.0
 42
-0.0475663653644928
  0
VERTEX
  5
48A
330
484
100
AcDbEntity
  8
HILF
100
AcDbVertex
100
AcDb2dVertex
 10
162.7708577100818
 20
355.6573372418931
 30
0.0
 42
-0.0507326382335056
  0
VERTEX
  5
48B
330
484
100
AcDbEntity
  8
HILF
100
AcDbVertex
100
AcDb2dVertex
 10
162.4834039272917
 20
338.6435665659149
 30
0.0
 42
-0.0391334784801988
  0
VERTEX
  5
48C
330
484
100
AcDbEntity
  8
HILF
100
AcDbVertex
100
AcDb2dVertex
 10
160.2948860401621
 20
327.6497406202064
 30
0.0
 42
-0.0342606453694652
  0
VERTEX
  5
48D
330
484
100
AcDbEntity
  8
HILF
100
AcDbVertex
100
AcDb2dVertex
 10
155.9876497258321
 20
315.596966363359
 30
0.0
 42
-0.057926772952415
  0
VERTEX
  5
48E
330
484
100
AcDbEntity
  8
HILF
100
AcDbVertex
100
AcDb2dVertex
 10
150.7298557841912
 20
306.570439935347
 30
0.0
 42
-0.0454043556843846
  0
VERTEX
  5
48F
330
484
100
AcDbEntity
  8
HILF
100
AcDbVertex
100
AcDb2dVertex
 10
141.8150952953242
 20
296.6869355955697
 30
0.0
 42
-0.1154838323137981
  0
VERTEX
  5
490
330
484
100
AcDbEntity
  8
HILF
100
AcDbVertex
100
AcDb2dVertex
 10
134.4723242542486
 20
292.519803184623
 30
0.0
 42
-0.0319052975418585
  0
VERTEX
  5
491
330
484
100
AcDbEntity
  8
HILF
100
AcDbVertex
100
AcDb2dVertex
 10
129.1342762387046
 20
291.312356013737
 30
0.0
  0
SEQEND
  5
492
330
484
100
AcDbEntity
  8
HILF
  0
HATCH
  5
4E1
330
1E
100
AcDbEntity
  8
SCHRAFF
100
AcDbHatch
 10
0.0
 20
0.0
 30
0.0
210
0.0
220
0.0
230
1.0
  2
_USER
 70
     0
 71
     0
 91
        2
 92
        7
 72
     1
 73
     1
 93
        8
 10
129.1342762387046
 20
410.9910964405558
 42
0.0
 10
129.1342762387046
 20
394.8648461075751
 42
-0.4142135623730951
 10
125.1342762387046
 20
390.8648461075751
 42
0.0
 10
123.6342762387046
 20
390.8648461075751
 42
0.0
 10
123.6342762387046
 20
389.2648461075751
 42
0.0
 10
125.1342762387046
 20
389.2648461075751
 42
0.4142135623730951
 10
130.7342762387046
 20
394.8648461075751
 42
0.0
 10
130.7342762387046
 20
410.2158562688309
 42
0.0069240381128656
 97
        0
 92
        7
 72
     1
 73
     1
 93
        8
 10
125.1342762387046
 20
324.7648461075751
 42
0.0
 10
123.6342762387045
 20
324.7648461075751
 42
0.0
 10
123.6342762387045
 20
323.164846107575
 42
0.0
 10
125.1342762387046
 20
323.164846107575
 42
-0.4142135623730966
 10
129.1342762387046
 20
319.1648461075751
 42
0.0
 10
129.1342762387046
 20
291.312356013737
 42
0.0094677633733361
 10
130.7342762387045
 20
291.5995400017358
 42
0.0
 10
130.7342762387046
 20
319.1648461075751
 42
0.4142135623730951
 97
        0
 75
     0
 76
     0
 52
225.0
 41
2.0
 77
     0
 78
     1
 53
225.0
 43
389.5201456316453
 44
138.3980493289682
 45
1.414213562373094
 46
-1.414213562373095
 79
     0
 47
0.1849112760953125
 98
        2
 10
130.2253337053821
 20
399.0715032900443
 10
130.2253337053821
 20
316.9131468537221
  0
DIMENSION
  5
53A
330
1E
100
AcDbEntity
  8
SCHRAFF
100
AcDbDimension
  2
*D3
 10
380.0518931192239
 20
357.014846107575
 30
0.0
 11
373.5518931192239
 21
294.5148461075751
 31
0.0
 70
    32
 71
     5
 42
124.9999999999998
  3
Standard
100
AcDbAlignedDimension
 13
356.0173397124452
 23
232.0148461075751
 33
0.0
 14
365.1236486170566
 24
357.014846107575
 34
0.0
 50
90.0
100
AcDbRotatedDimension
1001
ACAD
1000
DSTYLE
1002
{
1070
    40
1040
2.0
1070
    41
1040
3.5
1070
    42
1040
1.0
1070
    43
1040
7.0
1070
    44
1040
1.0
1070
    73
1070
     0
1070
    74
1070
     0
1070
    77
1070
     1
1070
    78
1070
     8
1070
    79
1070
     2
1070
   140
1040
3.5
1070
   141
1040
1.5
1070
   146
1040
0.5142857142857144
1070
   147
1040
1.5
1070
   172
1070
     1
1070
   178
1070
     1
1070
   179
1070
     2
1070
   271
1070
     2
1070
   272
1070
     2
1070
   284
1070
     8
1070
   285
1070
     8
1070
   286
1070
     8
1002
}
  0
LINE
  5
678
330
1E
100
AcDbEntity
  8
STEMPEL
100
AcDbLine
 10
410.0
 20
110.0
 30
0.0
 11
40.0
 21
110.0
 31
0.0
  0
LINE
  5
679
330
1E
100
AcDbEntity
  8
STEMPEL
100
AcDbLine
 10
136.0000000000001
 20
109.9999999999999
 30
0.0
 11
136.0
 21
9.999999999999971
 31
0.0
  0
LINE
  5
67A
330
1E
100
AcDbEntity
  8
STEMPEL
100
AcDbLine
 10
220.0
 20
110.0
 30
0.0
 11
220.0
 21
9.999999999999971
 31
0.0
  0
LINE
  5
67B
330
1E
100
AcDbEntity
  8
STEMPEL
100
AcDbLine
 10
332.0
 20
109.9999999999997
 30
0.0
 11
332.0
 21
40.0
 31
0.0
  0
LINE
  5
67C
330
1E
100
AcDbEntity
  8
STEMPEL
100
AcDbLine
 10
135.9999999999999
 20
29.99999999999997
 30
0.0
 11
40.0
 21
29.99999999999997
 31
0.0
  0
LINE
  5
67D
330
1E
100
AcDbEntity
  8
STEMPEL
100
AcDbLine
 10
410.0
 20
40.0
 30
0.0
 11
136.0000000000001
 21
39.99999999999997
 31
0.0
  0
LINE
  5
67E
330
1E
100
AcDbEntity
  8
STEMPEL
100
AcDbLine
 10
410.0
 20
80.0
 30
0.0
 11
136.0000000000001
 21
79.99999999999994
 31
0.0
  0
LINE
  5
67F
330
1E
100
AcDbEntity
  8
VOLL
100
AcDbLine
 10
54.00000000000011
 20
110.0
 30
0.0
 11
54.0
 21
9.999999999999971
 31
0.0
  0
LINE
  5
680
330
1E
100
AcDbEntity
  8
VOLL
100
AcDbLine
 10
94.00000000000011
 20
109.9999999999999
 30
0.0
 11
94.0
 21
9.999999999999971
 31
0.0
  0
LINE
  5
681
330
1E
100
AcDbEntity
  8
VOLL
100
AcDbLine
 10
114.0000000000001
 20
109.9999999999999
 30
0.0
 11
114.0
 21
9.999999999999971
 31
0.0
  0
LINE
  5
682
330
1E
100
AcDbEntity
  8
VOLL
100
AcDbLine
 10
154.0000000000001
 20
79.99999999999994
 30
0.0
 11
154.0000000000001
 21
39.99999999999997
 31
0.0
  0
LINE
  5
683
330
1E
100
AcDbEntity
  8
VOLL
100
AcDbLine
 10
180.0000000000001
 20
109.9999999999998
 30
0.0
 11
180.0
 21
39.99999999999997
 31
0.0
  0
LINE
  5
684
330
1E
100
AcDbEntity
  8
HILF
100
AcDbLine
 10
40.00000000000011
 20
100.0
 30
0.0
 11
136.0000000000001
 21
100.0
 31
0.0
  0
LINE
  5
685
330
1E
100
AcDbEntity
  8
HILF
100
AcDbLine
 10
40.00000000000011
 20
90.00000000000005
 30
0.0
 11
136.0000000000001
 21
90.00000000000005
 31
0.0
  0
LINE
  5
686
330
1E
100
AcDbEntity
  8
HILF
100
AcDbLine
 10
40.00000000000011
 20
79.99999999999994
 30
0.0
 11
136.0000000000001
 21
79.99999999999994
 31
0.0
  0
LINE
  5
687
330
1E
100
AcDbEntity
  8
HILF
100
AcDbLine
 10
40.00000000000011
 20
69.99999999999994
 30
0.0
 11
136.0000000000001
 21
69.99999999999994
 31
0.0
  0
LINE
  5
688
330
1E
100
AcDbEntity
  8
HILF
100
AcDbLine
 10
40.00000000000011
 20
59.99999999999997
 30
0.0
 11
136.0000000000001
 21
59.99999999999997
 31
0.0
  0
LINE
  5
689
330
1E
100
AcDbEntity
  8
HILF
100
AcDbLine
 10
40.00000000000011
 20
49.99999999999997
 30
0.0
 11
136.0000000000001
 21
49.99999999999997
 31
0.0
  0
LINE
  5
68A
330
1E
100
AcDbEntity
  8
HILF
100
AcDbLine
 10
40.00000000000011
 20
39.99999999999997
 30
0.0
 11
136.0000000000001
 21
39.99999999999997
 31
0.0
  0
LINE
  5
68B
330
1E
100
AcDbEntity
  8
HILF
100
AcDbLine
 10
136.0000000000001
 20
69.99999999999994
 30
0.0
 11
220.0
 21
69.99999999999994
 31
0.0
  0
LINE
  5
68C
330
1E
100
AcDbEntity
  8
HILF
100
AcDbLine
 10
136.0000000000001
 20
59.99999999999997
 30
0.0
 11
220.0
 21
59.99999999999997
 31
0.0
  0
LINE
  5
68D
330
1E
100
AcDbEntity
  8
HILF
100
AcDbLine
 10
136.0000000000001
 20
49.99999999999997
 30
0.0
 11
220.0
 21
49.99999999999997
 31
0.0
  0
LINE
  5
68E
330
1E
100
AcDbEntity
  8
HILF
100
AcDbLine
 10
224.7736801096948
 20
84.03758247564139
 30
0.0
 11
324.8353916556311
 21
84.03758247564139
 31
0.0
  0
LINE
  5
68F
330
1E
100
AcDbEntity
  8
HILF
100
AcDbLine
 10
224.7736801096948
 20
69.99999999999994
 30
0.0
 11
324.8353916556309
 21
69.99999999999994
 31
0.0
  0
LINE
  5
690
330
1E
100
AcDbEntity
  8
HILF
100
AcDbLine
 10
224.7736801096948
 20
59.99999999999997
 30
0.0
 11
324.8353916556309
 21
59.99999999999997
 31
0.0
  0
LINE
  5
691
330
1E
100
AcDbEntity
  8
HILF
100
AcDbLine
 10
224.7736801096948
 20
49.99999999999997
 30
0.0
 11
324.8353916556309
 21
49.99999999999997
 31
0.0
  0
LINE
  5
692
330
1E
100
AcDbEntity
  8
VOLL
100
AcDbLine
 10
332.0
 20
60.0
 30
0.0
 11
410.0
 21
60.0
 31
0.0
  0
LINE
  5
693
330
1E
100
AcDbEntity
  8
HILF
100
AcDbLine
 10
336.7238616296993
 20
83.77983636955827
 30
0.0
 11
404.8588839326728
 21
83.77983636955827
 31
0.0
  0
LINE
  5
694
330
1E
100
AcDbEntity
  8
HILF
100
AcDbLine
 10
223.4909699289886
 20
14.89398258028314
 30
0.0
 11
404.8588839326728
 21
14.89398258028314
 31
0.0
  0
TEXT
  5
695
330
1E
100
AcDbEntity
  8
TEXT
100
AcDbText
 10
63.86165979631822
 20
18.67381894984132
 30
0.0
 40
4.0
  1
Änderung
 41
0.8
  7
GREEKS
 72
     1
 11
74.60451693917537
 21
18.67381894984132
 31
0.0
100
AcDbText
  0
TEXT
  5
696
330
1E
100
AcDbEntity
  8
TEXT
100
AcDbText
 10
143.5163572150377
 20
102.4620895087088
 30
0.0
 40
5.0
  1
Maßstab
 41
0.8
  7
GREEKS
100
AcDbText
  0
TEXT
  5
697
330
1E
100
AcDbEntity
  8
TEXT
100
AcDbText
 10
184.2858954734051
 20
102.4184168434819
 30
0.0
 40
5.0
  1
Zul. Abw.
 41
0.8
  7
GREEKS
100
AcDbText
  0
TEXT
  5
698
330
1E
100
AcDbEntity
  8
TEXT
100
AcDbText
 10
224.877940380901
 20
102.5489328011779
 30
0.0
 40
5.0
  1
Benennung
 41
0.8
  7
GREEKS
100
AcDbText
  0
TEXT
  5
699
330
1E
100
AcDbEntity
  8
TEXT
100
AcDbText
 10
336.178754957634
 20
102.3132034537136
 30
0.0
 40
5.0
  1
Zeichnungs Nr.
 41
0.8
  7
GREEKS
100
AcDbText
  0
TEXT
  5
69A
330
1E
100
AcDbEntity
  8
TEXT
100
AcDbText
 10
224.742238391136
 20
30.84560570193057
 30
0.0
 40
5.0
  1
Bauvorhaben
 41
0.8
  7
GREEKS
100
AcDbText
  0
TEXT
  5
69B
330
1E
100
AcDbEntity
  8
TEXT
100
AcDbText
 10
336.7238616296993
 20
73.1811823709997
 30
0.0
 40
5.0
  1
Ersatz für:
 41
0.8
  7
GREEKS
100
AcDbText
  0
TEXT
  5
69C
330
1E
100
AcDbEntity
  8
TEXT
100
AcDbText
 10
48.26641107045759
 20
13.65465846027192
 30
0.0
 40
4.0
  1
Index
 50
90.0
 41
0.8
  7
GREEKS
100
AcDbText
  0
TEXT
  5
69D
330
1E
100
AcDbEntity
  8
TEXT
100
AcDbText
 10
100.093467607548
 20
18.6715626933981
 30
0.0
 40
4.0
  1
Tag
 41
0.8
  7
GREEKS
 72
     1
 11
103.8268009408814
 21
18.6715626933981
 31
0.0
100
AcDbText
  0
TEXT
  5
69E
330
1E
100
AcDbEntity
  8
TEXT
100
AcDbText
 10
119.0122744386593
 20
18.59324216966408
 30
0.0
 40
4.0
  1
Name
 41
0.8
  7
GREEKS
 72
     1
 11
125.3360839624688
 21
18.59324216966408
 31
0.0
100
AcDbText
  0
TEXT
  5
69F
330
1E
100
AcDbEntity
  8
TEXT
100
AcDbText
 10
162.3311673153651
 20
73.31880501229926
 30
0.0
 40
4.0
  1
Tag
 41
0.8
  7
GREEKS
100
AcDbText
  0
TEXT
  5
6A0
330
1E
100
AcDbEntity
  8
TEXT
100
AcDbText
 10
192.4626584226295
 20
73.30961091915225
 30
0.0
 40
4.0
  1
Name
 41
0.8
  7
GREEKS
100
AcDbText
  0
TEXT
  5
6A1
330
1E
100
AcDbEntity
  8
TEXT
100
AcDbText
 10
137.5836127167615
 20
63.62990369617964
 30
0.0
 40
4.0
  1
Gez.
 41
0.8
  7
GREEKS
100
AcDbText
  0
TEXT
  5
6A2
330
1E
100
AcDbEntity
  8
TEXT
100
AcDbText
 10
137.5515086571672
 20
53.68926291428377
 30
0.0
 40
4.0
  1
Gepr.
 41
0.8
  7
GREEKS
100
AcDbText
  0
TEXT
  5
6A3
330
1E
100
AcDbEntity
  8
TEXT
100
AcDbText
 10
137.6006777387304
 20
43.52946389649807
 30
0.0
 40
4.0
  1
Norm.
 41
0.8
  7
GREEKS
100
AcDbText
  0
LINE
  5
6A4
330
1E
100
AcDbEntity
  8
STEMPEL
100
AcDbLine
 10
49.99999999999989
 20
10.0
 30
0.0
 11
410.0
 21
10.0
 31
0.0
  0
TEXT
  5
6A5
330
1E
100
AcDbEntity
  8
TEXT
100
AcDbText
 10
337.2400861497006
 20
52.07416177878602
 30
0.0
 40
5.0
  1
ersetzt durch:
 41
0.8
  7
GREEKS
100
AcDbText
  0
LINE
  5
6A6
330
1E
100
AcDbEntity
  8
STEMPEL
100
AcDbLine
 10
410.0
 20
10.0
 30
0.0
 11
39.99999999999989
 21
10.0
 31
0.0
  0
LINE
  5
6A7
330
1E
100
AcDbEntity
  8
STEMPEL
100
AcDbLine
 10
410.0
 20
10.0
 30
0.0
 11
410.0
 21
584.0
 31
0.0
  0
LINE
  5
6A8
330
1E
100
AcDbEntity
  8
STEMPEL
100
AcDbLine
 10
40.0
 20
10.0
 30
0.0
 11
39.99999999999989
 21
584.0
 31
0.0
  0
LINE
  5
6A9
330
1E
100
AcDbEntity
  8
STEMPEL
100
AcDbLine
 10
410.0
 20
584.0
 30
0.0
 11
39.99999999999989
 21
584.0
 31
0.0
  0
LINE
  5
6AA
330
1E
100
AcDbEntity
  8
HILF
100
AcDbLine
 10
0.0
 20
0.0
 30
0.0
 11
-0.0000000000001137
 21
594.0
 31
0.0
  0
LINE
  5
6AB
330
1E
100
AcDbEntity
  8
HILF
100
AcDbLine
 10
419.9999999999999
 20
594.0000000000002
 30
0.0
 11
0.0
 21
594.0
 31
0.0
  0
LINE
  5
6AC
330
1E
100
AcDbEntity
  8
HILF
100
AcDbLine
 10
420.0
 20
0.0
 30
0.0
 11
0.0
 21
0.0
 31
0.0
  0
LINE
  5
6AD
330
1E
100
AcDbEntity
  8
HILF
100
AcDbLine
 10
31.08767135713856
 20
297.0
 30
0.0
 11
0.0000000000001137
 21
297.0
 31
0.0
  0
TEXT
  5
6AE
330
1E
100
AcDbEntity
  8
TEXT
100
AcDbText
 10
138.622109822104
 20
73.14025471151666
 30
0.0
 40
4.0
  1
2012
 41
0.8
  7
GREEKS
100
AcDbText
  0
LINE
  5
6AF
330
1E
100
AcDbEntity
  8
HILF
100
AcDbLine
 10
420.0
 20
-0.0000000000001137
 30
0.0
 11
419.9999999999999
 21
594.0
 31
0.0
  0
TEXT
  5
6B0
330
1E
100
AcDbEntity
  8
VOLL
100
AcDbText
 10
682.3517065013577
 20
-69.27911192902275
 30
0.0
 40
3.6
  1

  7
GREEKS
100
AcDbText
  0
TEXT
  5
6B1
330
1E
100
AcDbEntity
  8
TEXT
100
AcDbText
 10
41.85509950977677
 20
111.6719999999999
 30
0.0
 40
5.0
  1
Erstellt mit AUTOCAD 2004
 41
0.8
  7
GREEKS
100
AcDbText
  0
TEXT
  5
6B2
330
1E
100
AcDbEntity
  8
TEXT
100
AcDbText
 10
194.4216048581257
 20
63.0896391972351
 30
0.0
 40
4.0
  1
Koeh
 41
0.8
  7
GREEKS
 72
     1
 11
199.6787477152686
 21
63.0896391972351
 31
0.0
100
AcDbText
  0
TEXT
  5
6B3
330
1E
100
AcDbEntity
  8
TEXT
 62
     1
100
AcDbText
 10
348.8428939890558
 20
88.14901428913959
 30
0.0
 40
7.0
  1
5550070W
 41
0.8
  7
GREEKS
 72
     1
 11
370.1762273223891
 21
88.14901428913959
 31
0.0
100
AcDbText
  0
TEXT
  5
6B4
330
1E
100
AcDbEntity
  8
TEXT
 62
     1
100
AcDbText
 10
150.5006306481887
 20
88.14901428913959
 30
0.0
 40
7.0
  1
1:2
 41
0.8
  7
GREEKS
100
AcDbText
  0
TEXT
  5
6B5
330
1E
100
AcDbEntity
  8
TEXT
100
AcDbText
 10
161.0085209177599
 20
63.10765040825732
 30
0.0
 40
4.0
  1
17.01.
 41
0.8
  7
GREEKS
 72
     1
 11
167.4085209177599
 21
63.10765040825732
 31
0.0
100
AcDbText
  0
TEXT
  5
6B6
330
1E
100
AcDbEntity
  8
TEXT
 62
     1
100
AcDbText
 10
226.8935731057402
 20
87.41748789253779
 30
0.0
 40
7.0
  1
Reinigungsrohr DN70
 41
0.8
  7
GREEKS
100
AcDbText
  0
TEXT
  5
6B9
330
1E
100
AcDbEntity
  8
TEXT
100
AcDbText
 10
225.1296391125316
 20
51.64011943042158
 30
0.0
 40
5.0
  1
EDV-Art.Nr. 5.550.070C
 41
0.8
  7
GREEKS
100
AcDbText
  0
TEXT
  5
6BA
330
1E
100
AcDbEntity
  8
TEXT
100
AcDbText
 10
224.9837501577827
 20
42.62974153022632
 30
0.0
 40
4.0
  1
5550070W.DWG
 41
0.8
  7
GREEKS
100
AcDbText
  0
TEXT
  5
6BB
330
1E
100
AcDbEntity
  8
TEXT
100
AcDbText
 10
182.626132208084
 20
90.76363841023022
 30
0.0
 40
4.0
  1
DIN EN1124-3
 41
0.8
  7
GREEKS
 72
     1
 11
199.6166083985601
 21
90.76363841023022
 31
0.0
100
AcDbText
  0
INSERT
  5
6BC
330
1E
100
AcDbEntity
  8
STEMPEL
100
AcDbBlockReference
  2
LOGO
 10
140.9955485457794
 20
45.02105276448321
 30
0.0
 41
2.0
 42
2.0
 43
2.0
  0
TEXT
  5
6BD
330
1E
100
AcDbEntity
  8
BEM
100
AcDbText
 10
417.3022923857165
 20
10.16790107998849
 30
0.0
 40
4.0
  1
Diese Zeichnung ist urheberrechtlich geschützt und bleibt unser Eigentum. Sie darf weder ganz noch teilweise verfielfältigt und nicht an Dritte weitergegeben werden.
 50
90.0
 41
0.8
  7
GREEKS
100
AcDbText
  0
TEXT
  5
79E
330
1E
100
AcDbEntity
  8
TEXT
 62
     1
100
AcDbText
 10
125.736394108151
 20
186.9195357136707
 30
0.0
 40
7.0
  1
Rohrende leicht eingezogen
 41
0.8
  7
GREEKS
100
AcDbText
  0
ARC
  5
7E8
330
1E
100
AcDbEntity
  8
STEMPEL
100
AcDbCircle
 10
349.6945887853955
 20
308.2853940527804
 30
0.0
 40
17.0
100
AcDbArc
 50
121.2510164130857
 51
157.5318142614101
  0
ARC
  5
7E9
330
1E
100
AcDbEntity
  8
STEMPEL
100
AcDbCircle
 10
290.5527084487177
 20
308.2853940527804
 30
0.0
 40
17.0
100
AcDbArc
 50
22.46818573858982
 51
58.74898358691429
  0
ARC
  5
7EA
330
1E
100
AcDbEntity
  8
HILF
100
AcDbCircle
 10
349.6945887853955
 20
308.2853940527804
 30
0.0
 40
20.75
100
AcDbArc
 50
121.2510164130857
 51
157.5318142614101
  0
ARC
  5
7EB
330
1E
100
AcDbEntity
  8
HILF
100
AcDbCircle
 10
290.5527084487177
 20
308.2853940527804
 30
0.0
 40
20.75
100
AcDbArc
 50
22.46818573858982
 51
58.74898358691429
  0
ARC
  5
7EF
330
1E
100
AcDbEntity
  8
HILF
100
AcDbCircle
 10
320.1236486170566
 20
320.5148461075749
 30
0.0
 40
11.25
100
AcDbArc
 50
202.4681857385898
 51
252.1988874715814
  0
ARC
  5
7F0
330
1E
100
AcDbEntity
  8
STEMPEL
100
AcDbCircle
 10
320.1236486170566
 20
320.5148461075749
 30
0.0
 40
15.0
100
AcDbArc
 50
202.4681857385898
 51
337.5318142614101
  0
ARC
  5
7F2
330
1E
100
AcDbEntity
  8
STEMPEL
100
AcDbCircle
 10
320.1236486170566
 20
357.0148461075748
 30
0.0
 40
40.0
100
AcDbArc
 50
121.2510164130857
 51
238.7489835869143
  0
ARC
  5
7F7
330
1E
100
AcDbEntity
  8
HILF
100
AcDbCircle
 10
349.6945887853955
 20
405.7442981623693
 30
0.0
 40
20.75
100
AcDbArc
 50
202.4681857385898
 51
238.7489835869143
  0
ARC
  5
7F8
330
1E
100
AcDbEntity
  8
HILF
100
AcDbCircle
 10
290.5527084487177
 20
405.7442981623693
 30
0.0
 40
20.75
100
AcDbArc
 50
301.2510164130857
 51
337.5318142614101
  0
ARC
  5
7F9
330
1E
100
AcDbEntity
  8
STEMPEL
100
AcDbCircle
 10
349.6945887853955
 20
405.7442981623693
 30
0.0
 40
17.0
100
AcDbArc
 50
202.4681857385898
 51
238.7489835869143
  0
ARC
  5
7FA
330
1E
100
AcDbEntity
  8
STEMPEL
100
AcDbCircle
 10
290.5527084487177
 20
405.7442981623693
 30
0.0
 40
17.0
100
AcDbArc
 50
301.2510164130857
 51
337.5318142614101
  0
ARC
  5
7FB
330
1E
100
AcDbEntity
  8
STEMPEL
100
AcDbCircle
 10
323.5940036170573
 20
359.1631611075751
 30
0.0
 40
2.68030499999999
100
AcDbArc
 50
321.7544148360612
 51
90.0
  0
ARC
  5
7FC
330
1E
100
AcDbEntity
  8
STEMPEL
100
AcDbCircle
 10
320.1236486170566
 20
357.014846107575
 30
0.0
 40
26.0
100
AcDbArc
 50
0.0
 51
180.0
  0
ARC
  5
7FD
330
1E
100
AcDbEntity
  8
HILF
100
AcDbCircle
 10
320.1236486170566
 20
357.0148461075748
 30
0.0
 40
36.25
100
AcDbArc
 50
121.2510164130857
 51
238.7489835869143
  0
ARC
  5
7FE
330
1E
100
AcDbEntity
  8
HILF
100
AcDbCircle
 10
320.1236486170566
 20
357.0148461075748
 30
0.0
 40
36.25
100
AcDbArc
 50
301.2510164130857
 51
58.74898358691429
  0
CIRCLE
  5
7FF
330
1E
100
AcDbEntity
  8
HILF
100
AcDbCircle
 10
320.1236486170566
 20
357.014846107575
 30
0.0
 40
27.5
  0
CIRCLE
  5
800
330
1E
100
AcDbEntity
  8
STEMPEL
100
AcDbCircle
 10
314.3385659227859
 20
357.0178625437494
 30
0.0
 40
2.607854999999999
  0
ARC
  5
801
330
1E
100
AcDbEntity
  8
STEMPEL
100
AcDbCircle
 10
314.3397236170571
 20
357.014846107575
 30
0.0
 40
4.828619999999999
100
AcDbArc
 50
23.57353049432726
 51
212.689281080748
  0
LINE
  5
802
330
1E
100
AcDbEntity
  8
STEMPEL
100
AcDbLine
 10
305.9479436170573
 20
361.843466107575
 30
0.0
 11
305.9479436170573
 21
354.701276107575
 31
0.0
  0
LINE
  5
803
330
1E
100
AcDbEntity
  8
STEMPEL
100
AcDbLine
 10
303.7271786170572
 20
361.843466107575
 30
0.0
 11
303.7271786170572
 21
354.701276107575
 31
0.0
  0
ARC
  5
804
330
1E
100
AcDbEntity
  8
STEMPEL
100
AcDbCircle
 10
331.6914986170572
 20
357.014846107575
 30
0.0
 40
4.828619999999999
100
AcDbArc
 50
270.0
 51
212.6892810807625
  0
CIRCLE
  5
805
330
1E
100
AcDbEntity
  8
STEMPEL
100
AcDbCircle
 10
331.6914986170572
 20
357.014846107575
 30
0.0
 40
2.607854999999999
  0
ARC
  5
806
330
1E
100
AcDbEntity
  8
STEMPEL
100
AcDbCircle
 10
314.3397236170571
 20
357.014846107575
 30
0.0
 40
4.828619999999999
100
AcDbArc
 50
270.0
 51
336.4264695056728
  0
ARC
  5
807
330
1E
100
AcDbEntity
  8
STEMPEL
100
AcDbCircle
 10
320.1236486170566
 20
357.0148461075748
 30
0.0
 40
26.0
100
AcDbArc
 50
180.0
 51
0.0
  0
LINE
  5
808
330
1E
100
AcDbEntity
  8
STEMPEL
100
AcDbLine
 10
327.263712009165
 20
352.186226107575
 30
0.0
 11
331.6914986170573
 21
352.186226107575
 31
0.0
  0
ARC
  5
809
330
1E
100
AcDbEntity
  8
STEMPEL
100
AcDbCircle
 10
327.263712009165
 20
355.031786107575
 30
0.0
 40
2.845559999999999
100
AcDbArc
 50
200.0000000000037
 51
270.0
  0
ARC
  5
80A
330
1E
100
AcDbEntity
  8
STEMPEL
100
AcDbCircle
 10
327.263712009165
 20
355.031786107575
 30
0.0
 40
0.6247949999999999
100
AcDbArc
 50
200.0000000000037
 51
270.0
  0
LINE
  5
80B
330
1E
100
AcDbEntity
  8
STEMPEL
100
AcDbLine
 10
327.263712009165
 20
354.406991107575
 30
0.0
 11
327.6276748753867
 21
354.406991107575
 31
0.0
  0
LINE
  5
80C
330
1E
100
AcDbEntity
  8
STEMPEL
100
AcDbLine
 10
318.7653836170571
 20
352.186226107575
 30
0.0
 11
318.7653836170571
 21
355.0837571223648
 31
0.0
  0
LINE
  5
80D
330
1E
100
AcDbEntity
  8
STEMPEL
100
AcDbLine
 10
318.7653836170571
 20
352.186226107575
 30
0.0
 11
320.9861486170571
 21
352.186226107575
 31
0.0
  0
ARC
  5
80E
330
1E
100
AcDbEntity
  8
STEMPEL
100
AcDbCircle
 10
323.269897850246
 20
355.8580611075751
 30
0.0
 40
0.6247949999999999
100
AcDbArc
 50
20.00000000000369
 51
90.0
  0
LINE
  5
80F
330
1E
100
AcDbEntity
  8
STEMPEL
100
AcDbLine
 10
320.9861486170571
 20
356.4828561075748
 30
0.0
 11
323.2698978502461
 21
356.4828561075751
 31
0.0
  0
LINE
  5
810
330
1E
100
AcDbEntity
  8
STEMPEL
100
AcDbLine
 10
324.5897602751614
 20
354.0585472685331
 30
0.0
 11
323.8570131012501
 21
356.0717535830242
 31
0.0
  0
LINE
  5
811
330
1E
100
AcDbEntity
  8
STEMPEL
100
AcDbLine
 10
320.9861486170571
 20
352.186226107575
 30
0.0
 11
320.9861486170571
 21
356.4828561075748
 31
0.0
  0
LINE
  5
812
330
1E
100
AcDbEntity
  8
STEMPEL
100
AcDbLine
 10
326.676596758161
 20
354.8180936321259
 30
0.0
 11
325.6990203666492
 21
357.5039626935965
 31
0.0
  0
LINE
  5
813
330
1E
100
AcDbEntity
  8
STEMPEL
100
AcDbLine
 10
306.2422286170572
 20
352.186226107575
 30
0.0
 11
314.3397236170572
 21
352.186226107575
 31
0.0
  0
LINE
  5
814
330
1E
100
AcDbEntity
  8
STEMPEL
100
AcDbLine
 10
306.2422286170572
 20
354.406991107575
 30
0.0
 11
310.2758998753841
 21
354.406991107575
 31
0.0
  0
ARC
  5
815
330
1E
100
AcDbEntity
  8
STEMPEL
100
AcDbCircle
 10
306.2422286170571
 20
354.701276107575
 30
0.0
 40
2.51505
100
AcDbArc
 50
180.0
 51
270.0
  0
ARC
  5
816
330
1E
100
AcDbEntity
  8
STEMPEL
100
AcDbCircle
 10
306.2422286170571
 20
354.701276107575
 30
0.0
 40
0.2942849999999999
100
AcDbArc
 50
180.0
 51
270.0
  0
ARC
  5
817
330
1E
100
AcDbEntity
  8
STEMPEL
100
AcDbCircle
 10
323.5940036170573
 20
359.1631611075751
 30
0.0
 40
0.4595399999999906
100
AcDbArc
 50
270.0
 51
90.0
  0
LINE
  5
818
330
1E
100
AcDbEntity
  8
STEMPEL
100
AcDbLine
 10
318.7653836170571
 20
358.9459350927852
 30
0.0
 11
318.7653836170574
 21
361.843466107575
 31
0.0
  0
LINE
  5
819
330
1E
100
AcDbEntity
  8
STEMPEL
100
AcDbLine
 10
320.9861486170571
 20
358.7036211075749
 30
0.0
 11
320.9861486170574
 21
359.622701107575
 31
0.0
  0
LINE
  5
81A
330
1E
100
AcDbEntity
  8
STEMPEL
100
AcDbLine
 10
318.7653836170574
 20
361.843466107575
 30
0.0
 11
323.5940036170573
 21
361.843466107575
 31
0.0
  0
LINE
  5
81B
330
1E
100
AcDbEntity
  8
STEMPEL
100
AcDbLine
 10
320.9861486170574
 20
359.622701107575
 30
0.0
 11
323.5940036170573
 21
359.622701107575
 31
0.0
  0
LINE
  5
81C
330
1E
100
AcDbEntity
  8
STEMPEL
100
AcDbLine
 10
320.9861486170571
 20
358.7036211075749
 30
0.0
 11
323.5940036170573
 21
358.7036211075749
 31
0.0
  0
LINE
  5
81D
330
1E
100
AcDbEntity
  8
STEMPEL
100
AcDbLine
 10
303.7271786170572
 20
361.843466107575
 30
0.0
 11
305.9479436170573
 21
361.843466107575
 31
0.0
  0
ARC
  5
81E
330
1E
100
AcDbEntity
  8
STEMPEL
100
AcDbCircle
 10
320.1236486170566
 20
357.0148461075748
 30
0.0
 40
40.0
100
AcDbArc
 50
301.2510164130857
 51
58.74898358691429
  0
ARC
  5
81F
330
1E
100
AcDbEntity
  8
STEMPEL
100
AcDbCircle
 10
320.1236486170566
 20
393.514846107575
 30
0.0
 40
15.0
100
AcDbArc
 50
22.46818573858982
 51
157.5318142614101
  0
ARC
  5
820
330
1E
100
AcDbEntity
  8
HILF
100
AcDbCircle
 10
320.1236486170566
 20
393.514846107575
 30
0.0
 40
11.25
100
AcDbArc
 50
22.46818573858982
 51
72.19888747158456
  0
LINE
  5
82D
330
1E
100
AcDbEntity
  8
STEMPEL
100
AcDbLine
 10
283.6236486170567
 20
340.6517779356211
 30
0.0
 11
283.6236486170567
 21
238.9449885989136
 31
0.0
  0
LINE
  5
82E
330
1E
100
AcDbEntity
  8
STEMPEL
100
AcDbLine
 10
356.6236486170567
 20
340.6517779356213
 30
0.0
 11
356.6236486170566
 21
238.9449885989136
 31
0.0
  0
TEXT
  5
975
330
1E
100
AcDbEntity
  8
TEXT
 62
     1
100
AcDbText
 10
79.65102563838616
 20
429.6545258119777
 30
0.0
 40
7.0
  1
Deckel DN70
 50
90.0
 41
0.8
  7
GREEKS
100
AcDbText
  0
TEXT
  5
976
330
1E
100
AcDbEntity
  8
TEXT
 62
     1
100
AcDbText
 10
92.55568607979308
 20
429.6545258119777
 30
0.0
 40
7.0
  1
EDV-Art.Nr. 55880.070C
 50
90.0
 41
0.8
  7
GREEKS
100
AcDbText
  0
LINE
  5
977
330
1E
100
AcDbEntity
  8
TEXT
 62
     2
100
AcDbLine
 10
83.03093105528274
 20
429.1938470092057
 30
0.0
 11
83.03093105528274
 21
535.7465276576814
 31
0.0
  0
LINE
  5
978
330
1E
100
AcDbEntity
  8
MITTEL
100
AcDbLine
 10
129.1342762387046
 20
316.0148461075752
 30
0.0
 11
106.1342762387046
 21
316.0148461075749
 31
0.0
  0
LINE
  5
97A
330
1E
100
AcDbEntity
  8
STEMPEL
  6
Continuous
100
AcDbLine
 10
127.6342762387046
 20
319.0148461075751
 30
0.0
 11
117.1342762387044
 21
319.0148461075751
 31
0.0
  0
LINE
  5
97B
330
1E
100
AcDbEntity
  8
STEMPEL
  6
Continuous
100
AcDbLine
 10
127.6342762387046
 20
319.0148461075751
 30
0.0
 11
117.1342762387046
 21
319.0148461075751
 31
0.0
  0
LINE
  5
97E
330
1E
100
AcDbEntity
  8
STEMPEL
  6
Continuous
100
AcDbLine
 10
127.6342762387046
 20
395.0148461075751
 30
0.0
 11
117.1342762387044
 21
395.0148461075751
 31
0.0
  0
LINE
  5
981
330
1E
100
AcDbEntity
  8
STEMPEL
  6
Continuous
100
AcDbLine
 10
127.6342762387046
 20
395.0148461075751
 30
0.0
 11
117.1342762387046
 21
395.0148461075751
 31
0.0
  0
LINE
  5
982
330
1E
100
AcDbEntity
  8
MITTEL
  6
STRICHPUNKT
100
AcDbLine
 10
113.6342762387046
 20
357.0148461075751
 30
0.0
 11
165.6342762387046
 21
357.0148461075751
 31
0.0
  0
LINE
  5
983
330
1E
100
AcDbEntity
  8
STEMPEL
  6
Continuous
100
AcDbLine
 10
129.1342762387046
 20
401.014846107575
 30
0.0
 11
117.1342762387044
 21
401.014846107575
 31
0.0
  0
LINE
  5
984
330
1E
100
AcDbEntity
  8
HILF
  6
Continuous
100
AcDbLine
 10
129.1342762387046
 20
400.389846107575
 30
0.0
 11
117.1342762387045
 21
400.389846107575
 31
0.0
  0
LINE
  5
985
330
1E
100
AcDbEntity
  8
HILF
  6
Continuous
100
AcDbLine
 10
129.1342762387046
 20
395.639846107575
 30
0.0
 11
117.1342762387045
 21
395.639846107575
 31
0.0
  0
LINE
  5
986
330
1E
100
AcDbEntity
  8
STEMPEL
  6
Continuous
100
AcDbLine
 10
129.1342762387046
 20
395.0148461075751
 30
0.0
 11
117.1342762387044
 21
395.0148461075751
 31
0.0
  0
LINE
  5
987
330
1E
100
AcDbEntity
  8
STEMPEL
  6
Continuous
100
AcDbLine
 10
129.1342762387046
 20
319.014846107575
 30
0.0
 11
117.1342762387044
 21
319.0148461075751
 31
0.0
  0
LINE
  5
988
330
1E
100
AcDbEntity
  8
HILF
  6
Continuous
100
AcDbLine
 10
129.1342762387046
 20
318.389846107575
 30
0.0
 11
117.1342762387045
 21
318.3898461075751
 31
0.0
  0
LINE
  5
989
330
1E
100
AcDbEntity
  8
HILF
  6
Continuous
100
AcDbLine
 10
129.1342762387046
 20
313.639846107575
 30
0.0
 11
117.1342762387045
 21
313.6398461075751
 31
0.0
  0
LINE
  5
98A
330
1E
100
AcDbEntity
  8
STEMPEL
  6
Continuous
100
AcDbLine
 10
129.1342762387046
 20
313.0148461075751
 30
0.0
 11
117.1342762387044
 21
313.0148461075751
 31
0.0
  0
LINE
  5
98B
330
1E
100
AcDbEntity
  8
MITTEL
100
AcDbLine
 10
129.1342762387046
 20
398.014846107575
 30
0.0
 11
106.1342762387043
 21
398.0148461075751
 31
0.0
  0
INSERT
  5
993
330
1E
100
AcDbEntity
  8
SCHRAFF
100
AcDbBlockReference
  2
*X4
 10
671.4359706792552
 20
945.2360489156959
 30
0.0
 50
180.0
1001
ACAD
1000
HATCH
1002
{
1070
    16
1000
NET,I
1040
15.0
1040
0.7853981633974483
1002
}
  0
LINE
  5
994
330
1E
100
AcDbEntity
  8
STEMPEL
100
AcDbLine
 10
117.1342762387044
 20
309.2624586311615
 30
0.0
 11
117.1342762387044
 21
404.7672335839886
 31
0.0
  0
INSERT
  5
995
330
1E
100
AcDbEntity
  8
SCHRAFF
100
AcDbBlockReference
  2
*X5
 10
684.1184544227949
 20
-372.0331556099004
 30
0.0
 41
-1.0
1001
ACAD
1000
HATCH
1002
{
1070
    16
1000
_U,I
1040
2.0
1040
2.356194490192344
1070
     0
1002
}
  0
LINE
  5
996
330
1E
100
AcDbEntity
  8
STEMPEL
100
AcDbLine
 10
118.6342762387046
 20
319.0148461075751
 30
0.0
 11
118.6342762387046
 21
329.5148461075767
 31
0.0
  0
LINE
  5
9AB
330
1E
100
AcDbEntity
  8
STEMPEL
100
AcDbLine
 10
123.6342762387046
 20
320.0148461075751
 30
0.0
 11
118.6342762387046
 21
320.0148461075751
 31
0.0
  0
LINE
  5
9AC
330
1E
100
AcDbEntity
  8
STEMPEL
100
AcDbLine
 10
118.6342762387046
 20
319.5148461075751
 30
0.0
 11
117.1342762387044
 21
319.5148461075751
 31
0.0
  0
LINE
  5
9AD
330
1E
100
AcDbEntity
  8
STEMPEL
100
AcDbLine
 10
118.6342762387046
 20
312.5148461075751
 30
0.0
 11
117.1342762387044
 21
312.5148461075751
 31
0.0
  0
ARC
  5
9AE
330
1E
100
AcDbEntity
  8
STEMPEL
100
AcDbCircle
 10
119.6342762387045
 20
309.2624586311615
 30
0.0
 40
1.0
100
AcDbArc
 50
180.0
 51
249.9999999999963
  0
ARC
  5
9AF
330
1E
100
AcDbEntity
  8
STEMPEL
100
AcDbCircle
 10
119.6342762387045
 20
309.2624586311615
 30
0.0
 40
2.5
100
AcDbArc
 50
180.0
 51
249.9999999999963
  0
LINE
  5
9B0
330
1E
100
AcDbEntity
  8
STEMPEL
100
AcDbLine
 10
123.1342762387044
 20
306.9243850387538
 30
0.0
 11
122.6212460237159
 21
305.5148461075751
 31
0.0
  0
LINE
  5
9B1
330
1E
100
AcDbEntity
  8
STEMPEL
100
AcDbLine
 10
122.6212460237159
 20
305.5148461075751
 30
0.0
 11
118.7792258803904
 21
306.9132270791968
 31
0.0
  0
LINE
  5
9B2
330
1E
100
AcDbEntity
  8
STEMPEL
100
AcDbLine
 10
123.1342762387044
 20
306.9243850387538
 30
0.0
 11
119.2922560953789
 21
308.3227660103757
 31
0.0
  0
LINE
  5
9B3
330
1E
100
AcDbEntity
  8
STEMPEL
100
AcDbLine
 10
118.6342762387046
 20
309.2624586311615
 30
0.0
 11
118.6342762387046
 21
313.0148461075751
 31
0.0
  0
LINE
  5
9B4
330
1E
100
AcDbEntity
  8
STEMPEL
100
AcDbLine
 10
123.1342762387044
 20
313.0148461075751
 30
0.0
 11
123.1342762387044
 21
306.9243850387538
 31
0.0
  0
LINE
  5
9B5
330
1E
100
AcDbEntity
  8
STEMPEL
100
AcDbLine
 10
123.1342762387044
 20
320.0148461075751
 30
0.0
 11
123.1342762387044
 21
319.0148461075751
 31
0.0
  0
LINE
  5
9C9
330
1E
100
AcDbEntity
  8
STEMPEL
100
AcDbLine
 10
123.6342762387046
 20
385.0148461075751
 30
0.0
 11
118.6342762387046
 21
385.0148461075751
 31
0.0
  0
LINE
  5
9CA
330
1E
100
AcDbEntity
  8
STEMPEL
100
AcDbLine
 10
123.6342762387046
 20
329.0148461075751
 30
0.0
 11
118.6342762387046
 21
329.0148461075751
 31
0.0
  0
LINE
  5
9CB
330
1E
100
AcDbEntity
  8
STEMPEL
100
AcDbLine
 10
123.6342762387046
 20
394.0148461075751
 30
0.0
 11
118.6342762387046
 21
394.0148461075751
 31
0.0
  0
LINE
  5
9CC
330
1E
100
AcDbEntity
  8
STEMPEL
100
AcDbLine
 10
117.7342762387045
 20
361.0191965888248
 30
0.0
 11
117.7342762387047
 21
357.0148461075751
 31
0.0
  0
LINE
  5
9CD
330
1E
100
AcDbEntity
  8
STEMPEL
100
AcDbLine
 10
119.2342762387045
 20
361.0191965888386
 30
0.0
 11
119.2342762387047
 21
357.0148461075751
 31
0.0
  0
LINE
  5
9CE
330
1E
100
AcDbEntity
  8
STEMPEL
100
AcDbLine
 10
120.1342762387046
 20
383.0148461075751
 30
0.0
 11
120.1342762387046
 21
331.0148461075751
 31
0.0
  0
LINE
  5
9CF
330
1E
100
AcDbEntity
  8
STEMPEL
100
AcDbLine
 10
117.7342762387045
 20
353.0104956263256
 30
0.0
 11
117.7342762387047
 21
357.0148461075751
 31
0.0
  0
LINE
  5
9D0
330
1E
100
AcDbEntity
  8
STEMPEL
100
AcDbLine
 10
119.2342762387045
 20
353.0104956263067
 30
0.0
 11
119.2342762387047
 21
357.0148461075751
 31
0.0
  0
ARC
  5
9D1
330
1E
100
AcDbEntity
  8
STEMPEL
100
AcDbCircle
 10
119.2342762387045
 20
352.1104956263255
 30
0.0
 40
0.8999999999999772
100
AcDbArc
 50
0.0
 51
90.0
  0
ARC
  5
9D2
330
1E
100
AcDbEntity
  8
STEMPEL
100
AcDbCircle
 10
118.6342762387045
 20
353.0104956263256
 30
0.0
 40
0.8999999999999772
100
AcDbArc
 50
180.0
 51
270.0
  0
ARC
  5
9D3
330
1E
100
AcDbEntity
  8
STEMPEL
100
AcDbCircle
 10
118.6342762387045
 20
329.5148461075751
 30
0.0
 40
1.500000000000056
100
AcDbArc
 50
90.0
 51
180.0
  0
LINE
  5
9D4
330
1E
100
AcDbEntity
  8
STEMPEL
100
AcDbLine
 10
118.6342762387046
 20
331.0148461075751
 30
0.0
 11
118.6342762387046
 21
352.1104956263255
 31
0.0
  0
LINE
  5
9D5
330
1E
100
AcDbEntity
  8
STEMPEL
100
AcDbLine
 10
118.6342762387046
 20
331.0148461075637
 30
0.0
 11
118.6342762387046
 21
352.11049562633
 31
0.0
  0
ARC
  5
9D6
330
1E
100
AcDbEntity
  8
STEMPEL
100
AcDbCircle
 10
118.6342762387045
 20
331.0148461075751
 30
0.0
 40
1.5
100
AcDbArc
 50
270.0
 51
0.0
  0
LINE
  5
9D7
330
1E
100
AcDbEntity
  8
STEMPEL
100
AcDbLine
 10
118.6342762387046
 20
394.5148461075753
 30
0.0
 11
117.1342762387044
 21
394.5148461075753
 31
0.0
  0
ARC
  5
9D8
330
1E
100
AcDbEntity
  8
STEMPEL
100
AcDbCircle
 10
118.6342762387045
 20
384.5148461075751
 30
0.0
 40
1.500000000000056
100
AcDbArc
 50
180.0
 51
270.0
  0
ARC
  5
9D9
330
1E
100
AcDbEntity
  8
STEMPEL
100
AcDbCircle
 10
118.6342762387045
 20
361.0191965888248
 30
0.0
 40
0.8999999999999772
100
AcDbArc
 50
90.0
 51
180.0
  0
ARC
  5
9DA
330
1E
100
AcDbEntity
  8
STEMPEL
100
AcDbCircle
 10
119.2342762387045
 20
361.9191965888246
 30
0.0
 40
0.8999999999999772
100
AcDbArc
 50
270.0
 51
0.0
  0
LINE
  5
9DB
330
1E
100
AcDbEntity
  8
STEMPEL
100
AcDbLine
 10
118.6342762387046
 20
383.0148461075753
 30
0.0
 11
118.6342762387046
 21
361.9191965888246
 31
0.0
  0
LINE
  5
9DC
330
1E
100
AcDbEntity
  8
STEMPEL
100
AcDbLine
 10
118.6342762387046
 20
383.0148461075873
 30
0.0
 11
118.6342762387046
 21
361.9191965888554
 31
0.0
  0
ARC
  5
9DD
330
1E
100
AcDbEntity
  8
STEMPEL
100
AcDbCircle
 10
118.6342762387045
 20
383.0148461075751
 30
0.0
 40
1.5
100
AcDbArc
 50
0.0
 51
90.0
  0
LINE
  5
9DE
330
1E
100
AcDbEntity
  8
STEMPEL
100
AcDbLine
 10
118.6342762387045
 20
395.0148461075751
 30
0.0
 11
118.6342762387046
 21
384.5148461075917
 31
0.0
  0
LINE
  5
9DF
330
1E
100
AcDbEntity
  8
STEMPEL
100
AcDbLine
 10
123.1342762387044
 20
395.0148461075751
 30
0.0
 11
123.1342762387044
 21
394.0148461075751
 31
0.0
  0
LINE
  5
9E8
330
1E
100
AcDbEntity
  8
STEMPEL
100
AcDbLine
 10
118.6342762387046
 20
401.514846107575
 30
0.0
 11
117.1342762387044
 21
401.514846107575
 31
0.0
  0
ARC
  5
9E9
330
1E
100
AcDbEntity
  8
STEMPEL
100
AcDbCircle
 10
119.6342762387045
 20
404.7672335839886
 30
0.0
 40
2.5
100
AcDbArc
 50
110.0000000000037
 51
180.0
  0
ARC
  5
9EA
330
1E
100
AcDbEntity
  8
STEMPEL
100
AcDbCircle
 10
119.6342762387045
 20
404.7672335839886
 30
0.0
 40
1.0
100
AcDbArc
 50
110.0000000000037
 51
180.0
  0
LINE
  5
9EB
330
1E
100
AcDbEntity
  8
STEMPEL
100
AcDbLine
 10
123.1342762387044
 20
407.1053071763962
 30
0.0
 11
122.6212460237159
 21
408.5148461075751
 31
0.0
  0
LINE
  5
9EC
330
1E
100
AcDbEntity
  8
STEMPEL
100
AcDbLine
 10
122.6212460237159
 20
408.5148461075751
 30
0.0
 11
118.7792258803904
 21
407.1164651359533
 31
0.0
  0
LINE
  5
9ED
330
1E
100
AcDbEntity
  8
STEMPEL
100
AcDbLine
 10
123.1342762387044
 20
407.1053071763962
 30
0.0
 11
119.2922560953789
 21
405.7069262047746
 31
0.0
  0
LINE
  5
9EE
330
1E
100
AcDbEntity
  8
STEMPEL
100
AcDbLine
 10
123.1342762387044
 20
407.1053071763965
 30
0.0
 11
123.1342762387044
 21
401.014846107575
 31
0.0
  0
LINE
  5
9EF
330
1E
100
AcDbEntity
  8
STEMPEL
100
AcDbLine
 10
118.6342762387046
 20
404.7672335839886
 30
0.0
 11
118.6342762387045
 21
401.014846107575
 31
0.0
  0
LINE
  5
9F0
330
1E
100
AcDbEntity
  8
TEXT
 62
     2
100
AcDbLine
 10
83.03093105528274
 20
429.1938470092057
 30
0.0
 11
117.929646742544
 21
405.96994979928
 31
0.0
  0
TEXT
  5
A03
330
1E
100
AcDbEntity
  8
TEXT
100
AcDbText
 10
225.1296391125316
 20
71.64011943042154
 30
0.0
 40
5.0
  1
mit runder Reinigungsöffnung
 41
0.8
  7
GREEKS
100
AcDbText
  0
ARC
  5
A59
330
1E
100
AcDbEntity
  8
STEMPEL
100
AcDbCircle
 10
130.3755682659305
 20
316.014846107575
 30
0.0
 40
14.94074366520043
100
AcDbArc
 50
168.8596278388943
 51
191.1403721611056
  0
ARC
  5
A5A
330
1E
100
AcDbEntity
  8
STEMPEL
100
AcDbCircle
 10
131.3415356603416
 20
316.014846107575
 30
0.0
 40
20.20725942163726
100
AcDbArc
 50
171.7867892982604
 51
188.2132107017395
  0
ARC
  5
A5B
330
1E
100
AcDbEntity
  8
STEMPEL
100
AcDbCircle
 10
119.2755850005208
 20
311.6847190886529
 30
0.0
 40
3.840760399790696
100
AcDbArc
 50
157.9259452632388
 51
202.0740547367609
  0
ARC
  5
A5C
330
1E
100
AcDbEntity
  8
STEMPEL
100
AcDbCircle
 10
116.2638133772275
 20
311.6847190886529
 30
0.0
 40
5.129537138523185
100
AcDbArc
 50
163.6571066940139
 51
196.3428933059861
  0
ARC
  5
A5D
330
1E
100
AcDbEntity
  8
STEMPEL
100
AcDbCircle
 10
119.2755850005208
 20
320.3449731264972
 30
0.0
 40
3.840760399790696
100
AcDbArc
 50
157.9259452632391
 51
202.0740547367612
  0
ARC
  5
A5E
330
1E
100
AcDbEntity
  8
STEMPEL
100
AcDbCircle
 10
116.2638133772275
 20
320.3449731264972
 30
0.0
 40
5.129537138523185
100
AcDbArc
 50
163.6571066940139
 51
196.3428933059861
  0
LINE
  5
A5F
330
1E
100
AcDbEntity
  8
STEMPEL
  6
Continuous
100
AcDbLine
 10
111.1342762387044
 20
321.0148461075751
 30
0.0
 11
111.1342762387044
 21
311.014846107575
 31
0.0
  0
LINE
  5
A60
330
1E
100
AcDbEntity
  8
STEMPEL
  6
Continuous
100
AcDbLine
 10
115.716356556705
 20
321.7883487994712
 30
0.0
 11
111.3415356603413
 21
321.7883487994712
 31
0.0
  0
LINE
  5
A61
330
1E
100
AcDbEntity
  8
STEMPEL
  6
Continuous
100
AcDbLine
 10
115.716356556705
 20
318.9015974535232
 30
0.0
 11
111.3415356603413
 21
318.9015974535232
 31
0.0
  0
LINE
  5
A62
330
1E
100
AcDbEntity
  8
STEMPEL
  6
Continuous
100
AcDbLine
 10
115.716356556705
 20
313.1280947616269
 30
0.0
 11
111.3415356603413
 21
313.1280947616269
 31
0.0
  0
LINE
  5
A63
330
1E
100
AcDbEntity
  8
HILF
  6
Continuous
100
AcDbLine
 10
116.0674452972721
 20
322.7529571864041
 30
0.0
 11
116.0674452972721
 21
309.2767350287459
 31
0.0
  0
LINE
  5
A64
330
1E
100
AcDbEntity
  8
STEMPEL
  6
Continuous
100
AcDbLine
 10
117.1342762387044
 20
322.564846107575
 30
0.0
 11
117.1342762387044
 21
309.464846107575
 31
0.0
  0
LINE
  5
A65
330
1E
100
AcDbEntity
  8
STEMPEL
  6
Continuous
100
AcDbLine
 10
115.716356556705
 20
310.2413434156788
 30
0.0
 11
111.3415356603413
 21
310.2413434156788
 31
0.0
  0
LINE
  5
A66
330
1E
100
AcDbEntity
  8
STEMPEL
  6
Continuous
100
AcDbLine
 10
111.1342762387044
 20
311.014846107575
 30
0.0
 11
111.3415356603413
 21
310.2413434156788
 31
0.0
  0
LINE
  5
A67
330
1E
100
AcDbEntity
  8
STEMPEL
  6
Continuous
100
AcDbLine
 10
111.3415356603413
 20
321.7883487994712
 30
0.0
 11
111.1342762387044
 21
321.0148461075751
 31
0.0
  0
LINE
  5
A68
330
1E
100
AcDbEntity
  8
STEMPEL
  6
Continuous
100
AcDbLine
 10
116.0674452972721
 20
322.7529571864041
 30
0.0
 11
115.716356556705
 21
321.7883487994712
 31
0.0
  0
LINE
  5
A69
330
1E
100
AcDbEntity
  8
STEMPEL
  6
Continuous
100
AcDbLine
 10
115.716356556705
 20
310.2413434156788
 30
0.0
 11
116.0674452972721
 21
309.2767350287459
 31
0.0
  0
ARC
  5
A6A
330
1E
100
AcDbEntity
  8
STEMPEL
  6
Continuous
100
AcDbCircle
 10
116.5842762387044
 20
309.464846107575
 30
0.0
 40
0.55
100
AcDbArc
 50
200.0000000000001
 51
0.0
  0
ARC
  5
A6B
330
1E
100
AcDbEntity
  8
STEMPEL
  6
Continuous
100
AcDbCircle
 10
116.5842762387044
 20
322.564846107575
 30
0.0
 40
0.5500000000000006
100
AcDbArc
 50
0.0
 51
159.9999999999999
  0
ARC
  5
A84
330
1E
100
AcDbEntity
  8
STEMPEL
100
AcDbCircle
 10
130.3755682659305
 20
398.0148461075751
 30
0.0
 40
14.94074366520043
100
AcDbArc
 50
168.8596278388943
 51
191.1403721611056
  0
ARC
  5
A85
330
1E
100
AcDbEntity
  8
STEMPEL
100
AcDbCircle
 10
131.3415356603416
 20
398.0148461075751
 30
0.0
 40
20.20725942163726
100
AcDbArc
 50
171.7867892982604
 51
188.2132107017395
  0
ARC
  5
A86
330
1E
100
AcDbEntity
  8
STEMPEL
100
AcDbCircle
 10
119.2755850005208
 20
393.6847190886529
 30
0.0
 40
3.840760399790696
100
AcDbArc
 50
157.9259452632388
 51
202.0740547367609
  0
ARC
  5
A87
330
1E
100
AcDbEntity
  8
STEMPEL
100
AcDbCircle
 10
116.2638133772275
 20
393.6847190886529
 30
0.0
 40
5.129537138523185
100
AcDbArc
 50
163.6571066940139
 51
196.3428933059861
  0
ARC
  5
A88
330
1E
100
AcDbEntity
  8
STEMPEL
100
AcDbCircle
 10
119.2755850005208
 20
402.3449731264973
 30
0.0
 40
3.840760399790696
100
AcDbArc
 50
157.9259452632391
 51
202.0740547367612
  0
ARC
  5
A89
330
1E
100
AcDbEntity
  8
STEMPEL
100
AcDbCircle
 10
116.2638133772275
 20
402.3449731264973
 30
0.0
 40
5.129537138523185
100
AcDbArc
 50
163.6571066940139
 51
196.3428933059861
  0
LINE
  5
A8A
330
1E
100
AcDbEntity
  8
STEMPEL
  6
Continuous
100
AcDbLine
 10
111.1342762387044
 20
403.014846107575
 30
0.0
 11
111.1342762387044
 21
393.0148461075751
 31
0.0
  0
LINE
  5
A8B
330
1E
100
AcDbEntity
  8
STEMPEL
  6
Continuous
100
AcDbLine
 10
115.716356556705
 20
403.7883487994713
 30
0.0
 11
111.3415356603413
 21
403.7883487994713
 31
0.0
  0
LINE
  5
A8C
330
1E
100
AcDbEntity
  8
STEMPEL
  6
Continuous
100
AcDbLine
 10
115.716356556705
 20
400.9015974535231
 30
0.0
 11
111.3415356603413
 21
400.9015974535231
 31
0.0
  0
LINE
  5
A8D
330
1E
100
AcDbEntity
  8
STEMPEL
  6
Continuous
100
AcDbLine
 10
115.716356556705
 20
395.1280947616269
 30
0.0
 11
111.3415356603413
 21
395.1280947616269
 31
0.0
  0
LINE
  5
A8E
330
1E
100
AcDbEntity
  8
HILF
  6
Continuous
100
AcDbLine
 10
116.0674452972721
 20
404.7529571864041
 30
0.0
 11
116.0674452972721
 21
391.276735028746
 31
0.0
  0
LINE
  5
A8F
330
1E
100
AcDbEntity
  8
STEMPEL
  6
Continuous
100
AcDbLine
 10
117.1342762387044
 20
404.564846107575
 30
0.0
 11
117.1342762387044
 21
391.4648461075751
 31
0.0
  0
LINE
  5
A90
330
1E
100
AcDbEntity
  8
STEMPEL
  6
Continuous
100
AcDbLine
 10
115.716356556705
 20
392.2413434156788
 30
0.0
 11
111.3415356603413
 21
392.2413434156788
 31
0.0
  0
LINE
  5
A91
330
1E
100
AcDbEntity
  8
STEMPEL
  6
Continuous
100
AcDbLine
 10
111.1342762387044
 20
393.0148461075751
 30
0.0
 11
111.3415356603413
 21
392.2413434156788
 31
0.0
  0
LINE
  5
A92
330
1E
100
AcDbEntity
  8
STEMPEL
  6
Continuous
100
AcDbLine
 10
111.3415356603413
 20
403.7883487994713
 30
0.0
 11
111.1342762387044
 21
403.014846107575
 31
0.0
  0
LINE
  5
A93
330
1E
100
AcDbEntity
  8
STEMPEL
  6
Continuous
100
AcDbLine
 10
116.0674452972721
 20
404.7529571864041
 30
0.0
 11
115.716356556705
 21
403.7883487994713
 31
0.0
  0
LINE
  5
A94
330
1E
100
AcDbEntity
  8
STEMPEL
  6
Continuous
100
AcDbLine
 10
115.716356556705
 20
392.2413434156788
 30
0.0
 11
116.0674452972721
 21
391.276735028746
 31
0.0
  0
ARC
  5
A95
330
1E
100
AcDbEntity
  8
STEMPEL
  6
Continuous
100
AcDbCircle
 10
116.5842762387044
 20
391.4648461075751
 30
0.0
 40
0.55
100
AcDbArc
 50
200.0000000000001
 51
0.0
  0
ARC
  5
A96
330
1E
100
AcDbEntity
  8
STEMPEL
  6
Continuous
100
AcDbCircle
 10
116.5842762387044
 20
404.564846107575
 30
0.0
 40
0.5500000000000006
100
AcDbArc
 50
0.0
 51
159.9999999999999
  0
CIRCLE
  5
AAA
330
1E
100
AcDbEntity
  8
STEMPEL
100
AcDbCircle
 10
320.1236486170567
 20
398.0148461075749
 30
0.0
 40
5.000000000000018
  0
CIRCLE
  5
AAB
330
1E
100
AcDbEntity
  8
HILF
100
AcDbCircle
 10
320.1236486170567
 20
398.0148461075749
 30
0.0
 40
6.738111078829117
  0
CIRCLE
  5
AAC
330
1E
100
AcDbEntity
  8
STEMPEL
100
AcDbCircle
 10
320.1236486170567
 20
398.0148461075749
 30
0.0
 40
7.099999999999999
  0
LINE
  5
AAD
330
1E
100
AcDbEntity
  8
STEMPEL
100
AcDbLine
 10
325.1236486170567
 20
400.901597453523
 30
0.0
 11
325.1236486170567
 21
395.1280947616268
 31
0.0
  0
LINE
  5
AAE
330
1E
100
AcDbEntity
  8
STEMPEL
100
AcDbLine
 10
325.1236486170567
 20
395.1280947616268
 30
0.0
 11
320.1236486170567
 21
392.2413434156787
 31
0.0
  0
LINE
  5
AAF
330
1E
100
AcDbEntity
  8
STEMPEL
100
AcDbLine
 10
320.1236486170567
 20
403.7883487994711
 30
0.0
 11
325.1236486170567
 21
400.901597453523
 31
0.0
  0
CIRCLE
  5
AB0
330
1E
100
AcDbEntity
  8
STEMPEL
100
AcDbCircle
 10
320.1236486170567
 20
398.0148461075749
 30
0.0
 40
3.0
  0
LINE
  5
AB1
330
1E
100
AcDbEntity
  8
STEMPEL
100
AcDbLine
 10
315.1236486170567
 20
400.901597453523
 30
0.0
 11
320.1236486170567
 21
403.7883487994711
 31
0.0
  0
ARC
  5
AB2
330
1E
100
AcDbEntity
  8
HILF
100
AcDbCircle
 10
320.1236486170567
 20
398.0148461075749
 30
0.0
 40
2.0
100
AcDbArc
 50
74.99999999999841
 51
15.00000000000158
  0
LINE
  5
AB3
330
1E
100
AcDbEntity
  8
STEMPEL
100
AcDbLine
 10
320.1236486170567
 20
392.2413434156787
 30
0.0
 11
315.1236486170567
 21
395.1280947616268
 31
0.0
  0
LINE
  5
AB4
330
1E
100
AcDbEntity
  8
STEMPEL
100
AcDbLine
 10
315.1236486170567
 20
395.1280947616268
 30
0.0
 11
315.1236486170567
 21
400.901597453523
 31
0.0
  0
LINE
  5
AB5
330
1E
100
AcDbEntity
  8
MITTEL
100
AcDbLine
 10
308.0236486170567
 20
398.0148461075749
 30
0.0
 11
332.2236486170567
 21
398.014846107575
 31
0.0
  0
CIRCLE
  5
AC7
330
1E
100
AcDbEntity
  8
STEMPEL
100
AcDbCircle
 10
320.1236486170566
 20
316.0148461075749
 30
0.0
 40
5.000000000000018
  0
CIRCLE
  5
AC8
330
1E
100
AcDbEntity
  8
HILF
100
AcDbCircle
 10
320.1236486170566
 20
316.0148461075749
 30
0.0
 40
6.738111078829117
  0
CIRCLE
  5
AC9
330
1E
100
AcDbEntity
  8
STEMPEL
100
AcDbCircle
 10
320.1236486170566
 20
316.0148461075749
 30
0.0
 40
7.099999999999999
  0
LINE
  5
ACA
330
1E
100
AcDbEntity
  8
STEMPEL
100
AcDbLine
 10
325.1236486170566
 20
318.9015974535231
 30
0.0
 11
325.1236486170566
 21
313.1280947616267
 31
0.0
  0
LINE
  5
ACB
330
1E
100
AcDbEntity
  8
STEMPEL
100
AcDbLine
 10
325.1236486170566
 20
313.1280947616267
 30
0.0
 11
320.1236486170566
 21
310.2413434156787
 31
0.0
  0
LINE
  5
ACC
330
1E
100
AcDbEntity
  8
STEMPEL
100
AcDbLine
 10
320.1236486170566
 20
321.7883487994711
 30
0.0
 11
325.1236486170566
 21
318.9015974535231
 31
0.0
  0
CIRCLE
  5
ACD
330
1E
100
AcDbEntity
  8
STEMPEL
100
AcDbCircle
 10
320.1236486170566
 20
316.0148461075749
 30
0.0
 40
3.0
  0
LINE
  5
ACE
330
1E
100
AcDbEntity
  8
STEMPEL
100
AcDbLine
 10
315.1236486170566
 20
318.9015974535231
 30
0.0
 11
320.1236486170566
 21
321.7883487994711
 31
0.0
  0
ARC
  5
ACF
330
1E
100
AcDbEntity
  8
HILF
100
AcDbCircle
 10
320.1236486170566
 20
316.0148461075749
 30
0.0
 40
2.0
100
AcDbArc
 50
74.99999999999841
 51
15.00000000000158
  0
LINE
  5
AD0
330
1E
100
AcDbEntity
  8
STEMPEL
100
AcDbLine
 10
320.1236486170566
 20
310.2413434156787
 30
0.0
 11
315.1236486170566
 21
313.1280947616267
 31
0.0
  0
LINE
  5
AD1
330
1E
100
AcDbEntity
  8
STEMPEL
100
AcDbLine
 10
315.1236486170566
 20
313.1280947616267
 30
0.0
 11
315.1236486170566
 21
318.9015974535231
 31
0.0
  0
LINE
  5
AD2
330
1E
100
AcDbEntity
  8
MITTEL
100
AcDbLine
 10
308.0236486170566
 20
316.0148461075749
 30
0.0
 11
332.2236486170567
 21
316.0148461075749
 31
0.0
  0
ARC
  5
AD3
330
1E
100
AcDbEntity
  8
HILF
100
AcDbCircle
 10
320.1236486170566
 20
393.514846107575
 30
0.0
 40
11.25
100
AcDbArc
 50
107.801112528414
 51
157.5318142614101
  0
ARC
  5
AD4
330
1E
100
AcDbEntity
  8
HILF
100
AcDbCircle
 10
320.1236486170566
 20
320.5148461075749
 30
0.0
 40
11.25
100
AcDbArc
 50
287.8011125284185
 51
337.5318142614101
  0
ENDSEC
  0
SECTION
  2
OBJECTS
  0
DICTIONARY
  5
C
330
0
100
AcDbDictionary
281
     1
  3
ACAD_COLOR
350
11A
  3
ACAD_GROUP
350
D
  3
ACAD_LAYOUT
350
19
  3
ACAD_MATERIAL
350
119
  3
ACAD_MLINESTYLE
350
16
  3
ACAD_PLOTSETTINGS
350
18
  3
ACAD_PLOTSTYLENAME
350
E
  3
AcDbVariableDictionary
350
125
  0
DICTIONARY
  5
DB
330
1E
100
AcDbDictionary
280
     1
281
     1
  3
ACAD_LAYOUTSELFREF
360
10F
  0
DICTIONARY
  5
DD
330
1A
100
AcDbDictionary
280
     1
281
     1
  3
ACAD_LAYOUTSELFREF
360
10E
  0
DICTIONARY
  5
11A
102
{ACAD_REACTORS
330
C
102
}
330
C
100
AcDbDictionary
281
     1
  0
DICTIONARY
  5
D
102
{ACAD_REACTORS
330
C
102
}
330
C
100
AcDbDictionary
281
     1
  0
DICTIONARY
  5
19
102
{ACAD_REACTORS
330
C
102
}
330
C
100
AcDbDictionary
281
     1
  3
Layout1
350
1D
  3
Model
350
21
  0
DICTIONARY
  5
119
102
{ACAD_REACTORS
330
C
102
}
330
C
100
AcDbDictionary
281
     1
  0
DICTIONARY
  5
16
102
{ACAD_REACTORS
330
C
102
}
330
C
100
AcDbDictionary
281
     1
  3
Standard
350
17
  0
DICTIONARY
  5
18
102
{ACAD_REACTORS
330
C
102
}
330
C
100
AcDbDictionary
281
     1
  0
ACDBDICTIONARYWDFLT
  5
E
102
{ACAD_REACTORS
330
C
102
}
330
C
100
AcDbDictionary
281
     1
  3
Normal
350
F
100
AcDbDictionaryWithDefault
340
F
  0
DICTIONARY
  5
125
102
{ACAD_REACTORS
330
C
102
}
330
C
100
AcDbDictionary
281
     1
  3
DIMASSOC
350
126
  3
PROJECTNAME
350
127
  0
XRECORD
  5
10F
102
{ACAD_REACTORS
330
DB
102
}
330
DB
100
AcDbXrecord
280
     1
340
1E
  0
XRECORD
  5
10E
102
{ACAD_REACTORS
330
DD
102
}
330
DD
100
AcDbXrecord
280
     1
340
1A
  0
LAYOUT
  5
1D
102
{ACAD_REACTORS
330
19
102
}
330
19
100
AcDbPlotSettings
  1

  2
\\NT_WORK01\HP LaserJet 5000 PCL 6
  4

  6

 40
0.0
 41
0.0
 42
0.0
 43
0.0
 44
0.0
 45
0.0
 46
0.0
 47
0.0
 48
0.0
 49
0.0
140
0.0
141
0.0
142
1.0
143
1.0
 70
   688
 72
     0
 73
     0
 74
     5
  7

 75
    16
147
1.0
 76
     0
 77
     2
 78
   300
148
0.0
149
0.0
100
AcDbLayout
  1
Layout1
 70
     0
 71
     1
 10
0.0
 20
0.0
 11
12.0
 21
9.0
 12
0.0
 22
0.0
 32
0.0
 14
1.000000000000000E+20
 24
1.000000000000000E+20
 34
1.000000000000000E+20
 15
-1.000000000000000E+20
 25
-1.000000000000000E+20
 35
-1.000000000000000E+20
146
0.0
 13
0.0
 23
0.0
 33
0.0
 16
1.0
 26
0.0
 36
0.0
 17
0.0
 27
1.0
 37
0.0
 76
     0
330
1A
  0
LAYOUT
  5
21
102
{ACAD_REACTORS
330
19
102
}
330
19
100
AcDbPlotSettings
  1

  2
none_device
  4
Letter_(8.50_x_11.00_Inches)
  6

 40
6.349999904632568
 41
6.349999904632568
 42
6.350006103515625
 43
6.350006103515625
 44
215.8999938964844
 45
279.3999938964844
 46
0.0
 47
0.0
 48
0.0
 49
0.0
140
0.0
141
0.0
142
1.0
143
1.0
 70
 11952
 72
     0
 73
     1
 74
     0
  7

 75
     0
147
1.0
 76
     0
 77
     2
 78
   300
148
2209.800000000004
149
0.0
100
AcDbLayout
  1
Model
 70
     1
 71
     0
 10
0.0
 20
0.0
 11
12.0
 21
9.0
 12
0.0
 22
0.0
 32
0.0
 14
0.0
 24
0.0
 34
0.0
 15
0.0
 25
0.0
 35
0.0
146
0.0
 13
0.0
 23
0.0
 33
0.0
 16
1.0
 26
0.0
 36
0.0
 17
0.0
 27
1.0
 37
0.0
 76
     0
330
1E
  0
MLINESTYLE
  5
17
102
{ACAD_REACTORS
330
16
102
}
330
16
100
AcDbMlineStyle
  2
STANDARD
 70
     0
  3

 62
   256
 51
90.0
 52
90.0
 71
     2
 49
0.5
 62
   256
  6
BYLAYER
 49
-0.5
 62
   256
  6
BYLAYER
  0
ACDBPLACEHOLDER
  5
F
102
{ACAD_REACTORS
330
E
102
}
330
E
  0
DICTIONARYVAR
  5
126
102
{ACAD_REACTORS
330
125
102
}
330
125
100
DictionaryVariables
280
     0
  1
1
  0
DICTIONARYVAR
  5
127
102
{ACAD_REACTORS
330
125
102
}
330
125
100
DictionaryVariables
280
     0
  1

  0
ENDSEC
  0
EOF
