  0
SECTION
  2
HEADER
  9
$ACADVER
  1
AC1018
  9
$ACADMAINTVER
 70
     2
  9
$DWGCODEPAGE
  3
ANSI_1252
  9
$INSBASE
 10
0.0
 20
0.0
 30
0.0
  9
$EXTMIN
 10
-0.02563359212877
 20
-0.0362532231533805
 30
-0.0000000349181948
  9
$EXTMAX
 10
420.0256375038029
 20
594.0362587553789
 30
0.0000000814935746
  9
$LIMMIN
 10
0.0
 20
0.0
  9
$LIMMAX
 10
419.9999999999999
 20
594.0000000000002
  9
$ORTHOMODE
 70
     1
  9
$REGENMODE
 70
     1
  9
$FILLMODE
 70
     1
  9
$QTEXTMODE
 70
     0
  9
$MIRRTEXT
 70
     1
  9
$LTSCALE
 40
20.0
  9
$ATTMODE
 70
     1
  9
$TEXTSIZE
 40
3.5
  9
$TRACEWID
 40
1.0
  9
$TEXTSTYLE
  7
STANDARD
  9
$CLAYER
  8
BEM
  9
$CELTYPE
  6
ByLayer
  9
$CECOLOR
 62
   256
  9
$CELTSCALE
 40
1.0
  9
$DISPSILH
 70
     0
  9
$DIMSCALE
 40
2.0
  9
$DIMASZ
 40
3.5
  9
$DIMEXO
 40
1.0
  9
$DIMDLI
 40
7.0
  9
$DIMRND
 40
0.0
  9
$DIMDLE
 40
0.0
  9
$DIMEXE
 40
1.0
  9
$DIMTP
 40
0.0
  9
$DIMTM
 40
0.0
  9
$DIMTXT
 40
3.5
  9
$DIMCEN
 40
1.5
  9
$DIMTSZ
 40
0.0
  9
$DIMTOL
 70
     0
  9
$DIMLIM
 70
     0
  9
$DIMTIH
 70
     0
  9
$DIMTOH
 70
     0
  9
$DIMSE1
 70
     0
  9
$DIMSE2
 70
     0
  9
$DIMTAD
 70
     1
  9
$DIMZIN
 70
     8
  9
$DIMBLK
  1

  9
$DIMASO
 70
     1
  9
$DIMSHO
 70
     0
  9
$DIMPOST
  1

  9
$DIMAPOST
  1

  9
$DIMALT
 70
     0
  9
$DIMALTD
 70
     2
  9
$DIMALTF
 40
25.4
  9
$DIMLFAC
 40
1.0
  9
$DIMTOFL
 70
     1
  9
$DIMTVP
 40
0.0
  9
$DIMTIX
 70
     0
  9
$DIMSOXD
 70
     0
  9
$DIMSAH
 70
     0
  9
$DIMBLK1
  1

  9
$DIMBLK2
  1

  9
$DIMSTYLE
  2
Standard
  9
$DIMCLRD
 70
     0
  9
$DIMCLRE
 70
     0
  9
$DIMCLRT
 70
     1
  9
$DIMTFAC
 40
0.5142857142857144
  9
$DIMGAP
 40
1.5
  9
$DIMJUST
 70
     0
  9
$DIMSD1
 70
     0
  9
$DIMSD2
 70
     0
  9
$DIMTOLJ
 70
     1
  9
$DIMTZIN
 70
     8
  9
$DIMALTZ
 70
     8
  9
$DIMALTTZ
 70
     8
  9
$DIMUPT
 70
     0
  9
$DIMDEC
 70
     2
  9
$DIMTDEC
 70
     2
  9
$DIMALTU
 70
     2
  9
$DIMALTTD
 70
     2
  9
$DIMTXSTY
  7
STANDARD
  9
$DIMAUNIT
 70
     0
  9
$DIMADEC
 70
     2
  9
$DIMALTRND
 40
0.0
  9
$DIMAZIN
 70
     2
  9
$DIMDSEP
 70
    46
  9
$DIMATFIT
 70
     3
  9
$DIMFRAC
 70
     0
  9
$DIMLDRBLK
  1

  9
$DIMLUNIT
 70
     2
  9
$DIMLWD
 70
    -2
  9
$DIMLWE
 70
    -2
  9
$DIMTMOVE
 70
     0
  9
$LUNITS
 70
     2
  9
$LUPREC
 70
     2
  9
$SKETCHINC
 40
1.0
  9
$FILLETRAD
 40
4.0
  9
$AUNITS
 70
     0
  9
$AUPREC
 70
     0
  9
$MENU
  1
ACAD
  9
$ELEVATION
 40
0.0
  9
$PELEVATION
 40
0.0
  9
$THICKNESS
 40
0.0
  9
$LIMCHECK
 70
     0
  9
$CHAMFERA
 40
0.0
  9
$CHAMFERB
 40
0.0
  9
$CHAMFERC
 40
0.0
  9
$CHAMFERD
 40
0.0
  9
$SKPOLY
 70
     0
  9
$TDCREATE
 40
2455397.825393172
  9
$TDUCREATE
 40
2455397.783726505
  9
$TDUPDATE
 40
2455944.315630741
  9
$TDUUPDATE
 40
2455944.273964074
  9
$TDINDWG
 40
0.1452625579
  9
$TDUSRTIMER
 40
0.1452625579
  9
$USRTIMER
 70
     1
  9
$ANGBASE
 50
0.0
  9
$ANGDIR
 70
     0
  9
$PDMODE
 70
     0
  9
$PDSIZE
 40
0.0
  9
$PLINEWID
 40
0.0
  9
$SPLFRAME
 70
     0
  9
$SPLINETYPE
 70
     6
  9
$SPLINESEGS
 70
     8
  9
$HANDSEED
  5
D8F
  9
$SURFTAB1
 70
     6
  9
$SURFTAB2
 70
     6
  9
$SURFTYPE
 70
     6
  9
$SURFU
 70
     6
  9
$SURFV
 70
     6
  9
$UCSBASE
  2

  9
$UCSNAME
  2

  9
$UCSORG
 10
0.0
 20
0.0
 30
0.0
  9
$UCSXDIR
 10
1.0
 20
0.0
 30
0.0
  9
$UCSYDIR
 10
0.0
 20
1.0
 30
0.0
  9
$UCSORTHOREF
  2

  9
$UCSORTHOVIEW
 70
     0
  9
$UCSORGTOP
 10
0.0
 20
0.0
 30
0.0
  9
$UCSORGBOTTOM
 10
0.0
 20
0.0
 30
0.0
  9
$UCSORGLEFT
 10
0.0
 20
0.0
 30
0.0
  9
$UCSORGRIGHT
 10
0.0
 20
0.0
 30
0.0
  9
$UCSORGFRONT
 10
0.0
 20
0.0
 30
0.0
  9
$UCSORGBACK
 10
0.0
 20
0.0
 30
0.0
  9
$PUCSBASE
  2

  9
$PUCSNAME
  2

  9
$PUCSORG
 10
0.0
 20
0.0
 30
0.0
  9
$PUCSXDIR
 10
1.0
 20
0.0
 30
0.0
  9
$PUCSYDIR
 10
0.0
 20
1.0
 30
0.0
  9
$PUCSORTHOREF
  2

  9
$PUCSORTHOVIEW
 70
     0
  9
$PUCSORGTOP
 10
0.0
 20
0.0
 30
0.0
  9
$PUCSORGBOTTOM
 10
0.0
 20
0.0
 30
0.0
  9
$PUCSORGLEFT
 10
0.0
 20
0.0
 30
0.0
  9
$PUCSORGRIGHT
 10
0.0
 20
0.0
 30
0.0
  9
$PUCSORGFRONT
 10
0.0
 20
0.0
 30
0.0
  9
$PUCSORGBACK
 10
0.0
 20
0.0
 30
0.0
  9
$USERI1
 70
     0
  9
$USERI2
 70
     0
  9
$USERI3
 70
     0
  9
$USERI4
 70
     0
  9
$USERI5
 70
     0
  9
$USERR1
 40
0.0
  9
$USERR2
 40
0.0
  9
$USERR3
 40
0.0
  9
$USERR4
 40
0.0
  9
$USERR5
 40
0.0
  9
$WORLDVIEW
 70
     1
  9
$SHADEDGE
 70
     3
  9
$SHADEDIF
 70
    70
  9
$TILEMODE
 70
     1
  9
$MAXACTVP
 70
    16
  9
$PINSBASE
 10
0.0
 20
0.0
 30
0.0
  9
$PLIMCHECK
 70
     0
  9
$PEXTMIN
 10
1.000000000000000E+20
 20
1.000000000000000E+20
 30
1.000000000000000E+20
  9
$PEXTMAX
 10
-1.000000000000000E+20
 20
-1.000000000000000E+20
 30
-1.000000000000000E+20
  9
$PLIMMIN
 10
0.0
 20
0.0
  9
$PLIMMAX
 10
12.0
 20
9.0
  9
$UNITMODE
 70
     0
  9
$VISRETAIN
 70
     0
  9
$PLINEGEN
 70
     0
  9
$PSLTSCALE
 70
     0
  9
$TREEDEPTH
 70
  3020
  9
$CMLSTYLE
  2
Standard
  9
$CMLJUST
 70
     0
  9
$CMLSCALE
 40
1.0
  9
$PROXYGRAPHICS
 70
     1
  9
$MEASUREMENT
 70
     0
  9
$CELWEIGHT
370
    -1
  9
$ENDCAPS
280
     0
  9
$JOINSTYLE
280
     0
  9
$LWDISPLAY
290
     0
  9
$INSUNITS
 70
     0
  9
$HYPERLINKBASE
  1

  9
$STYLESHEET
  1
monochrome 1.ctb
  9
$XEDIT
290
     1
  9
$CEPSNTYPE
380
     0
  9
$PSTYLEMODE
290
     1
  9
$FINGERPRINTGUID
  2
{D68B0D0D-A558-11D7-B632-000102183313}
  9
$VERSIONGUID
  2
{F731E449-36D4-48BA-8A0D-B7FC24B9C542}
  9
$EXTNAMES
290
     1
  9
$PSVPSCALE
 40
0.0
  9
$OLESTARTUP
290
     0
  9
$SORTENTS
280
   127
  9
$INDEXCTL
280
     0
  9
$HIDETEXT
280
     0
  9
$XCLIPFRAME
290
     0
  9
$HALOGAP
280
     0
  9
$OBSCOLOR
 70
   257
  9
$OBSLTYPE
280
     0
  9
$INTERSECTIONDISPLAY
280
     0
  9
$INTERSECTIONCOLOR
 70
   257
  9
$DIMASSOC
280
     1
  9
$PROJECTNAME
  1

  0
ENDSEC
  0
SECTION
  2
CLASSES
  0
CLASS
  1
ACDBDICTIONARYWDFLT
  2
AcDbDictionaryWithDefault
  3
ObjectDBX Classes
 90
        0
 91
        1
280
     0
281
     0
  0
CLASS
  1
DICTIONARYVAR
  2
AcDbDictionaryVar
  3
ObjectDBX Classes
 90
        0
 91
        2
280
     0
281
     0
  0
ENDSEC
  0
SECTION
  2
TABLES
  0
TABLE
  2
VPORT
  5
8
330
0
100
AcDbSymbolTable
 70
     3
  0
VPORT
  5
D8E
330
8
100
AcDbSymbolTableRecord
100
AcDbViewportTableRecord
  2
*Active
 70
     0
 10
0.0
 20
0.0
 11
1.0
 21
1.0
 12
210.0000019558371
 22
297.0000027661127
 13
0.0
 23
0.0
 14
1.0
 24
1.0
 15
10.0
 25
10.0
 16
0.0
 26
0.0
 36
1.0
 17
0.0
 27
0.0
 37
0.0
 40
598.8314373081331
 41
1.352941176470588
 42
50.0
 43
0.0
 44
0.0
 50
0.0
 51
0.0
 71
     0
 72
  1500
 73
     1
 74
     0
 75
     0
 76
     0
 77
     0
 78
     0
281
     0
 65
     1
110
0.0
120
0.0
130
0.0
111
1.0
121
0.0
131
0.0
112
0.0
122
1.0
132
0.0
 79
     0
146
0.0
  0
ENDTAB
  0
TABLE
  2
LTYPE
  5
5
330
0
100
AcDbSymbolTable
 70
     2
  0
LTYPE
  5
13
330
5
100
AcDbSymbolTableRecord
100
AcDbLinetypeTableRecord
  2
ByBlock
 70
     0
  3

 72
    65
 73
     0
 40
0.0
  0
LTYPE
  5
14
330
5
100
AcDbSymbolTableRecord
100
AcDbLinetypeTableRecord
  2
ByLayer
 70
     0
  3

 72
    65
 73
     0
 40
0.0
  0
LTYPE
  5
15
330
5
100
AcDbSymbolTableRecord
100
AcDbLinetypeTableRecord
  2
Continuous
 70
     0
  3
Solid line
 72
    65
 73
     0
 40
0.0
  0
LTYPE
  5
25
330
5
100
AcDbSymbolTableRecord
100
AcDbLinetypeTableRecord
  2
STRICHPUNKT
 70
     0
  3
__ . __ . __ . __ . __ . __ . __ . __ . __ . __
 72
    65
 73
     4
 40
1.0
 49
0.5
 74
     0
 49
-0.25
 74
     0
 49
0.0
 74
     0
 49
-0.25
 74
     0
  0
ENDTAB
  0
TABLE
  2
LAYER
  5
2
330
0
100
AcDbSymbolTable
 70
     9
  0
LAYER
  5
10
330
2
100
AcDbSymbolTableRecord
100
AcDbLayerTableRecord
  2
0
 70
     0
 62
     7
  6
Continuous
370
    -3
390
F
  0
LAYER
  5
2B
330
2
100
AcDbSymbolTableRecord
100
AcDbLayerTableRecord
  2
VOLL
 70
     0
 62
     1
  6
Continuous
370
    -3
390
F
  0
LAYER
  5
2C
330
2
100
AcDbSymbolTableRecord
100
AcDbLayerTableRecord
  2
HILF
 70
     0
 62
     2
  6
Continuous
370
    -3
390
F
  0
LAYER
  5
2D
330
2
100
AcDbSymbolTableRecord
100
AcDbLayerTableRecord
  2
MITTEL
 70
     0
 62
     2
  6
STRICHPUNKT
370
    -3
390
F
  0
LAYER
  5
2F
330
2
100
AcDbSymbolTableRecord
100
AcDbLayerTableRecord
  2
BEM
 70
     0
 62
     7
  6
Continuous
370
    -3
390
F
  0
LAYER
  5
30
330
2
100
AcDbSymbolTableRecord
100
AcDbLayerTableRecord
  2
STEMPEL
 70
     0
 62
     3
  6
Continuous
370
    -3
390
F
  0
LAYER
  5
33
330
2
100
AcDbSymbolTableRecord
100
AcDbLayerTableRecord
  2
TEXT
 70
     0
 62
     7
  6
Continuous
370
    -3
390
F
  0
LAYER
  5
1A3
330
2
100
AcDbSymbolTableRecord
100
AcDbLayerTableRecord
  2
Defpoints
 70
     0
 62
     7
  6
Continuous
290
     0
370
    -3
390
F
  0
LAYER
  5
1A4
330
2
100
AcDbSymbolTableRecord
100
AcDbLayerTableRecord
  2
SCHRAFF
 70
     0
 62
     7
  6
Continuous
370
    -3
390
F
  0
ENDTAB
  0
TABLE
  2
STYLE
  5
3
330
0
100
AcDbSymbolTable
 70
     2
  0
STYLE
  5
11
330
3
100
AcDbSymbolTableRecord
100
AcDbTextStyleTableRecord
  2
STANDARD
 70
     0
 40
0.0
 41
0.8
 50
0.0
 71
     0
 42
3.5
  3
simplex.shx
  4

  0
STYLE
  5
24
330
3
100
AcDbSymbolTableRecord
100
AcDbTextStyleTableRecord
  2
GREEKS
 70
     0
 40
0.0
 41
0.8
 50
0.0
 71
     0
 42
2.5
  3
SIMPLEX.shx
  4

  0
ENDTAB
  0
TABLE
  2
VIEW
  5
6
330
0
100
AcDbSymbolTable
 70
     0
  0
ENDTAB
  0
TABLE
  2
UCS
  5
7
330
0
100
AcDbSymbolTable
 70
     0
  0
ENDTAB
  0
TABLE
  2
APPID
  5
9
330
0
100
AcDbSymbolTable
 70
     1
  0
APPID
  5
12
330
9
100
AcDbSymbolTableRecord
100
AcDbRegAppTableRecord
  2
ACAD
 70
     0
  0
ENDTAB
  0
TABLE
  2
DIMSTYLE
  5
A
330
0
100
AcDbSymbolTable
 70
     1
100
AcDbDimStyleTable
 71
     1
340
A2
  0
DIMSTYLE
105
A2
102
{ACAD_REACTORS
330
C96
330
CA3
330
CB0
102
}
330
A
100
AcDbSymbolTableRecord
100
AcDbDimStyleTableRecord
  2
Standard
 70
     0
340
11
  0
ENDTAB
  0
TABLE
  2
BLOCK_RECORD
  5
1
330
0
100
AcDbSymbolTable
 70
     5
  0
BLOCK_RECORD
  5
1E
102
{ACAD_XDICTIONARY
360
DB
102
}
330
1
100
AcDbSymbolTableRecord
100
AcDbBlockTableRecord
  2
*Model_Space
340
21
  0
BLOCK_RECORD
  5
1A
102
{ACAD_XDICTIONARY
360
DD
102
}
330
1
100
AcDbSymbolTableRecord
100
AcDbBlockTableRecord
  2
*Paper_Space
340
1D
  0
BLOCK_RECORD
  5
22
330
1
100
AcDbSymbolTableRecord
100
AcDbBlockTableRecord
  2
LOGO
340
0
102
{BLKREFS
331
6BC
102
}
  0
BLOCK_RECORD
  5
C97
330
1
100
AcDbSymbolTableRecord
100
AcDbBlockTableRecord
  2
*D1
340
0
  0
BLOCK_RECORD
  5
CA4
330
1
100
AcDbSymbolTableRecord
100
AcDbBlockTableRecord
  2
*D2
340
0
  0
BLOCK_RECORD
  5
CB1
330
1
100
AcDbSymbolTableRecord
100
AcDbBlockTableRecord
  2
*D3
340
0
  0
ENDTAB
  0
ENDSEC
  0
SECTION
  2
BLOCKS
  0
BLOCK
  5
37
330
1E
100
AcDbEntity
  8
0
100
AcDbBlockBegin
  2
*Model_Space
 70
     0
 10
0.0
 20
0.0
 30
0.0
  3
*Model_Space
  1

  0
ENDBLK
  5
38
330
1E
100
AcDbEntity
  8
0
100
AcDbBlockEnd
  0
BLOCK
  5
35
330
1A
100
AcDbEntity
 67
     1
  8
0
100
AcDbBlockBegin
  2
*Paper_Space
 70
     0
 10
0.0
 20
0.0
 30
0.0
  3
*Paper_Space
  1

  0
ENDBLK
  5
36
330
1A
100
AcDbEntity
 67
     1
  8
0
100
AcDbBlockEnd
  0
BLOCK
  5
39
330
22
100
AcDbEntity
  8
0
100
AcDbBlockBegin
  2
LOGO
 70
     0
 10
0.0
 20
0.0
 30
0.0
  3
LOGO
  1

  0
ARC
  5
3A
330
22
100
AcDbEntity
  8
0
100
AcDbCircle
 10
11.59973089678112
 20
-9.271599258481501
 30
0.0
 40
4.5
100
AcDbArc
 50
270.0
 51
231.0575587310159
  0
LINE
  5
3B
330
22
100
AcDbEntity
  8
0
100
AcDbLine
 10
3.599730896781125
 20
-4.771599258481529
 30
0.0
 11
3.599730896781153
 21
-11.77159925848133
 31
0.0
  0
LINE
  5
3C
330
22
100
AcDbEntity
  8
0
100
AcDbLine
 10
2.599730896781125
 20
-4.771599258481529
 30
0.0
 11
2.599730896781153
 21
-11.77159925848133
 31
0.0
  0
CIRCLE
  5
3D
330
22
100
AcDbEntity
  8
0
100
AcDbCircle
 10
11.59973089678112
 20
-9.271599258481501
 30
0.0
 40
3.5
  0
ARC
  5
3E
330
22
100
AcDbEntity
  8
0
100
AcDbCircle
 10
31.59973089678115
 20
-9.271599258481472
 30
0.0
 40
4.5
100
AcDbArc
 50
270.0
 51
231.0575587310182
  0
LINE
  5
3F
330
22
100
AcDbEntity
  8
0
100
AcDbLine
 10
17.59973089678112
 20
-4.771599258481472
 30
0.0
 11
17.59973089678115
 21
-13.77159925848147
 31
0.0
  0
ARC
  5
40
330
22
100
AcDbEntity
  8
0
100
AcDbCircle
 10
22.59973089678116
 20
-7.271599258481472
 30
0.0
 40
2.5
100
AcDbArc
 50
293.1161887722295
 51
90.0
  0
CIRCLE
  5
41
330
22
100
AcDbEntity
  8
0
100
AcDbCircle
 10
31.59973089678115
 20
-9.271599258481472
 30
0.0
 40
3.5
  0
ARC
  5
42
330
22
100
AcDbEntity
  8
0
100
AcDbCircle
 10
4.599730896781153
 20
-11.77159925848133
 30
0.0
 40
1.0
100
AcDbArc
 50
180.0
 51
270.0
  0
ARC
  5
43
330
22
100
AcDbEntity
  8
0
100
AcDbCircle
 10
4.599730896781153
 20
-11.77159925848133
 30
0.0
 40
2.0
100
AcDbArc
 50
179.9999999999992
 51
270.0
  0
LINE
  5
44
330
22
100
AcDbEntity
  8
0
100
AcDbLine
 10
11.59973089678115
 20
-13.77159925848144
 30
0.0
 11
4.599730896781153
 21
-13.77159925848147
 31
0.0
  0
LINE
  5
45
330
22
100
AcDbEntity
  8
0
100
AcDbLine
 10
8.771303772034769
 20
-12.77159925848136
 30
0.0
 11
4.599730896781153
 21
-12.77159925848133
 31
0.0
  0
LINE
  5
46
330
22
100
AcDbEntity
  8
0
100
AcDbLine
 10
31.59973089678115
 20
-13.77159925848147
 30
0.0
 11
23.6715276665056
 21
-13.77159925848144
 31
0.0
  0
LINE
  5
47
330
22
100
AcDbEntity
  8
0
100
AcDbLine
 10
23.56565672307022
 20
-9.51278021337896
 30
0.0
 11
24.4388546544846
 21
-12.77159925848144
 31
0.0
  0
LINE
  5
48
330
22
100
AcDbEntity
  8
0
100
AcDbLine
 10
22.59973089678116
 20
-9.771599258481472
 30
0.0
 11
18.59973089678112
 21
-9.771599258481472
 31
0.0
  0
LINE
  5
49
330
22
100
AcDbEntity
  8
0
100
AcDbLine
 10
18.59973089678115
 20
-13.77159925848144
 30
0.0
 11
17.59973089678115
 21
-13.77159925848144
 31
0.0
  0
LINE
  5
4A
330
22
100
AcDbEntity
  8
0
100
AcDbLine
 10
18.59973089678115
 20
-9.771599258481472
 30
0.0
 11
18.59973089678115
 21
-13.77159925848144
 31
0.0
  0
LINE
  5
4B
330
22
100
AcDbEntity
  8
0
100
AcDbLine
 10
22.59973089678116
 20
-9.771599258481472
 30
0.0
 11
23.67152766650562
 21
-13.77159925848147
 31
0.0
  0
ARC
  5
4C
330
22
100
AcDbEntity
  8
0
100
AcDbCircle
 10
22.59973089678116
 20
-7.271599258481472
 30
0.0
 40
2.5
100
AcDbArc
 50
270.0
 51
270.0000000000007
  0
LINE
  5
4D
330
22
100
AcDbEntity
  8
0
100
AcDbLine
 10
28.77130377203494
 20
-12.77159925848147
 30
0.0
 11
24.43885465448463
 21
-12.77159925848144
 31
0.0
  0
LINE
  5
4E
330
22
100
AcDbEntity
  8
0
100
AcDbLine
 10
3.599730896781125
 20
-4.771599258481472
 30
0.0
 11
2.599730896781125
 21
-4.771599258481472
 31
0.0
  0
LINE
  5
4F
330
22
100
AcDbEntity
  8
0
100
AcDbLine
 10
22.59973089678116
 20
-8.771599258481472
 30
0.0
 11
18.59973089678115
 21
-8.771599258481472
 31
0.0
  0
LINE
  5
50
330
22
100
AcDbEntity
  8
0
100
AcDbLine
 10
22.59973089678116
 20
-5.771599258481472
 30
0.0
 11
18.59973089678115
 21
-5.771599258481472
 31
0.0
  0
LINE
  5
51
330
22
100
AcDbEntity
  8
0
100
AcDbLine
 10
22.59973089678116
 20
-4.771599258481472
 30
0.0
 11
17.59973089678115
 21
-4.771599258481472
 31
0.0
  0
LINE
  5
52
330
22
100
AcDbEntity
  8
0
100
AcDbLine
 10
18.59973089678115
 20
-5.771599258481472
 30
0.0
 11
18.59973089678115
 21
-8.771599258481472
 31
0.0
  0
ARC
  5
53
330
22
100
AcDbEntity
  8
0
100
AcDbCircle
 10
22.59973089678116
 20
-7.271599258481472
 30
0.0
 40
1.5
100
AcDbArc
 50
270.0
 51
90.0
  0
ENDBLK
  5
54
330
22
100
AcDbEntity
  8
0
100
AcDbBlockEnd
  0
BLOCK
  5
CA1
330
C97
100
AcDbEntity
  8
0
100
AcDbBlockBegin
  2
*D1
 70
     1
 10
0.0
 20
0.0
 30
0.0
  3
*D1
  1

  0
LINE
  5
C98
330
C97
100
AcDbEntity
  8
BEM
 62
     0
370
    -2
100
AcDbLine
 10
197.2406293886413
 20
466.698645993571
 30
0.0
 11
213.5165146625778
 21
466.698645993571
 31
0.0
  0
LINE
  5
C99
330
C97
100
AcDbEntity
  8
BEM
 62
     0
370
    -2
100
AcDbLine
 10
193.696832921075
 20
278.6986459935712
 30
0.0
 11
213.5165146625777
 21
278.6986459935712
 31
0.0
  0
LINE
  5
C9A
330
C97
100
AcDbEntity
  8
BEM
 62
     0
370
    -2
100
AcDbLine
 10
211.5165146625778
 20
459.6986459935711
 30
0.0
 11
211.5165146625777
 21
285.6986459935712
 31
0.0
  0
SOLID
  5
C9B
330
C97
100
AcDbEntity
  8
BEM
 62
     0
100
AcDbTrace
 10
210.3498479959111
 20
459.6986459935711
 30
0.0
 11
212.6831813292444
 21
459.6986459935711
 31
0.0
 12
211.5165146625778
 22
466.698645993571
 32
0.0
 13
211.5165146625778
 23
466.698645993571
 33
0.0
  0
SOLID
  5
C9C
330
C97
100
AcDbEntity
  8
BEM
 62
     0
100
AcDbTrace
 10
210.3498479959111
 20
285.6986459935712
 30
0.0
 11
212.6831813292444
 21
285.6986459935712
 31
0.0
 12
211.5165146625777
 22
278.6986459935712
 32
0.0
 13
211.5165146625777
 23
278.6986459935712
 33
0.0
  0
MTEXT
  5
C9D
330
C97
100
AcDbEntity
  8
BEM
 62
     1
100
AcDbMText
 10
205.0165146625777
 20
372.6986459935712
 30
0.0
 40
7.0
 41
0.0
 71
     5
 72
     1
  1
\A1;188
 11
0.0000000000000001
 21
1.0
 31
0.0
 73
     1
 44
1.0
  0
POINT
  5
C9E
330
C97
100
AcDbEntity
  8
Defpoints
 62
     0
100
AcDbPoint
 10
195.2406293886413
 20
466.698645993571
 30
0.0
  0
POINT
  5
C9F
330
C97
100
AcDbEntity
  8
Defpoints
 62
     0
100
AcDbPoint
 10
191.696832921075
 20
278.6986459935712
 30
0.0
  0
POINT
  5
CA0
330
C97
100
AcDbEntity
  8
Defpoints
 62
     0
100
AcDbPoint
 10
211.5165146625777
 20
278.6986459935712
 30
0.0
  0
ENDBLK
  5
CA2
330
C97
100
AcDbEntity
  8
0
100
AcDbBlockEnd
  0
BLOCK
  5
CAE
330
CA4
100
AcDbEntity
  8
0
100
AcDbBlockBegin
  2
*D2
 70
     1
 10
0.0
 20
0.0
 30
0.0
  3
*D2
  1

  0
LINE
  5
CA5
330
CA4
100
AcDbEntity
  8
BEM
 62
     0
370
    -2
100
AcDbLine
 10
359.1236486170566
 20
373.6986459935711
 30
0.0
 11
374.6675853119764
 21
373.6986459935711
 31
0.0
  0
LINE
  5
CA6
330
CA4
100
AcDbEntity
  8
BEM
 62
     0
370
    -2
100
AcDbLine
 10
348.1862052994271
 20
278.6986459935711
 30
0.0
 11
374.6675853119764
 21
278.6986459935711
 31
0.0
  0
LINE
  5
CA7
330
CA4
100
AcDbEntity
  8
BEM
 62
     0
370
    -2
100
AcDbLine
 10
372.6675853119764
 20
366.698645993571
 30
0.0
 11
372.6675853119764
 21
285.6986459935711
 31
0.0
  0
SOLID
  5
CA8
330
CA4
100
AcDbEntity
  8
BEM
 62
     0
100
AcDbTrace
 10
371.5009186453097
 20
366.698645993571
 30
0.0
 11
373.8342519786431
 21
366.698645993571
 31
0.0
 12
372.6675853119764
 22
373.6986459935711
 32
0.0
 13
372.6675853119764
 23
373.6986459935711
 33
0.0
  0
SOLID
  5
CA9
330
CA4
100
AcDbEntity
  8
BEM
 62
     0
100
AcDbTrace
 10
371.5009186453097
 20
285.6986459935711
 30
0.0
 11
373.8342519786431
 21
285.6986459935711
 31
0.0
 12
372.6675853119764
 22
278.6986459935711
 32
0.0
 13
372.6675853119764
 23
278.6986459935711
 33
0.0
  0
MTEXT
  5
CAA
330
CA4
100
AcDbEntity
  8
BEM
 62
     1
100
AcDbMText
 10
366.1675853119763
 20
326.1986459935712
 30
0.0
 40
7.0
 41
0.0
 71
     5
 72
     1
  1
\A1;95
 11
0.0000000000000001
 21
1.0
 31
0.0
 73
     1
 44
1.0
  0
POINT
  5
CAB
330
CA4
100
AcDbEntity
  8
Defpoints
 62
     0
100
AcDbPoint
 10
357.1236486170566
 20
373.6986459935711
 30
0.0
  0
POINT
  5
CAC
330
CA4
100
AcDbEntity
  8
Defpoints
 62
     0
100
AcDbPoint
 10
346.1862052994271
 20
278.6986459935711
 30
0.0
  0
POINT
  5
CAD
330
CA4
100
AcDbEntity
  8
Defpoints
 62
     0
100
AcDbPoint
 10
372.6675853119764
 20
278.6986459935711
 30
0.0
  0
ENDBLK
  5
CAF
330
CA4
100
AcDbEntity
  8
0
100
AcDbBlockEnd
  0
BLOCK
  5
CBB
330
CB1
100
AcDbEntity
  8
0
100
AcDbBlockBegin
  2
*D3
 70
     1
 10
0.0
 20
0.0
 30
0.0
  3
*D3
  1

  0
LINE
  5
CBD
330
CB1
100
AcDbEntity
  8
BEM
 62
     0
370
    -2
100
AcDbLine
 10
293.6236486170567
 20
281.6986459935705
 30
0.0
 11
293.6236486170567
 21
257.1528564105115
 31
0.0
  0
LINE
  5
CBE
330
CB1
100
AcDbEntity
  8
BEM
 62
     0
370
    -2
100
AcDbLine
 10
346.6236486170567
 20
281.6986459935714
 30
0.0
 11
346.6236486170567
 21
257.1528564105115
 31
0.0
  0
LINE
  5
CBF
330
CB1
100
AcDbEntity
  8
BEM
 62
     0
370
    -2
100
AcDbLine
 10
300.6236486170567
 20
259.1528564105115
 30
0.0
 11
339.6236486170567
 21
259.1528564105115
 31
0.0
  0
SOLID
  5
CC0
330
CB1
100
AcDbEntity
  8
BEM
 62
     0
100
AcDbTrace
 10
300.6236486170567
 20
260.3195230771782
 30
0.0
 11
300.6236486170567
 21
257.9861897438448
 31
0.0
 12
293.6236486170567
 22
259.1528564105115
 32
0.0
 13
293.6236486170567
 23
259.1528564105115
 33
0.0
  0
SOLID
  5
CC1
330
CB1
100
AcDbEntity
  8
BEM
 62
     0
100
AcDbTrace
 10
339.6236486170567
 20
260.3195230771782
 30
0.0
 11
339.6236486170567
 21
257.9861897438448
 31
0.0
 12
346.6236486170567
 22
259.1528564105115
 32
0.0
 13
346.6236486170567
 23
259.1528564105115
 33
0.0
  0
MTEXT
  5
CC2
330
CB1
100
AcDbEntity
  8
BEM
 62
     1
100
AcDbMText
 10
320.1236486170567
 20
265.6528564105115
 30
0.0
 40
7.0
 41
0.0
 71
     5
 72
     1
  1
\A1;%%c53
 73
     1
 44
1.0
  0
POINT
  5
CC3
330
CB1
100
AcDbEntity
  8
Defpoints
 62
     0
100
AcDbPoint
 10
293.6236486170567
 20
283.6986459935705
 30
0.0
  0
POINT
  5
CC4
330
CB1
100
AcDbEntity
  8
Defpoints
 62
     0
100
AcDbPoint
 10
346.6236486170567
 20
283.6986459935714
 30
0.0
  0
POINT
  5
CC5
330
CB1
100
AcDbEntity
  8
Defpoints
 62
     0
100
AcDbPoint
 10
346.6236486170567
 20
259.1528564105115
 30
0.0
  0
ENDBLK
  5
CBC
330
CB1
100
AcDbEntity
  8
0
100
AcDbBlockEnd
  0
ENDSEC
  0
SECTION
  2
ENTITIES
  0
TEXT
  5
24E
330
1E
100
AcDbEntity
  8
VOLL
100
AcDbText
 10
264.7033033393503
 20
194.5904804762389
 30
0.0
 40
1.8
  1

  7
GREEKS
100
AcDbText
  0
TEXT
  5
25E
330
1E
100
AcDbEntity
  8
TEXT
 62
     1
100
AcDbText
 10
140.9961081575355
 20
451.8180019798414
 30
0.0
 40
7.0
  1
DN50
 41
0.8
  7
GREEKS
100
AcDbText
  0
TEXT
  5
331
330
1E
100
AcDbEntity
  8
TEXT
 62
     1
100
AcDbText
 10
294.78582758669
 20
451.8180019798413
 30
0.0
 40
7.0
  1
DN50
 41
0.8
  7
GREEKS
100
AcDbText
  0
LINE
  5
678
330
1E
100
AcDbEntity
  8
STEMPEL
100
AcDbLine
 10
410.0
 20
110.0
 30
0.0
 11
40.0
 21
110.0
 31
0.0
  0
LINE
  5
679
330
1E
100
AcDbEntity
  8
STEMPEL
100
AcDbLine
 10
136.0000000000001
 20
109.9999999999999
 30
0.0
 11
136.0
 21
9.999999999999971
 31
0.0
  0
LINE
  5
67A
330
1E
100
AcDbEntity
  8
STEMPEL
100
AcDbLine
 10
220.0
 20
110.0
 30
0.0
 11
220.0
 21
9.999999999999971
 31
0.0
  0
LINE
  5
67B
330
1E
100
AcDbEntity
  8
STEMPEL
100
AcDbLine
 10
332.0
 20
109.9999999999997
 30
0.0
 11
332.0
 21
40.0
 31
0.0
  0
LINE
  5
67C
330
1E
100
AcDbEntity
  8
STEMPEL
100
AcDbLine
 10
135.9999999999999
 20
29.99999999999997
 30
0.0
 11
40.0
 21
29.99999999999997
 31
0.0
  0
LINE
  5
67D
330
1E
100
AcDbEntity
  8
STEMPEL
100
AcDbLine
 10
410.0
 20
40.0
 30
0.0
 11
136.0000000000001
 21
39.99999999999997
 31
0.0
  0
LINE
  5
67E
330
1E
100
AcDbEntity
  8
STEMPEL
100
AcDbLine
 10
410.0
 20
80.0
 30
0.0
 11
136.0000000000001
 21
79.99999999999994
 31
0.0
  0
LINE
  5
67F
330
1E
100
AcDbEntity
  8
VOLL
100
AcDbLine
 10
54.00000000000011
 20
110.0
 30
0.0
 11
54.0
 21
9.999999999999971
 31
0.0
  0
LINE
  5
680
330
1E
100
AcDbEntity
  8
VOLL
100
AcDbLine
 10
94.00000000000011
 20
109.9999999999999
 30
0.0
 11
94.0
 21
9.999999999999971
 31
0.0
  0
LINE
  5
681
330
1E
100
AcDbEntity
  8
VOLL
100
AcDbLine
 10
114.0000000000001
 20
109.9999999999999
 30
0.0
 11
114.0
 21
9.999999999999971
 31
0.0
  0
LINE
  5
682
330
1E
100
AcDbEntity
  8
VOLL
100
AcDbLine
 10
154.0000000000001
 20
79.99999999999994
 30
0.0
 11
154.0000000000001
 21
39.99999999999997
 31
0.0
  0
LINE
  5
683
330
1E
100
AcDbEntity
  8
VOLL
100
AcDbLine
 10
180.0000000000001
 20
109.9999999999998
 30
0.0
 11
180.0
 21
39.99999999999997
 31
0.0
  0
LINE
  5
684
330
1E
100
AcDbEntity
  8
HILF
100
AcDbLine
 10
40.00000000000011
 20
100.0
 30
0.0
 11
136.0000000000001
 21
100.0
 31
0.0
  0
LINE
  5
685
330
1E
100
AcDbEntity
  8
HILF
100
AcDbLine
 10
40.00000000000011
 20
90.00000000000005
 30
0.0
 11
136.0000000000001
 21
90.00000000000005
 31
0.0
  0
LINE
  5
686
330
1E
100
AcDbEntity
  8
HILF
100
AcDbLine
 10
40.00000000000011
 20
79.99999999999994
 30
0.0
 11
136.0000000000001
 21
79.99999999999994
 31
0.0
  0
LINE
  5
687
330
1E
100
AcDbEntity
  8
HILF
100
AcDbLine
 10
40.00000000000011
 20
69.99999999999994
 30
0.0
 11
136.0000000000001
 21
69.99999999999994
 31
0.0
  0
LINE
  5
688
330
1E
100
AcDbEntity
  8
HILF
100
AcDbLine
 10
40.00000000000011
 20
59.99999999999997
 30
0.0
 11
136.0000000000001
 21
59.99999999999997
 31
0.0
  0
LINE
  5
689
330
1E
100
AcDbEntity
  8
HILF
100
AcDbLine
 10
40.00000000000011
 20
49.99999999999997
 30
0.0
 11
136.0000000000001
 21
49.99999999999997
 31
0.0
  0
LINE
  5
68A
330
1E
100
AcDbEntity
  8
HILF
100
AcDbLine
 10
40.00000000000011
 20
39.99999999999997
 30
0.0
 11
136.0000000000001
 21
39.99999999999997
 31
0.0
  0
LINE
  5
68B
330
1E
100
AcDbEntity
  8
HILF
100
AcDbLine
 10
136.0000000000001
 20
69.99999999999994
 30
0.0
 11
220.0
 21
69.99999999999994
 31
0.0
  0
LINE
  5
68C
330
1E
100
AcDbEntity
  8
HILF
100
AcDbLine
 10
136.0000000000001
 20
59.99999999999997
 30
0.0
 11
220.0
 21
59.99999999999997
 31
0.0
  0
LINE
  5
68D
330
1E
100
AcDbEntity
  8
HILF
100
AcDbLine
 10
136.0000000000001
 20
49.99999999999997
 30
0.0
 11
220.0
 21
49.99999999999997
 31
0.0
  0
LINE
  5
68E
330
1E
100
AcDbEntity
  8
HILF
100
AcDbLine
 10
224.7736801096948
 20
84.03758247564139
 30
0.0
 11
324.8353916556311
 21
84.03758247564139
 31
0.0
  0
LINE
  5
68F
330
1E
100
AcDbEntity
  8
HILF
100
AcDbLine
 10
224.7736801096948
 20
69.99999999999994
 30
0.0
 11
324.8353916556309
 21
69.99999999999994
 31
0.0
  0
LINE
  5
690
330
1E
100
AcDbEntity
  8
HILF
100
AcDbLine
 10
224.7736801096948
 20
59.99999999999997
 30
0.0
 11
324.8353916556309
 21
59.99999999999997
 31
0.0
  0
LINE
  5
691
330
1E
100
AcDbEntity
  8
HILF
100
AcDbLine
 10
224.7736801096948
 20
49.99999999999997
 30
0.0
 11
324.8353916556309
 21
49.99999999999997
 31
0.0
  0
LINE
  5
692
330
1E
100
AcDbEntity
  8
VOLL
100
AcDbLine
 10
332.0
 20
60.0
 30
0.0
 11
410.0
 21
60.0
 31
0.0
  0
LINE
  5
693
330
1E
100
AcDbEntity
  8
HILF
100
AcDbLine
 10
336.7238616296993
 20
83.77983636955827
 30
0.0
 11
404.8588839326728
 21
83.77983636955827
 31
0.0
  0
LINE
  5
694
330
1E
100
AcDbEntity
  8
HILF
100
AcDbLine
 10
223.4909699289886
 20
14.89398258028314
 30
0.0
 11
404.8588839326728
 21
14.89398258028314
 31
0.0
  0
TEXT
  5
695
330
1E
100
AcDbEntity
  8
TEXT
100
AcDbText
 10
63.86165979631822
 20
18.67381894984132
 30
0.0
 40
4.0
  1
Änderung
 41
0.8
  7
GREEKS
 72
     1
 11
74.60451693917537
 21
18.67381894984132
 31
0.0
100
AcDbText
  0
TEXT
  5
696
330
1E
100
AcDbEntity
  8
TEXT
100
AcDbText
 10
143.5163572150377
 20
102.4620895087088
 30
0.0
 40
5.0
  1
Maßstab
 41
0.8
  7
GREEKS
100
AcDbText
  0
TEXT
  5
697
330
1E
100
AcDbEntity
  8
TEXT
100
AcDbText
 10
184.2858954734051
 20
102.4184168434819
 30
0.0
 40
5.0
  1
Zul. Abw.
 41
0.8
  7
GREEKS
100
AcDbText
  0
TEXT
  5
698
330
1E
100
AcDbEntity
  8
TEXT
100
AcDbText
 10
224.877940380901
 20
102.5489328011779
 30
0.0
 40
5.0
  1
Benennung
 41
0.8
  7
GREEKS
100
AcDbText
  0
TEXT
  5
699
330
1E
100
AcDbEntity
  8
TEXT
100
AcDbText
 10
336.178754957634
 20
102.3132034537136
 30
0.0
 40
5.0
  1
Zeichnungs Nr.
 41
0.8
  7
GREEKS
100
AcDbText
  0
TEXT
  5
69A
330
1E
100
AcDbEntity
  8
TEXT
100
AcDbText
 10
224.742238391136
 20
30.84560570193057
 30
0.0
 40
5.0
  1
Bauvorhaben
 41
0.8
  7
GREEKS
100
AcDbText
  0
TEXT
  5
69B
330
1E
100
AcDbEntity
  8
TEXT
100
AcDbText
 10
336.7238616296993
 20
73.1811823709997
 30
0.0
 40
5.0
  1
Ersatz für:
 41
0.8
  7
GREEKS
100
AcDbText
  0
TEXT
  5
69C
330
1E
100
AcDbEntity
  8
TEXT
100
AcDbText
 10
48.26641107045759
 20
13.65465846027192
 30
0.0
 40
4.0
  1
Index
 50
90.0
 41
0.8
  7
GREEKS
100
AcDbText
  0
TEXT
  5
69D
330
1E
100
AcDbEntity
  8
TEXT
100
AcDbText
 10
100.093467607548
 20
18.6715626933981
 30
0.0
 40
4.0
  1
Tag
 41
0.8
  7
GREEKS
 72
     1
 11
103.8268009408814
 21
18.6715626933981
 31
0.0
100
AcDbText
  0
TEXT
  5
69E
330
1E
100
AcDbEntity
  8
TEXT
100
AcDbText
 10
119.0122744386593
 20
18.59324216966408
 30
0.0
 40
4.0
  1
Name
 41
0.8
  7
GREEKS
 72
     1
 11
125.3360839624688
 21
18.59324216966408
 31
0.0
100
AcDbText
  0
TEXT
  5
69F
330
1E
100
AcDbEntity
  8
TEXT
100
AcDbText
 10
162.3311673153651
 20
73.31880501229926
 30
0.0
 40
4.0
  1
Tag
 41
0.8
  7
GREEKS
100
AcDbText
  0
TEXT
  5
6A0
330
1E
100
AcDbEntity
  8
TEXT
100
AcDbText
 10
192.4626584226295
 20
73.30961091915225
 30
0.0
 40
4.0
  1
Name
 41
0.8
  7
GREEKS
100
AcDbText
  0
TEXT
  5
6A1
330
1E
100
AcDbEntity
  8
TEXT
100
AcDbText
 10
137.5836127167615
 20
63.62990369617964
 30
0.0
 40
4.0
  1
Gez.
 41
0.8
  7
GREEKS
100
AcDbText
  0
TEXT
  5
6A2
330
1E
100
AcDbEntity
  8
TEXT
100
AcDbText
 10
137.5515086571672
 20
53.68926291428377
 30
0.0
 40
4.0
  1
Gepr.
 41
0.8
  7
GREEKS
100
AcDbText
  0
TEXT
  5
6A3
330
1E
100
AcDbEntity
  8
TEXT
100
AcDbText
 10
137.6006777387304
 20
43.52946389649807
 30
0.0
 40
4.0
  1
Norm.
 41
0.8
  7
GREEKS
100
AcDbText
  0
LINE
  5
6A4
330
1E
100
AcDbEntity
  8
STEMPEL
100
AcDbLine
 10
49.99999999999989
 20
10.0
 30
0.0
 11
410.0
 21
10.0
 31
0.0
  0
TEXT
  5
6A5
330
1E
100
AcDbEntity
  8
TEXT
100
AcDbText
 10
337.2400861497006
 20
52.07416177878602
 30
0.0
 40
5.0
  1
ersetzt durch:
 41
0.8
  7
GREEKS
100
AcDbText
  0
LINE
  5
6A6
330
1E
100
AcDbEntity
  8
STEMPEL
100
AcDbLine
 10
410.0
 20
10.0
 30
0.0
 11
39.99999999999989
 21
10.0
 31
0.0
  0
LINE
  5
6A7
330
1E
100
AcDbEntity
  8
STEMPEL
100
AcDbLine
 10
410.0
 20
10.0
 30
0.0
 11
410.0
 21
584.0
 31
0.0
  0
LINE
  5
6A8
330
1E
100
AcDbEntity
  8
STEMPEL
100
AcDbLine
 10
40.0
 20
10.0
 30
0.0
 11
39.99999999999989
 21
584.0
 31
0.0
  0
LINE
  5
6A9
330
1E
100
AcDbEntity
  8
STEMPEL
100
AcDbLine
 10
410.0
 20
584.0
 30
0.0
 11
39.99999999999989
 21
584.0
 31
0.0
  0
LINE
  5
6AA
330
1E
100
AcDbEntity
  8
HILF
100
AcDbLine
 10
0.0
 20
0.0
 30
0.0
 11
-0.0000000000001137
 21
594.0
 31
0.0
  0
LINE
  5
6AB
330
1E
100
AcDbEntity
  8
HILF
100
AcDbLine
 10
419.9999999999999
 20
594.0000000000002
 30
0.0
 11
0.0
 21
594.0
 31
0.0
  0
LINE
  5
6AC
330
1E
100
AcDbEntity
  8
HILF
100
AcDbLine
 10
420.0
 20
0.0
 30
0.0
 11
0.0
 21
0.0
 31
0.0
  0
LINE
  5
6AD
330
1E
100
AcDbEntity
  8
HILF
100
AcDbLine
 10
31.08767135713856
 20
297.0
 30
0.0
 11
0.0000000000001137
 21
297.0
 31
0.0
  0
TEXT
  5
6AE
330
1E
100
AcDbEntity
  8
TEXT
100
AcDbText
 10
138.622109822104
 20
73.14025471151666
 30
0.0
 40
4.0
  1
2012
 41
0.8
  7
GREEKS
100
AcDbText
  0
LINE
  5
6AF
330
1E
100
AcDbEntity
  8
HILF
100
AcDbLine
 10
420.0
 20
-0.0000000000001137
 30
0.0
 11
419.9999999999999
 21
594.0
 31
0.0
  0
TEXT
  5
6B0
330
1E
100
AcDbEntity
  8
VOLL
100
AcDbText
 10
682.3517065013577
 20
-69.27911192902275
 30
0.0
 40
3.6
  1

  7
GREEKS
100
AcDbText
  0
TEXT
  5
6B1
330
1E
100
AcDbEntity
  8
TEXT
100
AcDbText
 10
41.85509950977677
 20
111.6719999999999
 30
0.0
 40
5.0
  1
Erstellt mit AUTOCAD 2004
 41
0.8
  7
GREEKS
100
AcDbText
  0
TEXT
  5
6B2
330
1E
100
AcDbEntity
  8
TEXT
100
AcDbText
 10
194.4216048581257
 20
63.0896391972351
 30
0.0
 40
4.0
  1
Koeh
 41
0.8
  7
GREEKS
 72
     1
 11
199.6787477152686
 21
63.0896391972351
 31
0.0
100
AcDbText
  0
TEXT
  5
6B3
330
1E
100
AcDbEntity
  8
TEXT
 62
     1
100
AcDbText
 10
348.8428939890558
 20
88.14901428913959
 30
0.0
 40
7.0
  1
5550050W
 41
0.8
  7
GREEKS
 72
     1
 11
370.1762273223891
 21
88.14901428913959
 31
0.0
100
AcDbText
  0
TEXT
  5
6B4
330
1E
100
AcDbEntity
  8
TEXT
 62
     1
100
AcDbText
 10
150.5006306481887
 20
88.14901428913959
 30
0.0
 40
7.0
  1
1:2
 41
0.8
  7
GREEKS
100
AcDbText
  0
TEXT
  5
6B5
330
1E
100
AcDbEntity
  8
TEXT
100
AcDbText
 10
161.0085209177599
 20
63.10765040825732
 30
0.0
 40
4.0
  1
17.01.
 41
0.8
  7
GREEKS
 72
     1
 11
167.4085209177599
 21
63.10765040825732
 31
0.0
100
AcDbText
  0
TEXT
  5
6B6
330
1E
100
AcDbEntity
  8
TEXT
 62
     1
100
AcDbText
 10
226.8935731057402
 20
87.41748789253779
 30
0.0
 40
7.0
  1
Reinigungsrohr DN50
 41
0.8
  7
GREEKS
100
AcDbText
  0
TEXT
  5
6B9
330
1E
100
AcDbEntity
  8
TEXT
100
AcDbText
 10
225.1296391125316
 20
51.64011943042158
 30
0.0
 40
5.0
  1
EDV-Art.Nr. 5.550.050C
 41
0.8
  7
GREEKS
100
AcDbText
  0
TEXT
  5
6BA
330
1E
100
AcDbEntity
  8
TEXT
100
AcDbText
 10
224.9837501577827
 20
42.62974153022632
 30
0.0
 40
4.0
  1
5550050W.DWG
 41
0.8
  7
GREEKS
100
AcDbText
  0
TEXT
  5
6BB
330
1E
100
AcDbEntity
  8
TEXT
100
AcDbText
 10
182.626132208084
 20
90.76363841023022
 30
0.0
 40
4.0
  1
DIN EN1124-3
 41
0.8
  7
GREEKS
 72
     1
 11
199.6166083985601
 21
90.76363841023022
 31
0.0
100
AcDbText
  0
INSERT
  5
6BC
330
1E
100
AcDbEntity
  8
STEMPEL
100
AcDbBlockReference
  2
LOGO
 10
140.9955485457794
 20
45.02105276448321
 30
0.0
 41
2.0
 42
2.0
 43
2.0
  0
TEXT
  5
6BD
330
1E
100
AcDbEntity
  8
BEM
100
AcDbText
 10
417.3022923857165
 20
10.16790107998849
 30
0.0
 40
4.0
  1
Diese Zeichnung ist urheberrechtlich geschützt und bleibt unser Eigentum. Sie darf weder ganz noch teilweise verfielfältigt und nicht an Dritte weitergegeben werden.
 50
90.0
 41
0.8
  7
GREEKS
100
AcDbText
  0
TEXT
  5
975
330
1E
100
AcDbEntity
  8
TEXT
 62
     1
100
AcDbText
 10
95.19507285843781
 20
439.4085469016297
 30
0.0
 40
7.0
  1
Deckel DN50
 50
90.0
 41
0.8
  7
GREEKS
100
AcDbText
  0
TEXT
  5
976
330
1E
100
AcDbEntity
  8
TEXT
 62
     1
100
AcDbText
 10
108.0997332998447
 20
439.4085469016297
 30
0.0
 40
7.0
  1
EDV-Art.Nr. 55880.050C
 50
90.0
 41
0.8
  7
GREEKS
100
AcDbText
  0
LINE
  5
977
330
1E
100
AcDbEntity
  8
TEXT
 62
     2
100
AcDbLine
 10
98.57497827533439
 20
438.9478680988578
 30
0.0
 11
98.57497827533439
 21
545.0839904883488
 31
0.0
  0
LINE
  5
9F0
330
1E
100
AcDbEntity
  8
TEXT
 62
     2
100
AcDbLine
 10
98.57497827533439
 20
438.9478680988578
 30
0.0
 11
133.4736939625957
 21
415.723970888932
 31
0.0
  0
TEXT
  5
A03
330
1E
100
AcDbEntity
  8
TEXT
100
AcDbText
 10
225.1296391125316
 20
71.64011943042154
 30
0.0
 40
5.0
  1
mit runder Reinigungsöffnung
 41
0.8
  7
GREEKS
100
AcDbText
  0
HATCH
  5
AB2
330
1E
100
AcDbEntity
  8
SCHRAFF
100
AcDbHatch
 10
0.0
 20
0.0
 30
0.0
210
0.0
220
0.0
230
1.0
  2
_USER
 70
     0
 71
     0
 91
        2
 92
        7
 72
     1
 73
     1
 93
        9
 10
140.6342762387045
 20
413.0239824570707
 42
0.0
 10
139.6977633699665
 20
413.5514968597321
 42
0.0
 10
139.1342762387046
 20
413.8181131688027
 42
0.0
 10
139.1342762387045
 20
403.1986459935711
 42
-0.4142135623730951
 10
136.1342762387045
 20
400.1986459935711
 42
0.0
 10
135.6342762387046
 20
400.1986459935711
 42
0.0
 10
135.6342762387046
 20
398.6986459935712
 42
0.0
 10
136.1342762387045
 20
398.6986459935711
 42
0.4142135623730951
 10
140.6342762387045
 20
403.1986459935711
 42
0.0
 97
        0
 92
        7
 72
     1
 73
     1
 93
        8
 10
139.1342762387046
 20
325.873713648529
 42
0.0
 10
140.6342762387045
 20
326.3142375174762
 42
0.0
 10
140.6342762387046
 20
344.1986459935713
 42
0.4142135623731291
 10
136.134276238704
 20
348.6986459935712
 42
0.0
 10
135.6342762387046
 20
348.6986459935712
 42
0.0
 10
135.6342762387046
 20
347.1986459935712
 42
0.0
 10
136.1342762387046
 20
347.1986459935712
 42
-0.4142135623730904
 10
139.1342762387046
 20
344.1986459935713
 42
0.0
 97
        0
 75
     0
 76
     0
 52
45.0
 41
2.0
 77
     0
 78
     1
 53
45.0
 43
8.967745724556834
 44
9.711645848168529
 45
-1.414213562373094
 46
1.414213562373095
 79
     0
 47
0.1753380316549214
 98
        2
 10
140.3283522524141
 20
405.5864300456167
 10
139.8020195305287
 20
343.6921034095645
  0
POLYLINE
  5
AB3
330
1E
100
AcDbEntity
  8
HILF
100
AcDb2dPolyline
 66
     1
 10
0.0
 20
0.0
 30
0.0
  0
VERTEX
  5
AB4
330
AB3
100
AcDbEntity
  8
HILF
100
AcDbVertex
100
AcDb2dVertex
 10
139.1342762387045
 20
413.8181131688027
 30
0.0
  0
VERTEX
  5
AB5
330
AB3
100
AcDbEntity
  8
HILF
100
AcDbVertex
100
AcDb2dVertex
 10
139.6977633699659
 20
413.5514968597324
 30
0.0
  0
VERTEX
  5
AB6
330
AB3
100
AcDbEntity
  8
HILF
100
AcDbVertex
100
AcDb2dVertex
 10
143.5726255538068
 20
411.3688833810105
 30
0.0
  0
VERTEX
  5
AB7
330
AB3
100
AcDbEntity
  8
HILF
100
AcDbVertex
100
AcDb2dVertex
 10
146.6603635320173
 20
409.2384554939696
 30
0.0
  0
VERTEX
  5
AB8
330
AB3
100
AcDbEntity
  8
HILF
100
AcDbVertex
100
AcDb2dVertex
 10
149.0895860547499
 20
407.1283220049132
 30
0.0
  0
VERTEX
  5
AB9
330
AB3
100
AcDbEntity
  8
HILF
100
AcDbVertex
100
AcDb2dVertex
 10
150.9889018721568
 20
405.0065917201441
 30
0.0
  0
VERTEX
  5
ABA
330
AB3
100
AcDbEntity
  8
HILF
100
AcDbVertex
100
AcDb2dVertex
 10
152.4869197343903
 20
402.8413734459659
 30
0.0
  0
VERTEX
  5
ABB
330
AB3
100
AcDbEntity
  8
HILF
100
AcDbVertex
100
AcDb2dVertex
 10
153.7122483916026
 20
400.6007759886817
 30
0.0
  0
VERTEX
  5
ABC
330
AB3
100
AcDbEntity
  8
HILF
100
AcDbVertex
100
AcDb2dVertex
 10
154.7934965939462
 20
398.2529081545949
 30
0.0
  0
VERTEX
  5
ABD
330
AB3
100
AcDbEntity
  8
HILF
100
AcDbVertex
100
AcDb2dVertex
 10
155.8345344405836
 20
395.7750595484432
 30
0.0
  0
VERTEX
  5
ABE
330
AB3
100
AcDbEntity
  8
HILF
100
AcDbVertex
100
AcDb2dVertex
 10
156.8402774267205
 20
393.1812429687044
 30
0.0
  0
VERTEX
  5
ABF
330
AB3
100
AcDbEntity
  8
HILF
100
AcDbVertex
100
AcDb2dVertex
 10
157.7909023965725
 20
390.4946520122908
 30
0.0
  0
VERTEX
  5
AC0
330
AB3
100
AcDbEntity
  8
HILF
100
AcDbVertex
100
AcDb2dVertex
 10
158.6665861943559
 20
387.7384802761151
 30
0.0
  0
VERTEX
  5
AC1
330
AB3
100
AcDbEntity
  8
HILF
100
AcDbVertex
100
AcDb2dVertex
 10
159.4475056642862
 20
384.9359213570895
 30
0.0
  0
VERTEX
  5
AC2
330
AB3
100
AcDbEntity
  8
HILF
100
AcDbVertex
100
AcDb2dVertex
 10
160.1138376505797
 20
382.1101688521267
 30
0.0
  0
VERTEX
  5
AC3
330
AB3
100
AcDbEntity
  8
HILF
100
AcDbVertex
100
AcDb2dVertex
 10
160.6457589974522
 20
379.284416358139
 30
0.0
  0
VERTEX
  5
AC4
330
AB3
100
AcDbEntity
  8
HILF
100
AcDbVertex
100
AcDb2dVertex
 10
161.0234465491196
 20
376.4818574720388
 30
0.0
  0
VERTEX
  5
AC5
330
AB3
100
AcDbEntity
  8
HILF
100
AcDbVertex
100
AcDb2dVertex
 10
161.2320732289308
 20
373.7195652581439
 30
0.0
  0
VERTEX
  5
AC6
330
AB3
100
AcDbEntity
  8
HILF
100
AcDbVertex
100
AcDb2dVertex
 10
161.2767962767667
 20
370.9901306503928
 30
0.0
  0
VERTEX
  5
AC7
330
AB3
100
AcDbEntity
  8
HILF
100
AcDbVertex
100
AcDb2dVertex
 10
161.1677690116408
 20
368.2800240501293
 30
0.0
  0
VERTEX
  5
AC8
330
AB3
100
AcDbEntity
  8
HILF
100
AcDbVertex
100
AcDb2dVertex
 10
160.9151447525671
 20
365.5757158586972
 30
0.0
  0
VERTEX
  5
AC9
330
AB3
100
AcDbEntity
  8
HILF
100
AcDbVertex
100
AcDb2dVertex
 10
160.5290768185592
 20
362.8636764774402
 30
0.0
  0
VERTEX
  5
ACA
330
AB3
100
AcDbEntity
  8
HILF
100
AcDbVertex
100
AcDb2dVertex
 10
160.0197185286308
 20
360.1303763077021
 30
0.0
  0
VERTEX
  5
ACB
330
AB3
100
AcDbEntity
  8
HILF
100
AcDbVertex
100
AcDb2dVertex
 10
159.3972232017958
 20
357.3622857508267
 30
0.0
  0
VERTEX
  5
ACC
330
AB3
100
AcDbEntity
  8
HILF
100
AcDbVertex
100
AcDb2dVertex
 10
158.6717441570678
 20
354.5458752081577
 30
0.0
  0
VERTEX
  5
ACD
330
AB3
100
AcDbEntity
  8
HILF
100
AcDbVertex
100
AcDb2dVertex
 10
157.853515296322
 20
351.6771582778535
 30
0.0
  0
VERTEX
  5
ACE
330
AB3
100
AcDbEntity
  8
HILF
100
AcDbVertex
100
AcDb2dVertex
 10
156.95309285288
 20
348.7903213453315
 30
0.0
  0
VERTEX
  5
ACF
330
AB3
100
AcDbEntity
  8
HILF
100
AcDbVertex
100
AcDb2dVertex
 10
155.9811136429244
 20
345.9290939928231
 30
0.0
  0
VERTEX
  5
AD0
330
AB3
100
AcDbEntity
  8
HILF
100
AcDbVertex
100
AcDb2dVertex
 10
154.9482144826384
 20
343.1372058025604
 30
0.0
  0
VERTEX
  5
AD1
330
AB3
100
AcDbEntity
  8
HILF
100
AcDbVertex
100
AcDb2dVertex
 10
153.8650321882045
 20
340.4583863567751
 30
0.0
  0
VERTEX
  5
AD2
330
AB3
100
AcDbEntity
  8
HILF
100
AcDbVertex
100
AcDb2dVertex
 10
152.7422035758057
 20
337.9363652376991
 30
0.0
  0
VERTEX
  5
AD3
330
AB3
100
AcDbEntity
  8
HILF
100
AcDbVertex
100
AcDb2dVertex
 10
151.590365461625
 20
335.6148720275641
 30
0.0
  0
VERTEX
  5
AD4
330
AB3
100
AcDbEntity
  8
HILF
100
AcDbVertex
100
AcDb2dVertex
 10
150.4201546618452
 20
333.5376363086018
 30
0.0
  0
VERTEX
  5
AD5
330
AB3
100
AcDbEntity
  8
HILF
100
AcDbVertex
100
AcDb2dVertex
 10
149.2159382882579
 20
331.733891668861
 30
0.0
  0
VERTEX
  5
AD6
330
AB3
100
AcDbEntity
  8
HILF
100
AcDbVertex
100
AcDb2dVertex
 10
147.8570046350899
 20
330.1748877196569
 30
0.0
  0
VERTEX
  5
AD7
330
AB3
100
AcDbEntity
  8
HILF
100
AcDbVertex
100
AcDb2dVertex
 10
146.1963722921766
 20
328.8173780781221
 30
0.0
  0
VERTEX
  5
AD8
330
AB3
100
AcDbEntity
  8
HILF
100
AcDbVertex
100
AcDb2dVertex
 10
144.0870598493536
 20
327.6181163613886
 30
0.0
  0
VERTEX
  5
AD9
330
AB3
100
AcDbEntity
  8
HILF
100
AcDbVertex
100
AcDb2dVertex
 10
141.3820858964566
 20
326.5338561865888
 30
0.0
  0
VERTEX
  5
ADA
330
AB3
100
AcDbEntity
  8
HILF
100
AcDbVertex
100
AcDb2dVertex
 10
139.1342762387046
 20
325.8737136485291
 30
0.0
  0
SEQEND
  5
ADB
330
AB3
100
AcDbEntity
  8
HILF
  0
LINE
  5
ADD
330
1E
100
AcDbEntity
  8
STEMPEL
100
AcDbLine
 10
139.1342762387046
 20
336.6986459935713
 30
0.0
 11
129.1342762387047
 21
336.6986459935713
 31
0.0
  0
LINE
  5
ADE
330
1E
100
AcDbEntity
  8
STEMPEL
100
AcDbLine
 10
139.1342762387046
 20
342.6986459935713
 30
0.0
 11
129.1342762387047
 21
342.6986459935713
 31
0.0
  0
LINE
  5
ADF
330
1E
100
AcDbEntity
  8
HILF
100
AcDbLine
 10
139.1342762387046
 20
337.6986459935713
 30
0.0
 11
129.1342762387047
 21
337.6986459935714
 31
0.0
  0
LINE
  5
AE0
330
1E
100
AcDbEntity
  8
HILF
100
AcDbLine
 10
139.1342762387046
 20
341.6986459935713
 30
0.0
 11
129.1342762387047
 21
341.6986459935714
 31
0.0
  0
LINE
  5
AE9
330
1E
100
AcDbEntity
  8
HILF
100
AcDbLine
 10
139.1342762387045
 20
405.6986459935711
 30
0.0
 11
129.1342762387046
 21
405.6986459935711
 31
0.0
  0
LINE
  5
AEA
330
1E
100
AcDbEntity
  8
HILF
100
AcDbLine
 10
139.1342762387045
 20
409.6986459935711
 30
0.0
 11
129.1342762387046
 21
409.6986459935711
 31
0.0
  0
LINE
  5
AEB
330
1E
100
AcDbEntity
  8
STEMPEL
100
AcDbLine
 10
139.1342762387045
 20
404.6986459935711
 30
0.0
 11
129.1342762387046
 21
404.6986459935711
 31
0.0
  0
LINE
  5
AEC
330
1E
100
AcDbEntity
  8
STEMPEL
100
AcDbLine
 10
139.1342762387045
 20
410.698645993571
 30
0.0
 11
129.1342762387046
 21
410.698645993571
 31
0.0
  0
LINE
  5
AF4
330
1E
100
AcDbEntity
  8
MITTEL
100
AcDbLine
 10
139.1342762387045
 20
407.6986459935711
 30
0.0
 11
118.1342762387046
 21
407.6986459935711
 31
0.0
  0
LINE
  5
AF5
330
1E
100
AcDbEntity
  8
HILF
100
AcDbLine
 10
165.6342762387046
 20
373.6986459935712
 30
0.0
 11
140.3769169258239
 21
348.4412866806905
 31
0.0
  0
LINE
  5
AF6
330
1E
100
AcDbEntity
  8
HILF
100
AcDbLine
 10
140.3769169258238
 20
398.9560053064518
 30
0.0
 11
165.6342762387046
 21
373.6986459935712
 31
0.0
  0
LINE
  5
AF7
330
1E
100
AcDbEntity
  8
STEMPEL
100
AcDbLine
 10
136.1342762387044
 20
348.6986459935712
 30
0.0
 11
135.6342762387044
 21
348.6986459935712
 31
0.0
  0
ARC
  5
AF8
330
1E
100
AcDbEntity
  8
STEMPEL
100
AcDbCircle
 10
136.1342762387046
 20
344.1986459935713
 30
0.0
 40
4.5
100
AcDbArc
 50
0.0
 51
90.0
  0
LINE
  5
AF9
330
1E
100
AcDbEntity
  8
STEMPEL
100
AcDbLine
 10
140.6342762387046
 20
344.1986459935713
 30
0.0
 11
140.6342762387046
 21
326.3142375174762
 31
0.0
  0
LINE
  5
AFA
330
1E
100
AcDbEntity
  8
STEMPEL
100
AcDbLine
 10
136.1342762387045
 20
398.6986459935711
 30
0.0
 11
135.6342762387046
 21
398.6986459935711
 31
0.0
  0
ARC
  5
AFB
330
1E
100
AcDbEntity
  8
STEMPEL
100
AcDbCircle
 10
136.1342762387045
 20
403.1986459935711
 30
0.0
 40
4.5
100
AcDbArc
 50
270.0
 51
0.0
  0
LINE
  5
AFC
330
1E
100
AcDbEntity
  8
STEMPEL
100
AcDbLine
 10
140.6342762387045
 20
413.0239824570707
 30
0.0
 11
140.6342762387045
 21
403.1986459935711
 31
0.0
  0
ARC
  5
AFD
330
1E
100
AcDbEntity
  8
STEMPEL
100
AcDbCircle
 10
136.1342762387046
 20
344.1986459935713
 30
0.0
 40
3.0
100
AcDbArc
 50
0.0
 51
90.0
  0
ARC
  5
AFE
330
1E
100
AcDbEntity
  8
STEMPEL
100
AcDbCircle
 10
136.1342762387045
 20
403.1986459935711
 30
0.0
 40
3.0
100
AcDbArc
 50
270.0
 51
0.0
  0
LINE
  5
AFF
330
1E
100
AcDbEntity
  8
STEMPEL
100
AcDbLine
 10
139.1342762387046
 20
344.1986459935713
 30
0.0
 11
139.1342762387046
 21
283.6986459935711
 31
0.0
  0
LINE
  5
B00
102
{ACAD_REACTORS
330
C31
102
}
330
1E
100
AcDbEntity
  8
STEMPEL
100
AcDbLine
 10
136.1342762387046
 20
347.1986459935712
 30
0.0
 11
130.6342762387046
 21
347.1986459935706
 31
0.0
  0
LINE
  5
B01
102
{ACAD_REACTORS
330
C31
102
}
330
1E
100
AcDbEntity
  8
STEMPEL
100
AcDbLine
 10
136.1342762387045
 20
400.1986459935711
 30
0.0
 11
130.6342762387046
 21
400.1986459935711
 31
0.0
  0
LINE
  5
B02
102
{ACAD_REACTORS
330
C31
102
}
330
1E
100
AcDbEntity
  8
STEMPEL
100
AcDbLine
 10
135.6342762387046
 20
400.1986459935711
 30
0.0
 11
135.6342762387046
 21
347.1986459935712
 31
0.0
  0
LINE
  5
B05
330
1E
100
AcDbEntity
  8
MITTEL
100
AcDbLine
 10
165.6342762387046
 20
373.6986459935712
 30
0.0
 11
124.1342762387046
 21
373.6986459935711
 31
0.0
  0
LINE
  5
B07
330
1E
100
AcDbEntity
  8
STEMPEL
100
AcDbLine
 10
346.1862052994271
 20
278.6986459935711
 30
0.0
 11
294.0610919346863
 21
278.6986459935711
 31
0.0
  0
LINE
  5
B08
330
1E
100
AcDbEntity
  8
HILF
100
AcDbLine
 10
345.1179188607417
 20
283.6986459935711
 30
0.0
 11
295.1293783733717
 21
283.6986459935711
 31
0.0
  0
LINE
  5
B09
330
1E
100
AcDbEntity
  8
STEMPEL
100
AcDbLine
 10
293.6236486170567
 20
283.6986459935711
 30
0.0
 11
294.0610919346863
 21
278.6986459935711
 31
0.0
  0
LINE
  5
B0A
330
1E
100
AcDbEntity
  8
STEMPEL
100
AcDbLine
 10
346.6236486170567
 20
283.6986459935711
 30
0.0
 11
346.1862052994271
 21
278.6986459935711
 31
0.0
  0
LINE
  5
B0B
330
1E
100
AcDbEntity
  8
STEMPEL
100
AcDbLine
 10
192.1342762387047
 20
283.6986459935711
 30
0.0
 11
191.696832921075
 21
278.6986459935712
 31
0.0
  0
LINE
  5
B0C
330
1E
100
AcDbEntity
  8
STEMPEL
100
AcDbLine
 10
139.1342762387046
 20
283.6986459935711
 30
0.0
 11
139.5717195563342
 21
278.6986459935712
 31
0.0
  0
LINE
  5
B0D
330
1E
100
AcDbEntity
  8
HILF
100
AcDbLine
 10
190.6285464823897
 20
283.6986459935711
 30
0.0
 11
140.6400059950196
 21
283.6986459935711
 31
0.0
  0
LINE
  5
B0E
330
1E
100
AcDbEntity
  8
HILF
100
AcDbLine
 10
291.9581698450252
 20
444.1425154677723
 30
0.0
 11
348.2891273890882
 21
444.1425154677724
 31
0.0
  0
LINE
  5
B0F
330
1E
100
AcDbEntity
  8
HILF
100
AcDbLine
 10
292.5250719846792
 20
431.2314294798649
 30
0.0
 11
347.7222252494341
 21
431.2314294798649
 31
0.0
  0
LINE
  5
B10
330
1E
100
AcDbEntity
  8
HILF
100
AcDbLine
 10
294.7604560463505
 20
426.1730013020637
 30
0.0
 11
345.4868411877628
 21
426.1730013020637
 31
0.0
  0
LINE
  5
B11
330
1E
100
AcDbEntity
  8
STEMPEL
100
AcDbLine
 10
349.7300017669934
 20
466.698645993571
 30
0.0
 11
290.51729546712
 21
466.698645993571
 31
0.0
  0
ARC
  5
B12
330
1E
100
AcDbEntity
  8
STEMPEL
100
AcDbCircle
 10
280.6236486170567
 20
442.198645993571
 30
0.0
 40
10.0
100
AcDbArc
 50
0.0
 51
19.46309944468874
  0
ARC
  5
B13
330
1E
100
AcDbEntity
  8
STEMPEL
100
AcDbCircle
 10
302.6236486170567
 20
434.106972906767
 30
0.0
 40
12.0
100
AcDbArc
 50
180.0
 51
211.7883306170534
  0
ARC
  5
B14
330
1E
100
AcDbEntity
  8
STEMPEL
100
AcDbCircle
 10
285.6236486170567
 20
423.5713191539143
 30
0.0
 40
8.0
100
AcDbArc
 50
0.0
 51
31.78833061705334
  0
LINE
  5
B15
330
1E
100
AcDbEntity
  8
STEMPEL
100
AcDbLine
 10
293.6236486170567
 20
423.5713191539143
 30
0.0
 11
293.6236486170567
 21
391.6360371082232
 31
0.0
  0
LINE
  5
B16
330
1E
100
AcDbEntity
  8
STEMPEL
100
AcDbLine
 10
290.6236486170567
 20
442.198645993571
 30
0.0
 11
290.6236486170567
 21
434.106972906767
 31
0.0
  0
ARC
  5
B17
330
1E
100
AcDbEntity
  8
STEMPEL
100
AcDbCircle
 10
308.1236486170567
 20
458.3161446509102
 30
0.0
 40
19.5
100
AcDbArc
 50
154.5405714311918
 51
180.0
  0
ARC
  5
B18
330
1E
100
AcDbEntity
  8
STEMPEL
100
AcDbCircle
 10
313.6236486170567
 20
453.860645993571
 30
0.0
 40
25.00003205712822
100
AcDbArc
 50
179.9082450082395
 51
199.4630994446887
  0
LINE
  5
B19
330
1E
100
AcDbEntity
  8
STEMPEL
100
AcDbLine
 10
288.6236486170567
 20
458.3161446509102
 30
0.0
 11
288.6236486170567
 21
453.9006816955793
 31
0.0
  0
LINE
  5
B1A
330
1E
100
AcDbEntity
  8
STEMPEL
100
AcDbLine
 10
290.5166037678655
 20
466.698645993571
 30
0.0
 11
290.450646769842
 21
466.5572007548538
 31
0.0
  0
ARC
  5
B1B
330
1E
100
AcDbEntity
  8
STEMPEL
100
AcDbCircle
 10
359.6236486170567
 20
442.1986459935712
 30
0.0
 40
10.0
100
AcDbArc
 50
160.5369005553112
 51
180.0
  0
LINE
  5
B1C
330
1E
100
AcDbEntity
  8
MITTEL
100
AcDbLine
 10
320.1236486170567
 20
471.698645993571
 30
0.0
 11
320.1236486170567
 21
273.6986459935711
 31
0.0
  0
ARC
  5
B1D
330
1E
100
AcDbEntity
  8
STEMPEL
100
AcDbCircle
 10
337.6236486170567
 20
434.106972906767
 30
0.0
 40
12.0
100
AcDbArc
 50
328.2116693829467
 51
0.0
  0
ARC
  5
B1E
330
1E
100
AcDbEntity
  8
STEMPEL
100
AcDbCircle
 10
354.6236486170567
 20
423.5713191539144
 30
0.0
 40
8.0
100
AcDbArc
 50
148.2116693829466
 51
180.0
  0
LINE
  5
B1F
330
1E
100
AcDbEntity
  8
STEMPEL
100
AcDbLine
 10
346.6236486170567
 20
423.5713191539144
 30
0.0
 11
346.6236486170567
 21
391.6360371082231
 31
0.0
  0
LINE
  5
B20
330
1E
100
AcDbEntity
  8
STEMPEL
100
AcDbLine
 10
349.6236486170567
 20
442.1986459935711
 30
0.0
 11
349.6236486170567
 21
434.106972906767
 31
0.0
  0
ARC
  5
B21
330
1E
100
AcDbEntity
  8
STEMPEL
100
AcDbCircle
 10
332.1236486170566
 20
458.3161446509102
 30
0.0
 40
19.5
100
AcDbArc
 50
0.0
 51
25.45942856880524
  0
ARC
  5
B22
330
1E
100
AcDbEntity
  8
STEMPEL
100
AcDbCircle
 10
326.6236486170567
 20
453.8606459935711
 30
0.0
 40
25.00003205712822
100
AcDbArc
 50
340.5369005553112
 51
0.0917549917604792
  0
LINE
  5
B23
330
1E
100
AcDbEntity
  8
STEMPEL
100
AcDbLine
 10
351.6236486170567
 20
458.3161446509103
 30
0.0
 11
351.6236486170567
 21
453.9006816955795
 31
0.0
  0
LINE
  5
B24
330
1E
100
AcDbEntity
  8
STEMPEL
100
AcDbLine
 10
349.7306934662479
 20
466.6986459935711
 30
0.0
 11
349.7966504642712
 21
466.5572007548539
 31
0.0
  0
LINE
  5
B25
330
1E
100
AcDbEntity
  8
STEMPEL
100
AcDbLine
 10
195.2413210878958
 20
466.6986459935712
 30
0.0
 11
195.3072780859191
 21
466.5572007548539
 31
0.0
  0
LINE
  5
B26
330
1E
100
AcDbEntity
  8
STEMPEL
100
AcDbLine
 10
197.1342762387046
 20
458.3161446509103
 30
0.0
 11
197.1342762387046
 21
453.9006816955795
 31
0.0
  0
ARC
  5
B27
330
1E
100
AcDbEntity
  8
STEMPEL
100
AcDbCircle
 10
172.1342762387045
 20
453.8606459935711
 30
0.0
 40
25.00003205712822
100
AcDbArc
 50
340.5369005553112
 51
0.0917549917604792
  0
ARC
  5
B28
330
1E
100
AcDbEntity
  8
STEMPEL
100
AcDbCircle
 10
177.6342762387045
 20
458.3161446509103
 30
0.0
 40
19.5
100
AcDbArc
 50
0.0
 51
25.45942856880524
  0
LINE
  5
B29
330
1E
100
AcDbEntity
  8
STEMPEL
100
AcDbLine
 10
195.1342762387046
 20
442.1986459935712
 30
0.0
 11
195.1342762387046
 21
434.1069729067671
 31
0.0
  0
LINE
  5
B2A
330
1E
100
AcDbEntity
  8
STEMPEL
100
AcDbLine
 10
192.1342762387046
 20
423.5713191539144
 30
0.0
 11
192.1342762387046
 21
283.6986459935711
 31
0.0
  0
ARC
  5
B2B
330
1E
100
AcDbEntity
  8
STEMPEL
100
AcDbCircle
 10
200.1342762387046
 20
423.5713191539144
 30
0.0
 40
8.0
100
AcDbArc
 50
148.2116693829466
 51
180.0
  0
ARC
  5
B2C
330
1E
100
AcDbEntity
  8
STEMPEL
100
AcDbCircle
 10
183.1342762387046
 20
434.1069729067671
 30
0.0
 40
12.0
100
AcDbArc
 50
328.2116693829467
 51
0.0
  0
LINE
  5
B2D
330
1E
100
AcDbEntity
  8
MITTEL
100
AcDbLine
 10
165.6342762387046
 20
471.6986459935711
 30
0.0
 11
165.6342762387046
 21
273.6986459935711
 31
0.0
  0
ARC
  5
B2E
330
1E
100
AcDbEntity
  8
STEMPEL
100
AcDbCircle
 10
205.1342762387046
 20
442.1986459935712
 30
0.0
 40
10.0
100
AcDbArc
 50
160.5369005553112
 51
180.0
  0
LINE
  5
B2F
330
1E
100
AcDbEntity
  8
STEMPEL
100
AcDbLine
 10
136.0272313895134
 20
466.6986459935711
 30
0.0
 11
135.9612743914899
 21
466.5572007548539
 31
0.0
  0
LINE
  5
B30
330
1E
100
AcDbEntity
  8
STEMPEL
100
AcDbLine
 10
134.1342762387046
 20
458.3161446509103
 30
0.0
 11
134.1342762387046
 21
453.9006816955794
 31
0.0
  0
ARC
  5
B31
330
1E
100
AcDbEntity
  8
STEMPEL
100
AcDbCircle
 10
159.1342762387046
 20
453.8606459935711
 30
0.0
 40
25.00003205712822
100
AcDbArc
 50
179.9082450082395
 51
199.4630994446887
  0
ARC
  5
B32
330
1E
100
AcDbEntity
  8
STEMPEL
100
AcDbCircle
 10
153.6342762387046
 20
458.3161446509103
 30
0.0
 40
19.5
100
AcDbArc
 50
154.5405714311918
 51
180.0
  0
LINE
  5
B33
330
1E
100
AcDbEntity
  8
STEMPEL
100
AcDbLine
 10
136.1342762387046
 20
442.1986459935711
 30
0.0
 11
136.1342762387046
 21
434.106972906767
 31
0.0
  0
LINE
  5
B34
330
1E
100
AcDbEntity
  8
STEMPEL
100
AcDbLine
 10
139.1342762387046
 20
423.5713191539144
 30
0.0
 11
139.1342762387045
 21
403.1986459935711
 31
0.0
  0
ARC
  5
B35
330
1E
100
AcDbEntity
  8
STEMPEL
100
AcDbCircle
 10
131.1342762387046
 20
423.5713191539144
 30
0.0
 40
8.0
100
AcDbArc
 50
0.0
 51
31.78833061705334
  0
ARC
  5
B36
330
1E
100
AcDbEntity
  8
STEMPEL
100
AcDbCircle
 10
148.1342762387046
 20
434.106972906767
 30
0.0
 40
12.0
100
AcDbArc
 50
180.0
 51
211.7883306170534
  0
ARC
  5
B37
330
1E
100
AcDbEntity
  8
STEMPEL
100
AcDbCircle
 10
126.1342762387046
 20
442.1986459935711
 30
0.0
 40
10.0
100
AcDbArc
 50
0.0
 51
19.46309944468874
  0
LINE
  5
B38
330
1E
100
AcDbEntity
  8
STEMPEL
100
AcDbLine
 10
195.2406293886413
 20
466.698645993571
 30
0.0
 11
136.0279230887678
 21
466.6986459935711
 31
0.0
  0
LINE
  5
B39
330
1E
100
AcDbEntity
  8
STEMPEL
100
AcDbLine
 10
191.696832921075
 20
278.6986459935712
 30
0.0
 11
139.5717195563342
 21
278.6986459935712
 31
0.0
  0
LINE
  5
B3A
330
1E
100
AcDbEntity
  8
HILF
100
AcDbLine
 10
140.2710836679984
 20
426.1730013020637
 30
0.0
 11
190.9974688094107
 21
426.1730013020637
 31
0.0
  0
LINE
  5
B3B
330
1E
100
AcDbEntity
  8
HILF
100
AcDbLine
 10
138.0356996063271
 20
431.231429479865
 30
0.0
 11
193.232852871082
 21
431.231429479865
 31
0.0
  0
LINE
  5
B3C
330
1E
100
AcDbEntity
  8
HILF
100
AcDbLine
 10
137.4687974666731
 20
444.1425154677724
 30
0.0
 11
193.7997550107361
 21
444.1425154677725
 31
0.0
  0
LINE
  5
B3E
330
1E
100
AcDbEntity
  8
STEMPEL
100
AcDbLine
 10
130.6342762387046
 20
400.1986459935711
 30
0.0
 11
130.6342762387046
 21
395.3704881077628
 31
0.0
  0
LINE
  5
B3F
102
{ACAD_REACTORS
330
C31
102
}
330
1E
100
AcDbEntity
  8
STEMPEL
100
AcDbLine
 10
135.6342762387046
 20
394.6986459935712
 30
0.0
 11
130.8674639258068
 21
394.6986459935711
 31
0.0
  0
LINE
  5
B40
102
{ACAD_REACTORS
330
C31
102
}
330
1E
100
AcDbEntity
  8
STEMPEL
100
AcDbLine
 10
135.6342762387046
 20
352.6986459935712
 30
0.0
 11
130.8674639258069
 21
352.6986459935712
 31
0.0
  0
HATCH
  5
BB6
330
1E
100
AcDbEntity
  8
SCHRAFF
100
AcDbHatch
 10
0.0
 20
0.0
 30
0.0
210
0.0
220
0.0
230
1.0
  2
_USER
 70
     0
 71
     0
 91
        4
 92
        7
 72
     1
 73
     1
 93
        8
 10
130.6342762387046
 20
413.2288979958162
 42
-0.306678441558917
 10
131.2628855623505
 20
414.1573746867015
 42
0.0
 10
134.1342762387047
 20
415.3059309572432
 42
0.0
 10
133.5771902241737
 20
416.6986459935711
 42
0.0
 10
130.7057995478195
 20
415.5500897230295
 42
0.306678441558909
 10
129.1342762387046
 20
413.2288979958162
 42
0.0
 10
129.1342762387047
 20
410.9486459935713
 42
0.0
 10
130.6342762387046
 20
410.9486459935712
 42
0.0
 97
        0
 92
        7
 72
     1
 73
     1
 93
       19
 10
129.1342762387046
 20
395.3704881077628
 42
0.1316524975873982
 10
129.4692127292435
 20
394.1204881077628
 42
0.0
 10
130.500301642489
 20
392.3345897229005
 42
-0.1316524975873732
 10
130.6342762387046
 20
391.8345897229006
 42
0.0
 10
130.6342762387046
 20
377.227325148166
 42
-0.2679491924310543
 10
130.3842762387047
 20
376.7943124462738
 42
0.0
 10
129.8842762387046
 20
376.5056373116789
 42
0.267949192431143
 10
129.6342762387046
 20
376.0726246097867
 42
0.0
 10
129.6342762387046
 20
373.6986459935711
 42
0.0
 10
131.1342762387047
 20
373.6986459935711
 42
0.0
 10
131.1342762387047
 20
375.227325148166
 42
-0.2360679774997566
 10
131.3342762387046
 20
375.6273251481659
 42
0.2360679774997942
 10
132.1342762387047
 20
377.2273251481659
 42
0.0
 10
132.1342762387047
 20
391.8345897229006
 42
0.1316524975874113
 10
131.7993397481657
 20
393.0845897229007
 42
0.0
 10
130.7682508349202
 20
394.8704881077627
 42
-0.1316524975874271
 10
130.6342762387046
 20
395.3704881077628
 42
0.0
 10
130.6342762387046
 20
404.4486459935713
 42
0.0
 10
129.1342762387046
 20
404.4486459935712
 42
0.0
 97
        0
 92
        7
 72
     1
 73
     1
 93
       19
 10
132.1342762387046
 20
370.1699668389762
 42
0.2360679774997985
 10
131.3342762387045
 20
371.7699668389763
 42
-0.2360679774998136
 10
131.1342762387045
 20
372.1699668389764
 42
0.0
 10
131.1342762387046
 20
373.6986459935712
 42
0.0
 10
129.6342762387046
 20
373.6986459935712
 42
0.0
 10
129.6342762387045
 20
371.3246673773556
 42
0.2679491924311504
 10
129.8842762387045
 20
370.8916546754634
 42
0.0
 10
130.3842762387046
 20
370.6029795408685
 42
-0.2679491924310891
 10
130.6342762387046
 20
370.1699668389763
 42
0.0
 10
130.6342762387046
 20
355.5627022642416
 42
-0.1316524975873878
 10
130.500301642489
 20
355.0627022642417
 42
0.0
 10
129.4692127292434
 20
353.2768038793794
 42
0.131652497587404
 10
129.1342762387045
 20
352.0268038793794
 42
0.0
 10
129.1342762387046
 20
342.948645993571
 42
0.0
 10
130.6342762387045
 20
342.948645993571
 42
0.0
 10
130.6342762387046
 20
352.0268038793795
 42
-0.1316524975874454
 10
130.7682508349202
 20
352.5268038793796
 42
0.0
 10
131.7993397481656
 20
354.3127022642415
 42
0.1316524975873884
 10
132.1342762387046
 20
355.5627022642414
 42
0.0
 97
        0
 92
        7
 72
     1
 73
     1
 93
        8
 10
130.6342762387045
 20
336.448645993571
 42
0.0
 10
129.1342762387046
 20
336.4486459935711
 42
0.0
 10
129.1342762387045
 20
334.1683939913259
 42
0.306678441558903
 10
130.7057995478194
 20
331.8472022641127
 42
0.0
 10
133.5771902241734
 20
330.6986459935711
 42
0.0
 10
134.1342762387045
 20
332.0913610298988
 42
0.0
 10
131.2628855623504
 20
333.2399173004406
 42
-0.3066784415588862
 10
130.6342762387045
 20
334.1683939913258
 42
0.0
 97
        0
 75
     0
 76
     0
 52
135.0
 41
2.0
 77
     0
 78
     1
 53
135.0
 43
368.6796277059396
 44
261.1986459935711
 45
-1.414213562373095
 46
-1.414213562373094
 79
     0
 47
0.14640731890295
 98
        4
 10
129.973292068946
 20
411.9653568738606
 10
129.5340699508064
 20
399.9514649134922
 10
131.4373648631503
 20
367.7190734917095
 10
130.1196992084271
 20
334.7541277806568
  0
ARC
  5
BB7
330
1E
100
AcDbEntity
  8
STEMPEL
100
AcDbCircle
 10
130.1342762387045
 20
371.3246673773556
 30
0.0
 40
0.5
100
AcDbArc
 50
180.0
 51
239.9999999999995
  0
ARC
  5
BB8
330
1E
100
AcDbEntity
  8
STEMPEL
100
AcDbCircle
 10
130.1342762387046
 20
376.0726246097867
 30
0.0
 40
0.5
100
AcDbArc
 50
119.9999999999989
 51
179.9999999999967
  0
ARC
  5
BB9
330
1E
100
AcDbEntity
  8
STEMPEL
100
AcDbCircle
 10
131.6342762387045
 20
372.1699668389764
 30
0.0
 40
0.5
100
AcDbArc
 50
179.9999999999967
 51
233.1301023541579
  0
ARC
  5
BBA
330
1E
100
AcDbEntity
  8
STEMPEL
100
AcDbCircle
 10
131.6342762387046
 20
375.227325148166
 30
0.0
 40
0.5
100
AcDbArc
 50
126.8698976458447
 51
179.9999999999967
  0
LINE
  5
BBB
330
1E
100
AcDbEntity
  8
STEMPEL
100
AcDbLine
 10
131.1342762387047
 20
375.227325148166
 30
0.0
 11
131.1342762387045
 21
372.1699668389764
 31
0.0
  0
ARC
  5
BBC
330
1E
100
AcDbEntity
  8
STEMPEL
100
AcDbCircle
 10
130.1342762387045
 20
370.1699668389763
 30
0.0
 40
2.0
100
AcDbArc
 50
0.0
 51
53.13010235415789
  0
ARC
  5
BBD
330
1E
100
AcDbEntity
  8
STEMPEL
100
AcDbCircle
 10
130.1342762387045
 20
377.227325148166
 30
0.0
 40
2.0
100
AcDbArc
 50
306.8698976458447
 51
0.0
  0
ARC
  5
BBE
330
1E
100
AcDbEntity
  8
STEMPEL
100
AcDbCircle
 10
130.1342762387045
 20
370.1699668389763
 30
0.0
 40
0.5
100
AcDbArc
 50
0.0
 51
59.99999999999658
  0
ARC
  5
BBF
330
1E
100
AcDbEntity
  8
STEMPEL
100
AcDbCircle
 10
130.1342762387045
 20
377.227325148166
 30
0.0
 40
0.5
100
AcDbArc
 50
300.0000000000006
 51
0.0
  0
LINE
  5
BC0
330
1E
100
AcDbEntity
  8
STEMPEL
100
AcDbLine
 10
130.6342762387046
 20
377.227325148166
 30
0.0
 11
130.6342762387046
 21
391.8345897229006
 31
0.0
  0
LINE
  5
BC1
330
1E
100
AcDbEntity
  8
STEMPEL
100
AcDbLine
 10
129.6342762387046
 20
376.0726246097867
 30
0.0
 11
129.6342762387045
 21
371.3246673773556
 31
0.0
  0
LINE
  5
BC2
330
1E
100
AcDbEntity
  8
STEMPEL
100
AcDbLine
 10
130.3842762387046
 20
370.6029795408685
 30
0.0
 11
129.8842762387045
 21
370.8916546754634
 31
0.0
  0
LINE
  5
BC3
330
1E
100
AcDbEntity
  8
STEMPEL
100
AcDbLine
 10
130.3842762387046
 20
376.7943124462738
 30
0.0
 11
129.8842762387046
 21
376.5056373116789
 31
0.0
  0
CIRCLE
  5
BC4
330
1E
100
AcDbEntity
  8
STEMPEL
100
AcDbCircle
 10
320.1236486170567
 20
373.698645993571
 30
0.0
 40
18.39476277443199
  0
CIRCLE
  5
BC5
330
1E
100
AcDbEntity
  8
HILF
100
AcDbCircle
 10
320.1236486170567
 20
373.698645993571
 30
0.0
 40
21.02479450143539
  0
ARC
  5
BC6
330
1E
100
AcDbEntity
  8
HILF
100
AcDbCircle
 10
343.9111622428704
 20
415.3898224641593
 30
0.0
 40
18.07
100
AcDbArc
 50
202.0816007035468
 51
240.2924450668105
  0
ARC
  5
BC8
330
1E
100
AcDbEntity
  8
HILF
100
AcDbCircle
 10
296.336134991243
 20
415.3898224641593
 30
0.0
 40
18.07
100
AcDbArc
 50
299.7075549331895
 51
337.9183992964525
  0
ARC
  5
BC9
330
1E
100
AcDbEntity
  8
HILF
100
AcDbCircle
 10
320.1236486170566
 20
373.698645993571
 30
0.0
 40
29.93
100
AcDbArc
 50
119.7075549331895
 51
240.2924450668105
  0
ARC
  5
BCA
330
1E
100
AcDbEntity
  8
HILF
100
AcDbCircle
 10
296.336134991243
 20
332.0074695229827
 30
0.0
 40
18.07
100
AcDbArc
 50
22.0816007035475
 51
60.29244506681048
  0
ARC
  5
BCC
330
1E
100
AcDbEntity
  8
HILF
100
AcDbCircle
 10
343.9111622428703
 20
332.0074695229827
 30
0.0
 40
18.07
100
AcDbArc
 50
119.7075549331895
 51
157.9183992964517
  0
ARC
  5
BCD
330
1E
100
AcDbEntity
  8
HILF
100
AcDbCircle
 10
320.1236486170567
 20
373.698645993571
 30
0.0
 40
29.93
100
AcDbArc
 50
299.7075549331924
 51
60.29244506680765
  0
LINE
  5
BCF
330
1E
100
AcDbEntity
  8
STEMPEL
100
AcDbLine
 10
324.9146311531613
 20
371.948775288571
 30
0.0
 11
325.1588502363961
 21
371.948775288571
 31
0.0
  0
ARC
  5
BD0
330
1E
100
AcDbEntity
  8
STEMPEL
100
AcDbCircle
 10
324.9146311531614
 20
372.368012733571
 30
0.0
 40
0.4192374449999999
100
AcDbArc
 50
199.9999999999995
 51
270.0
  0
ARC
  5
BD1
330
1E
100
AcDbEntity
  8
STEMPEL
100
AcDbCircle
 10
324.9146311531614
 20
372.368012733571
 30
0.0
 40
1.909370759999999
100
AcDbArc
 50
199.9999999999995
 51
270.0
  0
LINE
  5
BD2
330
1E
100
AcDbEntity
  8
STEMPEL
100
AcDbLine
 10
324.9146311531613
 20
370.4586419735711
 30
0.0
 11
327.885675967057
 21
370.4586419735711
 31
0.0
  0
CIRCLE
  5
BD3
330
1E
100
AcDbEntity
  8
STEMPEL
100
AcDbCircle
 10
327.8856759670571
 20
373.698645993571
 30
0.0
 40
1.749870704999999
  0
LINE
  5
BD4
330
1E
100
AcDbEntity
  8
STEMPEL
100
AcDbLine
 10
324.5206768197376
 20
372.2246250825448
 30
0.0
 11
323.8647230610331
 21
374.0268432227916
 31
0.0
  0
ARC
  5
BD5
330
1E
100
AcDbEntity
  8
STEMPEL
100
AcDbCircle
 10
327.8856759670571
 20
373.698645993571
 30
0.0
 40
3.240004019999999
100
AcDbArc
 50
270.0
 51
212.689281080767
  0
LINE
  5
BD6
330
1E
100
AcDbEntity
  8
STEMPEL
100
AcDbLine
 10
319.2122528020569
 20
370.4586419735711
 30
0.0
 11
320.7023861170569
 21
370.4586419735711
 31
0.0
  0
LINE
  5
BD7
330
1E
100
AcDbEntity
  8
STEMPEL
100
AcDbLine
 10
319.2122528020569
 20
370.4586419735711
 30
0.0
 11
319.2122528020569
 21
372.402885284495
 31
0.0
  0
ARC
  5
BD8
330
1E
100
AcDbEntity
  8
STEMPEL
100
AcDbCircle
 10
316.242634942057
 20
373.698645993571
 30
0.0
 40
3.240004019999999
100
AcDbArc
 50
270.0
 51
336.4264695056771
  0
LINE
  5
BD9
330
1E
100
AcDbEntity
  8
STEMPEL
100
AcDbLine
 10
320.7023861170569
 20
374.8318140185711
 30
0.0
 11
322.452256822057
 21
374.8318140185711
 31
0.0
  0
LINE
  5
BDA
330
1E
100
AcDbEntity
  8
STEMPEL
100
AcDbLine
 10
320.7023861170569
 20
374.8318140185711
 30
0.0
 11
320.702386117057
 21
375.4485166985712
 31
0.0
  0
LINE
  5
BDB
330
1E
100
AcDbEntity
  8
STEMPEL
100
AcDbLine
 10
320.702386117057
 20
375.4485166985712
 30
0.0
 11
322.452256822057
 21
375.4485166985711
 31
0.0
  0
LINE
  5
BDC
330
1E
100
AcDbEntity
  8
STEMPEL
100
AcDbLine
 10
320.7023861170569
 20
373.3416807035711
 30
0.0
 11
322.2347818525266
 21
373.3416807035711
 31
0.0
  0
LINE
  5
BDD
330
1E
100
AcDbEntity
  8
STEMPEL
100
AcDbLine
 10
319.212252802057
 20
376.9386500135711
 30
0.0
 11
322.452256822057
 21
376.9386500135711
 31
0.0
  0
LINE
  5
BDE
330
1E
100
AcDbEntity
  8
STEMPEL
100
AcDbLine
 10
319.2122528020569
 20
374.9944067026472
 30
0.0
 11
319.212252802057
 21
376.9386500135711
 31
0.0
  0
LINE
  5
BDF
330
1E
100
AcDbEntity
  8
STEMPEL
100
AcDbLine
 10
320.7023861170569
 20
370.4586419735711
 30
0.0
 11
320.7023861170569
 21
373.3416807035711
 31
0.0
  0
ARC
  5
BE0
330
1E
100
AcDbEntity
  8
STEMPEL
100
AcDbCircle
 10
322.2347818525267
 20
372.922443258571
 30
0.0
 40
0.4192374449999999
100
AcDbArc
 50
19.99999999999952
 51
89.99999999999998
  0
ARC
  5
BE1
330
1E
100
AcDbEntity
  8
STEMPEL
100
AcDbCircle
 10
310.809215797057
 20
372.146240523571
 30
0.0
 40
0.1974652349999999
100
AcDbArc
 50
180.0
 51
270.0
  0
ARC
  5
BE2
330
1E
100
AcDbEntity
  8
STEMPEL
100
AcDbCircle
 10
310.809215797057
 20
372.146240523571
 30
0.0
 40
1.68759855
100
AcDbArc
 50
180.0
 51
270.0
  0
LINE
  5
BE3
330
1E
100
AcDbEntity
  8
STEMPEL
100
AcDbLine
 10
310.809215797057
 20
371.9487752885711
 30
0.0
 11
313.5158092113942
 21
371.9487752885711
 31
0.0
  0
LINE
  5
BE4
330
1E
100
AcDbEntity
  8
STEMPEL
100
AcDbLine
 10
309.1216172470569
 20
376.9386500135711
 30
0.0
 11
310.611750562057
 21
376.9386500135711
 31
0.0
  0
LINE
  5
BE5
330
1E
100
AcDbEntity
  8
STEMPEL
100
AcDbLine
 10
309.1216172470569
 20
376.9386500135711
 30
0.0
 11
309.1216172470569
 21
372.1462405235711
 31
0.0
  0
LINE
  5
BE6
330
1E
100
AcDbEntity
  8
STEMPEL
100
AcDbLine
 10
310.611750562057
 20
376.9386500135711
 30
0.0
 11
310.611750562057
 21
372.1462405235711
 31
0.0
  0
ARC
  5
BE7
330
1E
100
AcDbEntity
  8
STEMPEL
100
AcDbCircle
 10
316.242634942057
 20
373.698645993571
 30
0.0
 40
3.240004019999999
100
AcDbArc
 50
23.57353049432721
 51
212.689281080748
  0
LINE
  5
BE8
330
1E
100
AcDbEntity
  8
STEMPEL
100
AcDbLine
 10
310.809215797057
 20
370.4586419735711
 30
0.0
 11
316.242634942057
 21
370.4586419735711
 31
0.0
  0
CIRCLE
  5
BE9
330
1E
100
AcDbEntity
  8
STEMPEL
100
AcDbCircle
 10
316.241858129201
 20
373.7006700222441
 30
0.0
 40
1.749870704999999
  0
ARC
  5
BEA
330
1E
100
AcDbEntity
  8
STEMPEL
100
AcDbCircle
 10
322.452256822057
 20
375.140165358571
 30
0.0
 40
0.3083513399999937
100
AcDbArc
 50
270.0
 51
89.99999999999998
  0
LINE
  5
BEB
330
1E
100
AcDbEntity
  8
STEMPEL
100
AcDbLine
 10
323.1204095396449
 20
371.7149694725741
 30
0.0
 11
322.6287361859503
 21
373.0658309095974
 31
0.0
  0
ARC
  5
BEC
330
1E
100
AcDbEntity
  8
STEMPEL
100
AcDbCircle
 10
322.452256822057
 20
375.140165358571
 30
0.0
 40
1.798484654999993
100
AcDbArc
 50
321.7544148360567
 51
89.99999999999998
  0
ARC
  5
BED
330
1E
100
AcDbEntity
  8
STEMPEL
100
AcDbCircle
 10
131.6342762387045
 20
352.0268038793795
 30
0.0
 40
2.5
100
AcDbArc
 50
149.9999999999994
 51
180.0
  0
LINE
  5
BEE
330
1E
100
AcDbEntity
  8
STEMPEL
100
AcDbLine
 10
129.4692127292434
 20
353.2768038793794
 30
0.0
 11
130.500301642489
 21
355.0627022642417
 31
0.0
  0
LINE
  5
BEF
102
{ACAD_REACTORS
330
C31
102
}
330
1E
100
AcDbEntity
  8
STEMPEL
100
AcDbLine
 10
130.7682508349201
 20
352.5268038793794
 30
0.0
 11
131.7993397481656
 21
354.3127022642415
 31
0.0
  0
ARC
  5
BF0
330
1E
100
AcDbEntity
  8
STEMPEL
100
AcDbCircle
 10
129.6342762387045
 20
355.5627022642416
 30
0.0
 40
2.5
100
AcDbArc
 50
329.9999999999994
 51
0.0
  0
ARC
  5
BF1
102
{ACAD_REACTORS
330
C31
102
}
330
1E
100
AcDbEntity
  8
STEMPEL
100
AcDbCircle
 10
131.6342762387045
 20
352.0268038793795
 30
0.0
 40
1.0
100
AcDbArc
 50
149.9999999999994
 51
180.0
  0
ARC
  5
BF2
330
1E
100
AcDbEntity
  8
STEMPEL
100
AcDbCircle
 10
129.6342762387045
 20
355.5627022642416
 30
0.0
 40
1.0
100
AcDbArc
 50
329.9999999999994
 51
0.0
  0
ARC
  5
BF3
330
1E
100
AcDbEntity
  8
STEMPEL
100
AcDbCircle
 10
129.6342762387045
 20
391.8345897229006
 30
0.0
 40
1.0
100
AcDbArc
 50
0.0
 51
30.00000000000053
  0
ARC
  5
BF4
102
{ACAD_REACTORS
330
C31
102
}
330
1E
100
AcDbEntity
  8
STEMPEL
100
AcDbCircle
 10
131.6342762387045
 20
395.3704881077628
 30
0.0
 40
1.0
100
AcDbArc
 50
180.0
 51
210.0000000000005
  0
LINE
  5
BF5
330
1E
100
AcDbEntity
  8
STEMPEL
100
AcDbLine
 10
131.2628855623506
 20
414.1573746867016
 30
0.0
 11
134.1342762387048
 21
415.3059309572432
 31
0.0
  0
ARC
  5
BF6
330
1E
100
AcDbEntity
  8
STEMPEL
100
AcDbCircle
 10
131.6342762387047
 20
413.2288979958162
 30
0.0
 40
2.5
100
AcDbArc
 50
111.8014094863494
 51
180.0
  0
LINE
  5
BF7
330
1E
100
AcDbEntity
  8
STEMPEL
100
AcDbLine
 10
130.7057995478195
 20
415.5500897230295
 30
0.0
 11
133.5771902241737
 21
416.6986459935711
 31
0.0
  0
LINE
  5
BF8
330
1E
100
AcDbEntity
  8
STEMPEL
100
AcDbLine
 10
134.1342762387048
 20
415.3059309572432
 30
0.0
 11
133.5771902241736
 21
416.6986459935711
 31
0.0
  0
ARC
  5
BF9
330
1E
100
AcDbEntity
  8
STEMPEL
100
AcDbCircle
 10
131.6342762387047
 20
413.2288979958162
 30
0.0
 40
1.0
100
AcDbArc
 50
111.8014094863494
 51
180.0
  0
ARC
  5
BFA
330
1E
100
AcDbEntity
  8
STEMPEL
100
AcDbCircle
 10
131.6342762387045
 20
334.1683939913259
 30
0.0
 40
1.0
100
AcDbArc
 50
180.0
 51
248.1985905136506
  0
LINE
  5
BFB
330
1E
100
AcDbEntity
  8
STEMPEL
100
AcDbLine
 10
134.1342762387045
 20
332.0913610298989
 30
0.0
 11
133.5771902241734
 21
330.6986459935711
 31
0.0
  0
LINE
  5
BFE
330
1E
100
AcDbEntity
  8
MITTEL
100
AcDbLine
 10
283.1236486170566
 20
373.6986459935711
 30
0.0
 11
357.1236486170566
 21
373.6986459935711
 31
0.0
  0
LINE
  5
BFF
330
1E
100
AcDbEntity
  8
MITTEL
100
AcDbLine
 10
308.0236486170566
 20
339.698645993571
 30
0.0
 11
332.2236486170567
 21
339.6986459935708
 31
0.0
  0
LINE
  5
C03
330
1E
100
AcDbEntity
  8
STEMPEL
100
AcDbLine
 10
129.1342762387046
 20
336.448645993571
 30
0.0
 11
130.6342762387046
 21
336.448645993571
 31
0.0
  0
LINE
  5
C04
330
1E
100
AcDbEntity
  8
STEMPEL
100
AcDbLine
 10
129.1342762387046
 20
342.948645993571
 30
0.0
 11
130.6342762387046
 21
342.948645993571
 31
0.0
  0
LINE
  5
C05
330
1E
100
AcDbEntity
  8
MITTEL
100
AcDbLine
 10
308.0236486170566
 20
407.6986459935709
 30
0.0
 11
332.2236486170567
 21
407.698645993571
 31
0.0
  0
LINE
  5
C06
330
1E
100
AcDbEntity
  8
STEMPEL
100
AcDbLine
 10
134.1342762387045
 20
332.0913610298988
 30
0.0
 11
134.1342762387045
 21
336.6986459935712
 31
0.0
  0
LINE
  5
C07
330
1E
100
AcDbEntity
  8
STEMPEL
100
AcDbLine
 10
130.7057995478192
 20
331.8472022641127
 30
0.0
 11
133.5771902241734
 21
330.6986459935711
 31
0.0
  0
ARC
  5
C08
330
1E
100
AcDbEntity
  8
STEMPEL
100
AcDbCircle
 10
131.6342762387045
 20
334.1683939913259
 30
0.0
 40
2.5
100
AcDbArc
 50
180.0
 51
248.1985905136506
  0
LINE
  5
C09
330
1E
100
AcDbEntity
  8
STEMPEL
100
AcDbLine
 10
130.6342762387045
 20
334.1683939913259
 30
0.0
 11
130.6342762387045
 21
336.6986459935713
 31
0.0
  0
LINE
  5
C0A
330
1E
100
AcDbEntity
  8
STEMPEL
100
AcDbLine
 10
130.6342762387046
 20
355.5627022642416
 30
0.0
 11
130.6342762387046
 21
370.1699668389763
 31
0.0
  0
LINE
  5
C0B
330
1E
100
AcDbEntity
  8
STEMPEL
100
AcDbLine
 10
131.2628855623504
 20
333.2399173004406
 30
0.0
 11
134.1342762387045
 21
332.0913610298989
 31
0.0
  0
LINE
  5
C0C
330
1E
100
AcDbEntity
  8
STEMPEL
100
AcDbLine
 10
132.1342762387046
 20
355.5627022642416
 30
0.0
 11
132.1342762387047
 21
391.8345897229006
 31
0.0
  0
LINE
  5
C0D
330
1E
100
AcDbEntity
  8
STEMPEL
100
AcDbLine
 10
129.1342762387045
 20
334.1683939913259
 30
0.0
 11
129.1342762387046
 21
413.2288979958162
 31
0.0
  0
LINE
  5
C0E
330
1E
100
AcDbEntity
  8
STEMPEL
100
AcDbLine
 10
130.6342762387046
 20
413.2288979958162
 30
0.0
 11
130.6342762387046
 21
410.698645993571
 31
0.0
  0
LINE
  5
C0F
330
1E
100
AcDbEntity
  8
STEMPEL
100
AcDbLine
 10
129.1342762387046
 20
410.9486459935712
 30
0.0
 11
130.6342762387046
 21
410.9486459935712
 31
0.0
  0
LINE
  5
C10
330
1E
100
AcDbEntity
  8
STEMPEL
100
AcDbLine
 10
129.1342762387046
 20
404.4486459935712
 30
0.0
 11
130.6342762387046
 21
404.4486459935712
 31
0.0
  0
ARC
  5
C11
330
1E
100
AcDbEntity
  8
STEMPEL
100
AcDbCircle
 10
129.6342762387045
 20
391.8345897229006
 30
0.0
 40
2.5
100
AcDbArc
 50
0.0
 51
30.00000000000053
  0
LINE
  5
C12
102
{ACAD_REACTORS
330
C31
102
}
330
1E
100
AcDbEntity
  8
STEMPEL
100
AcDbLine
 10
130.7682508349202
 20
394.8704881077627
 30
0.0
 11
131.7993397481657
 21
393.0845897229007
 31
0.0
  0
LINE
  5
C13
330
1E
100
AcDbEntity
  8
STEMPEL
100
AcDbLine
 10
129.4692127292435
 20
394.1204881077628
 30
0.0
 11
130.500301642489
 21
392.3345897229005
 31
0.0
  0
ARC
  5
C14
330
1E
100
AcDbEntity
  8
STEMPEL
100
AcDbCircle
 10
131.6342762387045
 20
395.3704881077628
 30
0.0
 40
2.5
100
AcDbArc
 50
180.0
 51
210.0000000000005
  0
ARC
  5
C16
330
1E
100
AcDbEntity
  8
STEMPEL
100
AcDbCircle
 10
320.1236486170567
 20
373.698645993571
 30
0.0
 40
32.0
100
AcDbArc
 50
299.7075549331924
 51
60.29244506680765
  0
ARC
  5
C17
330
1E
100
AcDbEntity
  8
STEMPEL
100
AcDbCircle
 10
343.9111622428704
 20
415.3898224641593
 30
0.0
 40
16.0
100
AcDbArc
 50
197.9174884019676
 51
240.2924450668105
  0
ARC
  5
C18
330
1E
100
AcDbEntity
  8
STEMPEL
100
AcDbCircle
 10
343.9111622428703
 20
332.0074695229827
 30
0.0
 40
16.0
100
AcDbArc
 50
119.7075549331895
 51
162.0825115980323
  0
ARC
  5
C19
330
1E
100
AcDbEntity
  8
STEMPEL
100
AcDbCircle
 10
320.1236486170566
 20
373.698645993571
 30
0.0
 40
32.0
100
AcDbArc
 50
119.7075549331895
 51
240.2924450668105
  0
ARC
  5
C1A
330
1E
100
AcDbEntity
  8
STEMPEL
100
AcDbCircle
 10
296.336134991243
 20
415.3898224641593
 30
0.0
 40
16.0
100
AcDbArc
 50
299.7075549331895
 51
342.0825115980323
  0
ARC
  5
C1B
330
1E
100
AcDbEntity
  8
STEMPEL
100
AcDbCircle
 10
320.1236486170566
 20
407.6986459935709
 30
0.0
 40
9.0
100
AcDbArc
 50
17.91748840197076
 51
162.0825115980323
  0
ARC
  5
C1C
330
1E
100
AcDbEntity
  8
STEMPEL
100
AcDbCircle
 10
296.336134991243
 20
332.0074695229827
 30
0.0
 40
16.0
100
AcDbArc
 50
17.91748840196764
 51
60.29244506681048
  0
ARC
  5
C1D
330
1E
100
AcDbEntity
  8
STEMPEL
100
AcDbCircle
 10
320.1236486170566
 20
339.698645993571
 30
0.0
 40
9.0
100
AcDbArc
 50
197.9174884019676
 51
342.0825115980292
  0
LINE
  5
C1F
102
{ACAD_REACTORS
330
C31
102
}
330
1E
100
AcDbEntity
  8
STEMPEL
100
AcDbLine
 10
130.6342762387046
 20
404.698645993571
 30
0.0
 11
130.6342762387046
 21
395.3704881077628
 31
0.0
  0
LINE
  5
C20
330
1E
100
AcDbEntity
  8
STEMPEL
100
AcDbLine
 10
134.1342762387046
 20
410.6986459935711
 30
0.0
 11
134.1342762387046
 21
415.3059309572436
 31
0.0
  0
LINE
  5
C21
330
1E
100
AcDbEntity
  8
STEMPEL
100
AcDbLine
 10
134.1342762387045
 20
400.1986459935711
 30
0.0
 11
134.1342762387046
 21
404.6986459935711
 31
0.0
  0
LINE
  5
C22
330
1E
100
AcDbEntity
  8
STEMPEL
100
AcDbLine
 10
130.6342762387046
 20
352.0268038793795
 30
0.0
 11
130.6342762387046
 21
347.1986459935706
 31
0.0
  0
LINE
  5
C23
102
{ACAD_REACTORS
330
C31
102
}
330
1E
100
AcDbEntity
  8
STEMPEL
100
AcDbLine
 10
130.6342762387045
 20
342.6986459935713
 30
0.0
 11
130.6342762387046
 21
352.0268038793795
 31
0.0
  0
LINE
  5
C24
330
1E
100
AcDbEntity
  8
STEMPEL
100
AcDbLine
 10
134.1342762387045
 20
342.6986459935713
 30
0.0
 11
134.1342762387045
 21
347.198645993571
 31
0.0
  0
HATCH
  5
C31
330
1E
100
AcDbEntity
  8
SCHRAFF
100
AcDbHatch
 10
0.0
 20
0.0
 30
0.0
210
0.0
220
0.0
230
1.0
  2
NET
 70
     0
 71
     1
 91
        2
 92
        7
 72
     1
 73
     1
 93
        6
 10
130.6342762387046
 20
400.1986459935711
 42
0.0
 10
130.6342762387046
 20
395.3704881077628
 42
0.1316524975874455
 10
130.7682508349202
 20
394.8704881077627
 42
0.0
 10
130.8674639258068
 20
394.6986459935711
 42
0.0
 10
135.6342762387046
 20
394.6986459935712
 42
0.0
 10
135.6342762387046
 20
400.198645993571
 42
0.0
 97
        6
330
B01
330
C1F
330
BF4
330
C12
330
B3F
330
B02
 92
        7
 72
     1
 73
     1
 93
        6
 10
130.6342762387045
 20
347.1986459935706
 42
0.0
 10
135.6342762387046
 20
347.1986459935712
 42
0.0
 10
135.6342762387046
 20
352.6986459935712
 42
0.0
 10
130.8674639258069
 20
352.6986459935712
 42
0.0
 10
130.7682508349201
 20
352.5268038793794
 42
0.1316524975873963
 10
130.6342762387046
 20
352.0268038793795
 42
0.0
 97
        6
330
B40
330
BEF
330
BF1
330
C23
330
B00
330
B02
 75
     0
 76
     1
 52
45.0
 41
10.0
 77
     0
 78
     2
 53
45.0
 43
0.0
 44
0.0
 45
-0.8838834764831842
 46
0.8838834764831844
 79
     0
 53
135.0
 43
0.0
 44
0.0
 45
-0.8838834764831844
 46
-0.8838834764831842
 79
     0
 47
0.202726065624422
 98
        2
 10
133.1963811358646
 20
398.6953947599043
 10
132.1821375780359
 20
349.2302346457252
  0
LINE
  5
C7C
330
1E
100
AcDbEntity
  8
MITTEL
100
AcDbLine
 10
139.1342762387046
 20
339.6986459935714
 30
0.0
 11
118.1342762387044
 21
339.6986459935714
 31
0.0
  0
LINE
  5
C7E
330
1E
100
AcDbEntity
  8
STEMPEL
100
AcDbLine
 10
293.6236486170567
 20
355.7612548789188
 30
0.0
 11
293.6236486170567
 21
283.6986459935705
 31
0.0
  0
LINE
  5
C7F
330
1E
100
AcDbEntity
  8
STEMPEL
100
AcDbLine
 10
346.6236486170567
 20
355.7612548789189
 30
0.0
 11
346.6236486170567
 21
283.6986459935714
 31
0.0
  0
DIMENSION
  5
C96
330
1E
100
AcDbEntity
  8
BEM
100
AcDbDimension
  2
*D1
 10
211.5165146625777
 20
278.6986459935712
 30
0.0
 11
205.0165146625777
 21
372.6986459935712
 31
0.0
 70
    32
 71
     5
 42
187.9999999999999
  3
Standard
100
AcDbAlignedDimension
 13
195.2406293886413
 23
466.698645993571
 33
0.0
 14
191.696832921075
 24
278.6986459935712
 34
0.0
 50
90.0
100
AcDbRotatedDimension
1001
ACAD
1000
DSTYLE
1002
{
1070
    40
1040
2.0
1070
    41
1040
3.5
1070
    42
1040
1.0
1070
    43
1040
7.0
1070
    44
1040
1.0
1070
    73
1070
     0
1070
    74
1070
     0
1070
    77
1070
     1
1070
    78
1070
     8
1070
    79
1070
     2
1070
   140
1040
3.5
1070
   141
1040
1.5
1070
   146
1040
0.5142857142857144
1070
   147
1040
1.5
1070
   172
1070
     1
1070
   178
1070
     1
1070
   179
1070
     2
1070
   271
1070
     2
1070
   272
1070
     2
1070
   284
1070
     8
1070
   285
1070
     8
1070
   286
1070
     8
1002
}
  0
DIMENSION
  5
CA3
330
1E
100
AcDbEntity
  8
BEM
100
AcDbDimension
  2
*D2
 10
372.6675853119764
 20
278.6986459935711
 30
0.0
 11
366.1675853119763
 21
326.1986459935712
 31
0.0
 70
    32
 71
     5
 42
94.99999999999994
  3
Standard
100
AcDbAlignedDimension
 13
357.1236486170566
 23
373.6986459935711
 33
0.0
 14
346.1862052994271
 24
278.6986459935711
 34
0.0
 50
90.0
100
AcDbRotatedDimension
1001
ACAD
1000
DSTYLE
1002
{
1070
    40
1040
2.0
1070
    41
1040
3.5
1070
    42
1040
1.0
1070
    43
1040
7.0
1070
    44
1040
1.0
1070
    73
1070
     0
1070
    74
1070
     0
1070
    77
1070
     1
1070
    78
1070
     8
1070
    79
1070
     2
1070
   140
1040
3.5
1070
   141
1040
1.5
1070
   146
1040
0.5142857142857144
1070
   147
1040
1.5
1070
   172
1070
     1
1070
   178
1070
     1
1070
   179
1070
     2
1070
   271
1070
     2
1070
   272
1070
     2
1070
   284
1070
     8
1070
   285
1070
     8
1070
   286
1070
     8
1002
}
  0
DIMENSION
  5
CB0
330
1E
100
AcDbEntity
  8
BEM
100
AcDbDimension
  2
*D3
 10
346.6236486170567
 20
259.1528564105115
 30
0.0
 11
320.1236486170567
 21
265.6528564105115
 31
0.0
 70
    32
  1
%%c<>
 71
     5
 42
53.0
  3
Standard
100
AcDbAlignedDimension
 13
293.6236486170567
 23
283.6986459935705
 33
0.0
 14
346.6236486170567
 24
283.6986459935714
 34
0.0
100
AcDbRotatedDimension
1001
ACAD
1000
DSTYLE
1002
{
1070
    40
1040
2.0
1070
    41
1040
3.5
1070
    42
1040
1.0
1070
    43
1040
7.0
1070
    44
1040
1.0
1070
    73
1070
     0
1070
    74
1070
     0
1070
    77
1070
     1
1070
    78
1070
     8
1070
    79
1070
     2
1070
   140
1040
3.5
1070
   141
1040
1.5
1070
   146
1040
0.5142857142857144
1070
   147
1040
1.5
1070
   172
1070
     1
1070
   178
1070
     1
1070
   179
1070
     2
1070
   271
1070
     2
1070
   272
1070
     2
1070
   284
1070
     8
1070
   285
1070
     8
1070
   286
1070
     8
1002
}
  0
LINE
  5
CFD
330
1E
100
AcDbEntity
  8
STEMPEL
100
AcDbLine
 10
325.1236486170566
 20
404.8118946476228
 30
0.0
 11
320.1236486170566
 21
401.9251433016747
 31
0.0
  0
LINE
  5
CFE
330
1E
100
AcDbEntity
  8
STEMPEL
100
AcDbLine
 10
325.1236486170566
 20
410.5853973395191
 30
0.0
 11
325.1236486170566
 21
404.8118946476228
 31
0.0
  0
CIRCLE
  5
CFF
330
1E
100
AcDbEntity
  8
STEMPEL
100
AcDbCircle
 10
320.1236486170566
 20
407.6986459935709
 30
0.0
 40
7.099999999999999
  0
CIRCLE
  5
D00
330
1E
100
AcDbEntity
  8
HILF
100
AcDbCircle
 10
320.1236486170566
 20
407.6986459935709
 30
0.0
 40
6.738111078829117
  0
CIRCLE
  5
D01
330
1E
100
AcDbEntity
  8
STEMPEL
100
AcDbCircle
 10
320.1236486170566
 20
407.6986459935709
 30
0.0
 40
3.0
  0
ARC
  5
D02
330
1E
100
AcDbEntity
  8
HILF
100
AcDbCircle
 10
320.1236486170566
 20
407.6986459935709
 30
0.0
 40
2.0
100
AcDbArc
 50
74.99999999999926
 51
15.00000000000074
  0
CIRCLE
  5
D03
330
1E
100
AcDbEntity
  8
STEMPEL
100
AcDbCircle
 10
320.1236486170566
 20
407.6986459935709
 30
0.0
 40
5.000000000000018
  0
LINE
  5
D04
330
1E
100
AcDbEntity
  8
STEMPEL
100
AcDbLine
 10
320.1236486170566
 20
413.4721486854672
 30
0.0
 11
325.1236486170566
 21
410.5853973395191
 31
0.0
  0
LINE
  5
D05
330
1E
100
AcDbEntity
  8
STEMPEL
100
AcDbLine
 10
315.1236486170566
 20
404.8118946476228
 30
0.0
 11
315.1236486170566
 21
410.5853973395191
 31
0.0
  0
LINE
  5
D06
330
1E
100
AcDbEntity
  8
STEMPEL
100
AcDbLine
 10
315.1236486170566
 20
410.5853973395191
 30
0.0
 11
320.1236486170566
 21
413.4721486854672
 31
0.0
  0
LINE
  5
D07
330
1E
100
AcDbEntity
  8
STEMPEL
100
AcDbLine
 10
320.1236486170566
 20
401.9251433016747
 30
0.0
 11
315.1236486170566
 21
404.8118946476228
 31
0.0
  0
LINE
  5
D18
330
1E
100
AcDbEntity
  8
STEMPEL
100
AcDbLine
 10
325.1236486170566
 20
336.8118946476228
 30
0.0
 11
320.1236486170566
 21
333.9251433016747
 31
0.0
  0
LINE
  5
D19
330
1E
100
AcDbEntity
  8
STEMPEL
100
AcDbLine
 10
325.1236486170566
 20
342.5853973395191
 30
0.0
 11
325.1236486170566
 21
336.8118946476228
 31
0.0
  0
CIRCLE
  5
D1A
330
1E
100
AcDbEntity
  8
STEMPEL
100
AcDbCircle
 10
320.1236486170566
 20
339.698645993571
 30
0.0
 40
7.099999999999999
  0
CIRCLE
  5
D1B
330
1E
100
AcDbEntity
  8
HILF
100
AcDbCircle
 10
320.1236486170566
 20
339.698645993571
 30
0.0
 40
6.738111078829117
  0
CIRCLE
  5
D1C
330
1E
100
AcDbEntity
  8
STEMPEL
100
AcDbCircle
 10
320.1236486170566
 20
339.698645993571
 30
0.0
 40
3.0
  0
ARC
  5
D1D
330
1E
100
AcDbEntity
  8
HILF
100
AcDbCircle
 10
320.1236486170566
 20
339.698645993571
 30
0.0
 40
2.0
100
AcDbArc
 50
74.99999999999926
 51
15.00000000000074
  0
CIRCLE
  5
D1E
330
1E
100
AcDbEntity
  8
STEMPEL
100
AcDbCircle
 10
320.1236486170566
 20
339.698645993571
 30
0.0
 40
5.000000000000018
  0
LINE
  5
D1F
330
1E
100
AcDbEntity
  8
STEMPEL
100
AcDbLine
 10
320.1236486170566
 20
345.4721486854672
 30
0.0
 11
325.1236486170566
 21
342.5853973395191
 31
0.0
  0
LINE
  5
D20
330
1E
100
AcDbEntity
  8
STEMPEL
100
AcDbLine
 10
315.1236486170566
 20
336.8118946476228
 30
0.0
 11
315.1236486170566
 21
342.5853973395191
 31
0.0
  0
LINE
  5
D21
330
1E
100
AcDbEntity
  8
STEMPEL
100
AcDbLine
 10
315.1236486170566
 20
342.5853973395191
 30
0.0
 11
320.1236486170566
 21
345.4721486854672
 31
0.0
  0
LINE
  5
D22
330
1E
100
AcDbEntity
  8
STEMPEL
100
AcDbLine
 10
320.1236486170566
 20
333.9251433016747
 30
0.0
 11
315.1236486170566
 21
336.8118946476228
 31
0.0
  0
ARC
  5
D3D
330
1E
100
AcDbEntity
  8
STEMPEL
100
AcDbCircle
 10
142.3755682659307
 20
339.6986459935714
 30
0.0
 40
14.94074366520043
100
AcDbArc
 50
168.8596278388943
 51
191.1403721611056
  0
ARC
  5
D3E
330
1E
100
AcDbEntity
  8
STEMPEL
100
AcDbCircle
 10
143.3415356603418
 20
339.6986459935714
 30
0.0
 40
20.20725942163726
100
AcDbArc
 50
171.7867892982603
 51
188.2132107017396
  0
ARC
  5
D3F
330
1E
100
AcDbEntity
  8
STEMPEL
100
AcDbCircle
 10
131.2755850005209
 20
335.3685189746492
 30
0.0
 40
3.840760399790696
100
AcDbArc
 50
157.9259452632388
 51
202.0740547367612
  0
ARC
  5
D40
330
1E
100
AcDbEntity
  8
STEMPEL
100
AcDbCircle
 10
128.2638133772277
 20
335.3685189746492
 30
0.0
 40
5.129537138523185
100
AcDbArc
 50
163.6571066940139
 51
196.3428933059861
  0
ARC
  5
D41
330
1E
100
AcDbEntity
  8
STEMPEL
100
AcDbCircle
 10
131.2755850005209
 20
344.0287730124936
 30
0.0
 40
3.840760399790696
100
AcDbArc
 50
157.9259452632388
 51
202.0740547367612
  0
ARC
  5
D42
330
1E
100
AcDbEntity
  8
STEMPEL
100
AcDbCircle
 10
128.2638133772277
 20
344.0287730124936
 30
0.0
 40
5.129537138523185
100
AcDbArc
 50
163.6571066940139
 51
196.3428933059861
  0
LINE
  5
D43
330
1E
100
AcDbEntity
  8
STEMPEL
  6
Continuous
100
AcDbLine
 10
123.1342762387045
 20
344.6986459935714
 30
0.0
 11
123.1342762387045
 21
334.6986459935714
 31
0.0
  0
LINE
  5
D44
330
1E
100
AcDbEntity
  8
STEMPEL
  6
Continuous
100
AcDbLine
 10
127.7163565567052
 20
345.4721486854677
 30
0.0
 11
123.3415356603414
 21
345.4721486854677
 31
0.0
  0
LINE
  5
D45
330
1E
100
AcDbEntity
  8
STEMPEL
  6
Continuous
100
AcDbLine
 10
127.7163565567052
 20
342.5853973395196
 30
0.0
 11
123.3415356603414
 21
342.5853973395196
 31
0.0
  0
LINE
  5
D46
330
1E
100
AcDbEntity
  8
STEMPEL
  6
Continuous
100
AcDbLine
 10
127.7163565567052
 20
336.8118946476233
 30
0.0
 11
123.3415356603414
 21
336.8118946476233
 31
0.0
  0
LINE
  5
D47
330
1E
100
AcDbEntity
  8
HILF
  6
Continuous
100
AcDbLine
 10
128.0674452972723
 20
346.4367570724005
 30
0.0
 11
128.0674452972723
 21
332.9605349147423
 31
0.0
  0
LINE
  5
D48
330
1E
100
AcDbEntity
  8
STEMPEL
  6
Continuous
100
AcDbLine
 10
129.1342762387045
 20
346.2486459935714
 30
0.0
 11
129.1342762387045
 21
333.1486459935714
 31
0.0
  0
LINE
  5
D49
330
1E
100
AcDbEntity
  8
STEMPEL
  6
Continuous
100
AcDbLine
 10
127.7163565567052
 20
333.9251433016751
 30
0.0
 11
123.3415356603414
 21
333.9251433016751
 31
0.0
  0
LINE
  5
D4A
330
1E
100
AcDbEntity
  8
STEMPEL
  6
Continuous
100
AcDbLine
 10
123.1342762387045
 20
334.6986459935714
 30
0.0
 11
123.3415356603414
 21
333.9251433016751
 31
0.0
  0
LINE
  5
D4B
330
1E
100
AcDbEntity
  8
STEMPEL
  6
Continuous
100
AcDbLine
 10
123.3415356603414
 20
345.4721486854677
 30
0.0
 11
123.1342762387045
 21
344.6986459935714
 31
0.0
  0
LINE
  5
D4C
330
1E
100
AcDbEntity
  8
STEMPEL
  6
Continuous
100
AcDbLine
 10
128.0674452972723
 20
346.4367570724005
 30
0.0
 11
127.7163565567052
 21
345.4721486854677
 31
0.0
  0
LINE
  5
D4D
330
1E
100
AcDbEntity
  8
STEMPEL
  6
Continuous
100
AcDbLine
 10
127.7163565567052
 20
333.9251433016751
 30
0.0
 11
128.0674452972723
 21
332.9605349147423
 31
0.0
  0
ARC
  5
D4E
330
1E
100
AcDbEntity
  8
STEMPEL
  6
Continuous
100
AcDbCircle
 10
128.5842762387045
 20
333.1486459935714
 30
0.0
 40
0.55
100
AcDbArc
 50
200.0000000000001
 51
0.0
  0
ARC
  5
D4F
330
1E
100
AcDbEntity
  8
STEMPEL
  6
Continuous
100
AcDbCircle
 10
128.5842762387045
 20
346.2486459935714
 30
0.0
 40
0.5500000000000006
100
AcDbArc
 50
0.0
 51
159.9999999999999
  0
ARC
  5
D68
330
1E
100
AcDbEntity
  8
STEMPEL
100
AcDbCircle
 10
142.3755682659307
 20
407.6986459935711
 30
0.0
 40
14.94074366520043
100
AcDbArc
 50
168.8596278388943
 51
191.1403721611056
  0
ARC
  5
D69
330
1E
100
AcDbEntity
  8
STEMPEL
100
AcDbCircle
 10
143.3415356603419
 20
407.6986459935711
 30
0.0
 40
20.20725942163726
100
AcDbArc
 50
171.7867892982603
 51
188.2132107017396
  0
ARC
  5
D6A
330
1E
100
AcDbEntity
  8
STEMPEL
100
AcDbCircle
 10
131.275585000521
 20
403.3685189746489
 30
0.0
 40
3.840760399790696
100
AcDbArc
 50
157.9259452632388
 51
202.0740547367612
  0
ARC
  5
D6B
330
1E
100
AcDbEntity
  8
STEMPEL
100
AcDbCircle
 10
128.2638133772278
 20
403.3685189746489
 30
0.0
 40
5.129537138523185
100
AcDbArc
 50
163.6571066940139
 51
196.3428933059861
  0
ARC
  5
D6C
330
1E
100
AcDbEntity
  8
STEMPEL
100
AcDbCircle
 10
131.275585000521
 20
412.0287730124933
 30
0.0
 40
3.840760399790696
100
AcDbArc
 50
157.9259452632388
 51
202.0740547367612
  0
ARC
  5
D6D
330
1E
100
AcDbEntity
  8
STEMPEL
100
AcDbCircle
 10
128.2638133772278
 20
412.0287730124933
 30
0.0
 40
5.129537138523185
100
AcDbArc
 50
163.6571066940139
 51
196.3428933059861
  0
LINE
  5
D6E
330
1E
100
AcDbEntity
  8
STEMPEL
  6
Continuous
100
AcDbLine
 10
123.1342762387046
 20
412.6986459935712
 30
0.0
 11
123.1342762387046
 21
402.698645993571
 31
0.0
  0
LINE
  5
D6F
330
1E
100
AcDbEntity
  8
STEMPEL
  6
Continuous
100
AcDbLine
 10
127.7163565567053
 20
413.4721486854673
 30
0.0
 11
123.3415356603415
 21
413.4721486854673
 31
0.0
  0
LINE
  5
D70
330
1E
100
AcDbEntity
  8
STEMPEL
  6
Continuous
100
AcDbLine
 10
127.7163565567053
 20
410.5853973395192
 30
0.0
 11
123.3415356603415
 21
410.5853973395192
 31
0.0
  0
LINE
  5
D71
330
1E
100
AcDbEntity
  8
STEMPEL
  6
Continuous
100
AcDbLine
 10
127.7163565567053
 20
404.8118946476229
 30
0.0
 11
123.3415356603415
 21
404.8118946476229
 31
0.0
  0
LINE
  5
D72
330
1E
100
AcDbEntity
  8
HILF
  6
Continuous
100
AcDbLine
 10
128.0674452972723
 20
414.4367570724003
 30
0.0
 11
128.0674452972723
 21
400.9605349147419
 31
0.0
  0
LINE
  5
D73
330
1E
100
AcDbEntity
  8
STEMPEL
  6
Continuous
100
AcDbLine
 10
129.1342762387046
 20
414.2486459935711
 30
0.0
 11
129.1342762387046
 21
401.1486459935711
 31
0.0
  0
LINE
  5
D74
330
1E
100
AcDbEntity
  8
STEMPEL
  6
Continuous
100
AcDbLine
 10
127.7163565567053
 20
401.9251433016749
 30
0.0
 11
123.3415356603415
 21
401.9251433016749
 31
0.0
  0
LINE
  5
D75
330
1E
100
AcDbEntity
  8
STEMPEL
  6
Continuous
100
AcDbLine
 10
123.1342762387046
 20
402.698645993571
 30
0.0
 11
123.3415356603415
 21
401.9251433016749
 31
0.0
  0
LINE
  5
D76
330
1E
100
AcDbEntity
  8
STEMPEL
  6
Continuous
100
AcDbLine
 10
123.3415356603415
 20
413.4721486854673
 30
0.0
 11
123.1342762387046
 21
412.6986459935712
 31
0.0
  0
LINE
  5
D77
330
1E
100
AcDbEntity
  8
STEMPEL
  6
Continuous
100
AcDbLine
 10
128.0674452972723
 20
414.4367570724003
 30
0.0
 11
127.7163565567053
 21
413.4721486854673
 31
0.0
  0
LINE
  5
D78
330
1E
100
AcDbEntity
  8
STEMPEL
  6
Continuous
100
AcDbLine
 10
127.7163565567052
 20
401.9251433016749
 30
0.0
 11
128.0674452972723
 21
400.9605349147419
 31
0.0
  0
ARC
  5
D79
330
1E
100
AcDbEntity
  8
STEMPEL
  6
Continuous
100
AcDbCircle
 10
128.5842762387046
 20
401.1486459935711
 30
0.0
 40
0.55
100
AcDbArc
 50
200.0000000000001
 51
0.0
  0
ARC
  5
D7A
330
1E
100
AcDbEntity
  8
STEMPEL
  6
Continuous
100
AcDbCircle
 10
128.5842762387046
 20
414.2486459935711
 30
0.0
 40
0.5500000000000006
100
AcDbArc
 50
0.0
 51
159.9999999999999
  0
TEXT
  5
D8C
330
1E
100
AcDbEntity
  8
TEXT
 62
     1
100
AcDbText
 10
199.06074680683
 20
131.7205266643982
 30
0.0
 40
7.0
  1
Werkstoff: Edelstahl
 41
0.8
  7
GREEKS
100
AcDbText
  0
ENDSEC
  0
SECTION
  2
OBJECTS
  0
DICTIONARY
  5
C
330
0
100
AcDbDictionary
281
     1
  3
ACAD_COLOR
350
11A
  3
ACAD_GROUP
350
D
  3
ACAD_LAYOUT
350
19
  3
ACAD_MATERIAL
350
119
  3
ACAD_MLINESTYLE
350
16
  3
ACAD_PLOTSETTINGS
350
18
  3
ACAD_PLOTSTYLENAME
350
E
  3
AcDbVariableDictionary
350
125
  0
DICTIONARY
  5
DB
330
1E
100
AcDbDictionary
280
     1
281
     1
  3
ACAD_LAYOUTSELFREF
360
10F
  0
DICTIONARY
  5
DD
330
1A
100
AcDbDictionary
280
     1
281
     1
  3
ACAD_LAYOUTSELFREF
360
10E
  0
DICTIONARY
  5
11A
102
{ACAD_REACTORS
330
C
102
}
330
C
100
AcDbDictionary
281
     1
  0
DICTIONARY
  5
D
102
{ACAD_REACTORS
330
C
102
}
330
C
100
AcDbDictionary
281
     1
  0
DICTIONARY
  5
19
102
{ACAD_REACTORS
330
C
102
}
330
C
100
AcDbDictionary
281
     1
  3
Layout1
350
1D
  3
Model
350
21
  0
DICTIONARY
  5
119
102
{ACAD_REACTORS
330
C
102
}
330
C
100
AcDbDictionary
281
     1
  0
DICTIONARY
  5
16
102
{ACAD_REACTORS
330
C
102
}
330
C
100
AcDbDictionary
281
     1
  3
Standard
350
17
  0
DICTIONARY
  5
18
102
{ACAD_REACTORS
330
C
102
}
330
C
100
AcDbDictionary
281
     1
  0
ACDBDICTIONARYWDFLT
  5
E
102
{ACAD_REACTORS
330
C
102
}
330
C
100
AcDbDictionary
281
     1
  3
Normal
350
F
100
AcDbDictionaryWithDefault
340
F
  0
DICTIONARY
  5
125
102
{ACAD_REACTORS
330
C
102
}
330
C
100
AcDbDictionary
281
     1
  3
DIMASSOC
350
126
  3
PROJECTNAME
350
127
  0
XRECORD
  5
10F
102
{ACAD_REACTORS
330
DB
102
}
330
DB
100
AcDbXrecord
280
     1
340
1E
  0
XRECORD
  5
10E
102
{ACAD_REACTORS
330
DD
102
}
330
DD
100
AcDbXrecord
280
     1
340
1A
  0
LAYOUT
  5
1D
102
{ACAD_REACTORS
330
19
102
}
330
19
100
AcDbPlotSettings
  1

  2
\\NT_WORK01\HP LaserJet 5000 PCL 6
  4

  6

 40
0.0
 41
0.0
 42
0.0
 43
0.0
 44
0.0
 45
0.0
 46
0.0
 47
0.0
 48
0.0
 49
0.0
140
0.0
141
0.0
142
1.0
143
1.0
 70
   688
 72
     0
 73
     0
 74
     5
  7

 75
    16
147
1.0
 76
     0
 77
     2
 78
   300
148
0.0
149
0.0
100
AcDbLayout
  1
Layout1
 70
     0
 71
     1
 10
0.0
 20
0.0
 11
12.0
 21
9.0
 12
0.0
 22
0.0
 32
0.0
 14
1.000000000000000E+20
 24
1.000000000000000E+20
 34
1.000000000000000E+20
 15
-1.000000000000000E+20
 25
-1.000000000000000E+20
 35
-1.000000000000000E+20
146
0.0
 13
0.0
 23
0.0
 33
0.0
 16
1.0
 26
0.0
 36
0.0
 17
0.0
 27
1.0
 37
0.0
 76
     0
330
1A
  0
LAYOUT
  5
21
102
{ACAD_REACTORS
330
19
102
}
330
19
100
AcDbPlotSettings
  1

  2
none_device
  4
Letter_(8.50_x_11.00_Inches)
  6

 40
6.349999904632568
 41
6.349999904632568
 42
6.350006103515625
 43
6.350006103515625
 44
215.8999938964844
 45
279.3999938964844
 46
0.0
 47
0.0
 48
0.0
 49
0.0
140
0.0
141
0.0
142
1.0
143
1.0
 70
 11952
 72
     0
 73
     1
 74
     0
  7

 75
     0
147
1.0
 76
     0
 77
     2
 78
   300
148
2286.885068363782
149
77.14669803812649
100
AcDbLayout
  1
Model
 70
     1
 71
     0
 10
0.0
 20
0.0
 11
12.0
 21
9.0
 12
0.0
 22
0.0
 32
0.0
 14
0.0
 24
0.0
 34
0.0
 15
0.0
 25
0.0
 35
0.0
146
0.0
 13
0.0
 23
0.0
 33
0.0
 16
1.0
 26
0.0
 36
0.0
 17
0.0
 27
1.0
 37
0.0
 76
     0
330
1E
  0
MLINESTYLE
  5
17
102
{ACAD_REACTORS
330
16
102
}
330
16
100
AcDbMlineStyle
  2
STANDARD
 70
     0
  3

 62
   256
 51
90.0
 52
90.0
 71
     2
 49
0.5
 62
   256
  6
BYLAYER
 49
-0.5
 62
   256
  6
BYLAYER
  0
ACDBPLACEHOLDER
  5
F
102
{ACAD_REACTORS
330
E
102
}
330
E
  0
DICTIONARYVAR
  5
126
102
{ACAD_REACTORS
330
125
102
}
330
125
100
DictionaryVariables
280
     0
  1
1
  0
DICTIONARYVAR
  5
127
102
{ACAD_REACTORS
330
125
102
}
330
125
100
DictionaryVariables
280
     0
  1

  0
ENDSEC
  0
EOF
