  0
SECTION
  2
HEADER
  9
$ACADVER
  1
AC1018
  9
$ACADMAINTVER
 70
     2
  9
$DWGCODEPAGE
  3
ANSI_1252
  9
$INSBASE
 10
0.0
 20
0.0
 30
0.0
  9
$EXTMIN
 10
-0.012813617635004
 20
-0.0181221163699092
 30
-0.0000000000000098
  9
$EXTMAX
 10
210.0128202187944
 20
297.0181314522945
 30
0.0000000000000055
  9
$LIMMIN
 10
0.0
 20
0.0
  9
$LIMMAX
 10
210.0
 20
297.0
  9
$ORTHOMODE
 70
     0
  9
$REGENMODE
 70
     1
  9
$FILLMODE
 70
     1
  9
$QTEXTMODE
 70
     0
  9
$MIRRTEXT
 70
     1
  9
$LTSCALE
 40
10.0
  9
$ATTMODE
 70
     1
  9
$TEXTSIZE
 40
3.5
  9
$TRACEWID
 40
0.5
  9
$TEXTSTYLE
  7
STANDARD
  9
$CLAYER
  8
BEM
  9
$CELTYPE
  6
ByLayer
  9
$CECOLOR
 62
   256
  9
$CELTSCALE
 40
1.0
  9
$DISPSILH
 70
     0
  9
$DIMSCALE
 40
1.0
  9
$DIMASZ
 40
3.5
  9
$DIMEXO
 40
1.0
  9
$DIMDLI
 40
7.0
  9
$DIMRND
 40
0.0
  9
$DIMDLE
 40
0.0
  9
$DIMEXE
 40
1.0
  9
$DIMTP
 40
0.0
  9
$DIMTM
 40
0.0
  9
$DIMTXT
 40
3.5
  9
$DIMCEN
 40
1.5
  9
$DIMTSZ
 40
0.0
  9
$DIMTOL
 70
     0
  9
$DIMLIM
 70
     0
  9
$DIMTIH
 70
     0
  9
$DIMTOH
 70
     0
  9
$DIMSE1
 70
     0
  9
$DIMSE2
 70
     0
  9
$DIMTAD
 70
     1
  9
$DIMZIN
 70
     8
  9
$DIMBLK
  1

  9
$DIMASO
 70
     1
  9
$DIMSHO
 70
     0
  9
$DIMPOST
  1

  9
$DIMAPOST
  1

  9
$DIMALT
 70
     0
  9
$DIMALTD
 70
     2
  9
$DIMALTF
 40
25.4
  9
$DIMLFAC
 40
1.0
  9
$DIMTOFL
 70
     1
  9
$DIMTVP
 40
0.0
  9
$DIMTIX
 70
     0
  9
$DIMSOXD
 70
     0
  9
$DIMSAH
 70
     0
  9
$DIMBLK1
  1

  9
$DIMBLK2
  1

  9
$DIMSTYLE
  2
Standard
  9
$DIMCLRD
 70
     0
  9
$DIMCLRE
 70
     0
  9
$DIMCLRT
 70
     1
  9
$DIMTFAC
 40
0.5142857142857144
  9
$DIMGAP
 40
1.5
  9
$DIMJUST
 70
     0
  9
$DIMSD1
 70
     0
  9
$DIMSD2
 70
     0
  9
$DIMTOLJ
 70
     1
  9
$DIMTZIN
 70
     8
  9
$DIMALTZ
 70
     8
  9
$DIMALTTZ
 70
     8
  9
$DIMUPT
 70
     0
  9
$DIMDEC
 70
     2
  9
$DIMTDEC
 70
     2
  9
$DIMALTU
 70
     2
  9
$DIMALTTD
 70
     2
  9
$DIMTXSTY
  7
STANDARD
  9
$DIMAUNIT
 70
     0
  9
$DIMADEC
 70
     2
  9
$DIMALTRND
 40
0.0
  9
$DIMAZIN
 70
     2
  9
$DIMDSEP
 70
    46
  9
$DIMATFIT
 70
     3
  9
$DIMFRAC
 70
     0
  9
$DIMLDRBLK
  1

  9
$DIMLUNIT
 70
     2
  9
$DIMLWD
 70
    -2
  9
$DIMLWE
 70
    -2
  9
$DIMTMOVE
 70
     0
  9
$LUNITS
 70
     2
  9
$LUPREC
 70
     2
  9
$SKETCHINC
 40
1.0
  9
$FILLETRAD
 40
50.0
  9
$AUNITS
 70
     1
  9
$AUPREC
 70
     3
  9
$MENU
  1
ACAD
  9
$ELEVATION
 40
0.0
  9
$PELEVATION
 40
0.0
  9
$THICKNESS
 40
0.0
  9
$LIMCHECK
 70
     0
  9
$CHAMFERA
 40
0.0
  9
$CHAMFERB
 40
0.0
  9
$CHAMFERC
 40
0.0
  9
$CHAMFERD
 40
0.0
  9
$SKPOLY
 70
     0
  9
$TDCREATE
 40
2452040.637099653
  9
$TDUCREATE
 40
2452040.553766320
  9
$TDUPDATE
 40
2455446.492205429
  9
$TDUUPDATE
 40
2455446.408872095
  9
$TDINDWG
 40
0.2643795949
  9
$TDUSRTIMER
 40
0.2643795949
  9
$USRTIMER
 70
     1
  9
$ANGBASE
 50
0.0
  9
$ANGDIR
 70
     0
  9
$PDMODE
 70
     0
  9
$PDSIZE
 40
0.0
  9
$PLINEWID
 40
0.0
  9
$SPLFRAME
 70
     0
  9
$SPLINETYPE
 70
     6
  9
$SPLINESEGS
 70
     8
  9
$HANDSEED
  5
1066
  9
$SURFTAB1
 70
     6
  9
$SURFTAB2
 70
     6
  9
$SURFTYPE
 70
     6
  9
$SURFU
 70
     6
  9
$SURFV
 70
     6
  9
$UCSBASE
  2

  9
$UCSNAME
  2

  9
$UCSORG
 10
0.0
 20
0.0
 30
0.0
  9
$UCSXDIR
 10
1.0
 20
0.0
 30
0.0
  9
$UCSYDIR
 10
0.0
 20
1.0
 30
0.0
  9
$UCSORTHOREF
  2

  9
$UCSORTHOVIEW
 70
     0
  9
$UCSORGTOP
 10
0.0
 20
0.0
 30
0.0
  9
$UCSORGBOTTOM
 10
0.0
 20
0.0
 30
0.0
  9
$UCSORGLEFT
 10
0.0
 20
0.0
 30
0.0
  9
$UCSORGRIGHT
 10
0.0
 20
0.0
 30
0.0
  9
$UCSORGFRONT
 10
0.0
 20
0.0
 30
0.0
  9
$UCSORGBACK
 10
0.0
 20
0.0
 30
0.0
  9
$PUCSBASE
  2

  9
$PUCSNAME
  2

  9
$PUCSORG
 10
0.0
 20
0.0
 30
0.0
  9
$PUCSXDIR
 10
1.0
 20
0.0
 30
0.0
  9
$PUCSYDIR
 10
0.0
 20
1.0
 30
0.0
  9
$PUCSORTHOREF
  2

  9
$PUCSORTHOVIEW
 70
     0
  9
$PUCSORGTOP
 10
0.0
 20
0.0
 30
0.0
  9
$PUCSORGBOTTOM
 10
0.0
 20
0.0
 30
0.0
  9
$PUCSORGLEFT
 10
0.0
 20
0.0
 30
0.0
  9
$PUCSORGRIGHT
 10
0.0
 20
0.0
 30
0.0
  9
$PUCSORGFRONT
 10
0.0
 20
0.0
 30
0.0
  9
$PUCSORGBACK
 10
0.0
 20
0.0
 30
0.0
  9
$USERI1
 70
     0
  9
$USERI2
 70
     0
  9
$USERI3
 70
     0
  9
$USERI4
 70
     0
  9
$USERI5
 70
     0
  9
$USERR1
 40
0.0
  9
$USERR2
 40
0.0
  9
$USERR3
 40
0.0
  9
$USERR4
 40
0.0
  9
$USERR5
 40
0.0
  9
$WORLDVIEW
 70
     1
  9
$SHADEDGE
 70
     3
  9
$SHADEDIF
 70
    70
  9
$TILEMODE
 70
     1
  9
$MAXACTVP
 70
    16
  9
$PINSBASE
 10
0.0
 20
0.0
 30
0.0
  9
$PLIMCHECK
 70
     0
  9
$PEXTMIN
 10
1.000000000000000E+20
 20
1.000000000000000E+20
 30
1.000000000000000E+20
  9
$PEXTMAX
 10
-1.000000000000000E+20
 20
-1.000000000000000E+20
 30
-1.000000000000000E+20
  9
$PLIMMIN
 10
0.0
 20
0.0
  9
$PLIMMAX
 10
12.0
 20
9.0
  9
$UNITMODE
 70
     0
  9
$VISRETAIN
 70
     0
  9
$PLINEGEN
 70
     0
  9
$PSLTSCALE
 70
     0
  9
$TREEDEPTH
 70
  3020
  9
$CMLSTYLE
  2
Standard
  9
$CMLJUST
 70
     0
  9
$CMLSCALE
 40
1.0
  9
$PROXYGRAPHICS
 70
     1
  9
$MEASUREMENT
 70
     0
  9
$CELWEIGHT
370
    -1
  9
$ENDCAPS
280
     0
  9
$JOINSTYLE
280
     0
  9
$LWDISPLAY
290
     0
  9
$INSUNITS
 70
     0
  9
$HYPERLINKBASE
  1

  9
$STYLESHEET
  1
monochrome1.ctb
  9
$XEDIT
290
     1
  9
$CEPSNTYPE
380
     0
  9
$PSTYLEMODE
290
     1
  9
$FINGERPRINTGUID
  2
{7AADB5C8-6110-11D8-B72B-000102183313}
  9
$VERSIONGUID
  2
{FED31DA0-66CC-4BD9-AFB7-D35DC3DB4E07}
  9
$EXTNAMES
290
     1
  9
$PSVPSCALE
 40
0.0
  9
$OLESTARTUP
290
     0
  9
$SORTENTS
280
    96
  9
$INDEXCTL
280
     0
  9
$HIDETEXT
280
     0
  9
$XCLIPFRAME
290
     0
  9
$HALOGAP
280
     0
  9
$OBSCOLOR
 70
   257
  9
$OBSLTYPE
280
     0
  9
$INTERSECTIONDISPLAY
280
     0
  9
$INTERSECTIONCOLOR
 70
   257
  9
$DIMASSOC
280
     1
  9
$PROJECTNAME
  1

  0
ENDSEC
  0
SECTION
  2
CLASSES
  0
CLASS
  1
ACDBDICTIONARYWDFLT
  2
AcDbDictionaryWithDefault
  3
ObjectDBX Classes
 90
        0
 91
        1
280
     0
281
     0
  0
CLASS
  1
DICTIONARYVAR
  2
AcDbDictionaryVar
  3
ObjectDBX Classes
 90
        0
 91
        3
280
     0
281
     0
  0
ENDSEC
  0
SECTION
  2
TABLES
  0
TABLE
  2
VPORT
  5
8
330
0
100
AcDbSymbolTable
 70
     2
  0
VPORT
  5
1065
330
8
100
AcDbSymbolTableRecord
100
AcDbViewportTableRecord
  2
*Active
 70
     0
 10
0.0
 20
0.0
 11
1.0
 21
1.0
 12
105.0000033005797
 22
148.5000046679623
 13
0.0
 23
0.0
 14
1.0
 24
1.0
 15
10.0
 25
10.0
 16
0.0
 26
0.0
 36
1.0
 17
0.0
 27
0.0
 37
0.0
 40
299.4349312556253
 41
1.336927223719676
 42
50.0
 43
0.0
 44
0.0
 50
0.0
 51
0.0
 71
     0
 72
  1500
 73
     1
 74
     0
 75
     0
 76
     0
 77
     0
 78
     0
281
     0
 65
     1
110
0.0
120
0.0
130
0.0
111
1.0
121
0.0
131
0.0
112
0.0
122
1.0
132
0.0
 79
     0
146
0.0
  0
ENDTAB
  0
TABLE
  2
LTYPE
  5
5
330
0
100
AcDbSymbolTable
 70
     2
  0
LTYPE
  5
13
330
5
100
AcDbSymbolTableRecord
100
AcDbLinetypeTableRecord
  2
ByBlock
 70
     0
  3

 72
    65
 73
     0
 40
0.0
  0
LTYPE
  5
14
330
5
100
AcDbSymbolTableRecord
100
AcDbLinetypeTableRecord
  2
ByLayer
 70
     0
  3

 72
    65
 73
     0
 40
0.0
  0
LTYPE
  5
15
330
5
100
AcDbSymbolTableRecord
100
AcDbLinetypeTableRecord
  2
Continuous
 70
     0
  3
Solid line
 72
    65
 73
     0
 40
0.0
  0
LTYPE
  5
35
330
5
100
AcDbSymbolTableRecord
100
AcDbLinetypeTableRecord
  2
STRICHPUNKT
 70
     0
  3
__ . __ . __ . __ . __ . __ . __ . __ . __ . __
 72
    65
 73
     4
 40
1.0
 49
0.5
 74
     0
 49
-0.25
 74
     0
 49
0.0
 74
     0
 49
-0.25
 74
     0
  0
ENDTAB
  0
TABLE
  2
LAYER
  5
2
330
0
100
AcDbSymbolTable
 70
     9
  0
LAYER
  5
10
330
2
100
AcDbSymbolTableRecord
100
AcDbLayerTableRecord
  2
0
 70
     0
 62
     7
  6
Continuous
370
    -3
390
F
  0
LAYER
  5
38
330
2
100
AcDbSymbolTableRecord
100
AcDbLayerTableRecord
  2
VOLL
 70
     0
 62
     1
  6
Continuous
370
    -3
390
F
  0
LAYER
  5
39
330
2
100
AcDbSymbolTableRecord
100
AcDbLayerTableRecord
  2
HILF
 70
     0
 62
     2
  6
Continuous
370
    -3
390
F
  0
LAYER
  5
3A
330
2
100
AcDbSymbolTableRecord
100
AcDbLayerTableRecord
  2
MITTEL
 70
     0
 62
     2
  6
STRICHPUNKT
370
    -3
390
F
  0
LAYER
  5
3B
330
2
100
AcDbSymbolTableRecord
100
AcDbLayerTableRecord
  2
BEM
 70
     0
 62
     7
  6
Continuous
370
    -3
390
F
  0
LAYER
  5
3C
330
2
100
AcDbSymbolTableRecord
100
AcDbLayerTableRecord
  2
STEMPEL
 70
     0
 62
     3
  6
Continuous
370
    -3
390
F
  0
LAYER
  5
3D
330
2
100
AcDbSymbolTableRecord
100
AcDbLayerTableRecord
  2
TEXT
 70
     0
 62
     7
  6
Continuous
370
    -3
390
F
  0
LAYER
  5
3E
330
2
100
AcDbSymbolTableRecord
100
AcDbLayerTableRecord
  2
DEFPOINTS
 70
     0
 62
     7
  6
Continuous
290
     0
370
    -3
390
F
  0
LAYER
  5
3F
330
2
100
AcDbSymbolTableRecord
100
AcDbLayerTableRecord
  2
SCHRAFF
 70
     0
 62
     7
  6
Continuous
370
    -3
390
F
  0
ENDTAB
  0
TABLE
  2
STYLE
  5
3
330
0
100
AcDbSymbolTable
 70
     2
  0
STYLE
  5
11
330
3
100
AcDbSymbolTableRecord
100
AcDbTextStyleTableRecord
  2
STANDARD
 70
     0
 40
0.0
 41
0.8
 50
0.0
 71
     0
 42
3.5
  3
simplex.shx
  4

  0
STYLE
  5
34
330
3
100
AcDbSymbolTableRecord
100
AcDbTextStyleTableRecord
  2
GREEKS
 70
     0
 40
0.0
 41
0.8
 50
0.0
 71
     0
 42
2.5
  3
SIMPLEX.shx
  4

  0
ENDTAB
  0
TABLE
  2
VIEW
  5
6
330
0
100
AcDbSymbolTable
 70
     0
  0
ENDTAB
  0
TABLE
  2
UCS
  5
7
330
0
100
AcDbSymbolTable
 70
     0
  0
ENDTAB
  0
TABLE
  2
APPID
  5
9
330
0
100
AcDbSymbolTable
 70
     1
  0
APPID
  5
12
330
9
100
AcDbSymbolTableRecord
100
AcDbRegAppTableRecord
  2
ACAD
 70
     0
  0
ENDTAB
  0
TABLE
  2
DIMSTYLE
  5
A
330
0
100
AcDbSymbolTable
 70
     1
100
AcDbDimStyleTable
 71
     1
340
1CB
  0
DIMSTYLE
105
1CB
102
{ACAD_REACTORS
330
22F
330
DB3
330
1DB
330
D41
330
ECA
330
F06
102
}
330
A
100
AcDbSymbolTableRecord
100
AcDbDimStyleTableRecord
  2
Standard
 70
     0
340
11
  0
ENDTAB
  0
TABLE
  2
BLOCK_RECORD
  5
1
330
0
100
AcDbSymbolTable
 70
     8
  0
BLOCK_RECORD
  5
1E
330
1
100
AcDbSymbolTableRecord
100
AcDbBlockTableRecord
  2
*Model_Space
340
21
  0
BLOCK_RECORD
  5
1A
330
1
100
AcDbSymbolTableRecord
100
AcDbBlockTableRecord
  2
*Paper_Space
340
1D
  0
BLOCK_RECORD
  5
22
330
1
100
AcDbSymbolTableRecord
100
AcDbBlockTableRecord
  2
LOGO
340
0
102
{BLKREFS
331
135
102
}
  0
BLOCK_RECORD
  5
23
330
1
100
AcDbSymbolTableRecord
100
AcDbBlockTableRecord
  2
INDEX
340
0
102
{BLKREFS
331
185
102
}
  0
BLOCK_RECORD
  5
1DC
330
1
100
AcDbSymbolTableRecord
100
AcDbBlockTableRecord
  2
*D2
340
0
  0
BLOCK_RECORD
  5
230
330
1
100
AcDbSymbolTableRecord
100
AcDbBlockTableRecord
  2
*D3
340
0
  0
BLOCK_RECORD
  5
D42
330
1
100
AcDbSymbolTableRecord
100
AcDbBlockTableRecord
  2
*D4
340
0
  0
BLOCK_RECORD
  5
DC4
330
1
100
AcDbSymbolTableRecord
100
AcDbBlockTableRecord
  2
*D5
340
0
  0
BLOCK_RECORD
  5
ECB
330
1
100
AcDbSymbolTableRecord
100
AcDbBlockTableRecord
  2
*D6
340
0
  0
BLOCK_RECORD
  5
F07
330
1
100
AcDbSymbolTableRecord
100
AcDbBlockTableRecord
  2
*D7
340
0
  0
ENDTAB
  0
ENDSEC
  0
SECTION
  2
BLOCKS
  0
BLOCK
  5
43
330
1E
100
AcDbEntity
  8
0
100
AcDbBlockBegin
  2
*Model_Space
 70
     0
 10
0.0
 20
0.0
 30
0.0
  3
*Model_Space
  1

  0
ENDBLK
  5
44
330
1E
100
AcDbEntity
  8
0
100
AcDbBlockEnd
  0
BLOCK
  5
41
330
1A
100
AcDbEntity
 67
     1
  8
0
100
AcDbBlockBegin
  2
*Paper_Space
 70
     0
 10
0.0
 20
0.0
 30
0.0
  3
*Paper_Space
  1

  0
ENDBLK
  5
42
330
1A
100
AcDbEntity
 67
     1
  8
0
100
AcDbBlockEnd
  0
BLOCK
  5
45
330
22
100
AcDbEntity
  8
0
100
AcDbBlockBegin
  2
LOGO
 70
     0
 10
0.0
 20
0.0
 30
0.0
  3
LOGO
  1

  0
ARC
  5
46
330
22
100
AcDbEntity
  8
0
100
AcDbCircle
 10
11.59973089678112
 20
-9.271599258481501
 30
0.0
 40
4.5
100
AcDbArc
 50
270.0
 51
231.0575587310159
  0
LINE
  5
47
330
22
100
AcDbEntity
  8
0
100
AcDbLine
 10
3.599730896781125
 20
-4.771599258481529
 30
0.0
 11
3.599730896781153
 21
-11.77159925848133
 31
0.0
  0
LINE
  5
48
330
22
100
AcDbEntity
  8
0
100
AcDbLine
 10
2.599730896781125
 20
-4.771599258481529
 30
0.0
 11
2.599730896781153
 21
-11.77159925848133
 31
0.0
  0
CIRCLE
  5
49
330
22
100
AcDbEntity
  8
0
100
AcDbCircle
 10
11.59973089678112
 20
-9.271599258481501
 30
0.0
 40
3.5
  0
ARC
  5
4A
330
22
100
AcDbEntity
  8
0
100
AcDbCircle
 10
31.59973089678115
 20
-9.271599258481472
 30
0.0
 40
4.5
100
AcDbArc
 50
270.0
 51
231.0575587310182
  0
LINE
  5
4B
330
22
100
AcDbEntity
  8
0
100
AcDbLine
 10
17.59973089678112
 20
-4.771599258481472
 30
0.0
 11
17.59973089678115
 21
-13.77159925848147
 31
0.0
  0
ARC
  5
4C
330
22
100
AcDbEntity
  8
0
100
AcDbCircle
 10
22.59973089678116
 20
-7.271599258481472
 30
0.0
 40
2.5
100
AcDbArc
 50
293.1161887722295
 51
90.0
  0
CIRCLE
  5
4D
330
22
100
AcDbEntity
  8
0
100
AcDbCircle
 10
31.59973089678115
 20
-9.271599258481472
 30
0.0
 40
3.5
  0
ARC
  5
4E
330
22
100
AcDbEntity
  8
0
100
AcDbCircle
 10
4.599730896781153
 20
-11.77159925848133
 30
0.0
 40
1.0
100
AcDbArc
 50
180.0
 51
270.0
  0
ARC
  5
4F
330
22
100
AcDbEntity
  8
0
100
AcDbCircle
 10
4.599730896781153
 20
-11.77159925848133
 30
0.0
 40
2.0
100
AcDbArc
 50
179.9999999999992
 51
270.0
  0
LINE
  5
50
330
22
100
AcDbEntity
  8
0
100
AcDbLine
 10
11.59973089678115
 20
-13.77159925848144
 30
0.0
 11
4.599730896781153
 21
-13.77159925848147
 31
0.0
  0
LINE
  5
51
330
22
100
AcDbEntity
  8
0
100
AcDbLine
 10
8.771303772034769
 20
-12.77159925848136
 30
0.0
 11
4.599730896781153
 21
-12.77159925848133
 31
0.0
  0
LINE
  5
52
330
22
100
AcDbEntity
  8
0
100
AcDbLine
 10
31.59973089678115
 20
-13.77159925848147
 30
0.0
 11
23.6715276665056
 21
-13.77159925848144
 31
0.0
  0
LINE
  5
53
330
22
100
AcDbEntity
  8
0
100
AcDbLine
 10
23.56565672307022
 20
-9.51278021337896
 30
0.0
 11
24.4388546544846
 21
-12.77159925848144
 31
0.0
  0
LINE
  5
54
330
22
100
AcDbEntity
  8
0
100
AcDbLine
 10
22.59973089678116
 20
-9.771599258481472
 30
0.0
 11
18.59973089678112
 21
-9.771599258481472
 31
0.0
  0
LINE
  5
55
330
22
100
AcDbEntity
  8
0
100
AcDbLine
 10
18.59973089678115
 20
-13.77159925848144
 30
0.0
 11
17.59973089678115
 21
-13.77159925848144
 31
0.0
  0
LINE
  5
56
330
22
100
AcDbEntity
  8
0
100
AcDbLine
 10
18.59973089678115
 20
-9.771599258481472
 30
0.0
 11
18.59973089678115
 21
-13.77159925848144
 31
0.0
  0
LINE
  5
57
330
22
100
AcDbEntity
  8
0
100
AcDbLine
 10
22.59973089678116
 20
-9.771599258481472
 30
0.0
 11
23.67152766650562
 21
-13.77159925848147
 31
0.0
  0
ARC
  5
58
330
22
100
AcDbEntity
  8
0
100
AcDbCircle
 10
22.59973089678116
 20
-7.271599258481472
 30
0.0
 40
2.5
100
AcDbArc
 50
270.0
 51
270.0000000000007
  0
LINE
  5
59
330
22
100
AcDbEntity
  8
0
100
AcDbLine
 10
28.77130377203494
 20
-12.77159925848147
 30
0.0
 11
24.43885465448463
 21
-12.77159925848144
 31
0.0
  0
LINE
  5
5A
330
22
100
AcDbEntity
  8
0
100
AcDbLine
 10
3.599730896781125
 20
-4.771599258481472
 30
0.0
 11
2.599730896781125
 21
-4.771599258481472
 31
0.0
  0
LINE
  5
5B
330
22
100
AcDbEntity
  8
0
100
AcDbLine
 10
22.59973089678116
 20
-8.771599258481472
 30
0.0
 11
18.59973089678115
 21
-8.771599258481472
 31
0.0
  0
LINE
  5
5C
330
22
100
AcDbEntity
  8
0
100
AcDbLine
 10
22.59973089678116
 20
-5.771599258481472
 30
0.0
 11
18.59973089678115
 21
-5.771599258481472
 31
0.0
  0
LINE
  5
5D
330
22
100
AcDbEntity
  8
0
100
AcDbLine
 10
22.59973089678116
 20
-4.771599258481472
 30
0.0
 11
17.59973089678115
 21
-4.771599258481472
 31
0.0
  0
LINE
  5
5E
330
22
100
AcDbEntity
  8
0
100
AcDbLine
 10
18.59973089678115
 20
-5.771599258481472
 30
0.0
 11
18.59973089678115
 21
-8.771599258481472
 31
0.0
  0
ARC
  5
5F
330
22
100
AcDbEntity
  8
0
100
AcDbCircle
 10
22.59973089678116
 20
-7.271599258481472
 30
0.0
 40
1.5
100
AcDbArc
 50
270.0
 51
90.0
  0
ENDBLK
  5
60
330
22
100
AcDbEntity
  8
0
100
AcDbBlockEnd
  0
BLOCK
  5
61
330
23
100
AcDbEntity
  8
0
100
AcDbBlockBegin
  2
INDEX
 70
     0
 10
0.0
 20
0.0
 30
0.0
  3
INDEX
  1

  0
TEXT
  5
62
330
23
100
AcDbEntity
  8
BEM
100
AcDbText
 10
-1.709422928128134
 20
6.074024076691515
 30
0.0
 40
2.0
  1
Diese Zeichnung ist urheberrechtlich geschtzt und bleibt unser Eigentum. Sie darf weder ganz noch teilweise vervielfltigt und nicht an Dritte weitergegeben werden.
 50
90.0
 41
0.8
  7
GREEKS
100
AcDbText
  0
ENDBLK
  5
64
330
23
100
AcDbEntity
  8
0
100
AcDbBlockEnd
  0
BLOCK
  5
1E6
330
1DC
100
AcDbEntity
  8
0
100
AcDbBlockBegin
  2
*D2
 70
     1
 10
0.0
 20
0.0
 30
0.0
  3
*D2
  1

  0
LINE
  5
FFD
330
1DC
100
AcDbEntity
  8
BEM
 62
     0
370
    -2
100
AcDbLine
 10
41.98967903175982
 20
93.3188445297412
 30
0.0
 11
31.75962058099865
 21
93.31884452974122
 31
0.0
  0
LINE
  5
FFE
330
1DC
100
AcDbEntity
  8
BEM
 62
     0
370
    -2
100
AcDbLine
 10
78.05223571413026
 20
211.3188445297413
 30
0.0
 11
31.75962058099867
 21
211.3188445297413
 31
0.0
  0
LINE
  5
FFF
330
1DC
100
AcDbEntity
  8
BEM
 62
     0
370
    -2
100
AcDbLine
 10
32.75962058099864
 20
96.81884452974122
 30
0.0
 11
32.75962058099866
 21
207.8188445297413
 31
0.0
  0
SOLID
  5
1000
330
1DC
100
AcDbEntity
  8
BEM
 62
     0
100
AcDbTrace
 10
32.17628724766531
 20
96.81884452974122
 30
0.0
 11
33.34295391433198
 21
96.81884452974122
 31
0.0
 12
32.75962058099864
 22
93.3188445297412
 32
0.0
 13
32.75962058099864
 23
93.3188445297412
 33
0.0
  0
SOLID
  5
1001
330
1DC
100
AcDbEntity
  8
BEM
 62
     0
100
AcDbTrace
 10
32.17628724766533
 20
207.8188445297413
 30
0.0
 11
33.342953914332
 21
207.8188445297413
 31
0.0
 12
32.75962058099867
 22
211.3188445297413
 32
0.0
 13
32.75962058099867
 23
211.3188445297413
 33
0.0
  0
MTEXT
  5
1002
330
1DC
100
AcDbEntity
  8
BEM
 62
     1
100
AcDbMText
 10
29.50962058099863
 20
152.3188445297413
 30
0.0
 40
3.5
 41
0.0
 71
     5
 72
     1
  1
\A1;118
 11
0.0000000000000001
 21
1.0
 31
0.0
 73
     1
 44
1.0
  0
POINT
  5
1003
330
1DC
100
AcDbEntity
  8
DEFPOINTS
 62
     0
100
AcDbPoint
 10
42.98967903175982
 20
93.3188445297412
 30
0.0
  0
POINT
  5
1004
330
1DC
100
AcDbEntity
  8
DEFPOINTS
 62
     0
100
AcDbPoint
 10
79.05223571413026
 20
211.3188445297413
 30
0.0
  0
POINT
  5
1005
330
1DC
100
AcDbEntity
  8
DEFPOINTS
 62
     0
100
AcDbPoint
 10
32.75962058099867
 20
211.3188445297413
 30
0.0
  0
ENDBLK
  5
1E7
330
1DC
100
AcDbEntity
  8
0
100
AcDbBlockEnd
  0
BLOCK
  5
23A
330
230
100
AcDbEntity
  8
0
100
AcDbBlockBegin
  2
*D3
 70
     1
 10
0.0
 20
0.0
 30
0.0
  3
*D3
  1

  0
LINE
  5
1006
330
230
100
AcDbEntity
  8
BEM
 62
     0
370
    -2
100
AcDbLine
 10
110.8022357141302
 20
121.2074485497198
 30
0.0
 11
107.3022357141302
 21
121.2074485497198
 31
0.0
  0
LINE
  5
1007
330
230
100
AcDbEntity
  8
BEM
 62
     0
370
    -2
100
AcDbLine
 10
119.0522357141301
 20
121.2074485497198
 30
0.0
 11
130.8855690474635
 21
121.2074485497198
 31
0.0
  0
LINE
  5
1008
330
230
100
AcDbEntity
  8
BEM
 62
     0
370
    -2
100
AcDbLine
 10
114.3022357141302
 20
121.2074485497198
 30
0.0
 11
115.5522357141301
 21
121.2074485497198
 31
0.0
  0
SOLID
  5
1009
330
230
100
AcDbEntity
  8
BEM
 62
     0
100
AcDbTrace
 10
110.8022357141302
 20
121.7907818830531
 30
0.0
 11
110.8022357141302
 21
120.6241152163864
 31
0.0
 12
114.3022357141302
 22
121.2074485497198
 32
0.0
 13
114.3022357141302
 23
121.2074485497198
 33
0.0
  0
SOLID
  5
100A
330
230
100
AcDbEntity
  8
BEM
 62
     0
100
AcDbTrace
 10
119.0522357141301
 20
121.7907818830531
 30
0.0
 11
119.0522357141301
 21
120.6241152163864
 31
0.0
 12
115.5522357141301
 22
121.2074485497198
 32
0.0
 13
115.5522357141301
 23
121.2074485497198
 33
0.0
  0
MTEXT
  5
100B
330
230
100
AcDbEntity
  8
BEM
 62
     1
100
AcDbMText
 10
126.7189023807968
 20
124.4574485497198
 30
0.0
 40
3.5
 41
0.0
 71
     5
 72
     1
  1
\A1;1.2
 73
     1
 44
1.0
  0
POINT
  5
100C
330
230
100
AcDbEntity
  8
DEFPOINTS
 62
     0
100
AcDbPoint
 10
114.3022357141302
 20
121.2074485497197
 30
0.0
  0
POINT
  5
100D
330
230
100
AcDbEntity
  8
DEFPOINTS
 62
     0
100
AcDbPoint
 10
115.5522357141301
 20
121.2074485497197
 30
0.0
  0
POINT
  5
100E
330
230
100
AcDbEntity
  8
DEFPOINTS
 62
     0
100
AcDbPoint
 10
115.5522357141301
 20
121.2074485497198
 30
0.0
  0
ENDBLK
  5
23B
330
230
100
AcDbEntity
  8
0
100
AcDbBlockEnd
  0
BLOCK
  5
D4C
330
D42
100
AcDbEntity
  8
0
100
AcDbBlockBegin
  2
*D4
 70
     1
 10
0.0
 20
0.0
 30
0.0
  3
*D4
  1

  0
LINE
  5
FF4
330
D42
100
AcDbEntity
  8
BEM
 62
     0
370
    -2
100
AcDbLine
 10
42.55223571413021
 20
97.31884452974142
 30
0.0
 11
42.55223571413021
 21
78.53130171373056
 31
0.0
  0
LINE
  5
FF5
330
D42
100
AcDbEntity
  8
BEM
 62
     0
370
    -2
100
AcDbLine
 10
115.5522357141302
 20
97.31884452974172
 30
0.0
 11
115.5522357141302
 21
78.53130171373056
 31
0.0
  0
LINE
  5
FF6
330
D42
100
AcDbEntity
  8
BEM
 62
     0
370
    -2
100
AcDbLine
 10
46.05223571413022
 20
79.53130171373056
 30
0.0
 11
112.0522357141302
 21
79.53130171373056
 31
0.0
  0
SOLID
  5
FF7
330
D42
100
AcDbEntity
  8
BEM
 62
     0
100
AcDbTrace
 10
46.05223571413022
 20
80.11463504706389
 30
0.0
 11
46.05223571413022
 21
78.94796838039723
 31
0.0
 12
42.55223571413021
 22
79.53130171373056
 32
0.0
 13
42.55223571413021
 23
79.53130171373056
 33
0.0
  0
SOLID
  5
FF8
330
D42
100
AcDbEntity
  8
BEM
 62
     0
100
AcDbTrace
 10
112.0522357141302
 20
80.11463504706389
 30
0.0
 11
112.0522357141302
 21
78.94796838039723
 31
0.0
 12
115.5522357141302
 22
79.53130171373056
 32
0.0
 13
115.5522357141302
 23
79.53130171373056
 33
0.0
  0
MTEXT
  5
FF9
330
D42
100
AcDbEntity
  8
BEM
 62
     1
100
AcDbMText
 10
79.05223571413021
 20
82.78130171373055
 30
0.0
 40
3.5
 41
0.0
 71
     5
 72
     1
  1
\A1;%%c73
 73
     1
 44
1.0
  0
POINT
  5
FFA
330
D42
100
AcDbEntity
  8
DEFPOINTS
 62
     0
100
AcDbPoint
 10
42.55223571413021
 20
98.31884452974142
 30
0.0
  0
POINT
  5
FFB
330
D42
100
AcDbEntity
  8
DEFPOINTS
 62
     0
100
AcDbPoint
 10
115.5522357141302
 20
98.31884452974172
 30
0.0
  0
POINT
  5
FFC
330
D42
100
AcDbEntity
  8
DEFPOINTS
 62
     0
100
AcDbPoint
 10
115.5522357141302
 20
79.53130171373056
 30
0.0
  0
ENDBLK
  5
D4D
330
D42
100
AcDbEntity
  8
0
100
AcDbBlockEnd
  0
BLOCK
  5
DCE
330
DC4
100
AcDbEntity
  8
0
100
AcDbBlockBegin
  2
*D5
 70
     1
 10
0.0
 20
0.0
 30
0.0
  3
*D5
  1

  0
LINE
  5
1014
330
DC4
100
AcDbEntity
  8
BEM
 62
     0
370
    -2
100
AcDbLine
 10
78.99989975788731
 20
212.3174740644959
 30
0.0
 11
75.98604221020355
 21
269.8253018892086
 31
0.0
  0
LINE
  5
1015
330
DC4
100
AcDbEntity
  8
BEM
 62
     0
370
    -2
100
AcDbLine
 10
189.78872407986
 20
257.4682285548319
 30
0.0
 11
188.8311796374698
 21
275.7392649446595
 31
0.0
  0
LINE
  5
1016
330
DC4
100
AcDbEntity
  8
BEM
 62
     0
370
    -2
100
AcDbLine
 10
79.53358153808749
 20
269.0098482013043
 30
0.0
 11
185.3883122220717
 21
274.5574595630547
 31
0.0
  0
SOLID
  5
1017
330
DC4
100
AcDbEntity
  8
BEM
 62
     0
100
AcDbTrace
 10
79.50305223027912
 20
269.5923820965778
 30
0.0
 11
79.56411084589587
 21
268.4273143060308
 31
0.0
 12
76.03837816644648
 22
268.826672354454
 32
0.0
 13
76.03837816644648
 23
268.826672354454
 33
0.0
  0
SOLID
  5
1018
330
DC4
100
AcDbEntity
  8
BEM
 62
     0
100
AcDbTrace
 10
185.3577829142634
 20
275.1399934583281
 30
0.0
 11
185.4188415298801
 21
273.9749256677811
 31
0.0
 12
188.8835155937128
 22
274.7406354099049
 32
0.0
 13
188.8835155937128
 23
274.7406354099049
 33
0.0
  0
MTEXT
  5
1019
330
DC4
100
AcDbEntity
  8
BEM
 62
     1
100
AcDbMText
 10
132.2908550222901
 20
275.0291998701318
 30
0.0
 40
3.5
 41
0.0
 71
     5
 72
     1
  1
\A1;113
 11
0.9986295347545746
 21
0.0523359562429277
 31
0.0
 73
     1
 44
1.0
  0
POINT
  5
101A
330
DC4
100
AcDbEntity
  8
DEFPOINTS
 62
     0
100
AcDbPoint
 10
79.05223571413023
 20
211.3188445297413
 30
0.0
  0
POINT
  5
101B
330
DC4
100
AcDbEntity
  8
DEFPOINTS
 62
     0
100
AcDbPoint
 10
189.841060036103
 20
256.4695990200773
 30
0.0
  0
POINT
  5
101C
330
DC4
100
AcDbEntity
  8
DEFPOINTS
 62
     0
100
AcDbPoint
 10
188.8835155937128
 20
274.7406354099049
 30
0.0
  0
ENDBLK
  5
DCF
330
DC4
100
AcDbEntity
  8
0
100
AcDbBlockEnd
  0
BLOCK
  5
ED6
330
ECB
100
AcDbEntity
  8
0
100
AcDbBlockBegin
  2
*D6
 70
     1
 10
0.0
 20
0.0
 30
0.0
  3
*D6
  1

  0
LINE
  5
1027
330
ECB
100
AcDbEntity
  8
BEM
 62
     0
370
    -2
100
AcDbLine
 10
79.05223571413028
 20
212.3188445297413
 30
0.0
 11
79.05223571413033
 21
260.0629593540606
 31
0.0
  0
ARC
  5
1028
330
ECB
100
AcDbEntity
  8
BEM
 62
     0
370
    -2
100
AcDbCircle
 10
79.05223571413028
 20
211.3188445297413
 30
0.0
 40
47.74411482431925
100
AcDbArc
 50
7.201149382532536
 51
85.79885061746749
  0
SOLID
  5
1029
330
ECB
100
AcDbEntity
  8
BEM
 62
     0
100
AcDbTrace
 10
127.0007773171572
 20
217.3555798764148
 30
0.0
 11
125.8387304478076
 21
217.2518582077727
 31
0.0
 12
126.7309188884091
 22
213.817578434045
 32
0.0
 13
126.7309188884091
 23
213.817578434045
 33
0.0
  0
SOLID
  5
102A
330
ECB
100
AcDbEntity
  8
BEM
 62
     0
100
AcDbTrace
 10
82.52850246197278
 20
258.3517299426731
 30
0.0
 11
82.5712651495664
 21
259.5176126398862
 31
0.0
 12
79.05223571413031
 22
259.0629593540605
 32
0.0
 13
79.05223571413031
 23
259.0629593540605
 33
0.0
  0
MTEXT
  5
102B
330
ECB
100
AcDbEntity
  8
BEM
 62
     1
100
AcDbMText
 10
107.890740748934
 20
253.3752396923495
 30
0.0
 40
3.5
 41
0.0
 71
     5
 72
     1
  1
\A1;87°
 11
0.8247303695239628
 21
-0.5655261422647655
 31
0.0
 73
     1
 44
1.0
  0
POINT
  5
102C
330
ECB
100
AcDbEntity
  8
DEFPOINTS
 62
     0
100
AcDbPoint
 10
119.541541393568
 20
236.6193707289102
 30
0.0
  0
POINT
  5
102D
330
ECB
100
AcDbEntity
  8
DEFPOINTS
 62
     0
100
AcDbPoint
 10
79.05223571413028
 20
211.3188445297413
 30
0.0
  0
POINT
  5
102E
330
ECB
100
AcDbEntity
  8
DEFPOINTS
 62
     0
100
AcDbPoint
 10
196.8905208151699
 20
217.4944873664087
 30
0.0
  0
POINT
  5
102F
330
ECB
100
AcDbEntity
  8
DEFPOINTS
 62
     0
100
AcDbPoint
 10
79.05223571413028
 20
211.3188445297413
 30
0.0
  0
POINT
  5
1030
330
ECB
100
AcDbEntity
  8
DEFPOINTS
 62
     0
100
AcDbPoint
 10
79.05223571413024
 20
88.31884452974147
 30
0.0
  0
ENDBLK
  5
ED7
330
ECB
100
AcDbEntity
  8
0
100
AcDbBlockEnd
  0
BLOCK
  5
F0D
330
F07
100
AcDbEntity
  8
0
100
AcDbBlockBegin
  2
*D7
 70
     1
 10
0.0
 20
0.0
 30
0.0
  3
*D7
  1

  0
LINE
  5
100F
330
F07
100
AcDbEntity
  8
BEM
 62
     0
370
    -2
100
AcDbLine
 10
112.7662427545635
 20
192.1880586002608
 30
0.0
 11
105.8696232869918
 21
204.1796285988316
 31
0.0
  0
MTEXT
  5
1010
330
F07
100
AcDbEntity
  8
BEM
 62
     1
100
AcDbMText
 10
113.0076934952551
 20
198.2871278722287
 30
0.0
 40
3.5
 41
0.0
 71
     5
 72
     1
  1
\A1;R50
 11
0.4985508048847001
 21
-0.8668604818243924
 31
0.0
 73
     1
 44
1.0
  0
SOLID
  5
1011
330
F07
100
AcDbEntity
  8
BEM
 62
     0
100
AcDbTrace
 10
106.3752919013893
 20
204.470449901681
 30
0.0
 11
105.3639546725942
 21
203.8888072959822
 31
0.0
 12
104.1246954698953
 22
207.213640285217
 32
0.0
 13
104.1246954698953
 23
207.213640285217
 33
0.0
  0
POINT
  5
1012
330
F07
100
AcDbEntity
  8
DEFPOINTS
 62
     0
100
AcDbPoint
 10
104.1246954698953
 20
207.213640285217
 30
0.0
  0
POINT
  5
1013
330
F07
100
AcDbEntity
  8
DEFPOINTS
 62
     0
100
AcDbPoint
 10
129.0522357141304
 20
163.8706161939972
 30
0.0
  0
ENDBLK
  5
F0E
330
F07
100
AcDbEntity
  8
0
100
AcDbBlockEnd
  0
ENDSEC
  0
SECTION
  2
ENTITIES
  0
TEXT
  5
134
330
1E
100
AcDbEntity
  8
TEXT
100
AcDbText
 10
102.2108024290628
 20
31.54481959861755
 30
0.0
 40
2.0
  1
Koeh
 41
0.8
  7
GREEKS
 72
     1
 11
104.8393738576343
 21
31.54481959861755
 31
0.0
100
AcDbText
  0
INSERT
  5
135
330
1E
100
AcDbEntity
  8
STEMPEL
100
AcDbBlockReference
  2
LOGO
 10
75.4977742728897
 20
22.51052638224161
 30
0.0
  0
LINE
  5
136
330
1E
100
AcDbEntity
  8
HILF
100
AcDbLine
 10
210.0
 20
0.0
 30
0.0
 11
0.0
 21
0.0
 31
0.0
  0
LINE
  5
137
330
1E
100
AcDbEntity
  8
HILF
100
AcDbLine
 10
210.0
 20
297.0000000000001
 30
0.0
 11
0.0
 21
297.0
 31
0.0
  0
LINE
  5
138
330
1E
100
AcDbEntity
  8
STEMPEL
100
AcDbLine
 10
205.0
 20
292.0
 30
0.0
 11
19.99999999999994
 21
292.0
 31
0.0
  0
LINE
  5
139
330
1E
100
AcDbEntity
  8
STEMPEL
100
AcDbLine
 10
205.0
 20
5.0
 30
0.0
 11
19.99999999999994
 21
5.0
 31
0.0
  0
LINE
  5
13A
330
1E
100
AcDbEntity
  8
STEMPEL
100
AcDbLine
 10
24.99999999999995
 20
5.0
 30
0.0
 11
205.0
 21
5.0
 31
0.0
  0
TEXT
  5
13B
330
1E
100
AcDbEntity
  8
TEXT
100
AcDbText
 10
101.2313292113147
 20
36.65480545957612
 30
0.0
 40
2.0
  1
Name
 41
0.8
  7
GREEKS
100
AcDbText
  0
TEXT
  5
13C
330
1E
100
AcDbEntity
  8
TEXT
100
AcDbText
 10
98.27491395507747
 20
51.32531138882947
 30
0.0
 40
2.5
  1
Zul. Abw.
 41
0.8
  7
GREEKS
 72
     4
 11
104.9891996693631
 21
52.57531138882947
 31
0.0
100
AcDbText
  0
LINE
  5
13D
330
1E
100
AcDbEntity
  8
HILF
100
AcDbLine
 10
73.00000000000006
 20
24.99999999999999
 30
0.0
 11
115.0
 21
24.99999999999999
 31
0.0
  0
LINE
  5
13E
330
1E
100
AcDbEntity
  8
HILF
100
AcDbLine
 10
73.00000000000006
 20
29.99999999999999
 30
0.0
 11
115.0
 21
29.99999999999999
 31
0.0
  0
LINE
  5
13F
330
1E
100
AcDbEntity
  8
HILF
100
AcDbLine
 10
73.00000000000006
 20
34.99999999999997
 30
0.0
 11
115.0
 21
34.99999999999997
 31
0.0
  0
LINE
  5
140
330
1E
100
AcDbEntity
  8
STEMPEL
100
AcDbLine
 10
205.0
 20
40.0
 30
0.0
 11
73.00000000000006
 21
39.99999999999997
 31
0.0
  0
LINE
  5
141
330
1E
100
AcDbEntity
  8
STEMPEL
100
AcDbLine
 10
205.0
 20
20.0
 30
0.0
 11
73.00000000000006
 21
19.99999999999998
 31
0.0
  0
LINE
  5
142
330
1E
100
AcDbEntity
  8
STEMPEL
100
AcDbLine
 10
205.0
 20
55.00000000000003
 30
0.0
 11
19.99999999999998
 21
55.0
 31
0.0
  0
LINE
  5
143
330
1E
100
AcDbEntity
  8
MITTEL
100
AcDbLine
 10
79.05223571413026
 20
211.3188445297413
 30
0.0
 11
79.05223571413023
 21
88.31884452974145
 31
0.0
  0
LINE
  5
144
330
1E
100
AcDbEntity
  8
HILF
100
AcDbLine
 10
0.0
 20
0.0
 30
0.0
 11
-0.0000000000000568
 21
297.0
 31
0.0
  0
LINE
  5
145
330
1E
100
AcDbEntity
  8
STEMPEL
100
AcDbLine
 10
20.0
 20
5.0
 30
0.0
 11
19.99999999999994
 21
292.0
 31
0.0
  0
LINE
  5
148
330
1E
100
AcDbEntity
  8
HILF
100
AcDbLine
 10
20.00000000000004
 20
19.99999999999998
 30
0.0
 11
73.00000000000006
 21
19.99999999999998
 31
0.0
  0
LINE
  5
149
330
1E
100
AcDbEntity
  8
HILF
100
AcDbLine
 10
20.00000000000004
 20
24.99999999999999
 30
0.0
 11
73.00000000000006
 21
24.99999999999999
 31
0.0
  0
LINE
  5
14A
330
1E
100
AcDbEntity
  8
HILF
100
AcDbLine
 10
20.00000000000004
 20
29.99999999999999
 30
0.0
 11
73.00000000000006
 21
29.99999999999999
 31
0.0
  0
LINE
  5
14B
330
1E
100
AcDbEntity
  8
HILF
100
AcDbLine
 10
20.00000000000004
 20
34.99999999999997
 30
0.0
 11
73.00000000000006
 21
34.99999999999997
 31
0.0
  0
LINE
  5
14C
330
1E
100
AcDbEntity
  8
HILF
100
AcDbLine
 10
20.00000000000004
 20
39.99999999999997
 30
0.0
 11
73.00000000000006
 21
39.99999999999997
 31
0.0
  0
LINE
  5
14D
330
1E
100
AcDbEntity
  8
HILF
100
AcDbLine
 10
20.00000000000004
 20
45.00000000000002
 30
0.0
 11
73.00000000000006
 21
45.00000000000002
 31
0.0
  0
LINE
  5
14E
330
1E
100
AcDbEntity
  8
HILF
100
AcDbLine
 10
20.00000000000004
 20
50.00000000000003
 30
0.0
 11
73.00000000000006
 21
50.00000000000003
 31
0.0
  0
LINE
  5
14F
330
1E
100
AcDbEntity
  8
STEMPEL
100
AcDbLine
 10
72.99999999999994
 20
14.99999999999998
 30
0.0
 11
19.99999999999998
 21
14.99999999999998
 31
0.0
  0
TEXT
  5
150
330
1E
100
AcDbEntity
  8
TEXT
100
AcDbText
 10
24.13320553522878
 20
6.827329230135958
 30
0.0
 40
2.0
  1
Index
 50
90.0
 41
0.8
  7
GREEKS
100
AcDbText
  0
LINE
  5
151
330
1E
100
AcDbEntity
  8
VOLL
100
AcDbLine
 10
27.00000000000005
 20
55.00000000000003
 30
0.0
 11
26.99999999999999
 21
4.999999999999985
 31
0.0
  0
LINE
  5
152
330
1E
100
AcDbEntity
  8
HILF
100
AcDbLine
 10
15.54383567856928
 20
148.5
 30
0.0
 11
0.0000000000000568
 21
148.5
 31
0.0
  0
LINE
  5
154
330
1E
100
AcDbEntity
  8
VOLL
100
AcDbLine
 10
62.00000000000006
 20
54.99999999999997
 30
0.0
 11
62.0
 21
4.999999999999985
 31
0.0
  0
LINE
  5
155
330
1E
100
AcDbEntity
  8
VOLL
100
AcDbLine
 10
52.00000000000006
 20
54.99999999999997
 30
0.0
 11
52.0
 21
4.999999999999985
 31
0.0
  0
LINE
  5
157
330
1E
100
AcDbEntity
  8
STEMPEL
100
AcDbLine
 10
73.00000000000006
 20
54.99999999999997
 30
0.0
 11
73.0
 21
4.999999999999985
 31
0.0
  0
TEXT
  5
159
330
1E
100
AcDbEntity
  8
TEXT
100
AcDbText
 10
86.16558365768254
 20
36.65940250614963
 30
0.0
 40
2.0
  1
Tag
 41
0.8
  7
GREEKS
100
AcDbText
  0
TEXT
  5
15A
330
1E
100
AcDbEntity
  8
TEXT
100
AcDbText
 10
73.79180635838077
 20
31.81495184808982
 30
0.0
 40
2.0
  1
Gez.
 41
0.8
  7
GREEKS
100
AcDbText
  0
LINE
  5
15B
330
1E
100
AcDbEntity
  8
VOLL
100
AcDbLine
 10
82.00000000000006
 20
39.99999999999997
 30
0.0
 11
82.00000000000006
 21
19.99999999999998
 31
0.0
  0
TEXT
  5
15C
330
1E
100
AcDbEntity
  8
TEXT
100
AcDbText
 10
73.80033886936519
 20
21.76473194824904
 30
0.0
 40
2.0
  1
Norm.
 41
0.8
  7
GREEKS
100
AcDbText
  0
TEXT
  5
15D
330
1E
100
AcDbEntity
  8
TEXT
100
AcDbText
 10
73.77575432858361
 20
26.84463145714189
 30
0.0
 40
2.0
  1
Gepr.
 41
0.8
  7
GREEKS
100
AcDbText
  0
TEXT
  5
15E
330
1E
100
AcDbEntity
  8
TEXT
 62
     1
100
AcDbText
 10
80.25031532409434
 20
44.07450714456979
 30
0.0
 40
3.5
  1
1:1
 41
0.8
  7
GREEKS
100
AcDbText
  0
TEXT
  5
160
330
1E
100
AcDbEntity
  8
TEXT
100
AcDbText
 10
74.31105491105199
 20
36.57012735575833
 30
0.0
 40
2.0
  1
2008
 41
0.8
  7
GREEKS
100
AcDbText
  0
LINE
  5
161
330
1E
100
AcDbEntity
  8
VOLL
100
AcDbLine
 10
95.00000000000005
 20
54.99999999999992
 30
0.0
 11
95.0
 21
19.99999999999998
 31
0.0
  0
INSERT
  5
185
330
1E
100
AcDbEntity
  8
TEXT
100
AcDbBlockReference
  2
INDEX
 10
210.0
 20
0.0
 30
0.0
  0
LINE
  5
186
330
1E
100
AcDbEntity
  8
HILF
100
AcDbLine
 10
210.0
 20
-0.0000000000000568
 30
0.0
 11
210.0
 21
297.0
 31
0.0
  0
LINE
  5
187
330
1E
100
AcDbEntity
  8
STEMPEL
100
AcDbLine
 10
205.0
 20
5.0
 30
0.0
 11
205.0
 21
292.0
 31
0.0
  0
TEXT
  5
188
330
1E
100
AcDbEntity
  8
TEXT
100
AcDbText
 10
168.6200430748503
 20
26.03708088939301
 30
0.0
 40
2.5
  1
ersetzt durch:
 41
0.8
  7
GREEKS
100
AcDbText
  0
TEXT
  5
18A
330
1E
100
AcDbEntity
  8
TEXT
100
AcDbText
 10
168.089377478817
 20
51.15660172685682
 30
0.0
 40
2.5
  1
Zeichnungs Nr.
 41
0.8
  7
GREEKS
100
AcDbText
  0
LINE
  5
18B
330
1E
100
AcDbEntity
  8
HILF
100
AcDbLine
 10
116.7454849644942
 20
7.446991290141568
 30
0.0
 11
202.4294419663364
 21
7.446991290141568
 31
0.0
  0
LINE
  5
18C
330
1E
100
AcDbEntity
  8
HILF
100
AcDbLine
 10
168.3619308148496
 20
41.88991818477913
 30
0.0
 11
202.4294419663364
 21
41.88991818477913
 31
0.0
  0
LINE
  5
18D
330
1E
100
AcDbEntity
  8
VOLL
100
AcDbLine
 10
166.0
 20
30.0
 30
0.0
 11
205.0
 21
30.0
 31
0.0
  0
TEXT
  5
18E
330
1E
100
AcDbEntity
  8
TEXT
 62
     1
100
AcDbText
 10
117.4641932160007
 20
43.70874394626889
 30
0.0
 40
3.5
  1
Bogen DN70 87°
 41
0.8
  7
GREEKS
100
AcDbText
  0
LINE
  5
18F
330
1E
100
AcDbEntity
  8
HILF
100
AcDbLine
 10
117.3868400548473
 20
24.99999999999999
 30
0.0
 11
162.4176958278155
 21
24.99999999999999
 31
0.0
  0
LINE
  5
190
330
1E
100
AcDbEntity
  8
HILF
100
AcDbLine
 10
117.3868400548473
 20
29.99999999999999
 30
0.0
 11
162.4176958278155
 21
29.99999999999999
 31
0.0
  0
LINE
  5
191
330
1E
100
AcDbEntity
  8
HILF
100
AcDbLine
 10
117.3868400548473
 20
34.99999999999997
 30
0.0
 11
162.4176958278155
 21
34.99999999999997
 31
0.0
  0
LINE
  5
192
330
1E
100
AcDbEntity
  8
HILF
100
AcDbLine
 10
117.3868400548473
 20
42.01879123782069
 30
0.0
 11
162.4176958278155
 21
42.01879123782069
 31
0.0
  0
LINE
  5
193
330
1E
100
AcDbEntity
  8
STEMPEL
100
AcDbLine
 10
115.0
 20
55.00000000000003
 30
0.0
 11
115.0
 21
4.999999999999985
 31
0.0
  0
TEXT
  5
194
330
1E
100
AcDbEntity
  8
TEXT
100
AcDbText
 10
117.5648195562657
 20
35.75167208792644
 30
0.0
 40
2.5
  1
mit engem Radius
 41
0.8
  7
GREEKS
100
AcDbText
  0
TEXT
  5
195
330
1E
100
AcDbEntity
  8
TEXT
100
AcDbText
 10
117.4918750788913
 20
21.31487076511316
 30
0.0
 40
2.0
  1
5350070W.DWG
 41
0.8
  7
GREEKS
100
AcDbText
  0
TEXT
  5
196
330
1E
100
AcDbEntity
  8
TEXT
100
AcDbText
 10
117.371119195568
 20
15.42280285096528
 30
0.0
 40
2.5
  1
Bauvorhaben
 41
0.8
  7
GREEKS
100
AcDbText
  0
TEXT
  5
197
330
1E
100
AcDbEntity
  8
TEXT
100
AcDbText
 10
117.4389701904505
 20
51.27446640058898
 30
0.0
 40
2.5
  1
Benennung
 41
0.8
  7
GREEKS
100
AcDbText
  0
LINE
  5
198
330
1E
100
AcDbEntity
  8
STEMPEL
100
AcDbLine
 10
166.0
 20
54.99999999999989
 30
0.0
 11
166.0
 21
20.0
 31
0.0
  0
TEXT
  5
19A
330
1E
100
AcDbEntity
  8
TEXT
 62
     1
100
AcDbText
 10
174.1585753175617
 20
44.07450714456979
 30
0.0
 40
3.5
  1
5350070W
 41
0.8
  7
GREEKS
 72
     1
 11
184.8252419842284
 21
44.07450714456979
 31
0.0
100
AcDbText
  0
LINE
  5
1D4
330
1E
100
AcDbEntity
  8
STEMPEL
100
AcDbLine
 10
115.1147923965006
 20
93.31884452974138
 30
0.0
 11
42.98967903175982
 21
93.31884452974119
 31
0.0
  0
LINE
  5
1D7
330
1E
100
AcDbEntity
  8
STEMPEL
100
AcDbLine
 10
42.55223571413023
 20
98.31884452974119
 30
0.0
 11
42.98967903175982
 21
93.31884452974119
 31
0.0
  0
LINE
  5
1D8
330
1E
100
AcDbEntity
  8
STEMPEL
100
AcDbLine
 10
115.5522357141302
 20
98.31884452974184
 30
0.0
 11
115.1147923965006
 21
93.31884452974138
 31
0.0
  0
DIMENSION
  5
1DB
330
1E
100
AcDbEntity
  8
BEM
100
AcDbDimension
  2
*D2
 10
32.75962058099867
 20
211.3188445297413
 30
0.0
 11
29.50962058099863
 21
152.3188445297413
 31
0.0
 70
    32
 71
     5
 42
118.0000000000001
  3
Standard
100
AcDbAlignedDimension
 13
42.98967903175982
 23
93.3188445297412
 33
0.0
 14
79.05223571413026
 24
211.3188445297413
 34
0.0
 50
90.0
100
AcDbRotatedDimension
1001
ACAD
1000
DSTYLE
1002
{
1070
    41
1040
3.5
1070
    42
1040
1.0
1070
    43
1040
7.0
1070
    44
1040
1.0
1070
    73
1070
     0
1070
    74
1070
     0
1070
    77
1070
     1
1070
    78
1070
     8
1070
    79
1070
     2
1070
   140
1040
3.5
1070
   141
1040
1.5
1070
   146
1040
0.5142857142857144
1070
   147
1040
1.5
1070
   172
1070
     1
1070
   178
1070
     1
1070
   179
1070
     2
1070
   271
1070
     2
1070
   272
1070
     2
1070
   284
1070
     8
1070
   285
1070
     8
1070
   286
1070
     8
1002
}
  0
TEXT
  5
212
330
1E
100
AcDbEntity
  8
TEXT
100
AcDbText
 10
117.5648195562657
 20
25.75167208792646
 30
0.0
 40
2.5
  1
EDV-Art.Nr. 5.350.070C
 41
0.8
  7
GREEKS
100
AcDbText
  0
DIMENSION
  5
22F
330
1E
100
AcDbEntity
  8
BEM
100
AcDbDimension
  2
*D3
 10
115.5522357141301
 20
121.2074485497198
 30
0.0
 11
126.7189023807968
 21
124.4574485497198
 31
0.0
 70
    32
  1
1.2
 71
     5
 42
1.249999999999943
  3
Standard
100
AcDbAlignedDimension
 13
114.3022357141302
 23
121.2074485497197
 33
0.0
 14
115.5522357141301
 24
121.2074485497197
 34
0.0
 50
359.9999999999999
100
AcDbRotatedDimension
1001
ACAD
1000
DSTYLE
1002
{
1070
    41
1040
3.5
1070
    42
1040
1.0
1070
    43
1040
7.0
1070
    44
1040
1.0
1070
    73
1070
     0
1070
    74
1070
     0
1070
    77
1070
     1
1070
    78
1070
     8
1070
    79
1070
     2
1070
   140
1040
3.5
1070
   141
1040
1.5
1070
   146
1040
0.5142857142857144
1070
   147
1040
1.5
1070
   172
1070
     1
1070
   178
1070
     1
1070
   179
1070
     2
1070
   271
1070
     2
1070
   272
1070
     2
1070
   284
1070
     8
1070
   285
1070
     8
1070
   286
1070
     8
1002
}
  0
SPLINE
  5
245
330
1E
100
AcDbEntity
  8
HILF
100
AcDbSpline
210
0.0
220
0.0
230
1.0
 70
     8
 71
     3
 72
    12
 73
     8
 74
     0
 42
0.0000000001
 43
0.0000000001
 40
2.138629919121485
 40
2.138629919121485
 40
2.138629919121485
 40
2.138629919121485
 40
10.76787928474789
 40
17.4419291888726
 40
23.68963923458831
 40
31.50224989214767
 40
33.76007931497468
 40
33.76007931497468
 40
33.76007931497468
 40
33.76007931497468
 10
115.552235714139
 20
142.1510282961848
 30
0.0
 10
109.9052843795725
 20
140.2718343632992
 30
0.0
 10
100.3717911137608
 20
136.2745036901825
 30
0.0
 10
92.99363994421046
 20
122.2866461869553
 30
0.0
 10
97.27559779209556
 20
107.8340301621972
 30
0.0
 10
107.4559951366371
 20
101.67750405444
 30
0.0
 10
114.060016606523
 20
100.4828385329547
 30
0.0
 10
115.5522357141362
 20
100.3087900187999
 30
0.0
  0
TEXT
  5
255
330
1E
100
AcDbEntity
  8
TEXT
 62
     1
100
AcDbText
 10
148.5286824677853
 20
66.1124331841006
 30
0.0
 40
3.5
  1
Werkstoff: 1.4404
 41
0.8
  7
GREEKS
100
AcDbText
  0
TEXT
  5
25D
330
1E
100
AcDbEntity
  8
TEXT
 62
     1
100
AcDbText
 10
170.0972128791534
 20
228.6701093268884
 30
0.0
 40
3.5
  1
DN70
 50
2.999999999999978
 41
0.8
  7
GREEKS
100
AcDbText
  0
LINE
  5
CE5
330
1E
100
AcDbEntity
  8
HILF
100
AcDbLine
 10
114.3022357141302
 20
98.31884452974144
 30
0.0
 11
43.80223571413023
 21
98.31884452974149
 31
0.0
  0
LINE
  5
CF2
330
1E
100
AcDbEntity
  8
STEMPEL
100
AcDbLine
 10
114.3022357141302
 20
141.7266342912684
 30
0.0
 11
114.3022357141302
 21
100.4777685338804
 31
0.0
  0
HATCH
  5
D35
330
1E
100
AcDbEntity
  8
SCHRAFF
100
AcDbHatch
 10
0.0
 20
0.0
 30
0.0
210
0.0
220
0.0
230
1.0
  2
_USER
 70
     0
 71
     0
 91
        2
 92
        5
 93
        4
 72
     1
 10
114.3022357141302
 20
121.2074485497197
 11
115.5522357141301
 21
121.2074485497197
 72
     1
 10
115.5522357141301
 20
121.2074485497197
 11
115.5522357141302
 21
142.1510282961818
 72
     4
 94
        3
 73
     0
 74
     0
 95
        8
 96
        4
 40
2.138629919121485
 40
2.138629919121485
 40
2.138629919121485
 40
2.138629919121485
 40
2.777849339960326
 40
2.777849339960326
 40
2.777849339960326
 40
2.777849339960326
 10
115.552235714139
 20
142.1510282961848
 10
115.1339327066995
 20
142.0118253126428
 10
114.717117781403
 20
141.8705655614815
 10
114.3022357141301
 20
141.7266342912684
 72
     1
 10
114.3022357141302
 20
141.7266342912685
 11
114.3022357141302
 21
121.2074485497197
 97
        0
 92
        5
 93
        4
 72
     4
 94
        3
 73
     0
 74
     0
 95
        8
 96
        4
 40
33.12821206777753
 40
33.12821206777753
 40
33.12821206777753
 40
33.12821206777753
 40
33.76007931497468
 40
33.76007931497468
 40
33.76007931497468
 40
33.76007931497468
 10
114.3022357141399
 20
100.4777685339601
 10
114.7179290139843
 20
100.4135534315825
 10
115.1346291535122
 20
100.3574985502796
 10
115.5522357141362
 20
100.3087900187999
 72
     1
 10
115.5522357141302
 20
100.3087900188006
 11
115.5522357141302
 21
121.2074485497198
 72
     1
 10
115.5522357141302
 20
121.2074485497198
 11
114.3022357141302
 21
121.2074485497198
 72
     1
 10
114.3022357141302
 20
121.2074485497197
 11
114.3022357141302
 21
100.4777685339615
 97
        0
 75
     0
 76
     0
 52
44.99999999999996
 41
1.999999999999999
 77
     0
 78
     1
 53
44.99999999999996
 43
-145.9477642858698
 44
-158.8130443483951
 45
-1.414213562373094
 46
1.414213562373095
 79
     0
 47
0.1240287731712807
 98
        2
 10
114.8002551098347
 20
131.6556145517927
 10
114.8002551098347
 20
116.896189861214
  0
DIMENSION
  5
D41
330
1E
100
AcDbEntity
  8
BEM
100
AcDbDimension
  2
*D4
 10
115.5522357141302
 20
79.53130171373056
 30
0.0
 11
79.05223571413021
 21
82.78130171373055
 31
0.0
 70
    32
  1
%%c<>
 71
     5
 42
72.99999999999998
  3
Standard
100
AcDbAlignedDimension
 13
42.55223571413021
 23
98.31884452974142
 33
0.0
 14
115.5522357141302
 24
98.31884452974172
 34
0.0
 50
359.9999999999999
100
AcDbRotatedDimension
1001
ACAD
1000
DSTYLE
1002
{
1070
    41
1040
3.5
1070
    42
1040
1.0
1070
    43
1040
7.0
1070
    44
1040
1.0
1070
    73
1070
     0
1070
    74
1070
     0
1070
    77
1070
     1
1070
    78
1070
     8
1070
    79
1070
     2
1070
   140
1040
3.5
1070
   141
1040
1.5
1070
   146
1040
0.5142857142857144
1070
   147
1040
1.5
1070
   172
1070
     1
1070
   178
1070
     1
1070
   179
1070
     2
1070
   271
1070
     2
1070
   272
1070
     2
1070
   284
1070
     8
1070
   285
1070
     8
1070
   286
1070
     8
1002
}
  0
LINE
  5
D68
330
1E
100
AcDbEntity
  8
STEMPEL
100
AcDbLine
 10
115.5522357141302
 20
163.8706161939972
 30
0.0
 11
115.5522357141302
 21
98.31884452974172
 31
0.0
  0
LINE
  5
D69
330
1E
100
AcDbEntity
  8
STEMPEL
100
AcDbLine
 10
42.55223571413026
 20
163.8706161939973
 30
0.0
 11
42.55223571413021
 21
98.31884452974142
 31
0.0
  0
LINE
  5
DAD
330
1E
100
AcDbEntity
  8
HILF
  6
Continuous
100
AcDbLine
 10
133.2317831872048
 20
249.8807863511025
 30
0.0
 11
136.9658024764511
 21
178.6314538983777
 31
0.0
  0
LINE
  5
DAE
330
1E
100
AcDbEntity
  8
HILF
  6
Continuous
100
AcDbLine
 10
159.4455042708336
 20
253.7161187322773
 30
0.0
 11
163.436823453122
 21
177.5572118506829
 31
0.0
  0
LINE
  5
DAF
330
1E
100
AcDbEntity
  8
HILF
  6
Continuous
100
AcDbLine
 10
137.6476169924319
 20
252.0196574691798
 30
0.0
 11
141.5810187931572
 21
176.9658800617844
 31
0.0
  0
LINE
  5
DB1
330
1E
100
AcDbEntity
  8
STEMPEL
100
AcDbLine
 10
193.953686246691
 20
177.9960161503105
 30
0.0
 11
189.841060036103
 21
256.4695990200773
 31
0.0
  0
LINE
  5
DB2
330
1E
100
AcDbEntity
  8
STEMPEL
100
AcDbLine
 10
130.425306237314
 20
250.5612836997366
 30
0.0
 11
124.5251754991155
 21
250.252070950268
 31
0.0
  0
DIMENSION
  5
DB3
330
1E
100
AcDbEntity
  8
BEM
100
AcDbDimension
  2
*D5
 10
188.8835155937128
 20
274.7406354099049
 30
0.0
 11
132.2908550222901
 21
275.0291998701318
 31
0.0
 70
    32
 71
     5
 42
112.9999999999993
  3
Standard
100
AcDbAlignedDimension
 13
79.05223571413023
 23
211.3188445297413
 33
0.0
 14
189.841060036103
 24
256.4695990200773
 34
0.0
 50
2.999999999999078
100
AcDbRotatedDimension
1001
ACAD
1000
DSTYLE
1002
{
1070
    41
1040
3.5
1070
    42
1040
1.0
1070
    43
1040
7.0
1070
    44
1040
1.0
1070
    73
1070
     0
1070
    74
1070
     0
1070
    77
1070
     1
1070
    78
1070
     8
1070
    79
1070
     2
1070
   140
1040
3.5
1070
   141
1040
1.5
1070
   146
1040
0.5142857142857144
1070
   147
1040
1.5
1070
   172
1070
     1
1070
   178
1070
     1
1070
   179
1070
     2
1070
   271
1070
     2
1070
   272
1070
     2
1070
   284
1070
     8
1070
   285
1070
     8
1070
   286
1070
     8
1002
}
  0
LINE
  5
DB4
330
1E
100
AcDbEntity
  8
STEMPEL
100
AcDbLine
 10
156.8958638459442
 20
254.6021835572832
 30
0.0
 11
140.1281847505428
 21
253.7234267321626
 31
0.0
  0
ARC
  5
DB5
330
1E
100
AcDbEntity
  8
STEMPEL
100
AcDbCircle
 10
130.0066185873705
 20
258.5503199777731
 30
0.0
 40
8.0
100
AcDbArc
 50
273.0
 51
303.1013105468023
  0
ARC
  5
DB6
330
1E
100
AcDbEntity
  8
STEMPEL
100
AcDbCircle
 10
140.7378986407731
 20
242.0893926522716
 30
0.0
 40
11.65
100
AcDbArc
 50
92.99999999999997
 51
123.1013105468008
  0
LINE
  5
DB7
330
1E
100
AcDbEntity
  8
STEMPEL
100
AcDbLine
 10
179.2332723645133
 20
258.2762683976743
 30
0.0
 11
170.1826692694041
 21
257.8019463882874
 31
0.0
  0
ARC
  5
DB8
330
1E
100
AcDbEntity
  8
STEMPEL
100
AcDbCircle
 10
156.2495147863438
 20
266.9352583115021
 30
0.0
 40
12.35
100
AcDbArc
 50
273.0
 51
294.1831543930343
  0
ARC
  5
DB9
330
1E
100
AcDbEntity
  8
STEMPEL
100
AcDbCircle
 10
171.4067821563941
 20
233.1822710974376
 30
0.0
 40
24.65009324312573
100
AcDbArc
 50
92.83825256874436
 51
114.1831543930343
  0
ARC
  5
DBA
330
1E
100
AcDbEntity
  8
STEMPEL
100
AcDbCircle
 10
180.4982743425177
 20
233.6587495075376
 30
0.0
 40
24.65
100
AcDbArc
 50
67.72715153216371
 51
93.06149027010311
  0
LINE
  5
DBB
330
1E
100
AcDbEntity
  8
STEMPEL
100
AcDbLine
 10
134.2458310430489
 20
177.6613276626526
 30
0.0
 11
128.3457003048505
 21
177.352114913184
 31
0.0
  0
LINE
  5
DBC
330
1E
100
AcDbEntity
  8
MITTEL
100
AcDbLine
 10
196.8905208151699
 20
217.4944873664087
 30
0.0
 11
79.05223571413026
 21
211.3188445297413
 31
0.0
  0
LINE
  5
DBD
330
1E
100
AcDbEntity
  8
STEMPEL
100
AcDbLine
 10
160.9937692197666
 20
176.4094909860001
 30
0.0
 11
144.2260901243654
 21
175.5307341608794
 31
0.0
  0
ARC
  5
DBE
330
1E
100
AcDbEntity
  8
STEMPEL
100
AcDbCircle
 10
134.6645186929924
 20
169.6722913846161
 30
0.0
 40
8.0
100
AcDbArc
 50
62.89868945319764
 51
92.99999999999997
  0
ARC
  5
DBF
330
1E
100
AcDbEntity
  8
STEMPEL
100
AcDbCircle
 10
143.616376234135
 20
187.1647682407703
 30
0.0
 40
11.65
100
AcDbArc
 50
242.8986894531991
 51
273.0
  0
LINE
  5
DC0
330
1E
100
AcDbEntity
  8
STEMPEL
100
AcDbLine
 10
183.5928575195504
 20
175.0904281526183
 30
0.0
 11
174.5422544244412
 21
174.6161061432314
 31
0.0
  0
ARC
  5
DC1
330
1E
100
AcDbEntity
  8
STEMPEL
100
AcDbCircle
 10
173.1862046686542
 20
199.228866915782
 30
0.0
 40
24.65009324312573
100
AcDbArc
 50
251.8168456069657
 51
273.1617474312556
  0
ARC
  5
DC2
330
1E
100
AcDbEntity
  8
STEMPEL
100
AcDbCircle
 10
161.640118279367
 20
164.076416231781
 30
0.0
 40
12.35
100
AcDbArc
 50
71.81684560696567
 51
92.99999999999997
  0
ARC
  5
DC3
330
1E
100
AcDbEntity
  8
STEMPEL
100
AcDbCircle
 10
182.2776982653116
 20
199.7053184112926
 30
0.0
 40
24.65
100
AcDbArc
 50
272.9385097298969
 51
298.2728484678363
  0
ARC
  5
EC6
330
1E
100
AcDbEntity
  8
MITTEL
100
AcDbCircle
 10
129.0522357141302
 20
163.8706161939972
 30
0.0
 40
50.0
100
AcDbArc
 50
93.00000000000006
 51
179.9999999999999
  0
ARC
  5
EC7
102
{ACAD_REACTORS
330
EFF
102
}
330
1E
100
AcDbEntity
  8
STEMPEL
100
AcDbCircle
 10
129.0522357141302
 20
163.8706161939972
 30
0.0
 40
86.5
100
AcDbArc
 50
93.00000000000006
 51
179.9999999999999
  0
ARC
  5
EC8
102
{ACAD_REACTORS
330
F02
102
}
330
1E
100
AcDbEntity
  8
STEMPEL
100
AcDbCircle
 10
129.0522357141302
 20
163.8706161939972
 30
0.0
 40
13.5
100
AcDbArc
 50
93.00000000000006
 51
179.9999999999999
  0
LINE
  5
EC9
330
1E
100
AcDbEntity
  8
STEMPEL
100
AcDbLine
 10
66.30735262156739
 20
223.413286991507
 30
0.0
 11
119.2596817054643
 21
173.1634029658629
 31
0.0
  0
DIMENSION
  5
ECA
330
1E
100
AcDbEntity
  8
BEM
100
AcDbDimension
  2
*D6
 10
79.05223571413023
 20
88.31884452974145
 30
0.0
 11
106.0527807865735
 21
250.6948659913966
 31
0.0
 70
   162
 71
     5
 42
1.518436449235065
  3
Standard
100
AcDb2LineAngularDimension
 13
196.8905208151699
 23
217.4944873664087
 33
0.0
 14
79.05223571413026
 24
211.3188445297413
 34
0.0
 15
79.05223571413026
 25
211.3188445297413
 35
0.0
 16
119.541541393568
 26
236.6193707289102
 36
0.0
1001
ACAD
1000
DSTYLE
1002
{
1070
    41
1040
3.5
1070
    42
1040
1.0
1070
    43
1040
7.0
1070
    44
1040
1.0
1070
    73
1070
     0
1070
    74
1070
     0
1070
    77
1070
     1
1070
    78
1070
     8
1070
    79
1070
     2
1070
   140
1040
3.5
1070
   141
1040
1.5
1070
   146
1040
0.5142857142857144
1070
   147
1040
1.5
1070
   172
1070
     1
1070
   178
1070
     1
1070
   179
1070
     2
1070
   271
1070
     2
1070
   272
1070
     2
1070
   284
1070
     8
1070
   285
1070
     8
1070
   286
1070
     8
1002
}
  0
ARC
  5
EE7
330
1E
100
AcDbEntity
  8
SCHRAFF
100
AcDbCircle
 10
64.49391669403667
 20
225.1341734307414
 30
0.0
 40
5.0
100
AcDbArc
 50
286.5
 51
346.4999999999999
  0
ARC
  5
EE8
330
1E
100
AcDbEntity
  8
SCHRAFF
100
AcDbCircle
 10
68.1207885490981
 20
221.6924005522726
 30
0.0
 40
5.0
100
AcDbArc
 50
286.5
 51
346.4999999999999
  0
ARC
  5
EE9
330
1E
100
AcDbEntity
  8
SCHRAFF
100
AcDbCircle
 10
71.74766040415955
 20
218.2506276738038
 30
0.0
 40
5.0
100
AcDbArc
 50
286.5000000000004
 51
346.5000000000003
  0
ARC
  5
EEA
330
1E
100
AcDbEntity
  8
SCHRAFF
100
AcDbCircle
 10
75.37453225922101
 20
214.8088547953351
 30
0.0
 40
5.0
100
AcDbArc
 50
286.5
 51
346.4999999999999
  0
ARC
  5
EEC
330
1E
100
AcDbEntity
  8
SCHRAFF
100
AcDbCircle
 10
79.00140411428243
 20
211.3670819168663
 30
0.0
 40
5.0
100
AcDbArc
 50
286.5
 51
346.4999999999999
  0
ARC
  5
EED
330
1E
100
AcDbEntity
  8
SCHRAFF
100
AcDbCircle
 10
82.62827596934387
 20
207.9253090383975
 30
0.0
 40
5.0
100
AcDbArc
 50
286.5
 51
346.4999999999999
  0
ARC
  5
EEE
330
1E
100
AcDbEntity
  8
SCHRAFF
100
AcDbCircle
 10
86.2551478244053
 20
204.4835361599287
 30
0.0
 40
5.0
100
AcDbArc
 50
286.5
 51
346.4999999999999
  0
ARC
  5
EEF
330
1E
100
AcDbEntity
  8
SCHRAFF
100
AcDbCircle
 10
89.88201967946674
 20
201.04176328146
 30
0.0
 40
5.0
100
AcDbArc
 50
286.5000000000004
 51
346.5000000000003
  0
ARC
  5
EF0
330
1E
100
AcDbEntity
  8
SCHRAFF
100
AcDbCircle
 10
93.5088915345282
 20
197.5999904029912
 30
0.0
 40
5.0
100
AcDbArc
 50
286.5
 51
346.4999999999999
  0
ARC
  5
EF1
330
1E
100
AcDbEntity
  8
SCHRAFF
100
AcDbCircle
 10
97.13576338958963
 20
194.1582175245224
 30
0.0
 40
5.0
100
AcDbArc
 50
286.5
 51
346.4999999999999
  0
ARC
  5
EF2
330
1E
100
AcDbEntity
  8
SCHRAFF
100
AcDbCircle
 10
100.762635244651
 20
190.7164446460537
 30
0.0
 40
5.0
100
AcDbArc
 50
286.5
 51
346.4999999999999
  0
ARC
  5
EF3
330
1E
100
AcDbEntity
  8
SCHRAFF
100
AcDbCircle
 10
104.3895070997125
 20
187.2746717675849
 30
0.0
 40
5.0
100
AcDbArc
 50
286.5
 51
346.4999999999999
  0
ARC
  5
EF4
330
1E
100
AcDbEntity
  8
SCHRAFF
100
AcDbCircle
 10
108.0163789547739
 20
183.8328988891161
 30
0.0
 40
5.0
100
AcDbArc
 50
286.5000000000004
 51
346.5000000000003
  0
ARC
  5
EF5
330
1E
100
AcDbEntity
  8
SCHRAFF
100
AcDbCircle
 10
111.6432508098354
 20
180.3911260106473
 30
0.0
 40
5.0
100
AcDbArc
 50
286.5
 51
346.4999999999999
  0
ARC
  5
EF6
330
1E
100
AcDbEntity
  8
SCHRAFF
100
AcDbCircle
 10
115.2701226648968
 20
176.9493531321786
 30
0.0
 40
5.0
100
AcDbArc
 50
286.5
 51
346.4999999999999
  0
ARC
  5
EF8
102
{ACAD_REACTORS
330
F02
102
}
330
1E
100
AcDbEntity
  8
SCHRAFF
100
AcDbCircle
 10
117.9877511389165
 20
174.3704200048385
 30
0.0
 40
3.19344625107037
100
AcDbArc
 50
264.9774297756296
 51
8.022570224370285
  0
ARC
  5
EF9
102
{ACAD_REACTORS
330
EFF
102
}
330
1E
100
AcDbEntity
  8
SCHRAFF
100
AcDbCircle
 10
67.4953245150451
 20
222.2859437583435
 30
0.0
 40
2.969028029146136
100
AcDbArc
 50
79.14527423180647
 51
193.854725768193
  0
HATCH
  5
EFF
330
1E
100
AcDbEntity
  8
SCHRAFF
100
AcDbHatch
 10
0.0
 20
0.0
 30
0.0
210
0.0
220
0.0
230
1.0
  2
_USER
 70
     0
 71
     1
 91
        1
 92
        7
 72
     1
 73
     1
 93
        2
 10
64.61267737859277
 20
221.5749775674746
 42
-0.0144538860523412
 10
68.05445025706153
 20
225.201849422536
 42
0.5469706025359363
 97
        2
330
EF9
330
EC7
 75
     0
 76
     0
 52
-0.000000000000031
 41
0.1
 77
     0
 78
     1
 53
360.0
 43
-0.000000000000087
 44
0.0000000000001101
 45
0.0000000000000001
 46
0.1
 79
     0
 47
0.0563433416782171
 98
        1
 10
65.67150278702573
 20
223.8064078830303
  0
HATCH
  5
F02
330
1E
100
AcDbEntity
  8
SCHRAFF
100
AcDbHatch
 10
0.0
 20
0.0
 30
0.0
210
0.0
220
0.0
230
1.0
  2
_USER
 70
     0
 71
     1
 91
        1
 92
        7
 72
     1
 73
     1
 93
        2
 10
121.1499436686134
 20
174.8161075227299
 42
0.0934003354313593
 10
117.7081707901447
 20
171.1892356676685
 42
0.48258555043672
 97
        2
330
EC8
330
EF8
 75
     0
 76
     0
 52
-0.000000000000031
 41
0.1
 77
     0
 78
     1
 53
360.0
 43
-0.000000000000087
 44
0.0000000000001101
 45
0.0000000000000001
 46
0.1
 79
     0
 47
0.0539957026145032
 98
        1
 10
119.2379583902281
 20
172.0961327517649
  0
TEXT
  5
F03
330
1E
100
AcDbEntity
  8
TEXT
100
AcDbText
 10
117.5648195562657
 20
30.75167208792646
 30
0.0
 40
2.5
  1
dünnwandig
 41
0.8
  7
GREEKS
100
AcDbText
  0
DIMENSION
  5
F06
330
1E
100
AcDbEntity
  8
BEM
100
AcDbDimension
  2
*D7
 10
129.0522357141304
 20
163.8706161939972
 30
0.0
 11
110.1903969293259
 21
196.6668377563534
 31
0.0
 70
   164
 71
     5
 42
50.00000000000021
  3
Standard
100
AcDbRadialDimension
 15
104.1246954698953
 25
207.213640285217
 35
0.0
 40
0.0
1001
ACAD
1000
DSTYLE
1002
{
1070
    41
1040
3.5
1070
    42
1040
1.0
1070
    43
1040
7.0
1070
    44
1040
1.0
1070
    73
1070
     0
1070
    74
1070
     0
1070
    77
1070
     1
1070
    78
1070
     8
1070
    79
1070
     2
1070
   140
1040
3.5
1070
   141
1040
1.5
1070
   146
1040
0.5142857142857144
1070
   147
1040
1.5
1070
   172
1070
     1
1070
   178
1070
     1
1070
   179
1070
     2
1070
   271
1070
     2
1070
   272
1070
     2
1070
   284
1070
     8
1070
   285
1070
     8
1070
   286
1070
     8
1070
   288
1070
     1
1002
}
  0
TEXT
  5
F3D
330
1E
100
AcDbEntity
  8
TEXT
100
AcDbText
 10
20.92754975488837
 20
55.83599999999997
 30
0.0
 40
2.5
  1
Erstellt mit AUTOCAD 2004
 41
0.8
  7
GREEKS
100
AcDbText
  0
TEXT
  5
F3E
330
1E
100
AcDbEntity
  8
TEXT
100
AcDbText
 10
96.34413576239619
 20
44.50323185339641
 30
0.0
 40
2.0
  1
DIN EN1124-3
 41
0.8
  7
GREEKS
 72
     1
 11
104.8393738576343
 21
44.50323185339641
 31
0.0
100
AcDbText
  0
TEXT
  5
F3F
330
1E
100
AcDbEntity
  8
TEXT
100
AcDbText
 10
55.17481598333814
 20
9.33578134669905
 30
0.0
 40
2.0
  1
Tag
 41
0.8
  7
GREEKS
 72
     1
 11
57.04148265000481
 21
9.33578134669905
 31
0.0
100
AcDbText
  0
TEXT
  5
F40
330
1E
100
AcDbEntity
  8
TEXT
100
AcDbText
 10
33.49933939241158
 20
9.336909474920659
 30
0.0
 40
2.0
  1
Änderung
 41
0.8
  7
GREEKS
 72
     1
 11
38.87076796384015
 21
9.336909474920659
 31
0.0
100
AcDbText
  0
TEXT
  5
F41
330
1E
100
AcDbEntity
  8
TEXT
100
AcDbText
 10
64.61958341495059
 20
9.29662108483204
 30
0.0
 40
2.0
  1
Name
 41
0.8
  7
GREEKS
 72
     1
 11
67.78148817685536
 21
9.29662108483204
 31
0.0
100
AcDbText
  0
TEXT
  5
F42
330
1E
100
AcDbEntity
  8
TEXT
100
AcDbText
 10
76.75817860751886
 20
51.23104475435443
 30
0.0
 40
2.5
  1
Maßstab
 41
0.8
  7
GREEKS
100
AcDbText
  0
TEXT
  5
F43
330
1E
100
AcDbEntity
  8
TEXT
100
AcDbText
 10
168.3619308148496
 20
36.59059118549985
 30
0.0
 40
2.5
  1
Ersatz für:
 41
0.8
  7
GREEKS
100
AcDbText
  0
TEXT
  5
F44
330
1E
100
AcDbEntity
  8
BEM
100
AcDbText
 10
208.2905770718718
 20
6.074024076691515
 30
0.0
 40
2.0
  1
Diese Zeichnung ist urheberrechtlich geschützt und bleibt unser Eigentum. Sie darf weder ganz noch teilweise vervielfältigt und nicht an Dritte weitergegeben werden.
 50
90.0
 41
0.8
  7
GREEKS
100
AcDbText
  0
TEXT
  5
1050
330
1E
100
AcDbEntity
  8
TEXT
100
AcDbText
 10
85.3914684673651
 20
31.64705471637638
 30
0.0
 40
2.12
  1
02.07.
 41
0.8
  7
GREEKS
 72
     1
 11
89.10651608641272
 21
31.64705471637638
 31
0.0
100
AcDbText
  0
ENDSEC
  0
SECTION
  2
OBJECTS
  0
DICTIONARY
  5
C
330
0
100
AcDbDictionary
281
     1
  3
ACAD_COLOR
350
F1D
  3
ACAD_GROUP
350
D
  3
ACAD_LAYOUT
350
19
  3
ACAD_MATERIAL
350
F1C
  3
ACAD_MLINESTYLE
350
16
  3
ACAD_PLOTSETTINGS
350
18
  3
ACAD_PLOTSTYLENAME
350
E
  3
AcDbVariableDictionary
350
246
  0
DICTIONARY
  5
F1D
102
{ACAD_REACTORS
330
C
102
}
330
C
100
AcDbDictionary
281
     1
  0
DICTIONARY
  5
D
102
{ACAD_REACTORS
330
C
102
}
330
C
100
AcDbDictionary
281
     1
  0
DICTIONARY
  5
19
102
{ACAD_REACTORS
330
C
102
}
330
C
100
AcDbDictionary
281
     1
  3
Layout1
350
1D
  3
Model
350
21
  0
DICTIONARY
  5
F1C
102
{ACAD_REACTORS
330
C
102
}
330
C
100
AcDbDictionary
281
     1
  0
DICTIONARY
  5
16
102
{ACAD_REACTORS
330
C
102
}
330
C
100
AcDbDictionary
281
     1
  3
Standard
350
17
  0
DICTIONARY
  5
18
102
{ACAD_REACTORS
330
C
102
}
330
C
100
AcDbDictionary
281
     1
  0
ACDBDICTIONARYWDFLT
  5
E
102
{ACAD_REACTORS
330
C
102
}
330
C
100
AcDbDictionary
281
     1
  3
Normal
350
F
100
AcDbDictionaryWithDefault
340
F
  0
DICTIONARY
  5
246
102
{ACAD_REACTORS
330
C
102
}
330
C
100
AcDbDictionary
281
     1
  3
DIMASSOC
350
F56
  3
PROJECTNAME
350
F57
  3
SORTENTS
350
247
  0
LAYOUT
  5
1D
102
{ACAD_REACTORS
330
19
102
}
330
19
100
AcDbPlotSettings
  1

  2
Tektronix Phaser 740
  4

  6

 40
0.0
 41
0.0
 42
0.0
 43
0.0
 44
0.0
 45
0.0
 46
0.0
 47
0.0
 48
0.0
 49
0.0
140
0.0
141
0.0
142
1.0
143
1.0
 70
   688
 72
     0
 73
     0
 74
     5
  7
monochrome.ctb
 75
    16
147
1.0
 76
     0
 77
     2
 78
   300
148
0.0
149
0.0
100
AcDbLayout
  1
Layout1
 70
     0
 71
     1
 10
0.0
 20
0.0
 11
12.0
 21
9.0
 12
0.0
 22
0.0
 32
0.0
 14
1.000000000000000E+20
 24
1.000000000000000E+20
 34
1.000000000000000E+20
 15
-1.000000000000000E+20
 25
-1.000000000000000E+20
 35
-1.000000000000000E+20
146
0.0
 13
0.0
 23
0.0
 33
0.0
 16
1.0
 26
0.0
 36
0.0
 17
0.0
 27
1.0
 37
0.0
 76
     0
330
1A
  0
LAYOUT
  5
21
102
{ACAD_REACTORS
330
19
102
}
330
19
100
AcDbPlotSettings
  1

  2
Tektronix Phaser 740
  4
A4
  6

 40
5.873749732971191
 41
6.085414409637451
 42
5.577407836914062
 43
5.662078857421875
 44
209.9733276367187
 45
296.9683227539062
 46
0.0
 47
0.0
 48
0.0
 49
0.0
140
0.0
141
0.0
142
1.0
143
1.0
 70
 11952
 72
     0
 73
     1
 74
     0
  7
monochrome.ctb
 75
     0
147
1.0
 76
     0
 77
     2
 78
   300
148
1150.120678237584
149
45.30495740799864
100
AcDbLayout
  1
Model
 70
     1
 71
     0
 10
0.0
 20
0.0
 11
12.0
 21
9.0
 12
0.0
 22
0.0
 32
0.0
 14
0.0
 24
0.0
 34
0.0
 15
0.0
 25
0.0
 35
0.0
146
0.0
 13
0.0
 23
0.0
 33
0.0
 16
1.0
 26
0.0
 36
0.0
 17
0.0
 27
1.0
 37
0.0
 76
     0
330
1E
  0
MLINESTYLE
  5
17
102
{ACAD_REACTORS
330
16
102
}
330
16
100
AcDbMlineStyle
  2
STANDARD
 70
     0
  3

 62
   256
 51
90.0
 52
90.0
 71
     2
 49
0.5
 62
   256
  6
BYLAYER
 49
-0.5
 62
   256
  6
BYLAYER
  0
ACDBPLACEHOLDER
  5
F
102
{ACAD_REACTORS
330
E
102
}
330
E
  0
DICTIONARYVAR
  5
F56
102
{ACAD_REACTORS
330
246
102
}
330
246
100
DictionaryVariables
280
     0
  1
1
  0
DICTIONARYVAR
  5
F57
102
{ACAD_REACTORS
330
246
102
}
330
246
100
DictionaryVariables
280
     0
  1

  0
DICTIONARYVAR
  5
247
102
{ACAD_REACTORS
330
246
102
}
330
246
100
DictionaryVariables
280
     0
  1
96
  0
ENDSEC
  0
EOF
