  0
SECTION
  2
HEADER
  9
$ACADVER
  1
AC1018
  9
$ACADMAINTVER
 70
     2
  9
$DWGCODEPAGE
  3
ANSI_1252
  9
$INSBASE
 10
0.0
 20
0.0
 30
0.0
  9
$EXTMIN
 10
-0.0135858038282777
 20
-0.0192142082714781
 30
-0.0000000349181948
  9
$EXTMAX
 10
222.6135878770156
 20
314.8392171403506
 30
0.0000000814935746
  9
$LIMMIN
 10
0.0
 20
0.0
  9
$LIMMAX
 10
222.5999999999999
 20
314.8200000000002
  9
$ORTHOMODE
 70
     1
  9
$REGENMODE
 70
     1
  9
$FILLMODE
 70
     1
  9
$QTEXTMODE
 70
     0
  9
$MIRRTEXT
 70
     1
  9
$LTSCALE
 40
10.0
  9
$ATTMODE
 70
     1
  9
$TEXTSIZE
 40
3.5
  9
$TRACEWID
 40
0.5
  9
$TEXTSTYLE
  7
STANDARD
  9
$CLAYER
  8
BEM
  9
$CELTYPE
  6
ByLayer
  9
$CECOLOR
 62
   256
  9
$CELTSCALE
 40
1.0
  9
$DISPSILH
 70
     0
  9
$DIMSCALE
 40
1.0
  9
$DIMASZ
 40
3.5
  9
$DIMEXO
 40
1.0
  9
$DIMDLI
 40
7.0
  9
$DIMRND
 40
0.0
  9
$DIMDLE
 40
0.0
  9
$DIMEXE
 40
1.0
  9
$DIMTP
 40
0.0
  9
$DIMTM
 40
0.0
  9
$DIMTXT
 40
3.5
  9
$DIMCEN
 40
1.5
  9
$DIMTSZ
 40
0.0
  9
$DIMTOL
 70
     0
  9
$DIMLIM
 70
     0
  9
$DIMTIH
 70
     0
  9
$DIMTOH
 70
     0
  9
$DIMSE1
 70
     0
  9
$DIMSE2
 70
     0
  9
$DIMTAD
 70
     1
  9
$DIMZIN
 70
     8
  9
$DIMBLK
  1

  9
$DIMASO
 70
     1
  9
$DIMSHO
 70
     0
  9
$DIMPOST
  1

  9
$DIMAPOST
  1

  9
$DIMALT
 70
     0
  9
$DIMALTD
 70
     2
  9
$DIMALTF
 40
25.4
  9
$DIMLFAC
 40
1.0
  9
$DIMTOFL
 70
     1
  9
$DIMTVP
 40
0.0
  9
$DIMTIX
 70
     0
  9
$DIMSOXD
 70
     0
  9
$DIMSAH
 70
     0
  9
$DIMBLK1
  1

  9
$DIMBLK2
  1

  9
$DIMSTYLE
  2
Standard
  9
$DIMCLRD
 70
     0
  9
$DIMCLRE
 70
     0
  9
$DIMCLRT
 70
     1
  9
$DIMTFAC
 40
0.5142857142857144
  9
$DIMGAP
 40
1.5
  9
$DIMJUST
 70
     0
  9
$DIMSD1
 70
     0
  9
$DIMSD2
 70
     0
  9
$DIMTOLJ
 70
     1
  9
$DIMTZIN
 70
     8
  9
$DIMALTZ
 70
     8
  9
$DIMALTTZ
 70
     8
  9
$DIMUPT
 70
     0
  9
$DIMDEC
 70
     2
  9
$DIMTDEC
 70
     2
  9
$DIMALTU
 70
     2
  9
$DIMALTTD
 70
     2
  9
$DIMTXSTY
  7
STANDARD
  9
$DIMAUNIT
 70
     0
  9
$DIMADEC
 70
     2
  9
$DIMALTRND
 40
0.0
  9
$DIMAZIN
 70
     2
  9
$DIMDSEP
 70
    46
  9
$DIMATFIT
 70
     3
  9
$DIMFRAC
 70
     0
  9
$DIMLDRBLK
  1

  9
$DIMLUNIT
 70
     2
  9
$DIMLWD
 70
    -2
  9
$DIMLWE
 70
    -2
  9
$DIMTMOVE
 70
     0
  9
$LUNITS
 70
     2
  9
$LUPREC
 70
     2
  9
$SKETCHINC
 40
1.0
  9
$FILLETRAD
 40
67.5
  9
$AUNITS
 70
     1
  9
$AUPREC
 70
     3
  9
$MENU
  1
ACAD
  9
$ELEVATION
 40
0.0
  9
$PELEVATION
 40
0.0
  9
$THICKNESS
 40
0.0
  9
$LIMCHECK
 70
     0
  9
$CHAMFERA
 40
0.0
  9
$CHAMFERB
 40
0.0
  9
$CHAMFERC
 40
0.0
  9
$CHAMFERD
 40
0.0
  9
$SKPOLY
 70
     0
  9
$TDCREATE
 40
2452040.637099653
  9
$TDUCREATE
 40
2452040.553766320
  9
$TDUPDATE
 40
2455663.326404317
  9
$TDUUPDATE
 40
2455663.243070984
  9
$TDINDWG
 40
0.1342018056
  9
$TDUSRTIMER
 40
0.1342018056
  9
$USRTIMER
 70
     1
  9
$ANGBASE
 50
0.0
  9
$ANGDIR
 70
     0
  9
$PDMODE
 70
     0
  9
$PDSIZE
 40
0.0
  9
$PLINEWID
 40
0.0
  9
$SPLFRAME
 70
     0
  9
$SPLINETYPE
 70
     6
  9
$SPLINESEGS
 70
     8
  9
$HANDSEED
  5
644
  9
$SURFTAB1
 70
     6
  9
$SURFTAB2
 70
     6
  9
$SURFTYPE
 70
     6
  9
$SURFU
 70
     6
  9
$SURFV
 70
     6
  9
$UCSBASE
  2

  9
$UCSNAME
  2

  9
$UCSORG
 10
0.0
 20
0.0
 30
0.0
  9
$UCSXDIR
 10
1.0
 20
0.0
 30
0.0
  9
$UCSYDIR
 10
0.0
 20
1.0
 30
0.0
  9
$UCSORTHOREF
  2

  9
$UCSORTHOVIEW
 70
     0
  9
$UCSORGTOP
 10
0.0
 20
0.0
 30
0.0
  9
$UCSORGBOTTOM
 10
0.0
 20
0.0
 30
0.0
  9
$UCSORGLEFT
 10
0.0
 20
0.0
 30
0.0
  9
$UCSORGRIGHT
 10
0.0
 20
0.0
 30
0.0
  9
$UCSORGFRONT
 10
0.0
 20
0.0
 30
0.0
  9
$UCSORGBACK
 10
0.0
 20
0.0
 30
0.0
  9
$PUCSBASE
  2

  9
$PUCSNAME
  2

  9
$PUCSORG
 10
0.0
 20
0.0
 30
0.0
  9
$PUCSXDIR
 10
1.0
 20
0.0
 30
0.0
  9
$PUCSYDIR
 10
0.0
 20
1.0
 30
0.0
  9
$PUCSORTHOREF
  2

  9
$PUCSORTHOVIEW
 70
     0
  9
$PUCSORGTOP
 10
0.0
 20
0.0
 30
0.0
  9
$PUCSORGBOTTOM
 10
0.0
 20
0.0
 30
0.0
  9
$PUCSORGLEFT
 10
0.0
 20
0.0
 30
0.0
  9
$PUCSORGRIGHT
 10
0.0
 20
0.0
 30
0.0
  9
$PUCSORGFRONT
 10
0.0
 20
0.0
 30
0.0
  9
$PUCSORGBACK
 10
0.0
 20
0.0
 30
0.0
  9
$USERI1
 70
     0
  9
$USERI2
 70
     0
  9
$USERI3
 70
     0
  9
$USERI4
 70
     0
  9
$USERI5
 70
     0
  9
$USERR1
 40
0.0
  9
$USERR2
 40
0.0
  9
$USERR3
 40
0.0
  9
$USERR4
 40
0.0
  9
$USERR5
 40
0.0
  9
$WORLDVIEW
 70
     1
  9
$SHADEDGE
 70
     3
  9
$SHADEDIF
 70
    70
  9
$TILEMODE
 70
     1
  9
$MAXACTVP
 70
    16
  9
$PINSBASE
 10
0.0
 20
0.0
 30
0.0
  9
$PLIMCHECK
 70
     0
  9
$PEXTMIN
 10
1.000000000000000E+20
 20
1.000000000000000E+20
 30
1.000000000000000E+20
  9
$PEXTMAX
 10
-1.000000000000000E+20
 20
-1.000000000000000E+20
 30
-1.000000000000000E+20
  9
$PLIMMIN
 10
0.0
 20
0.0
  9
$PLIMMAX
 10
12.0
 20
9.0
  9
$UNITMODE
 70
     0
  9
$VISRETAIN
 70
     0
  9
$PLINEGEN
 70
     0
  9
$PSLTSCALE
 70
     0
  9
$TREEDEPTH
 70
  3020
  9
$CMLSTYLE
  2
Standard
  9
$CMLJUST
 70
     0
  9
$CMLSCALE
 40
1.0
  9
$PROXYGRAPHICS
 70
     1
  9
$MEASUREMENT
 70
     0
  9
$CELWEIGHT
370
    -1
  9
$ENDCAPS
280
     0
  9
$JOINSTYLE
280
     0
  9
$LWDISPLAY
290
     0
  9
$INSUNITS
 70
     0
  9
$HYPERLINKBASE
  1

  9
$STYLESHEET
  1
monochrome 1.ctb
  9
$XEDIT
290
     1
  9
$CEPSNTYPE
380
     0
  9
$PSTYLEMODE
290
     1
  9
$FINGERPRINTGUID
  2
{7AADB5C8-6110-11D8-B72B-000102183313}
  9
$VERSIONGUID
  2
{1AE6795C-1A6F-40E8-A6D9-189C9D047AB1}
  9
$EXTNAMES
290
     1
  9
$PSVPSCALE
 40
0.0
  9
$OLESTARTUP
290
     0
  9
$SORTENTS
280
    96
  9
$INDEXCTL
280
     0
  9
$HIDETEXT
280
     0
  9
$XCLIPFRAME
290
     0
  9
$HALOGAP
280
     0
  9
$OBSCOLOR
 70
   257
  9
$OBSLTYPE
280
     0
  9
$INTERSECTIONDISPLAY
280
     0
  9
$INTERSECTIONCOLOR
 70
   257
  9
$DIMASSOC
280
     1
  9
$PROJECTNAME
  1

  0
ENDSEC
  0
SECTION
  2
CLASSES
  0
CLASS
  1
ACDBDICTIONARYWDFLT
  2
AcDbDictionaryWithDefault
  3
ObjectDBX Classes
 90
        0
 91
        1
280
     0
281
     0
  0
CLASS
  1
DICTIONARYVAR
  2
AcDbDictionaryVar
  3
ObjectDBX Classes
 90
        0
 91
        3
280
     0
281
     0
  0
ENDSEC
  0
SECTION
  2
TABLES
  0
TABLE
  2
VPORT
  5
8
330
0
100
AcDbSymbolTable
 70
     3
  0
VPORT
  5
643
330
8
100
AcDbSymbolTableRecord
100
AcDbViewportTableRecord
  2
*Active
 70
     0
 10
0.0
 20
0.0
 11
1.0
 21
1.0
 12
111.2999999999999
 22
157.41
 13
0.0
 23
0.0
 14
1.0
 24
1.0
 15
10.0
 25
10.0
 16
0.0
 26
0.0
 36
1.0
 17
0.0
 27
0.0
 37
0.0
 40
314.82
 41
1.334231805929919
 42
50.0
 43
0.0
 44
0.0
 50
0.0
 51
0.0
 71
     0
 72
  1500
 73
     1
 74
     0
 75
     0
 76
     0
 77
     0
 78
     0
281
     0
 65
     1
110
0.0
120
0.0
130
0.0
111
1.0
121
0.0
131
0.0
112
0.0
122
1.0
132
0.0
 79
     0
146
0.0
  0
ENDTAB
  0
TABLE
  2
LTYPE
  5
5
330
0
100
AcDbSymbolTable
 70
     2
  0
LTYPE
  5
13
330
5
100
AcDbSymbolTableRecord
100
AcDbLinetypeTableRecord
  2
ByBlock
 70
     0
  3

 72
    65
 73
     0
 40
0.0
  0
LTYPE
  5
14
330
5
100
AcDbSymbolTableRecord
100
AcDbLinetypeTableRecord
  2
ByLayer
 70
     0
  3

 72
    65
 73
     0
 40
0.0
  0
LTYPE
  5
15
330
5
100
AcDbSymbolTableRecord
100
AcDbLinetypeTableRecord
  2
Continuous
 70
     0
  3
Solid line
 72
    65
 73
     0
 40
0.0
  0
LTYPE
  5
35
330
5
100
AcDbSymbolTableRecord
100
AcDbLinetypeTableRecord
  2
STRICHPUNKT
 70
     0
  3
__ . __ . __ . __ . __ . __ . __ . __ . __ . __
 72
    65
 73
     4
 40
1.0
 49
0.5
 74
     0
 49
-0.25
 74
     0
 49
0.0
 74
     0
 49
-0.25
 74
     0
  0
ENDTAB
  0
TABLE
  2
LAYER
  5
2
330
0
100
AcDbSymbolTable
 70
     9
  0
LAYER
  5
10
330
2
100
AcDbSymbolTableRecord
100
AcDbLayerTableRecord
  2
0
 70
     0
 62
     7
  6
Continuous
370
    -3
390
F
  0
LAYER
  5
38
330
2
100
AcDbSymbolTableRecord
100
AcDbLayerTableRecord
  2
VOLL
 70
     0
 62
     1
  6
Continuous
370
    -3
390
F
  0
LAYER
  5
39
330
2
100
AcDbSymbolTableRecord
100
AcDbLayerTableRecord
  2
HILF
 70
     0
 62
     2
  6
Continuous
370
    -3
390
F
  0
LAYER
  5
3A
330
2
100
AcDbSymbolTableRecord
100
AcDbLayerTableRecord
  2
MITTEL
 70
     0
 62
     2
  6
STRICHPUNKT
370
    -3
390
F
  0
LAYER
  5
3B
330
2
100
AcDbSymbolTableRecord
100
AcDbLayerTableRecord
  2
BEM
 70
     0
 62
     7
  6
Continuous
370
    -3
390
F
  0
LAYER
  5
3C
330
2
100
AcDbSymbolTableRecord
100
AcDbLayerTableRecord
  2
STEMPEL
 70
     0
 62
     3
  6
Continuous
370
    -3
390
F
  0
LAYER
  5
3D
330
2
100
AcDbSymbolTableRecord
100
AcDbLayerTableRecord
  2
TEXT
 70
     0
 62
     7
  6
Continuous
370
    -3
390
F
  0
LAYER
  5
3E
330
2
100
AcDbSymbolTableRecord
100
AcDbLayerTableRecord
  2
DEFPOINTS
 70
     0
 62
     7
  6
Continuous
290
     0
370
    -3
390
F
  0
ENDTAB
  0
TABLE
  2
STYLE
  5
3
330
0
100
AcDbSymbolTable
 70
     2
  0
STYLE
  5
11
330
3
100
AcDbSymbolTableRecord
100
AcDbTextStyleTableRecord
  2
STANDARD
 70
     0
 40
0.0
 41
0.8
 50
0.0
 71
     0
 42
3.5
  3
simplex.shx
  4

  0
STYLE
  5
34
330
3
100
AcDbSymbolTableRecord
100
AcDbTextStyleTableRecord
  2
GREEKS
 70
     0
 40
0.0
 41
0.8
 50
0.0
 71
     0
 42
2.5
  3
SIMPLEX.shx
  4

  0
ENDTAB
  0
TABLE
  2
VIEW
  5
6
330
0
100
AcDbSymbolTable
 70
     0
  0
ENDTAB
  0
TABLE
  2
UCS
  5
7
330
0
100
AcDbSymbolTable
 70
     0
  0
ENDTAB
  0
TABLE
  2
APPID
  5
9
330
0
100
AcDbSymbolTable
 70
     1
  0
APPID
  5
12
330
9
100
AcDbSymbolTableRecord
100
AcDbRegAppTableRecord
  2
ACAD
 70
     0
  0
ENDTAB
  0
TABLE
  2
DIMSTYLE
  5
A
330
0
100
AcDbSymbolTable
 70
     1
100
AcDbDimStyleTable
 71
     1
340
1CB
  0
DIMSTYLE
105
1CB
102
{ACAD_REACTORS
330
33C
330
3B6
330
1E8
330
53C
330
54D
102
}
330
A
100
AcDbSymbolTableRecord
100
AcDbDimStyleTableRecord
  2
Standard
 70
     0
340
11
  0
ENDTAB
  0
TABLE
  2
BLOCK_RECORD
  5
1
330
0
100
AcDbSymbolTable
 70
     7
  0
BLOCK_RECORD
  5
1E
330
1
100
AcDbSymbolTableRecord
100
AcDbBlockTableRecord
  2
*Model_Space
340
21
  0
BLOCK_RECORD
  5
1A
330
1
100
AcDbSymbolTableRecord
100
AcDbBlockTableRecord
  2
*Paper_Space
340
1D
  0
BLOCK_RECORD
  5
22
330
1
100
AcDbSymbolTableRecord
100
AcDbBlockTableRecord
  2
LOGO
340
0
102
{BLKREFS
331
135
102
}
  0
BLOCK_RECORD
  5
1E9
330
1
100
AcDbSymbolTableRecord
100
AcDbBlockTableRecord
  2
*D1
340
0
  0
BLOCK_RECORD
  5
33D
330
1
100
AcDbSymbolTableRecord
100
AcDbBlockTableRecord
  2
*D3
340
0
  0
BLOCK_RECORD
  5
3B7
330
1
100
AcDbSymbolTableRecord
100
AcDbBlockTableRecord
  2
*D4
340
0
  0
BLOCK_RECORD
  5
53D
330
1
100
AcDbSymbolTableRecord
100
AcDbBlockTableRecord
  2
*D5
340
0
  0
BLOCK_RECORD
  5
54E
330
1
100
AcDbSymbolTableRecord
100
AcDbBlockTableRecord
  2
*D6
340
0
  0
ENDTAB
  0
ENDSEC
  0
SECTION
  2
BLOCKS
  0
BLOCK
  5
43
330
1E
100
AcDbEntity
  8
0
100
AcDbBlockBegin
  2
*Model_Space
 70
     0
 10
0.0
 20
0.0
 30
0.0
  3
*Model_Space
  1

  0
ENDBLK
  5
44
330
1E
100
AcDbEntity
  8
0
100
AcDbBlockEnd
  0
BLOCK
  5
41
330
1A
100
AcDbEntity
 67
     1
  8
0
100
AcDbBlockBegin
  2
*Paper_Space
 70
     0
 10
0.0
 20
0.0
 30
0.0
  3
*Paper_Space
  1

  0
ENDBLK
  5
42
330
1A
100
AcDbEntity
 67
     1
  8
0
100
AcDbBlockEnd
  0
BLOCK
  5
45
330
22
100
AcDbEntity
  8
0
100
AcDbBlockBegin
  2
LOGO
 70
     0
 10
0.0
 20
0.0
 30
0.0
  3
LOGO
  1

  0
ARC
  5
46
330
22
100
AcDbEntity
  8
0
100
AcDbCircle
 10
11.59973089678112
 20
-9.271599258481501
 30
0.0
 40
4.5
100
AcDbArc
 50
270.0
 51
231.0575587310159
  0
LINE
  5
47
330
22
100
AcDbEntity
  8
0
100
AcDbLine
 10
3.599730896781125
 20
-4.771599258481529
 30
0.0
 11
3.599730896781153
 21
-11.77159925848133
 31
0.0
  0
LINE
  5
48
330
22
100
AcDbEntity
  8
0
100
AcDbLine
 10
2.599730896781125
 20
-4.771599258481529
 30
0.0
 11
2.599730896781153
 21
-11.77159925848133
 31
0.0
  0
CIRCLE
  5
49
330
22
100
AcDbEntity
  8
0
100
AcDbCircle
 10
11.59973089678112
 20
-9.271599258481501
 30
0.0
 40
3.5
  0
ARC
  5
4A
330
22
100
AcDbEntity
  8
0
100
AcDbCircle
 10
31.59973089678115
 20
-9.271599258481472
 30
0.0
 40
4.5
100
AcDbArc
 50
270.0
 51
231.0575587310182
  0
LINE
  5
4B
330
22
100
AcDbEntity
  8
0
100
AcDbLine
 10
17.59973089678112
 20
-4.771599258481472
 30
0.0
 11
17.59973089678115
 21
-13.77159925848147
 31
0.0
  0
ARC
  5
4C
330
22
100
AcDbEntity
  8
0
100
AcDbCircle
 10
22.59973089678116
 20
-7.271599258481472
 30
0.0
 40
2.5
100
AcDbArc
 50
293.1161887722295
 51
90.0
  0
CIRCLE
  5
4D
330
22
100
AcDbEntity
  8
0
100
AcDbCircle
 10
31.59973089678115
 20
-9.271599258481472
 30
0.0
 40
3.5
  0
ARC
  5
4E
330
22
100
AcDbEntity
  8
0
100
AcDbCircle
 10
4.599730896781153
 20
-11.77159925848133
 30
0.0
 40
1.0
100
AcDbArc
 50
180.0
 51
270.0
  0
ARC
  5
4F
330
22
100
AcDbEntity
  8
0
100
AcDbCircle
 10
4.599730896781153
 20
-11.77159925848133
 30
0.0
 40
2.0
100
AcDbArc
 50
179.9999999999992
 51
270.0
  0
LINE
  5
50
330
22
100
AcDbEntity
  8
0
100
AcDbLine
 10
11.59973089678115
 20
-13.77159925848144
 30
0.0
 11
4.599730896781153
 21
-13.77159925848147
 31
0.0
  0
LINE
  5
51
330
22
100
AcDbEntity
  8
0
100
AcDbLine
 10
8.771303772034769
 20
-12.77159925848136
 30
0.0
 11
4.599730896781153
 21
-12.77159925848133
 31
0.0
  0
LINE
  5
52
330
22
100
AcDbEntity
  8
0
100
AcDbLine
 10
31.59973089678115
 20
-13.77159925848147
 30
0.0
 11
23.6715276665056
 21
-13.77159925848144
 31
0.0
  0
LINE
  5
53
330
22
100
AcDbEntity
  8
0
100
AcDbLine
 10
23.56565672307022
 20
-9.51278021337896
 30
0.0
 11
24.4388546544846
 21
-12.77159925848144
 31
0.0
  0
LINE
  5
54
330
22
100
AcDbEntity
  8
0
100
AcDbLine
 10
22.59973089678116
 20
-9.771599258481472
 30
0.0
 11
18.59973089678112
 21
-9.771599258481472
 31
0.0
  0
LINE
  5
55
330
22
100
AcDbEntity
  8
0
100
AcDbLine
 10
18.59973089678115
 20
-13.77159925848144
 30
0.0
 11
17.59973089678115
 21
-13.77159925848144
 31
0.0
  0
LINE
  5
56
330
22
100
AcDbEntity
  8
0
100
AcDbLine
 10
18.59973089678115
 20
-9.771599258481472
 30
0.0
 11
18.59973089678115
 21
-13.77159925848144
 31
0.0
  0
LINE
  5
57
330
22
100
AcDbEntity
  8
0
100
AcDbLine
 10
22.59973089678116
 20
-9.771599258481472
 30
0.0
 11
23.67152766650562
 21
-13.77159925848147
 31
0.0
  0
ARC
  5
58
330
22
100
AcDbEntity
  8
0
100
AcDbCircle
 10
22.59973089678116
 20
-7.271599258481472
 30
0.0
 40
2.5
100
AcDbArc
 50
270.0
 51
270.0000000000007
  0
LINE
  5
59
330
22
100
AcDbEntity
  8
0
100
AcDbLine
 10
28.77130377203494
 20
-12.77159925848147
 30
0.0
 11
24.43885465448463
 21
-12.77159925848144
 31
0.0
  0
LINE
  5
5A
330
22
100
AcDbEntity
  8
0
100
AcDbLine
 10
3.599730896781125
 20
-4.771599258481472
 30
0.0
 11
2.599730896781125
 21
-4.771599258481472
 31
0.0
  0
LINE
  5
5B
330
22
100
AcDbEntity
  8
0
100
AcDbLine
 10
22.59973089678116
 20
-8.771599258481472
 30
0.0
 11
18.59973089678115
 21
-8.771599258481472
 31
0.0
  0
LINE
  5
5C
330
22
100
AcDbEntity
  8
0
100
AcDbLine
 10
22.59973089678116
 20
-5.771599258481472
 30
0.0
 11
18.59973089678115
 21
-5.771599258481472
 31
0.0
  0
LINE
  5
5D
330
22
100
AcDbEntity
  8
0
100
AcDbLine
 10
22.59973089678116
 20
-4.771599258481472
 30
0.0
 11
17.59973089678115
 21
-4.771599258481472
 31
0.0
  0
LINE
  5
5E
330
22
100
AcDbEntity
  8
0
100
AcDbLine
 10
18.59973089678115
 20
-5.771599258481472
 30
0.0
 11
18.59973089678115
 21
-8.771599258481472
 31
0.0
  0
ARC
  5
5F
330
22
100
AcDbEntity
  8
0
100
AcDbCircle
 10
22.59973089678116
 20
-7.271599258481472
 30
0.0
 40
1.5
100
AcDbArc
 50
270.0
 51
90.0
  0
ENDBLK
  5
60
330
22
100
AcDbEntity
  8
0
100
AcDbBlockEnd
  0
BLOCK
  5
1F3
330
1E9
100
AcDbEntity
  8
0
100
AcDbBlockBegin
  2
*D1
 70
     1
 10
0.0
 20
0.0
 30
0.0
  3
*D1
  1

  0
LINE
  5
566
330
1E9
100
AcDbEntity
  8
BEM
 62
     0
370
    -2
100
AcDbLine
 10
88.2512246548028
 20
116.2005063471196
 30
0.0
 11
88.2512246548028
 21
98.13275319373985
 31
0.0
  0
LINE
  5
567
330
1E9
100
AcDbEntity
  8
BEM
 62
     0
370
    -2
100
AcDbLine
 10
130.2512246548025
 20
116.2005063471196
 30
0.0
 11
130.2512246548025
 21
98.13275319373985
 31
0.0
  0
LINE
  5
568
330
1E9
100
AcDbEntity
  8
BEM
 62
     0
370
    -2
100
AcDbLine
 10
91.7512246548028
 20
99.13275319373987
 30
0.0
 11
126.7512246548025
 21
99.13275319373987
 31
0.0
  0
SOLID
  5
569
330
1E9
100
AcDbEntity
  8
BEM
 62
     0
100
AcDbTrace
 10
91.7512246548028
 20
99.71608652707319
 30
0.0
 11
91.7512246548028
 21
98.54941986040653
 31
0.0
 12
88.2512246548028
 22
99.13275319373987
 32
0.0
 13
88.2512246548028
 23
99.13275319373987
 33
0.0
  0
SOLID
  5
56A
330
1E9
100
AcDbEntity
  8
BEM
 62
     0
100
AcDbTrace
 10
126.7512246548025
 20
99.71608652707319
 30
0.0
 11
126.7512246548025
 21
98.54941986040653
 31
0.0
 12
130.2512246548025
 22
99.13275319373987
 32
0.0
 13
130.2512246548025
 23
99.13275319373987
 33
0.0
  0
MTEXT
  5
56B
330
1E9
100
AcDbEntity
  8
BEM
 62
     1
100
AcDbMText
 10
109.2512246548027
 20
102.3827531937398
 30
0.0
 40
3.5
 41
0.0
 71
     5
 72
     1
  1
\A1;%%c42
 73
     1
 44
1.0
  0
POINT
  5
56C
330
1E9
100
AcDbEntity
  8
DEFPOINTS
 62
     0
100
AcDbPoint
 10
88.2512246548028
 20
117.2005063471196
 30
0.0
  0
POINT
  5
56D
330
1E9
100
AcDbEntity
  8
DEFPOINTS
 62
     0
100
AcDbPoint
 10
130.2512246548025
 20
117.2005063471196
 30
0.0
  0
POINT
  5
56E
330
1E9
100
AcDbEntity
  8
DEFPOINTS
 62
     0
100
AcDbPoint
 10
130.2512246548025
 20
99.13275319373987
 30
0.0
  0
ENDBLK
  5
1F4
330
1E9
100
AcDbEntity
  8
0
100
AcDbBlockEnd
  0
BLOCK
  5
347
330
33D
100
AcDbEntity
  8
0
100
AcDbBlockBegin
  2
*D3
 70
     1
 10
0.0
 20
0.0
 30
0.0
  3
*D3
  1

  0
LINE
  5
639
330
33D
100
AcDbEntity
  8
BEM
 62
     0
370
    -2
100
AcDbLine
 10
108.3851992510183
 20
188.7005063471196
 30
0.0
 11
77.67504914671753
 21
206.4310197766922
 31
0.0
  0
LINE
  5
63A
330
33D
100
AcDbEntity
  8
BEM
 62
     0
370
    -2
100
AcDbLine
 10
126.030933287395
 20
266.269977967992
 30
0.0
 11
115.6750491467184
 21
272.2489504643085
 31
0.0
  0
LINE
  5
63B
330
33D
100
AcDbEntity
  8
BEM
 62
     0
370
    -2
100
AcDbLine
 10
80.29107455050199
 20
208.9621086899377
 30
0.0
 11
114.7910745505027
 21
268.7178615510629
 31
0.0
  0
SOLID
  5
63C
330
33D
100
AcDbEntity
  8
BEM
 62
     0
100
AcDbTrace
 10
79.78589306496108
 20
209.2537753566044
 30
0.0
 11
80.79625603604293
 21
208.670442023271
 31
0.0
 12
78.54107455050194
 22
205.9310197766922
 32
0.0
 13
78.54107455050194
 23
205.9310197766922
 33
0.0
  0
SOLID
  5
63D
330
33D
100
AcDbEntity
  8
BEM
 62
     0
100
AcDbTrace
 10
114.2858930649618
 20
269.0095282177296
 30
0.0
 11
115.2962560360437
 21
268.4261948843963
 31
0.0
 12
116.5410745505028
 22
271.7489504643085
 32
0.0
 13
116.5410745505028
 23
271.7489504643085
 33
0.0
  0
MTEXT
  5
63E
330
33D
100
AcDbEntity
  8
BEM
 62
     1
100
AcDbMText
 10
94.72649198820301
 20
240.4649851205004
 30
0.0
 40
3.5
 41
0.0
 71
     5
 72
     1
  1
\A1;76
 11
0.5000000000000147
 21
0.8660254037844302
 31
0.0
 73
     1
 44
1.0
  0
POINT
  5
63F
330
33D
100
AcDbEntity
  8
DEFPOINTS
 62
     0
100
AcDbPoint
 10
109.2512246548027
 20
188.2005063471196
 30
0.0
  0
POINT
  5
640
330
33D
100
AcDbEntity
  8
DEFPOINTS
 62
     0
100
AcDbPoint
 10
126.8969586911794
 20
265.769977967992
 30
0.0
  0
POINT
  5
641
330
33D
100
AcDbEntity
  8
DEFPOINTS
 62
     0
100
AcDbPoint
 10
116.5410745505028
 20
271.7489504643085
 30
0.0
  0
ENDBLK
  5
348
330
33D
100
AcDbEntity
  8
0
100
AcDbBlockEnd
  0
BLOCK
  5
3C1
330
3B7
100
AcDbEntity
  8
0
100
AcDbBlockBegin
  2
*D4
 70
     1
 10
0.0
 20
0.0
 30
0.0
  3
*D4
  1

  0
LINE
  5
578
330
3B7
100
AcDbEntity
  8
BEM
 62
     0
370
    -2
100
AcDbLine
 10
108.2512246548026
 20
188.2005063471196
 30
0.0
 11
76.2758331690518
 21
188.2005063471196
 31
0.0
  0
LINE
  5
579
330
3B7
100
AcDbEntity
  8
BEM
 62
     0
370
    -2
100
AcDbLine
 10
87.68866797243243
 20
112.2005063471195
 30
0.0
 11
76.27583316905179
 21
112.2005063471195
 31
0.0
  0
LINE
  5
57A
330
3B7
100
AcDbEntity
  8
BEM
 62
     0
370
    -2
100
AcDbLine
 10
77.27583316905181
 20
184.7005063471196
 30
0.0
 11
77.27583316905179
 21
115.7005063471196
 31
0.0
  0
SOLID
  5
57B
330
3B7
100
AcDbEntity
  8
BEM
 62
     0
100
AcDbTrace
 10
76.69249983571848
 20
184.7005063471196
 30
0.0
 11
77.85916650238513
 21
184.7005063471196
 31
0.0
 12
77.27583316905181
 22
188.2005063471196
 32
0.0
 13
77.27583316905181
 23
188.2005063471196
 33
0.0
  0
SOLID
  5
57C
330
3B7
100
AcDbEntity
  8
BEM
 62
     0
100
AcDbTrace
 10
76.69249983571846
 20
115.7005063471196
 30
0.0
 11
77.85916650238512
 21
115.7005063471196
 31
0.0
 12
77.27583316905179
 22
112.2005063471195
 32
0.0
 13
77.27583316905179
 23
112.2005063471195
 33
0.0
  0
MTEXT
  5
57D
330
3B7
100
AcDbEntity
  8
BEM
 62
     1
100
AcDbMText
 10
74.02583316905178
 20
150.2005063471196
 30
0.0
 40
3.5
 41
0.0
 71
     5
 72
     1
  1
\A1;76
 11
0.0000000000000001
 21
1.0
 31
0.0
 73
     1
 44
1.0
  0
POINT
  5
57E
330
3B7
100
AcDbEntity
  8
DEFPOINTS
 62
     0
100
AcDbPoint
 10
109.2512246548026
 20
188.2005063471196
 30
0.0
  0
POINT
  5
57F
330
3B7
100
AcDbEntity
  8
DEFPOINTS
 62
     0
100
AcDbPoint
 10
88.68866797243242
 20
112.2005063471195
 30
0.0
  0
POINT
  5
580
330
3B7
100
AcDbEntity
  8
DEFPOINTS
 62
     0
100
AcDbPoint
 10
77.27583316905179
 20
112.2005063471195
 30
0.0
  0
ENDBLK
  5
3C2
330
3B7
100
AcDbEntity
  8
0
100
AcDbBlockEnd
  0
BLOCK
  5
549
330
53D
100
AcDbEntity
  8
0
100
AcDbBlockBegin
  2
*D5
 70
     1
 10
0.0
 20
0.0
 30
0.0
  3
*D5
  1

  0
LINE
  5
62F
330
53D
100
AcDbEntity
  8
BEM
 62
     0
370
    -2
100
AcDbLine
 10
109.2512246548026
 20
189.2005063471196
 30
0.0
 11
109.2512246548026
 21
224.6161619042657
 31
0.0
  0
ARC
  5
630
330
53D
100
AcDbEntity
  8
BEM
 62
     0
370
    -2
100
AcDbCircle
 10
109.2512246548026
 20
188.2005063471195
 30
0.0
 40
35.41565555714607
100
AcDbArc
 50
65.6646395915355
 51
84.33536040846446
  0
SOLID
  5
631
330
53D
100
AcDbEntity
  8
BEM
 62
     0
100
AcDbTrace
 10
124.1115409239102
 20
220.9884268068529
 30
0.0
 11
123.5788454199142
 21
219.9504737196984
 31
0.0
 12
126.9590524333757
 22
218.8713637512876
 32
0.0
 13
126.9590524333757
 23
218.8713637512876
 33
0.0
  0
SOLID
  5
632
330
53D
100
AcDbEntity
  8
BEM
 62
     0
100
AcDbTrace
 10
112.718124782716
 20
222.8605950436557
 30
0.0
 11
112.7757734873509
 21
224.025836537066
 31
0.0
 12
109.2512246548026
 22
223.6161619042657
 32
0.0
 13
109.2512246548026
 23
223.6161619042657
 33
0.0
  0
MTEXT
  5
633
330
53D
100
AcDbEntity
  8
BEM
 62
     1
100
AcDbMText
 10
120.2135061655213
 20
225.2796285554947
 30
0.0
 40
3.5
 41
0.0
 71
     5
 72
     1
  1
\A1;30°
 11
0.958967892153641
 21
-0.2835146941842743
 31
0.0
 73
     1
 44
1.0
  0
POINT
  5
634
330
53D
100
AcDbEntity
  8
DEFPOINTS
 62
     0
100
AcDbPoint
 10
115.4010887031807
 20
223.0781185178069
 30
0.0
  0
POINT
  5
635
330
53D
100
AcDbEntity
  8
DEFPOINTS
 62
     0
100
AcDbPoint
 10
109.2512246548026
 20
188.2005063471195
 30
0.0
  0
POINT
  5
636
330
53D
100
AcDbEntity
  8
DEFPOINTS
 62
     0
100
AcDbPoint
 10
149.7512246548025
 20
258.3485640536588
 30
0.0
  0
POINT
  5
637
330
53D
100
AcDbEntity
  8
DEFPOINTS
 62
     0
100
AcDbPoint
 10
109.2512246548026
 20
188.2005063471195
 30
0.0
  0
POINT
  5
638
330
53D
100
AcDbEntity
  8
DEFPOINTS
 62
     0
100
AcDbPoint
 10
109.2512246548026
 20
107.2005063471195
 30
0.0
  0
ENDBLK
  5
54A
330
53D
100
AcDbEntity
  8
0
100
AcDbBlockEnd
  0
BLOCK
  5
554
330
54E
100
AcDbEntity
  8
0
100
AcDbBlockBegin
  2
*D6
 70
     1
 10
0.0
 20
0.0
 30
0.0
  3
*D6
  1

  0
LINE
  5
556
330
54E
100
AcDbEntity
  8
BEM
 62
     0
370
    -2
100
AcDbLine
 10
148.5162178648436
 20
175.8927430872441
 30
0.0
 11
114.0509800785283
 21
182.9466803063191
 31
0.0
  0
MTEXT
  5
557
330
54E
100
AcDbEntity
  8
BEM
 62
     1
100
AcDbMText
 10
142.1467595314114
 20
180.5137399115
 30
0.0
 40
3.5
 41
0.0
 71
     5
 72
     1
  1
\A1;R67.5
 11
0.9796913215042863
 21
-0.2005116320046928
 31
0.0
 73
     1
 44
1.0
  0
SOLID
  5
558
330
54E
100
AcDbEntity
  8
BEM
 62
     0
100
AcDbTrace
 10
114.1679451971977
 20
183.51816691053
 30
0.0
 11
113.9340149598589
 21
182.3751937021083
 31
0.0
 12
110.6220604532633
 22
183.6484710183356
 32
0.0
 13
110.6220604532633
 23
183.6484710183356
 33
0.0
  0
POINT
  5
559
330
54E
100
AcDbEntity
  8
DEFPOINTS
 62
     0
100
AcDbPoint
 10
110.6220604532633
 20
183.6484710183356
 30
0.0
  0
POINT
  5
55A
330
54E
100
AcDbEntity
  8
DEFPOINTS
 62
     0
100
AcDbPoint
 10
176.7512246548028
 20
170.1139358580187
 30
0.0
  0
ENDBLK
  5
555
330
54E
100
AcDbEntity
  8
0
100
AcDbBlockEnd
  0
ENDSEC
  0
SECTION
  2
ENTITIES
  0
TEXT
  5
134
330
1E
100
AcDbEntity
  8
TEXT
100
AcDbText
 10
108.3434505748066
 20
33.43750877453461
 30
0.0
 40
2.12
  1
Koeh
 41
0.8
  7
GREEKS
 72
     1
 11
111.1297362890923
 21
33.43750877453461
 31
0.0
100
AcDbText
  0
INSERT
  5
135
330
1E
100
AcDbEntity
  8
STEMPEL
100
AcDbBlockReference
  2
LOGO
 10
80.02764072926309
 20
23.86115796517611
 30
0.0
 41
1.06
 42
1.06
 43
1.06
  0
LINE
  5
136
330
1E
100
AcDbEntity
  8
HILF
100
AcDbLine
 10
222.6
 20
0.0
 30
0.0
 11
0.0
 21
0.0
 31
0.0
  0
LINE
  5
137
330
1E
100
AcDbEntity
  8
HILF
100
AcDbLine
 10
222.5999999999999
 20
314.8200000000002
 30
0.0
 11
0.0
 21
314.82
 31
0.0
  0
LINE
  5
138
330
1E
100
AcDbEntity
  8
STEMPEL
100
AcDbLine
 10
217.3
 20
309.5200000000001
 30
0.0
 11
21.19999999999994
 21
309.5200000000001
 31
0.0
  0
LINE
  5
139
330
1E
100
AcDbEntity
  8
STEMPEL
100
AcDbLine
 10
217.3
 20
5.3
 30
0.0
 11
21.19999999999994
 21
5.3
 31
0.0
  0
LINE
  5
13A
330
1E
100
AcDbEntity
  8
STEMPEL
100
AcDbLine
 10
26.49999999999994
 20
5.3
 30
0.0
 11
217.3
 21
5.3
 31
0.0
  0
TEXT
  5
13B
330
1E
100
AcDbEntity
  8
TEXT
100
AcDbText
 10
107.3052089639936
 20
38.8540937871507
 30
0.0
 40
2.12
  1
Name
 41
0.8
  7
GREEKS
100
AcDbText
  0
TEXT
  5
13C
330
1E
100
AcDbEntity
  8
TEXT
100
AcDbText
 10
104.1714087923821
 20
54.40483007215924
 30
0.0
 40
2.65
  1
Zul. Abw.
 41
0.8
  7
GREEKS
 72
     4
 11
111.288551649525
 21
55.72983007215924
 31
0.0
100
AcDbText
  0
LINE
  5
13D
330
1E
100
AcDbEntity
  8
HILF
100
AcDbLine
 10
77.38000000000006
 20
26.49999999999999
 30
0.0
 11
121.9
 21
26.49999999999999
 31
0.0
  0
LINE
  5
13E
330
1E
100
AcDbEntity
  8
HILF
100
AcDbLine
 10
77.38000000000006
 20
31.79999999999999
 30
0.0
 11
121.9
 21
31.79999999999999
 31
0.0
  0
LINE
  5
13F
330
1E
100
AcDbEntity
  8
HILF
100
AcDbLine
 10
77.38000000000006
 20
37.09999999999997
 30
0.0
 11
121.9
 21
37.09999999999997
 31
0.0
  0
LINE
  5
140
330
1E
100
AcDbEntity
  8
STEMPEL
100
AcDbLine
 10
217.3
 20
42.40000000000001
 30
0.0
 11
77.38000000000006
 21
42.39999999999997
 31
0.0
  0
LINE
  5
141
330
1E
100
AcDbEntity
  8
STEMPEL
100
AcDbLine
 10
217.3
 20
21.2
 30
0.0
 11
77.38000000000006
 21
21.19999999999999
 31
0.0
  0
LINE
  5
142
330
1E
100
AcDbEntity
  8
STEMPEL
100
AcDbLine
 10
217.3
 20
58.30000000000003
 30
0.0
 11
21.19999999999999
 21
58.3
 31
0.0
  0
LINE
  5
143
330
1E
100
AcDbEntity
  8
MITTEL
100
AcDbLine
 10
109.2512246548026
 20
188.2005063471196
 30
0.0
 11
109.2512246548026
 21
107.2005063471195
 31
0.0
  0
LINE
  5
144
330
1E
100
AcDbEntity
  8
HILF
100
AcDbLine
 10
0.0
 20
0.0
 30
0.0
 11
-0.0000000000000603
 21
314.82
 31
0.0
  0
LINE
  5
145
330
1E
100
AcDbEntity
  8
STEMPEL
100
AcDbLine
 10
21.2
 20
5.3
 30
0.0
 11
21.19999999999994
 21
309.5200000000001
 31
0.0
  0
TEXT
  5
146
330
1E
100
AcDbEntity
  8
TEXT
100
AcDbText
 10
22.18320274018168
 20
59.18615999999998
 30
0.0
 40
2.65
  1
Erstellt mit AUTOCAD 2004
 41
0.8
  7
GREEKS
100
AcDbText
  0
LINE
  5
148
330
1E
100
AcDbEntity
  8
HILF
100
AcDbLine
 10
21.20000000000004
 20
21.19999999999999
 30
0.0
 11
77.38000000000006
 21
21.19999999999999
 31
0.0
  0
LINE
  5
149
330
1E
100
AcDbEntity
  8
HILF
100
AcDbLine
 10
21.20000000000004
 20
26.49999999999999
 30
0.0
 11
77.38000000000006
 21
26.49999999999999
 31
0.0
  0
LINE
  5
14A
330
1E
100
AcDbEntity
  8
HILF
100
AcDbLine
 10
21.20000000000004
 20
31.79999999999999
 30
0.0
 11
77.38000000000006
 21
31.79999999999999
 31
0.0
  0
LINE
  5
14B
330
1E
100
AcDbEntity
  8
HILF
100
AcDbLine
 10
21.20000000000004
 20
37.09999999999997
 30
0.0
 11
77.38000000000006
 21
37.09999999999997
 31
0.0
  0
LINE
  5
14C
330
1E
100
AcDbEntity
  8
HILF
100
AcDbLine
 10
21.20000000000004
 20
42.39999999999997
 30
0.0
 11
77.38000000000006
 21
42.39999999999997
 31
0.0
  0
LINE
  5
14D
330
1E
100
AcDbEntity
  8
HILF
100
AcDbLine
 10
21.20000000000004
 20
47.70000000000003
 30
0.0
 11
77.38000000000006
 21
47.70000000000003
 31
0.0
  0
LINE
  5
14E
330
1E
100
AcDbEntity
  8
HILF
100
AcDbLine
 10
21.20000000000004
 20
53.00000000000004
 30
0.0
 11
77.38000000000006
 21
53.00000000000004
 31
0.0
  0
LINE
  5
14F
330
1E
100
AcDbEntity
  8
STEMPEL
100
AcDbLine
 10
77.37999999999994
 20
15.89999999999998
 30
0.0
 11
21.19999999999999
 21
15.89999999999998
 31
0.0
  0
TEXT
  5
150
330
1E
100
AcDbEntity
  8
TEXT
100
AcDbText
 10
25.58119786734251
 20
7.236968983944116
 30
0.0
 40
2.12
  1
Index
 50
90.0
 41
0.8
  7
GREEKS
100
AcDbText
  0
LINE
  5
151
330
1E
100
AcDbEntity
  8
VOLL
100
AcDbLine
 10
28.62000000000005
 20
58.30000000000003
 30
0.0
 11
28.61999999999999
 21
5.299999999999985
 31
0.0
  0
LINE
  5
152
330
1E
100
AcDbEntity
  8
HILF
100
AcDbLine
 10
16.47646581928343
 20
157.41
 30
0.0
 11
0.0000000000000603
 21
157.41
 31
0.0
  0
LINE
  5
154
330
1E
100
AcDbEntity
  8
VOLL
100
AcDbLine
 10
65.72000000000007
 20
58.29999999999998
 30
0.0
 11
65.72
 21
5.299999999999985
 31
0.0
  0
LINE
  5
155
330
1E
100
AcDbEntity
  8
VOLL
100
AcDbLine
 10
55.12000000000006
 20
58.29999999999998
 30
0.0
 11
55.12
 21
5.299999999999985
 31
0.0
  0
LINE
  5
157
330
1E
100
AcDbEntity
  8
STEMPEL
100
AcDbLine
 10
77.38000000000006
 20
58.29999999999998
 30
0.0
 11
77.38000000000001
 21
5.299999999999985
 31
0.0
  0
TEXT
  5
158
330
1E
100
AcDbEntity
  8
TEXT
100
AcDbText
 10
90.63451608641273
 20
33.44705471637638
 30
0.0
 40
2.12
  1
11.04.
 41
0.8
  7
GREEKS
 72
     1
 11
94.02651608641273
 21
33.44705471637638
 31
0.0
100
AcDbText
  0
TEXT
  5
159
330
1E
100
AcDbEntity
  8
TEXT
100
AcDbText
 10
91.33551867714349
 20
38.85896665651861
 30
0.0
 40
2.12
  1
Tag
 41
0.8
  7
GREEKS
100
AcDbText
  0
TEXT
  5
15A
330
1E
100
AcDbEntity
  8
TEXT
100
AcDbText
 10
78.21931473988361
 20
33.72384895897521
 30
0.0
 40
2.12
  1
Gez.
 41
0.8
  7
GREEKS
100
AcDbText
  0
LINE
  5
15B
330
1E
100
AcDbEntity
  8
VOLL
100
AcDbLine
 10
86.92000000000005
 20
42.39999999999997
 30
0.0
 11
86.92000000000005
 21
21.19999999999999
 31
0.0
  0
TEXT
  5
15C
330
1E
100
AcDbEntity
  8
TEXT
100
AcDbText
 10
78.22835920152711
 20
23.07061586514398
 30
0.0
 40
2.12
  1
Norm.
 41
0.8
  7
GREEKS
100
AcDbText
  0
TEXT
  5
15D
330
1E
100
AcDbEntity
  8
TEXT
100
AcDbText
 10
78.20229958829864
 20
28.4553093445704
 30
0.0
 40
2.12
  1
Gepr.
 41
0.8
  7
GREEKS
100
AcDbText
  0
TEXT
  5
15E
330
1E
100
AcDbEntity
  8
TEXT
 62
     1
100
AcDbText
 10
85.06533424354001
 20
46.71897757324398
 30
0.0
 40
3.709999999999999
  1
1:1
 41
0.8
  7
GREEKS
100
AcDbText
  0
TEXT
  5
15F
330
1E
100
AcDbEntity
  8
TEXT
100
AcDbText
 10
81.36366932396999
 20
54.3049074396157
 30
0.0
 40
2.65
  1
Maßstab
 41
0.8
  7
GREEKS
100
AcDbText
  0
TEXT
  5
160
330
1E
100
AcDbEntity
  8
TEXT
100
AcDbText
 10
78.76971820571512
 20
38.76433499710383
 30
0.0
 40
2.12
  1
2011
 41
0.8
  7
GREEKS
100
AcDbText
  0
LINE
  5
161
330
1E
100
AcDbEntity
  8
VOLL
100
AcDbLine
 10
100.7
 20
58.29999999999991
 30
0.0
 11
100.7
 21
21.19999999999999
 31
0.0
  0
LINE
  5
186
330
1E
100
AcDbEntity
  8
HILF
100
AcDbLine
 10
222.6
 20
-0.0000000000000603
 30
0.0
 11
222.5999999999999
 21
314.82
 31
0.0
  0
LINE
  5
187
330
1E
100
AcDbEntity
  8
STEMPEL
100
AcDbLine
 10
217.3
 20
5.3
 30
0.0
 11
217.3
 21
309.5200000000001
 31
0.0
  0
TEXT
  5
188
330
1E
100
AcDbEntity
  8
TEXT
100
AcDbText
 10
178.7372456593413
 20
27.59930574275659
 30
0.0
 40
2.65
  1
ersetzt durch:
 41
0.8
  7
GREEKS
100
AcDbText
  0
TEXT
  5
189
330
1E
100
AcDbEntity
  8
TEXT
100
AcDbText
 10
178.4636466637406
 20
38.78602665662984
 30
0.0
 40
2.65
  1
Ersatz für:
 41
0.8
  7
GREEKS
100
AcDbText
  0
TEXT
  5
18A
330
1E
100
AcDbEntity
  8
TEXT
100
AcDbText
 10
178.174740127546
 20
54.22599783046823
 30
0.0
 40
2.65
  1
Zeichnungs Nr.
 41
0.8
  7
GREEKS
100
AcDbText
  0
LINE
  5
18B
330
1E
100
AcDbEntity
  8
HILF
100
AcDbLine
 10
123.7502140623639
 20
7.893810767550062
 30
0.0
 11
214.5752084843166
 21
7.893810767550062
 31
0.0
  0
LINE
  5
18C
330
1E
100
AcDbEntity
  8
HILF
100
AcDbLine
 10
178.4636466637406
 20
44.40331327586588
 30
0.0
 11
214.5752084843166
 21
44.40331327586588
 31
0.0
  0
LINE
  5
18D
330
1E
100
AcDbEntity
  8
VOLL
100
AcDbLine
 10
175.96
 20
31.8
 30
0.0
 11
217.3
 21
31.8
 31
0.0
  0
TEXT
  5
18E
330
1E
100
AcDbEntity
  8
TEXT
 62
     1
100
AcDbText
 10
124.5120448089607
 20
46.33126858304502
 30
0.0
 40
3.709999999999999
  1
Bogen DN40 30°
 41
0.8
  7
GREEKS
100
AcDbText
  0
LINE
  5
18F
330
1E
100
AcDbEntity
  8
HILF
100
AcDbLine
 10
124.4300504581382
 20
26.49999999999999
 30
0.0
 11
172.1627575774844
 21
26.49999999999999
 31
0.0
  0
LINE
  5
190
330
1E
100
AcDbEntity
  8
HILF
100
AcDbLine
 10
124.4300504581382
 20
31.79999999999999
 30
0.0
 11
172.1627575774844
 21
31.79999999999999
 31
0.0
  0
LINE
  5
191
330
1E
100
AcDbEntity
  8
HILF
100
AcDbLine
 10
124.4300504581382
 20
37.09999999999997
 30
0.0
 11
172.1627575774844
 21
37.09999999999997
 31
0.0
  0
LINE
  5
192
330
1E
100
AcDbEntity
  8
HILF
100
AcDbLine
 10
124.4300504581382
 20
44.53991871208994
 30
0.0
 11
172.1627575774844
 21
44.53991871208994
 31
0.0
  0
LINE
  5
193
330
1E
100
AcDbEntity
  8
STEMPEL
100
AcDbLine
 10
121.9
 20
58.30000000000003
 30
0.0
 11
121.9
 21
5.299999999999985
 31
0.0
  0
TEXT
  5
194
330
1E
100
AcDbEntity
  8
TEXT
100
AcDbText
 10
124.6187087296417
 20
37.89677241320203
 30
0.0
 40
2.65
  1
dünnwandig
 41
0.8
  7
GREEKS
100
AcDbText
  0
TEXT
  5
195
330
1E
100
AcDbEntity
  8
TEXT
100
AcDbText
 10
124.5413875836248
 20
22.59376301101996
 30
0.0
 40
2.12
  1
5330040W.DWG
 41
0.8
  7
GREEKS
100
AcDbText
  0
TEXT
  5
196
330
1E
100
AcDbEntity
  8
TEXT
100
AcDbText
 10
124.413386347302
 20
16.3481710220232
 30
0.0
 40
2.65
  1
Bauvorhaben
 41
0.8
  7
GREEKS
100
AcDbText
  0
TEXT
  5
197
330
1E
100
AcDbEntity
  8
TEXT
100
AcDbText
 10
124.4853084018775
 20
54.35093438462431
 30
0.0
 40
2.65
  1
Benennung
 41
0.8
  7
GREEKS
100
AcDbText
  0
LINE
  5
198
330
1E
100
AcDbEntity
  8
STEMPEL
100
AcDbLine
 10
175.96
 20
58.29999999999988
 30
0.0
 11
175.96
 21
21.2
 31
0.0
  0
TEXT
  5
19A
330
1E
100
AcDbEntity
  8
TEXT
 62
     1
100
AcDbText
 10
184.8895621723239
 20
46.71897757324398
 30
0.0
 40
3.709999999999999
  1
5330040W
 41
0.8
  7
GREEKS
 72
     1
 11
196.1962288389906
 21
46.71897757324398
 31
0.0
100
AcDbText
  0
LINE
  5
1D4
330
1E
100
AcDbEntity
  8
STEMPEL
100
AcDbLine
 10
129.8137813371727
 20
112.2005063471195
 30
0.0
 11
88.68866797243242
 21
112.2005063471195
 31
0.0
  0
LINE
  5
1D6
330
1E
100
AcDbEntity
  8
HILF
100
AcDbLine
 10
129.2512246548025
 20
117.2005063471196
 30
0.0
 11
89.25122465480257
 21
117.2005063471196
 31
0.0
  0
LINE
  5
1D7
330
1E
100
AcDbEntity
  8
STEMPEL
100
AcDbLine
 10
88.2512246548028
 20
117.2005063471196
 30
0.0
 11
88.6886679724324
 21
112.2005063471195
 31
0.0
  0
LINE
  5
1D8
330
1E
100
AcDbEntity
  8
STEMPEL
100
AcDbLine
 10
130.2512246548023
 20
117.2005063471198
 30
0.0
 11
129.8137813371727
 21
112.2005063471195
 31
0.0
  0
DIMENSION
  5
1E8
330
1E
100
AcDbEntity
  8
BEM
100
AcDbDimension
  2
*D1
 10
130.2512246548025
 20
99.13275319373987
 30
0.0
 11
109.2512246548027
 21
102.3827531937398
 31
0.0
 70
    32
  1
%%c<>
 71
     5
 42
41.99999999999977
  3
Standard
100
AcDbAlignedDimension
 13
88.2512246548028
 23
117.2005063471196
 33
0.0
 14
130.2512246548025
 24
117.2005063471196
 34
0.0
100
AcDbRotatedDimension
1001
ACAD
1000
DSTYLE
1002
{
1070
    41
1040
3.5
1070
    42
1040
1.0
1070
    43
1040
7.0
1070
    44
1040
1.0
1070
    73
1070
     0
1070
    74
1070
     0
1070
    77
1070
     1
1070
    78
1070
     8
1070
    79
1070
     2
1070
   140
1040
3.5
1070
   141
1040
1.5
1070
   146
1040
0.5142857142857144
1070
   147
1040
1.5
1070
   172
1070
     1
1070
   178
1070
     1
1070
   179
1070
     2
1070
   271
1070
     2
1070
   272
1070
     2
1070
   284
1070
     8
1070
   285
1070
     8
1070
   286
1070
     8
1002
}
  0
LINE
  5
20F
330
1E
100
AcDbEntity
  8
STEMPEL
100
AcDbLine
 10
130.2512246548024
 20
170.1139358580186
 30
0.0
 11
130.2512246548025
 21
117.2005063471196
 31
0.0
  0
LINE
  5
210
330
1E
100
AcDbEntity
  8
STEMPEL
100
AcDbLine
 10
88.25122465480268
 20
170.1139358580186
 30
0.0
 11
88.2512246548028
 21
117.2005063471196
 31
0.0
  0
TEXT
  5
212
330
1E
100
AcDbEntity
  8
TEXT
100
AcDbText
 10
124.6187087296417
 20
27.29677241320205
 30
0.0
 40
2.65
  1
EDV-Art.Nr. 5.330.040C
 41
0.8
  7
GREEKS
100
AcDbText
  0
TEXT
  5
255
330
1E
100
AcDbEntity
  8
TEXT
 62
     1
100
AcDbText
 10
157.9386683136784
 20
69.55064748565785
 30
0.0
 40
3.709999999999999
  1
Werkstoff: 1.4404
 41
0.8
  7
GREEKS
100
AcDbText
  0
TEXT
  5
269
330
1E
100
AcDbEntity
  8
TEXT
 62
     1
100
AcDbText
 10
135.645623165877
 20
243.2534994206049
 30
0.0
 40
3.5
  1
DN40
 50
60.0
 41
0.8
  7
GREEKS
100
AcDbText
  0
LINE
  5
26A
330
1E
100
AcDbEntity
  8
HILF
  6
Continuous
100
AcDbLine
 10
113.8624009598159
 20
236.7401493535794
 30
0.0
 11
148.9822004365179
 21
216.4637236718199
 31
0.0
  0
LINE
  5
26B
330
1E
100
AcDbEntity
  8
HILF
  6
Continuous
100
AcDbLine
 10
114.3000986996421
 20
241.0740932009527
 30
0.0
 11
152.5166570370054
 21
219.009752957375
 31
0.0
  0
LINE
  5
26C
330
1E
100
AcDbEntity
  8
HILF
  6
Continuous
100
AcDbLine
 10
118.1360990480082
 20
248.678851291698
 30
0.0
 11
157.184570559043
 21
226.1342057533587
 31
0.0
  0
LINE
  5
26D
330
1E
100
AcDbEntity
  8
STEMPEL
100
AcDbLine
 10
167.6054906184258
 20
242.2668961014819
 30
0.0
 11
126.8969586911794
 21
265.7699779679919
 31
0.0
  0
LINE
  5
26E
330
1E
100
AcDbEntity
  8
STEMPEL
100
AcDbLine
 10
112.2619155375973
 20
235.4151759220043
 30
0.0
 11
100.1079764198799
 21
214.3639358580189
 31
0.0
  0
ARC
  5
26F
330
1E
100
AcDbEntity
  8
STEMPEL
100
AcDbCircle
 10
107.3929634665102
 20
252.7819035552636
 30
0.0
 40
10.5
100
AcDbArc
 50
330.0000000000001
 51
348.1939705983843
  0
ARC
  5
270
330
1E
100
AcDbEntity
  8
STEMPEL
100
AcDbCircle
 10
136.2744243534656
 20
252.8060612082836
 30
0.0
 40
16.0
100
AcDbArc
 50
125.8801443097411
 51
150.0
  0
ARC
  5
271
330
1E
100
AcDbEntity
  8
STEMPEL
100
AcDbCircle
 10
136.7581874743666
 20
246.6439635125123
 30
0.0
 40
19.49984481626527
100
AcDbArc
 50
150.0000000000001
 51
168.1939705983843
  0
LINE
  5
272
330
1E
100
AcDbEntity
  8
STEMPEL
100
AcDbLine
 10
122.4180178929145
 20
260.8060612082838
 30
0.0
 11
119.8706921005701
 21
256.3939635125125
 31
0.0
  0
ARC
  5
273
330
1E
100
AcDbEntity
  8
STEMPEL
100
AcDbCircle
 10
122.5531589399085
 20
239.0401323678651
 30
0.0
 40
9.5
100
AcDbArc
 50
150.0
 51
182.3107790801091
  0
ARC
  5
274
330
1E
100
AcDbEntity
  8
STEMPEL
100
AcDbCircle
 10
107.0657631148907
 20
238.4151759220044
 30
0.0
 40
6.0
100
AcDbArc
 50
330.0000000000001
 51
2.3107790801092
  0
LINE
  5
275
330
1E
100
AcDbEntity
  8
STEMPEL
100
AcDbLine
 10
116.4862302062469
 20
247.5319035552638
 30
0.0
 11
114.3259176039563
 21
243.7901323678653
 31
0.0
  0
LINE
  5
276
330
1E
100
AcDbEntity
  8
MITTEL
100
AcDbLine
 10
149.7512246548025
 20
258.3485640536589
 30
0.0
 11
109.2512246548026
 21
188.2005063471196
 31
0.0
  0
LINE
  5
277
330
1E
100
AcDbEntity
  8
STEMPEL
100
AcDbLine
 10
148.6349824965437
 20
214.4151759220044
 30
0.0
 11
136.4810433788262
 21
193.363935858019
 31
0.0
  0
ARC
  5
278
330
1E
100
AcDbEntity
  8
STEMPEL
100
AcDbCircle
 10
146.1112618352387
 20
241.2439635125123
 30
0.0
 40
19.49984481626527
100
AcDbArc
 50
311.8060294016157
 51
329.9999999999999
  0
ARC
  5
279
330
1E
100
AcDbEntity
  8
STEMPEL
100
AcDbCircle
 10
146.6286651651158
 20
225.1401323678651
 30
0.0
 40
9.5
100
AcDbArc
 50
297.6892209198909
 51
330.0000000000001
  0
ARC
  5
27A
330
1E
100
AcDbEntity
  8
STEMPEL
100
AcDbCircle
 10
153.8311349192504
 20
211.4151759220044
 30
0.0
 40
6.0
100
AcDbArc
 50
117.6892209198907
 51
149.9999999999999
  0
ARC
  5
27B
330
1E
100
AcDbEntity
  8
STEMPEL
100
AcDbCircle
 10
166.1094858430952
 20
218.8819035552636
 30
0.0
 40
10.5
100
AcDbArc
 50
131.8060294016156
 51
150.0
  0
LINE
  5
27C
330
1E
100
AcDbEntity
  8
STEMPEL
100
AcDbLine
 10
157.0162191033585
 20
224.1319035552637
 30
0.0
 11
154.8559065010679
 21
220.3901323678652
 31
0.0
  0
ARC
  5
27D
330
1E
100
AcDbEntity
  8
STEMPEL
100
AcDbCircle
 10
151.6896765408287
 20
243.9060612082836
 30
0.0
 40
16.0
100
AcDbArc
 50
330.0000000000001
 51
354.1198556902604
  0
LINE
  5
27E
330
1E
100
AcDbEntity
  8
STEMPEL
100
AcDbLine
 10
165.5460830013795
 20
235.9060612082838
 30
0.0
 11
162.9987572090351
 21
231.4939635125125
 31
0.0
  0
DIMENSION
  5
33C
330
1E
100
AcDbEntity
  8
BEM
100
AcDbDimension
  2
*D3
 10
116.5410745505028
 20
271.7489504643085
 30
0.0
 11
94.72649198820301
 21
240.4649851205004
 31
0.0
 70
    32
 71
     5
 42
75.99999999999949
 51
357.0000000000001
  3
Standard
100
AcDbAlignedDimension
 13
109.2512246548027
 23
188.2005063471196
 33
0.0
 14
126.8969586911794
 24
265.7699779679919
 34
0.0
 50
59.999999999999
100
AcDbRotatedDimension
1001
ACAD
1000
DSTYLE
1002
{
1070
    41
1040
3.5
1070
    42
1040
1.0
1070
    43
1040
7.0
1070
    44
1040
1.0
1070
    73
1070
     0
1070
    74
1070
     0
1070
    77
1070
     1
1070
    78
1070
     8
1070
    79
1070
     2
1070
   140
1040
3.5
1070
   141
1040
1.5
1070
   146
1040
0.5142857142857144
1070
   147
1040
1.5
1070
   172
1070
     1
1070
   178
1070
     1
1070
   179
1070
     2
1070
   271
1070
     2
1070
   272
1070
     2
1070
   284
1070
     8
1070
   285
1070
     8
1070
   286
1070
     8
1002
}
  0
DIMENSION
  5
3B6
330
1E
100
AcDbEntity
  8
BEM
100
AcDbDimension
  2
*D4
 10
77.27583316905179
 20
112.2005063471195
 30
0.0
 11
74.02583316905178
 21
150.2005063471196
 31
0.0
 70
    32
 71
     5
 42
76.00000000000007
  3
Standard
100
AcDbAlignedDimension
 13
109.2512246548026
 23
188.2005063471196
 33
0.0
 14
88.68866797243242
 24
112.2005063471195
 34
0.0
 50
90.0
100
AcDbRotatedDimension
1001
ACAD
1000
DSTYLE
1002
{
1070
    41
1040
3.5
1070
    42
1040
1.0
1070
    43
1040
7.0
1070
    44
1040
1.0
1070
    73
1070
     0
1070
    74
1070
     0
1070
    77
1070
     1
1070
    78
1070
     8
1070
    79
1070
     2
1070
   140
1040
3.5
1070
   141
1040
1.5
1070
   146
1040
0.5142857142857144
1070
   147
1040
1.5
1070
   172
1070
     1
1070
   178
1070
     1
1070
   179
1070
     2
1070
   271
1070
     2
1070
   272
1070
     2
1070
   284
1070
     8
1070
   285
1070
     8
1070
   286
1070
     8
1002
}
  0
ARC
  5
50F
330
1E
100
AcDbEntity
  8
STEMPEL
100
AcDbCircle
 10
176.7512246548027
 20
170.1139358580188
 30
0.0
 40
88.49999999999999
100
AcDbArc
 50
149.9999999999999
 51
180.0000000000001
  0
ARC
  5
510
330
1E
100
AcDbEntity
  8
STEMPEL
100
AcDbCircle
 10
176.7512246548024
 20
170.1139358580187
 30
0.0
 40
46.5
100
AcDbArc
 50
149.9999999999996
 51
180.0000000000001
  0
ARC
  5
514
330
1E
100
AcDbEntity
  8
MITTEL
100
AcDbCircle
 10
176.7512246548026
 20
170.1139358580188
 30
0.0
 40
67.5
100
AcDbArc
 50
149.9999999999999
 51
180.0
  0
DIMENSION
  5
53C
330
1E
100
AcDbEntity
  8
BEM
100
AcDbDimension
  2
*D5
 10
109.2512246548026
 20
107.2005063471195
 30
0.0
 11
119.2920834094225
 21
222.1629829059953
 31
0.0
 70
   162
 71
     5
 42
0.5235987755982987
  3
Standard
100
AcDb2LineAngularDimension
 13
149.7512246548025
 23
258.3485640536589
 33
0.0
 14
109.2512246548026
 24
188.2005063471196
 34
0.0
 15
109.2512246548026
 25
188.2005063471196
 35
0.0
 16
115.4010887031807
 26
223.0781185178069
 36
0.0
1001
ACAD
1000
DSTYLE
1002
{
1070
    41
1040
3.5
1070
    42
1040
1.0
1070
    43
1040
7.0
1070
    44
1040
1.0
1070
    73
1070
     0
1070
    74
1070
     0
1070
    77
1070
     1
1070
    78
1070
     8
1070
    79
1070
     2
1070
   140
1040
3.5
1070
   141
1040
1.5
1070
   146
1040
0.5142857142857144
1070
   147
1040
1.5
1070
   172
1070
     1
1070
   178
1070
     1
1070
   179
1070
     2
1070
   271
1070
     2
1070
   272
1070
     2
1070
   284
1070
     8
1070
   285
1070
     8
1070
   286
1070
     8
1002
}
  0
DIMENSION
  5
54D
330
1E
100
AcDbEntity
  8
BEM
100
AcDbDimension
  2
*D6
 10
176.7512246548028
 20
170.1139358580187
 30
0.0
 11
141.4950967273962
 21
177.3297431166111
 31
0.0
 70
   164
 71
     5
 42
67.50000000000014
  3
Standard
100
AcDbRadialDimension
 15
110.6220604532633
 25
183.6484710183356
 35
0.0
 40
0.0
1001
ACAD
1000
DSTYLE
1002
{
1070
    41
1040
3.5
1070
    42
1040
1.0
1070
    43
1040
7.0
1070
    44
1040
1.0
1070
    73
1070
     0
1070
    74
1070
     0
1070
    77
1070
     1
1070
    78
1070
     8
1070
    79
1070
     2
1070
   140
1040
3.5
1070
   141
1040
1.5
1070
   146
1040
0.5142857142857144
1070
   147
1040
1.5
1070
   172
1070
     1
1070
   178
1070
     1
1070
   179
1070
     2
1070
   271
1070
     2
1070
   272
1070
     2
1070
   284
1070
     8
1070
   285
1070
     8
1070
   286
1070
     8
1070
   288
1070
     1
1002
}
  0
TEXT
  5
5E9
330
1E
100
AcDbEntity
  8
BEM
100
AcDbText
 10
220.6207619009427
 20
5.234748940261269
 30
0.0
 40
2.0
  1
Diese Zeichnung ist urheberrechtlich geschützt und bleibt unser Eigentum. Sie darf weder ganz noch teilweise vervielfältigt und nicht an Dritte weitergegeben werden.
 50
90.0
 41
0.8
  7
GREEKS
100
AcDbText
  0
TEXT
  5
5EA
330
1E
100
AcDbEntity
  8
TEXT
100
AcDbText
 10
102.920868311357
 20
47.26318748157987
 30
0.0
 40
2.0
  1
DIN EN1124-3
 41
0.8
  7
GREEKS
 72
     1
 11
111.4161064065951
 21
47.26318748157987
 31
0.0
100
AcDbText
  0
TEXT
  5
5EB
330
1E
100
AcDbEntity
  8
TEXT
100
AcDbText
 10
67.7395834149506
 20
10.19662108483204
 30
0.0
 40
2.0
  1
Name
 41
0.8
  7
GREEKS
 72
     1
 11
70.90148817685537
 21
10.19662108483204
 31
0.0
100
AcDbText
  0
TEXT
  5
5EC
330
1E
100
AcDbEntity
  8
TEXT
100
AcDbText
 10
58.29481598333814
 20
10.23578134669905
 30
0.0
 40
2.0
  1
Tag
 41
0.8
  7
GREEKS
 72
     1
 11
60.16148265000481
 21
10.23578134669905
 31
0.0
100
AcDbText
  0
TEXT
  5
5ED
330
1E
100
AcDbEntity
  8
TEXT
100
AcDbText
 10
36.61933939241158
 20
10.23690947492066
 30
0.0
 40
2.0
  1
Änderung
 41
0.8
  7
GREEKS
 72
     1
 11
41.99076796384015
 21
10.23690947492066
 31
0.0
100
AcDbText
  0
ENDSEC
  0
SECTION
  2
OBJECTS
  0
DICTIONARY
  5
C
330
0
100
AcDbDictionary
281
     1
  3
ACAD_COLOR
350
598
  3
ACAD_GROUP
350
D
  3
ACAD_LAYOUT
350
19
  3
ACAD_MATERIAL
350
597
  3
ACAD_MLINESTYLE
350
16
  3
ACAD_PLOTSETTINGS
350
18
  3
ACAD_PLOTSTYLENAME
350
E
  3
AcDbVariableDictionary
350
246
  0
DICTIONARY
  5
598
102
{ACAD_REACTORS
330
C
102
}
330
C
100
AcDbDictionary
281
     1
  0
DICTIONARY
  5
D
102
{ACAD_REACTORS
330
C
102
}
330
C
100
AcDbDictionary
281
     1
  0
DICTIONARY
  5
19
102
{ACAD_REACTORS
330
C
102
}
330
C
100
AcDbDictionary
281
     1
  3
Layout1
350
1D
  3
Model
350
21
  0
DICTIONARY
  5
597
102
{ACAD_REACTORS
330
C
102
}
330
C
100
AcDbDictionary
281
     1
  0
DICTIONARY
  5
16
102
{ACAD_REACTORS
330
C
102
}
330
C
100
AcDbDictionary
281
     1
  3
Standard
350
17
  0
DICTIONARY
  5
18
102
{ACAD_REACTORS
330
C
102
}
330
C
100
AcDbDictionary
281
     1
  0
ACDBDICTIONARYWDFLT
  5
E
102
{ACAD_REACTORS
330
C
102
}
330
C
100
AcDbDictionary
281
     1
  3
Normal
350
F
100
AcDbDictionaryWithDefault
340
F
  0
DICTIONARY
  5
246
102
{ACAD_REACTORS
330
C
102
}
330
C
100
AcDbDictionary
281
     1
  3
DIMASSOC
350
5F6
  3
PROJECTNAME
350
5F7
  3
SORTENTS
350
247
  0
LAYOUT
  5
1D
102
{ACAD_REACTORS
330
19
102
}
330
19
100
AcDbPlotSettings
  1

  2
Tektronix Phaser 740
  4

  6

 40
0.0
 41
0.0
 42
0.0
 43
0.0
 44
0.0
 45
0.0
 46
0.0
 47
0.0
 48
0.0
 49
0.0
140
0.0
141
0.0
142
1.0
143
1.0
 70
   688
 72
     0
 73
     0
 74
     5
  7
monochrome.ctb
 75
    16
147
1.0
 76
     0
 77
     2
 78
   300
148
0.0
149
0.0
100
AcDbLayout
  1
Layout1
 70
     0
 71
     1
 10
0.0
 20
0.0
 11
12.0
 21
9.0
 12
0.0
 22
0.0
 32
0.0
 14
1.000000000000000E+20
 24
1.000000000000000E+20
 34
1.000000000000000E+20
 15
-1.000000000000000E+20
 25
-1.000000000000000E+20
 35
-1.000000000000000E+20
146
0.0
 13
0.0
 23
0.0
 33
0.0
 16
1.0
 26
0.0
 36
0.0
 17
0.0
 27
1.0
 37
0.0
 76
     0
330
1A
  0
LAYOUT
  5
21
102
{ACAD_REACTORS
330
19
102
}
330
19
100
AcDbPlotSettings
  1

  2
Tektronix Phaser 740
  4
A4
  6

 40
5.873749732971191
 41
6.085414409637451
 42
5.577407836914062
 43
5.662078857421875
 44
209.9733276367187
 45
296.9683227539062
 46
0.0
 47
0.0
 48
0.0
 49
0.0
140
0.0
141
0.0
142
1.0
143
1.0
 70
 11952
 72
     0
 73
     1
 74
     0
  7
monochrome.ctb
 75
     0
147
1.0
 76
     0
 77
     2
 78
   300
148
1150.120678237584
149
45.30495740799864
100
AcDbLayout
  1
Model
 70
     1
 71
     0
 10
0.0
 20
0.0
 11
12.0
 21
9.0
 12
0.0
 22
0.0
 32
0.0
 14
0.0
 24
0.0
 34
0.0
 15
0.0
 25
0.0
 35
0.0
146
0.0
 13
0.0
 23
0.0
 33
0.0
 16
1.0
 26
0.0
 36
0.0
 17
0.0
 27
1.0
 37
0.0
 76
     0
330
1E
  0
MLINESTYLE
  5
17
102
{ACAD_REACTORS
330
16
102
}
330
16
100
AcDbMlineStyle
  2
STANDARD
 70
     0
  3

 62
   256
 51
90.0
 52
90.0
 71
     2
 49
0.5
 62
   256
  6
BYLAYER
 49
-0.5
 62
   256
  6
BYLAYER
  0
ACDBPLACEHOLDER
  5
F
102
{ACAD_REACTORS
330
E
102
}
330
E
  0
DICTIONARYVAR
  5
5F6
102
{ACAD_REACTORS
330
246
102
}
330
246
100
DictionaryVariables
280
     0
  1
1
  0
DICTIONARYVAR
  5
5F7
102
{ACAD_REACTORS
330
246
102
}
330
246
100
DictionaryVariables
280
     0
  1

  0
DICTIONARYVAR
  5
247
102
{ACAD_REACTORS
330
246
102
}
330
246
100
DictionaryVariables
280
     0
  1
96
  0
ENDSEC
  0
EOF
