  0
SECTION
  2
HEADER
  9
$ACADVER
  1
AC1018
  9
$ACADMAINTVER
 70
     2
  9
$DWGCODEPAGE
  3
ANSI_1252
  9
$INSBASE
 10
0.0
 20
0.0
 30
0.0
  9
$EXTMIN
 10
-0.0240048754105828
 20
-0.0090254092260693
 30
-0.0000000000000096
  9
$EXTMAX
 10
420.0089170291725
 20
594.0181385765704
 30
0.0000000000000056
  9
$LIMMIN
 10
0.0
 20
0.0
  9
$LIMMAX
 10
419.9999999999999
 20
594.0000000000002
  9
$ORTHOMODE
 70
     1
  9
$REGENMODE
 70
     1
  9
$FILLMODE
 70
     1
  9
$QTEXTMODE
 70
     0
  9
$MIRRTEXT
 70
     1
  9
$LTSCALE
 40
20.0
  9
$ATTMODE
 70
     1
  9
$TEXTSIZE
 40
3.5
  9
$TRACEWID
 40
0.5
  9
$TEXTSTYLE
  7
STANDARD
  9
$CLAYER
  8
VOLL
  9
$CELTYPE
  6
ByLayer
  9
$CECOLOR
 62
   256
  9
$CELTSCALE
 40
1.0
  9
$DISPSILH
 70
     0
  9
$DIMSCALE
 40
2.0
  9
$DIMASZ
 40
3.5
  9
$DIMEXO
 40
1.0
  9
$DIMDLI
 40
7.0
  9
$DIMRND
 40
0.0
  9
$DIMDLE
 40
0.0
  9
$DIMEXE
 40
1.0
  9
$DIMTP
 40
0.0
  9
$DIMTM
 40
0.0
  9
$DIMTXT
 40
3.5
  9
$DIMCEN
 40
1.5
  9
$DIMTSZ
 40
0.0
  9
$DIMTOL
 70
     0
  9
$DIMLIM
 70
     0
  9
$DIMTIH
 70
     0
  9
$DIMTOH
 70
     0
  9
$DIMSE1
 70
     0
  9
$DIMSE2
 70
     0
  9
$DIMTAD
 70
     1
  9
$DIMZIN
 70
     8
  9
$DIMBLK
  1

  9
$DIMASO
 70
     1
  9
$DIMSHO
 70
     0
  9
$DIMPOST
  1

  9
$DIMAPOST
  1

  9
$DIMALT
 70
     0
  9
$DIMALTD
 70
     2
  9
$DIMALTF
 40
25.4
  9
$DIMLFAC
 40
1.0
  9
$DIMTOFL
 70
     1
  9
$DIMTVP
 40
0.0
  9
$DIMTIX
 70
     0
  9
$DIMSOXD
 70
     0
  9
$DIMSAH
 70
     0
  9
$DIMBLK1
  1

  9
$DIMBLK2
  1

  9
$DIMSTYLE
  2
Standard
  9
$DIMCLRD
 70
     0
  9
$DIMCLRE
 70
     0
  9
$DIMCLRT
 70
     1
  9
$DIMTFAC
 40
0.5142857142857144
  9
$DIMGAP
 40
1.5
  9
$DIMJUST
 70
     0
  9
$DIMSD1
 70
     0
  9
$DIMSD2
 70
     0
  9
$DIMTOLJ
 70
     1
  9
$DIMTZIN
 70
     8
  9
$DIMALTZ
 70
     8
  9
$DIMALTTZ
 70
     8
  9
$DIMUPT
 70
     0
  9
$DIMDEC
 70
     2
  9
$DIMTDEC
 70
     2
  9
$DIMALTU
 70
     2
  9
$DIMALTTD
 70
     2
  9
$DIMTXSTY
  7
STANDARD
  9
$DIMAUNIT
 70
     0
  9
$DIMADEC
 70
     2
  9
$DIMALTRND
 40
0.0
  9
$DIMAZIN
 70
     2
  9
$DIMDSEP
 70
    46
  9
$DIMATFIT
 70
     3
  9
$DIMFRAC
 70
     0
  9
$DIMLDRBLK
  1

  9
$DIMLUNIT
 70
     2
  9
$DIMLWD
 70
    -2
  9
$DIMLWE
 70
    -2
  9
$DIMTMOVE
 70
     0
  9
$LUNITS
 70
     2
  9
$LUPREC
 70
     2
  9
$SKETCHINC
 40
1.0
  9
$FILLETRAD
 40
0.0
  9
$AUNITS
 70
     1
  9
$AUPREC
 70
     3
  9
$MENU
  1
ACAD
  9
$ELEVATION
 40
0.0
  9
$PELEVATION
 40
0.0
  9
$THICKNESS
 40
0.0
  9
$LIMCHECK
 70
     0
  9
$CHAMFERA
 40
0.0
  9
$CHAMFERB
 40
0.0
  9
$CHAMFERC
 40
0.0
  9
$CHAMFERD
 40
0.0
  9
$SKPOLY
 70
     0
  9
$TDCREATE
 40
2452040.637099653
  9
$TDUCREATE
 40
2452040.553766320
  9
$TDUPDATE
 40
2455663.316402696
  9
$TDUUPDATE
 40
2455663.233069364
  9
$TDINDWG
 40
0.3362488657
  9
$TDUSRTIMER
 40
0.3362488657
  9
$USRTIMER
 70
     1
  9
$ANGBASE
 50
0.0
  9
$ANGDIR
 70
     0
  9
$PDMODE
 70
     0
  9
$PDSIZE
 40
0.0
  9
$PLINEWID
 40
0.0
  9
$SPLFRAME
 70
     0
  9
$SPLINETYPE
 70
     6
  9
$SPLINESEGS
 70
     8
  9
$HANDSEED
  5
1077
  9
$SURFTAB1
 70
     6
  9
$SURFTAB2
 70
     6
  9
$SURFTYPE
 70
     6
  9
$SURFU
 70
     6
  9
$SURFV
 70
     6
  9
$UCSBASE
  2

  9
$UCSNAME
  2

  9
$UCSORG
 10
0.0
 20
0.0
 30
0.0
  9
$UCSXDIR
 10
1.0
 20
0.0
 30
0.0
  9
$UCSYDIR
 10
0.0
 20
1.0
 30
0.0
  9
$UCSORTHOREF
  2

  9
$UCSORTHOVIEW
 70
     0
  9
$UCSORGTOP
 10
0.0
 20
0.0
 30
0.0
  9
$UCSORGBOTTOM
 10
0.0
 20
0.0
 30
0.0
  9
$UCSORGLEFT
 10
0.0
 20
0.0
 30
0.0
  9
$UCSORGRIGHT
 10
0.0
 20
0.0
 30
0.0
  9
$UCSORGFRONT
 10
0.0
 20
0.0
 30
0.0
  9
$UCSORGBACK
 10
0.0
 20
0.0
 30
0.0
  9
$PUCSBASE
  2

  9
$PUCSNAME
  2

  9
$PUCSORG
 10
0.0
 20
0.0
 30
0.0
  9
$PUCSXDIR
 10
1.0
 20
0.0
 30
0.0
  9
$PUCSYDIR
 10
0.0
 20
1.0
 30
0.0
  9
$PUCSORTHOREF
  2

  9
$PUCSORTHOVIEW
 70
     0
  9
$PUCSORGTOP
 10
0.0
 20
0.0
 30
0.0
  9
$PUCSORGBOTTOM
 10
0.0
 20
0.0
 30
0.0
  9
$PUCSORGLEFT
 10
0.0
 20
0.0
 30
0.0
  9
$PUCSORGRIGHT
 10
0.0
 20
0.0
 30
0.0
  9
$PUCSORGFRONT
 10
0.0
 20
0.0
 30
0.0
  9
$PUCSORGBACK
 10
0.0
 20
0.0
 30
0.0
  9
$USERI1
 70
     0
  9
$USERI2
 70
     0
  9
$USERI3
 70
     0
  9
$USERI4
 70
     0
  9
$USERI5
 70
     0
  9
$USERR1
 40
0.0
  9
$USERR2
 40
0.0
  9
$USERR3
 40
0.0
  9
$USERR4
 40
0.0
  9
$USERR5
 40
0.0
  9
$WORLDVIEW
 70
     1
  9
$SHADEDGE
 70
     3
  9
$SHADEDIF
 70
    70
  9
$TILEMODE
 70
     1
  9
$MAXACTVP
 70
    16
  9
$PINSBASE
 10
0.0
 20
0.0
 30
0.0
  9
$PLIMCHECK
 70
     0
  9
$PEXTMIN
 10
1.000000000000000E+20
 20
1.000000000000000E+20
 30
1.000000000000000E+20
  9
$PEXTMAX
 10
-1.000000000000000E+20
 20
-1.000000000000000E+20
 30
-1.000000000000000E+20
  9
$PLIMMIN
 10
0.0
 20
0.0
  9
$PLIMMAX
 10
12.0
 20
9.0
  9
$UNITMODE
 70
     0
  9
$VISRETAIN
 70
     0
  9
$PLINEGEN
 70
     0
  9
$PSLTSCALE
 70
     0
  9
$TREEDEPTH
 70
  3020
  9
$CMLSTYLE
  2
Standard
  9
$CMLJUST
 70
     0
  9
$CMLSCALE
 40
1.0
  9
$PROXYGRAPHICS
 70
     1
  9
$MEASUREMENT
 70
     0
  9
$CELWEIGHT
370
    -1
  9
$ENDCAPS
280
     0
  9
$JOINSTYLE
280
     0
  9
$LWDISPLAY
290
     0
  9
$INSUNITS
 70
     0
  9
$HYPERLINKBASE
  1

  9
$STYLESHEET
  1
monochrome 1.ctb
  9
$XEDIT
290
     1
  9
$CEPSNTYPE
380
     0
  9
$PSTYLEMODE
290
     1
  9
$FINGERPRINTGUID
  2
{7AADB5C8-6110-11D8-B72B-000102183313}
  9
$VERSIONGUID
  2
{4DAA348E-290B-46F0-B800-D9A8D7837200}
  9
$EXTNAMES
290
     1
  9
$PSVPSCALE
 40
0.0
  9
$OLESTARTUP
290
     0
  9
$SORTENTS
280
    96
  9
$INDEXCTL
280
     0
  9
$HIDETEXT
280
     0
  9
$XCLIPFRAME
290
     0
  9
$HALOGAP
280
     0
  9
$OBSCOLOR
 70
   257
  9
$OBSLTYPE
280
     0
  9
$INTERSECTIONDISPLAY
280
     0
  9
$INTERSECTIONCOLOR
 70
   257
  9
$DIMASSOC
280
     1
  9
$PROJECTNAME
  1

  0
ENDSEC
  0
SECTION
  2
CLASSES
  0
CLASS
  1
ACDBDICTIONARYWDFLT
  2
AcDbDictionaryWithDefault
  3
ObjectDBX Classes
 90
        0
 91
        1
280
     0
281
     0
  0
CLASS
  1
DICTIONARYVAR
  2
AcDbDictionaryVar
  3
ObjectDBX Classes
 90
        0
 91
        3
280
     0
281
     0
  0
ENDSEC
  0
SECTION
  2
TABLES
  0
TABLE
  2
VPORT
  5
8
330
0
100
AcDbSymbolTable
 70
     3
  0
VPORT
  5
1076
330
8
100
AcDbSymbolTableRecord
100
AcDbViewportTableRecord
  2
*Active
 70
     0
 10
0.0
 20
0.0
 11
1.0
 21
1.0
 12
210.0
 22
297.0
 13
0.0
 23
0.0
 14
1.0
 24
1.0
 15
10.0
 25
10.0
 16
0.0
 26
0.0
 36
1.0
 17
0.0
 27
0.0
 37
0.0
 40
594.0
 41
1.334231805929919
 42
50.0
 43
0.0
 44
0.0
 50
0.0
 51
0.0
 71
     0
 72
  1500
 73
     1
 74
     0
 75
     0
 76
     0
 77
     0
 78
     0
281
     0
 65
     1
110
0.0
120
0.0
130
0.0
111
1.0
121
0.0
131
0.0
112
0.0
122
1.0
132
0.0
 79
     0
146
0.0
  0
ENDTAB
  0
TABLE
  2
LTYPE
  5
5
330
0
100
AcDbSymbolTable
 70
     2
  0
LTYPE
  5
13
330
5
100
AcDbSymbolTableRecord
100
AcDbLinetypeTableRecord
  2
ByBlock
 70
     0
  3

 72
    65
 73
     0
 40
0.0
  0
LTYPE
  5
14
330
5
100
AcDbSymbolTableRecord
100
AcDbLinetypeTableRecord
  2
ByLayer
 70
     0
  3

 72
    65
 73
     0
 40
0.0
  0
LTYPE
  5
15
330
5
100
AcDbSymbolTableRecord
100
AcDbLinetypeTableRecord
  2
Continuous
 70
     0
  3
Solid line
 72
    65
 73
     0
 40
0.0
  0
LTYPE
  5
35
330
5
100
AcDbSymbolTableRecord
100
AcDbLinetypeTableRecord
  2
STRICHPUNKT
 70
     0
  3
__ . __ . __ . __ . __ . __ . __ . __ . __ . __
 72
    65
 73
     4
 40
1.0
 49
0.5
 74
     0
 49
-0.25
 74
     0
 49
0.0
 74
     0
 49
-0.25
 74
     0
  0
ENDTAB
  0
TABLE
  2
LAYER
  5
2
330
0
100
AcDbSymbolTable
 70
     9
  0
LAYER
  5
10
330
2
100
AcDbSymbolTableRecord
100
AcDbLayerTableRecord
  2
0
 70
     0
 62
     7
  6
Continuous
370
    -3
390
F
  0
LAYER
  5
38
330
2
100
AcDbSymbolTableRecord
100
AcDbLayerTableRecord
  2
VOLL
 70
     0
 62
     1
  6
Continuous
370
    -3
390
F
  0
LAYER
  5
39
330
2
100
AcDbSymbolTableRecord
100
AcDbLayerTableRecord
  2
HILF
 70
     0
 62
     2
  6
Continuous
370
    -3
390
F
  0
LAYER
  5
3A
330
2
100
AcDbSymbolTableRecord
100
AcDbLayerTableRecord
  2
MITTEL
 70
     0
 62
     2
  6
STRICHPUNKT
370
    -3
390
F
  0
LAYER
  5
3B
330
2
100
AcDbSymbolTableRecord
100
AcDbLayerTableRecord
  2
BEM
 70
     0
 62
     7
  6
Continuous
370
    -3
390
F
  0
LAYER
  5
3C
330
2
100
AcDbSymbolTableRecord
100
AcDbLayerTableRecord
  2
STEMPEL
 70
     0
 62
     3
  6
Continuous
370
    -3
390
F
  0
LAYER
  5
3D
330
2
100
AcDbSymbolTableRecord
100
AcDbLayerTableRecord
  2
TEXT
 70
     0
 62
     7
  6
Continuous
370
    -3
390
F
  0
LAYER
  5
3E
330
2
100
AcDbSymbolTableRecord
100
AcDbLayerTableRecord
  2
DEFPOINTS
 70
     0
 62
     7
  6
Continuous
290
     0
370
    -3
390
F
  0
LAYER
  5
3F
330
2
100
AcDbSymbolTableRecord
100
AcDbLayerTableRecord
  2
SCHRAFF
 70
     0
 62
     7
  6
Continuous
370
    -3
390
F
  0
ENDTAB
  0
TABLE
  2
STYLE
  5
3
330
0
100
AcDbSymbolTable
 70
     2
  0
STYLE
  5
11
330
3
100
AcDbSymbolTableRecord
100
AcDbTextStyleTableRecord
  2
STANDARD
 70
     0
 40
0.0
 41
0.8
 50
0.0
 71
     0
 42
3.5
  3
simplex.shx
  4

  0
STYLE
  5
34
330
3
100
AcDbSymbolTableRecord
100
AcDbTextStyleTableRecord
  2
GREEKS
 70
     0
 40
0.0
 41
0.8
 50
0.0
 71
     0
 42
2.5
  3
SIMPLEX.shx
  4

  0
ENDTAB
  0
TABLE
  2
VIEW
  5
6
330
0
100
AcDbSymbolTable
 70
     0
  0
ENDTAB
  0
TABLE
  2
UCS
  5
7
330
0
100
AcDbSymbolTable
 70
     0
  0
ENDTAB
  0
TABLE
  2
APPID
  5
9
330
0
100
AcDbSymbolTable
 70
     1
  0
APPID
  5
12
330
9
100
AcDbSymbolTableRecord
100
AcDbRegAppTableRecord
  2
ACAD
 70
     0
  0
ENDTAB
  0
TABLE
  2
DIMSTYLE
  5
A
330
0
100
AcDbSymbolTable
 70
     1
100
AcDbDimStyleTable
 71
     1
340
1CB
  0
DIMSTYLE
105
1CB
102
{ACAD_REACTORS
330
CC5
330
1E8
330
EFE
330
FB0
102
}
330
A
100
AcDbSymbolTableRecord
100
AcDbDimStyleTableRecord
  2
Standard
 70
     0
340
11
  0
ENDTAB
  0
TABLE
  2
BLOCK_RECORD
  5
1
330
0
100
AcDbSymbolTable
 70
     8
  0
BLOCK_RECORD
  5
1E
330
1
100
AcDbSymbolTableRecord
100
AcDbBlockTableRecord
  2
*Model_Space
340
21
  0
BLOCK_RECORD
  5
1A
330
1
100
AcDbSymbolTableRecord
100
AcDbBlockTableRecord
  2
*Paper_Space
340
1D
  0
BLOCK_RECORD
  5
22
330
1
100
AcDbSymbolTableRecord
100
AcDbBlockTableRecord
  2
LOGO
340
0
102
{BLKREFS
331
135
102
}
  0
BLOCK_RECORD
  5
1E9
330
1
100
AcDbSymbolTableRecord
100
AcDbBlockTableRecord
  2
*D1
340
0
  0
BLOCK_RECORD
  5
CC6
330
1
100
AcDbSymbolTableRecord
100
AcDbBlockTableRecord
  2
*D3
340
0
  0
BLOCK_RECORD
  5
EFF
330
1
100
AcDbSymbolTableRecord
100
AcDbBlockTableRecord
  2
*D4
340
0
  0
BLOCK_RECORD
  5
FB1
330
1
100
AcDbSymbolTableRecord
100
AcDbBlockTableRecord
  2
*D5
340
0
  0
ENDTAB
  0
ENDSEC
  0
SECTION
  2
BLOCKS
  0
BLOCK
  5
43
330
1E
100
AcDbEntity
  8
0
100
AcDbBlockBegin
  2
*Model_Space
 70
     0
 10
0.0
 20
0.0
 30
0.0
  3
*Model_Space
  1

  0
ENDBLK
  5
44
330
1E
100
AcDbEntity
  8
0
100
AcDbBlockEnd
  0
BLOCK
  5
41
330
1A
100
AcDbEntity
 67
     1
  8
0
100
AcDbBlockBegin
  2
*Paper_Space
 70
     0
 10
0.0
 20
0.0
 30
0.0
  3
*Paper_Space
  1

  0
ENDBLK
  5
42
330
1A
100
AcDbEntity
 67
     1
  8
0
100
AcDbBlockEnd
  0
BLOCK
  5
45
330
22
100
AcDbEntity
  8
0
100
AcDbBlockBegin
  2
LOGO
 70
     0
 10
0.0
 20
0.0
 30
0.0
  3
LOGO
  1

  0
ARC
  5
46
330
22
100
AcDbEntity
  8
0
100
AcDbCircle
 10
11.59973089678112
 20
-9.271599258481501
 30
0.0
 40
4.5
100
AcDbArc
 50
270.0
 51
231.0575587310159
  0
LINE
  5
47
330
22
100
AcDbEntity
  8
0
100
AcDbLine
 10
3.599730896781125
 20
-4.771599258481529
 30
0.0
 11
3.599730896781153
 21
-11.77159925848133
 31
0.0
  0
LINE
  5
48
330
22
100
AcDbEntity
  8
0
100
AcDbLine
 10
2.599730896781125
 20
-4.771599258481529
 30
0.0
 11
2.599730896781153
 21
-11.77159925848133
 31
0.0
  0
CIRCLE
  5
49
330
22
100
AcDbEntity
  8
0
100
AcDbCircle
 10
11.59973089678112
 20
-9.271599258481501
 30
0.0
 40
3.5
  0
ARC
  5
4A
330
22
100
AcDbEntity
  8
0
100
AcDbCircle
 10
31.59973089678115
 20
-9.271599258481472
 30
0.0
 40
4.5
100
AcDbArc
 50
270.0
 51
231.0575587310182
  0
LINE
  5
4B
330
22
100
AcDbEntity
  8
0
100
AcDbLine
 10
17.59973089678112
 20
-4.771599258481472
 30
0.0
 11
17.59973089678115
 21
-13.77159925848147
 31
0.0
  0
ARC
  5
4C
330
22
100
AcDbEntity
  8
0
100
AcDbCircle
 10
22.59973089678116
 20
-7.271599258481472
 30
0.0
 40
2.5
100
AcDbArc
 50
293.1161887722295
 51
90.0
  0
CIRCLE
  5
4D
330
22
100
AcDbEntity
  8
0
100
AcDbCircle
 10
31.59973089678115
 20
-9.271599258481472
 30
0.0
 40
3.5
  0
ARC
  5
4E
330
22
100
AcDbEntity
  8
0
100
AcDbCircle
 10
4.599730896781153
 20
-11.77159925848133
 30
0.0
 40
1.0
100
AcDbArc
 50
180.0
 51
270.0
  0
ARC
  5
4F
330
22
100
AcDbEntity
  8
0
100
AcDbCircle
 10
4.599730896781153
 20
-11.77159925848133
 30
0.0
 40
2.0
100
AcDbArc
 50
179.9999999999992
 51
270.0
  0
LINE
  5
50
330
22
100
AcDbEntity
  8
0
100
AcDbLine
 10
11.59973089678115
 20
-13.77159925848144
 30
0.0
 11
4.599730896781153
 21
-13.77159925848147
 31
0.0
  0
LINE
  5
51
330
22
100
AcDbEntity
  8
0
100
AcDbLine
 10
8.771303772034769
 20
-12.77159925848136
 30
0.0
 11
4.599730896781153
 21
-12.77159925848133
 31
0.0
  0
LINE
  5
52
330
22
100
AcDbEntity
  8
0
100
AcDbLine
 10
31.59973089678115
 20
-13.77159925848147
 30
0.0
 11
23.6715276665056
 21
-13.77159925848144
 31
0.0
  0
LINE
  5
53
330
22
100
AcDbEntity
  8
0
100
AcDbLine
 10
23.56565672307022
 20
-9.51278021337896
 30
0.0
 11
24.4388546544846
 21
-12.77159925848144
 31
0.0
  0
LINE
  5
54
330
22
100
AcDbEntity
  8
0
100
AcDbLine
 10
22.59973089678116
 20
-9.771599258481472
 30
0.0
 11
18.59973089678112
 21
-9.771599258481472
 31
0.0
  0
LINE
  5
55
330
22
100
AcDbEntity
  8
0
100
AcDbLine
 10
18.59973089678115
 20
-13.77159925848144
 30
0.0
 11
17.59973089678115
 21
-13.77159925848144
 31
0.0
  0
LINE
  5
56
330
22
100
AcDbEntity
  8
0
100
AcDbLine
 10
18.59973089678115
 20
-9.771599258481472
 30
0.0
 11
18.59973089678115
 21
-13.77159925848144
 31
0.0
  0
LINE
  5
57
330
22
100
AcDbEntity
  8
0
100
AcDbLine
 10
22.59973089678116
 20
-9.771599258481472
 30
0.0
 11
23.67152766650562
 21
-13.77159925848147
 31
0.0
  0
ARC
  5
58
330
22
100
AcDbEntity
  8
0
100
AcDbCircle
 10
22.59973089678116
 20
-7.271599258481472
 30
0.0
 40
2.5
100
AcDbArc
 50
270.0
 51
270.0000000000007
  0
LINE
  5
59
330
22
100
AcDbEntity
  8
0
100
AcDbLine
 10
28.77130377203494
 20
-12.77159925848147
 30
0.0
 11
24.43885465448463
 21
-12.77159925848144
 31
0.0
  0
LINE
  5
5A
330
22
100
AcDbEntity
  8
0
100
AcDbLine
 10
3.599730896781125
 20
-4.771599258481472
 30
0.0
 11
2.599730896781125
 21
-4.771599258481472
 31
0.0
  0
LINE
  5
5B
330
22
100
AcDbEntity
  8
0
100
AcDbLine
 10
22.59973089678116
 20
-8.771599258481472
 30
0.0
 11
18.59973089678115
 21
-8.771599258481472
 31
0.0
  0
LINE
  5
5C
330
22
100
AcDbEntity
  8
0
100
AcDbLine
 10
22.59973089678116
 20
-5.771599258481472
 30
0.0
 11
18.59973089678115
 21
-5.771599258481472
 31
0.0
  0
LINE
  5
5D
330
22
100
AcDbEntity
  8
0
100
AcDbLine
 10
22.59973089678116
 20
-4.771599258481472
 30
0.0
 11
17.59973089678115
 21
-4.771599258481472
 31
0.0
  0
LINE
  5
5E
330
22
100
AcDbEntity
  8
0
100
AcDbLine
 10
18.59973089678115
 20
-5.771599258481472
 30
0.0
 11
18.59973089678115
 21
-8.771599258481472
 31
0.0
  0
ARC
  5
5F
330
22
100
AcDbEntity
  8
0
100
AcDbCircle
 10
22.59973089678116
 20
-7.271599258481472
 30
0.0
 40
1.5
100
AcDbArc
 50
270.0
 51
90.0
  0
ENDBLK
  5
60
330
22
100
AcDbEntity
  8
0
100
AcDbBlockEnd
  0
BLOCK
  5
1F3
330
1E9
100
AcDbEntity
  8
0
100
AcDbBlockBegin
  2
*D1
 70
     1
 10
0.0
 20
0.0
 30
0.0
  3
*D1
  1

  0
LINE
  5
F57
330
1E9
100
AcDbEntity
  8
BEM
 62
     0
370
    -2
100
AcDbLine
 10
129.4790606483984
 20
190.8455749896797
 30
0.0
 11
129.4790606483984
 21
158.7937244778023
 31
0.0
  0
LINE
  5
F58
330
1E9
100
AcDbEntity
  8
BEM
 62
     0
370
    -2
100
AcDbLine
 10
262.4790606483989
 20
190.84557498968
 30
0.0
 11
262.4790606483989
 21
158.7937244778023
 31
0.0
  0
LINE
  5
F59
330
1E9
100
AcDbEntity
  8
BEM
 62
     0
370
    -2
100
AcDbLine
 10
136.4790606483984
 20
160.7937244778023
 30
0.0
 11
255.4790606483989
 21
160.7937244778023
 31
0.0
  0
SOLID
  5
F5A
330
1E9
100
AcDbEntity
  8
BEM
 62
     0
100
AcDbTrace
 10
136.4790606483984
 20
161.960391144469
 30
0.0
 11
136.4790606483984
 21
159.6270578111357
 31
0.0
 12
129.4790606483984
 22
160.7937244778023
 32
0.0
 13
129.4790606483984
 23
160.7937244778023
 33
0.0
  0
SOLID
  5
F5B
330
1E9
100
AcDbEntity
  8
BEM
 62
     0
100
AcDbTrace
 10
255.4790606483989
 20
161.960391144469
 30
0.0
 11
255.4790606483989
 21
159.6270578111357
 31
0.0
 12
262.4790606483989
 22
160.7937244778023
 32
0.0
 13
262.4790606483989
 23
160.7937244778023
 33
0.0
  0
MTEXT
  5
F5C
330
1E9
100
AcDbEntity
  8
BEM
 62
     1
100
AcDbMText
 10
195.9790606483986
 20
167.2937244778023
 30
0.0
 40
7.0
 41
0.0
 71
     5
 72
     1
  1
\A1;%%c133
 73
     1
 44
1.0
  0
POINT
  5
F5D
330
1E9
100
AcDbEntity
  8
DEFPOINTS
 62
     0
100
AcDbPoint
 10
129.4790606483984
 20
192.8455749896797
 30
0.0
  0
POINT
  5
F5E
330
1E9
100
AcDbEntity
  8
DEFPOINTS
 62
     0
100
AcDbPoint
 10
262.4790606483989
 20
192.84557498968
 30
0.0
  0
POINT
  5
F5F
330
1E9
100
AcDbEntity
  8
DEFPOINTS
 62
     0
100
AcDbPoint
 10
262.4790606483989
 20
160.7937244778023
 30
0.0
  0
ENDBLK
  5
1F4
330
1E9
100
AcDbEntity
  8
0
100
AcDbBlockEnd
  0
BLOCK
  5
CD0
330
CC6
100
AcDbEntity
  8
0
100
AcDbBlockBegin
  2
*D3
 70
     1
 10
0.0
 20
0.0
 30
0.0
  3
*D3
  1

  0
LINE
  5
106C
330
CC6
100
AcDbEntity
  8
BEM
 62
     0
370
    -2
100
AcDbLine
 10
128.3539472836576
 20
182.8455749896795
 30
0.0
 11
98.24414258067506
 21
182.8455749896795
 31
0.0
  0
LINE
  5
106D
330
CC6
100
AcDbEntity
  8
BEM
 62
     0
370
    -2
100
AcDbLine
 10
193.9790606483983
 20
357.8455749896798
 30
0.0
 11
98.24414258067509
 21
357.8455749896798
 31
0.0
  0
LINE
  5
106E
330
CC6
100
AcDbEntity
  8
BEM
 62
     0
370
    -2
100
AcDbLine
 10
100.244142580675
 20
189.8455749896795
 30
0.0
 11
100.244142580675
 21
350.8455749896798
 31
0.0
  0
SOLID
  5
106F
330
CC6
100
AcDbEntity
  8
BEM
 62
     0
100
AcDbTrace
 10
99.07747591400838
 20
189.8455749896795
 30
0.0
 11
101.4108092473417
 21
189.8455749896795
 31
0.0
 12
100.244142580675
 22
182.8455749896795
 32
0.0
 13
100.244142580675
 23
182.8455749896795
 33
0.0
  0
SOLID
  5
1070
330
CC6
100
AcDbEntity
  8
BEM
 62
     0
100
AcDbTrace
 10
99.07747591400841
 20
350.8455749896798
 30
0.0
 11
101.4108092473417
 21
350.8455749896798
 31
0.0
 12
100.2441425806751
 22
357.8455749896798
 32
0.0
 13
100.2441425806751
 23
357.8455749896798
 33
0.0
  0
MTEXT
  5
1071
330
CC6
100
AcDbEntity
  8
BEM
 62
     1
100
AcDbMText
 10
93.74414258067501
 20
270.3455749896797
 30
0.0
 40
7.0
 41
0.0
 71
     5
 72
     1
  1
\A1;175
 11
0.0000000000000001
 21
1.0
 31
0.0
 73
     1
 44
1.0
  0
POINT
  5
1072
330
CC6
100
AcDbEntity
  8
DEFPOINTS
 62
     0
100
AcDbPoint
 10
130.3539472836576
 20
182.8455749896795
 30
0.0
  0
POINT
  5
1073
330
CC6
100
AcDbEntity
  8
DEFPOINTS
 62
     0
100
AcDbPoint
 10
195.9790606483983
 20
357.8455749896798
 30
0.0
  0
POINT
  5
1074
330
CC6
100
AcDbEntity
  8
DEFPOINTS
 62
     0
100
AcDbPoint
 10
100.2441425806751
 20
357.8455749896798
 30
0.0
  0
ENDBLK
  5
CD1
330
CC6
100
AcDbEntity
  8
0
100
AcDbBlockEnd
  0
BLOCK
  5
F0B
330
EFF
100
AcDbEntity
  8
0
100
AcDbBlockBegin
  2
*D4
 70
     1
 10
0.0
 20
0.0
 30
0.0
  3
*D4
  1

  0
LINE
  5
1011
330
EFF
100
AcDbEntity
  8
BEM
 62
     0
370
    -2
100
AcDbLine
 10
195.9790606483983
 20
359.8455749896798
 30
0.0
 11
195.9790606483983
 21
439.4396817245453
 31
0.0
  0
ARC
  5
1012
330
EFF
100
AcDbEntity
  8
BEM
 62
     0
370
    -2
100
AcDbCircle
 10
195.9790606483983
 20
357.8455749896798
 30
0.0
 40
79.5941067348656
100
AcDbArc
 50
50.04057196639555
 51
84.95942803360447
  0
SOLID
  5
1013
330
EFF
100
AcDbEntity
  8
BEM
 62
     0
100
AcDbTrace
 10
247.885861827331
 20
419.7148473957482
 30
0.0
 11
246.3100938644998
 21
417.9939755900175
 31
0.0
 12
252.2605932631077
 22
414.1271076043891
 32
0.0
 13
252.2605932631077
 23
414.1271076043891
 33
0.0
  0
SOLID
  5
1014
330
EFF
100
AcDbEntity
  8
BEM
 62
     0
100
AcDbTrace
 10
202.9209876991915
 20
435.9663318229343
 30
0.0
 11
203.0235916104819
 21
438.2974081584137
 31
0.0
 12
195.9790606483983
 22
437.4396817245453
 32
0.0
 13
195.9790606483983
 23
437.4396817245453
 33
0.0
  0
MTEXT
  5
1015
330
EFF
100
AcDbEntity
  8
BEM
 62
     1
100
AcDbMText
 10
228.005848533897
 20
437.7610307677188
 30
0.0
 40
7.0
 41
0.0
 71
     5
 72
     1
  1
\A1;45°
 11
0.9282337526788646
 21
-0.3719974467489156
 31
0.0
 73
     1
 44
1.0
  0
POINT
  5
1016
330
EFF
100
AcDbEntity
  8
DEFPOINTS
 62
     0
100
AcDbPoint
 10
235.7761140158311
 20
426.7760934136035
 30
0.0
  0
POINT
  5
1017
330
EFF
100
AcDbEntity
  8
DEFPOINTS
 62
     0
100
AcDbPoint
 10
195.9790606483983
 20
357.8455749896798
 30
0.0
  0
POINT
  5
1018
330
EFF
100
AcDbEntity
  8
DEFPOINTS
 62
     0
100
AcDbPoint
 10
323.2582812619768
 20
485.1247956032583
 30
0.0
  0
POINT
  5
1019
330
EFF
100
AcDbEntity
  8
DEFPOINTS
 62
     0
100
AcDbPoint
 10
195.9790606483983
 20
357.8455749896798
 30
0.0
  0
POINT
  5
101A
330
EFF
100
AcDbEntity
  8
DEFPOINTS
 62
     0
100
AcDbPoint
 10
195.9790606483984
 20
177.84557498968
 30
0.0
  0
ENDBLK
  5
F0C
330
EFF
100
AcDbEntity
  8
0
100
AcDbBlockEnd
  0
BLOCK
  5
FBB
330
FB1
100
AcDbEntity
  8
0
100
AcDbBlockBegin
  2
*D5
 70
     1
 10
0.0
 20
0.0
 30
0.0
  3
*D5
  1

  0
LINE
  5
101B
330
FB1
100
AcDbEntity
  8
BEM
 62
     0
370
    -2
100
AcDbLine
 10
267.6407500975478
 20
533.6712589558219
 30
0.0
 11
250.5271112365094
 21
550.7848978168603
 31
0.0
  0
LINE
  5
101C
330
FB1
100
AcDbEntity
  8
BEM
 62
     0
370
    -2
100
AcDbLine
 10
194.5648470860252
 20
359.2597885520529
 30
0.0
 11
126.7834245288636
 21
427.0412111092144
 31
0.0
  0
LINE
  5
101D
330
FB1
100
AcDbEntity
  8
BEM
 62
     0
370
    -2
100
AcDbLine
 10
246.9915773305767
 20
544.4209367861812
 30
0.0
 11
133.1473855595426
 21
430.5767450151471
 31
0.0
  0
SOLID
  5
101E
330
FB1
100
AcDbEntity
  8
BEM
 62
     0
100
AcDbTrace
 10
246.1666194191924
 20
545.2458946975656
 30
0.0
 11
247.816535241961
 21
543.5959788747971
 31
0.0
 12
251.9413247988825
 22
549.3706842544873
 32
0.0
 13
251.9413247988825
 23
549.3706842544873
 33
0.0
  0
SOLID
  5
101F
330
FB1
100
AcDbEntity
  8
BEM
 62
     0
100
AcDbTrace
 10
132.3224276481583
 20
431.4017029265314
 30
0.0
 11
133.9723434709269
 21
429.7517871037629
 31
0.0
 12
128.1976380912367
 22
425.6269975468414
 32
0.0
 13
128.1976380912367
 23
425.6269975468414
 33
0.0
  0
MTEXT
  5
1020
330
FB1
100
AcDbEntity
  8
BEM
 62
     1
100
AcDbMText
 10
185.473287367347
 20
492.0950349783768
 30
0.0
 40
7.0
 41
0.0
 71
     5
 72
     1
  1
\A1;175
 11
0.7071067811865474
 21
0.7071067811865478
 31
0.0
 73
     1
 44
1.0
  0
POINT
  5
1021
330
FB1
100
AcDbEntity
  8
DEFPOINTS
 62
     0
100
AcDbPoint
 10
269.0549636599209
 20
532.2570453934488
 30
0.0
  0
POINT
  5
1022
330
FB1
100
AcDbEntity
  8
DEFPOINTS
 62
     0
100
AcDbPoint
 10
195.9790606483983
 20
357.8455749896798
 30
0.0
  0
POINT
  5
1023
330
FB1
100
AcDbEntity
  8
DEFPOINTS
 62
     0
100
AcDbPoint
 10
128.1976380912367
 20
425.6269975468414
 30
0.0
  0
ENDBLK
  5
FBC
330
FB1
100
AcDbEntity
  8
0
100
AcDbBlockEnd
  0
ENDSEC
  0
SECTION
  2
ENTITIES
  0
TEXT
  5
134
330
1E
100
AcDbEntity
  8
TEXT
100
AcDbText
 10
204.4216048581257
 20
63.0896391972351
 30
0.0
 40
4.0
  1
Koeh
 41
0.8
  7
GREEKS
 72
     1
 11
209.6787477152686
 21
63.0896391972351
 31
0.0
100
AcDbText
  0
INSERT
  5
135
330
1E
100
AcDbEntity
  8
STEMPEL
100
AcDbBlockReference
  2
LOGO
 10
150.9955485457794
 20
45.02105276448322
 30
0.0
 41
2.0
 42
2.0
 43
2.0
  0
LINE
  5
136
330
1E
100
AcDbEntity
  8
HILF
100
AcDbLine
 10
420.0
 20
0.0
 30
0.0
 11
0.0
 21
0.0
 31
0.0
  0
LINE
  5
137
330
1E
100
AcDbEntity
  8
HILF
100
AcDbLine
 10
419.9999999999999
 20
594.0000000000002
 30
0.0
 11
0.0
 21
594.0
 31
0.0
  0
LINE
  5
138
330
1E
100
AcDbEntity
  8
STEMPEL
100
AcDbLine
 10
410.0
 20
584.0
 30
0.0
 11
39.99999999999989
 21
584.0
 31
0.0
  0
LINE
  5
139
330
1E
100
AcDbEntity
  8
STEMPEL
100
AcDbLine
 10
410.0
 20
10.0
 30
0.0
 11
39.99999999999989
 21
10.0
 31
0.0
  0
LINE
  5
13A
330
1E
100
AcDbEntity
  8
STEMPEL
100
AcDbLine
 10
49.99999999999989
 20
10.0
 30
0.0
 11
410.0
 21
10.0
 31
0.0
  0
TEXT
  5
13B
330
1E
100
AcDbEntity
  8
TEXT
100
AcDbText
 10
202.4626584226295
 20
73.30961091915225
 30
0.0
 40
4.0
  1
Name
 41
0.8
  7
GREEKS
100
AcDbText
  0
TEXT
  5
13C
330
1E
100
AcDbEntity
  8
TEXT
100
AcDbText
 10
196.5498279101549
 20
102.6506227776589
 30
0.0
 40
5.0
  1
Zul. Abw.
 41
0.8
  7
GREEKS
 72
     4
 11
209.9783993387263
 21
105.1506227776589
 31
0.0
100
AcDbText
  0
LINE
  5
13D
330
1E
100
AcDbEntity
  8
HILF
100
AcDbLine
 10
146.0000000000001
 20
49.99999999999997
 30
0.0
 11
230.0
 21
49.99999999999997
 31
0.0
  0
LINE
  5
13E
330
1E
100
AcDbEntity
  8
HILF
100
AcDbLine
 10
146.0000000000001
 20
59.99999999999998
 30
0.0
 11
230.0
 21
59.99999999999998
 31
0.0
  0
LINE
  5
13F
330
1E
100
AcDbEntity
  8
HILF
100
AcDbLine
 10
146.0000000000001
 20
69.99999999999994
 30
0.0
 11
230.0
 21
69.99999999999994
 31
0.0
  0
LINE
  5
140
330
1E
100
AcDbEntity
  8
STEMPEL
100
AcDbLine
 10
410.0
 20
80.0
 30
0.0
 11
146.0000000000001
 21
79.99999999999994
 31
0.0
  0
LINE
  5
141
330
1E
100
AcDbEntity
  8
STEMPEL
100
AcDbLine
 10
410.0
 20
40.0
 30
0.0
 11
146.0000000000001
 21
39.99999999999997
 31
0.0
  0
LINE
  5
142
330
1E
100
AcDbEntity
  8
STEMPEL
100
AcDbLine
 10
410.0
 20
110.0
 30
0.0
 11
39.99999999999997
 21
110.0
 31
0.0
  0
LINE
  5
143
330
1E
100
AcDbEntity
  8
MITTEL
100
AcDbLine
 10
195.9790606483983
 20
357.8455749896798
 30
0.0
 11
195.9790606483984
 21
177.84557498968
 31
0.0
  0
LINE
  5
144
330
1E
100
AcDbEntity
  8
HILF
100
AcDbLine
 10
0.0
 20
0.0
 30
0.0
 11
-0.0000000000001137
 21
594.0
 31
0.0
  0
LINE
  5
145
330
1E
100
AcDbEntity
  8
STEMPEL
100
AcDbLine
 10
40.0
 20
10.0
 30
0.0
 11
39.99999999999989
 21
584.0
 31
0.0
  0
LINE
  5
148
330
1E
100
AcDbEntity
  8
HILF
100
AcDbLine
 10
40.00000000000008
 20
39.99999999999997
 30
0.0
 11
146.0000000000001
 21
39.99999999999997
 31
0.0
  0
LINE
  5
149
330
1E
100
AcDbEntity
  8
HILF
100
AcDbLine
 10
40.00000000000008
 20
49.99999999999997
 30
0.0
 11
146.0000000000001
 21
49.99999999999997
 31
0.0
  0
LINE
  5
14A
330
1E
100
AcDbEntity
  8
HILF
100
AcDbLine
 10
40.00000000000008
 20
59.99999999999998
 30
0.0
 11
146.0000000000001
 21
59.99999999999998
 31
0.0
  0
LINE
  5
14B
330
1E
100
AcDbEntity
  8
HILF
100
AcDbLine
 10
40.00000000000008
 20
69.99999999999994
 30
0.0
 11
146.0000000000001
 21
69.99999999999994
 31
0.0
  0
LINE
  5
14C
330
1E
100
AcDbEntity
  8
HILF
100
AcDbLine
 10
40.00000000000008
 20
79.99999999999994
 30
0.0
 11
146.0000000000001
 21
79.99999999999994
 31
0.0
  0
LINE
  5
14D
330
1E
100
AcDbEntity
  8
HILF
100
AcDbLine
 10
40.00000000000008
 20
90.00000000000005
 30
0.0
 11
146.0000000000001
 21
90.00000000000005
 31
0.0
  0
LINE
  5
14E
330
1E
100
AcDbEntity
  8
HILF
100
AcDbLine
 10
40.00000000000008
 20
100.0
 30
0.0
 11
146.0000000000001
 21
100.0
 31
0.0
  0
LINE
  5
14F
330
1E
100
AcDbEntity
  8
STEMPEL
100
AcDbLine
 10
145.9999999999999
 20
29.99999999999997
 30
0.0
 11
39.99999999999997
 21
29.99999999999997
 31
0.0
  0
TEXT
  5
150
330
1E
100
AcDbEntity
  8
TEXT
100
AcDbText
 10
48.26641107045756
 20
13.65465846027192
 30
0.0
 40
4.0
  1
Index
 50
90.0
 41
0.8
  7
GREEKS
100
AcDbText
  0
LINE
  5
151
330
1E
100
AcDbEntity
  8
VOLL
100
AcDbLine
 10
54.00000000000009
 20
110.0
 30
0.0
 11
53.99999999999998
 21
9.999999999999971
 31
0.0
  0
LINE
  5
152
330
1E
100
AcDbEntity
  8
HILF
100
AcDbLine
 10
31.08767135713856
 20
297.0
 30
0.0
 11
0.0000000000001137
 21
297.0
 31
0.0
  0
LINE
  5
154
330
1E
100
AcDbEntity
  8
VOLL
100
AcDbLine
 10
124.0000000000001
 20
109.9999999999999
 30
0.0
 11
124.0
 21
9.999999999999971
 31
0.0
  0
LINE
  5
155
330
1E
100
AcDbEntity
  8
VOLL
100
AcDbLine
 10
104.0000000000001
 20
109.9999999999999
 30
0.0
 11
104.0
 21
9.999999999999971
 31
0.0
  0
LINE
  5
157
330
1E
100
AcDbEntity
  8
STEMPEL
100
AcDbLine
 10
146.0000000000001
 20
109.9999999999999
 30
0.0
 11
146.0
 21
9.999999999999971
 31
0.0
  0
TEXT
  5
159
330
1E
100
AcDbEntity
  8
TEXT
100
AcDbText
 10
172.331167315365
 20
73.31880501229926
 30
0.0
 40
4.0
  1
Tag
 41
0.8
  7
GREEKS
100
AcDbText
  0
TEXT
  5
15A
330
1E
100
AcDbEntity
  8
TEXT
100
AcDbText
 10
147.5836127167615
 20
63.62990369617964
 30
0.0
 40
4.0
  1
Gez.
 41
0.8
  7
GREEKS
100
AcDbText
  0
LINE
  5
15B
330
1E
100
AcDbEntity
  8
VOLL
100
AcDbLine
 10
164.0000000000001
 20
79.99999999999994
 30
0.0
 11
164.0000000000001
 21
39.99999999999997
 31
0.0
  0
TEXT
  5
15C
330
1E
100
AcDbEntity
  8
TEXT
100
AcDbText
 10
147.6006777387303
 20
43.52946389649807
 30
0.0
 40
4.0
  1
Norm.
 41
0.8
  7
GREEKS
100
AcDbText
  0
TEXT
  5
15D
330
1E
100
AcDbEntity
  8
TEXT
100
AcDbText
 10
147.5515086571672
 20
53.68926291428377
 30
0.0
 40
4.0
  1
Gepr.
 41
0.8
  7
GREEKS
100
AcDbText
  0
TEXT
  5
15E
330
1E
100
AcDbEntity
  8
TEXT
 62
     1
100
AcDbText
 10
160.5006306481887
 20
88.14901428913959
 30
0.0
 40
7.0
  1
1:2
 41
0.8
  7
GREEKS
100
AcDbText
  0
TEXT
  5
160
330
1E
100
AcDbEntity
  8
TEXT
100
AcDbText
 10
148.622109822104
 20
73.14025471151666
 30
0.0
 40
4.0
  1
2011
 41
0.8
  7
GREEKS
100
AcDbText
  0
LINE
  5
161
330
1E
100
AcDbEntity
  8
VOLL
100
AcDbLine
 10
190.0000000000001
 20
109.9999999999998
 30
0.0
 11
190.0
 21
39.99999999999997
 31
0.0
  0
LINE
  5
186
330
1E
100
AcDbEntity
  8
HILF
100
AcDbLine
 10
420.0
 20
-0.0000000000001137
 30
0.0
 11
419.9999999999999
 21
594.0
 31
0.0
  0
LINE
  5
187
330
1E
100
AcDbEntity
  8
STEMPEL
100
AcDbLine
 10
410.0
 20
10.0
 30
0.0
 11
410.0
 21
584.0
 31
0.0
  0
TEXT
  5
188
330
1E
100
AcDbEntity
  8
TEXT
100
AcDbText
 10
337.2400861497006
 20
52.07416177878602
 30
0.0
 40
5.0
  1
ersetzt durch:
 41
0.8
  7
GREEKS
100
AcDbText
  0
TEXT
  5
18A
330
1E
100
AcDbEntity
  8
TEXT
100
AcDbText
 10
336.178754957634
 20
102.3132034537136
 30
0.0
 40
5.0
  1
Zeichnungs Nr.
 41
0.8
  7
GREEKS
100
AcDbText
  0
LINE
  5
18B
330
1E
100
AcDbEntity
  8
HILF
100
AcDbLine
 10
233.4909699289885
 20
14.89398258028314
 30
0.0
 11
404.8588839326728
 21
14.89398258028314
 31
0.0
  0
LINE
  5
18C
330
1E
100
AcDbEntity
  8
HILF
100
AcDbLine
 10
336.7238616296993
 20
83.77983636955827
 30
0.0
 11
404.8588839326728
 21
83.77983636955827
 31
0.0
  0
LINE
  5
18D
330
1E
100
AcDbEntity
  8
VOLL
100
AcDbLine
 10
332.0
 20
60.0
 30
0.0
 11
410.0
 21
60.0
 31
0.0
  0
TEXT
  5
18E
330
1E
100
AcDbEntity
  8
TEXT
 62
     1
100
AcDbText
 10
234.9283864320014
 20
87.41748789253779
 30
0.0
 40
7.0
  1
Bogen DN125 45°
 41
0.8
  7
GREEKS
100
AcDbText
  0
LINE
  5
18F
330
1E
100
AcDbEntity
  8
HILF
100
AcDbLine
 10
234.7736801096948
 20
49.99999999999997
 30
0.0
 11
324.835391655631
 21
49.99999999999997
 31
0.0
  0
LINE
  5
190
330
1E
100
AcDbEntity
  8
HILF
100
AcDbLine
 10
234.7736801096948
 20
59.99999999999998
 30
0.0
 11
324.835391655631
 21
59.99999999999998
 31
0.0
  0
LINE
  5
191
330
1E
100
AcDbEntity
  8
HILF
100
AcDbLine
 10
234.7736801096948
 20
69.99999999999994
 30
0.0
 11
324.835391655631
 21
69.99999999999994
 31
0.0
  0
LINE
  5
192
330
1E
100
AcDbEntity
  8
HILF
100
AcDbLine
 10
234.7736801096948
 20
84.03758247564139
 30
0.0
 11
324.8353916556311
 21
84.03758247564139
 31
0.0
  0
LINE
  5
193
330
1E
100
AcDbEntity
  8
STEMPEL
100
AcDbLine
 10
230.0
 20
110.0
 30
0.0
 11
230.0
 21
9.999999999999971
 31
0.0
  0
TEXT
  5
194
330
1E
100
AcDbEntity
  8
TEXT
100
AcDbText
 10
235.1296391125315
 20
71.50334417585288
 30
0.0
 40
5.0
  1
dünnwandig
 41
0.8
  7
GREEKS
100
AcDbText
  0
TEXT
  5
195
330
1E
100
AcDbEntity
  8
TEXT
100
AcDbText
 10
234.9837501577827
 20
42.62974153022633
 30
0.0
 40
4.0
  1
5320125W.DWG
 41
0.8
  7
GREEKS
100
AcDbText
  0
TEXT
  5
196
330
1E
100
AcDbEntity
  8
TEXT
100
AcDbText
 10
234.742238391136
 20
30.84560570193057
 30
0.0
 40
5.0
  1
Bauvorhaben
 41
0.8
  7
GREEKS
100
AcDbText
  0
TEXT
  5
197
330
1E
100
AcDbEntity
  8
TEXT
100
AcDbText
 10
234.877940380901
 20
102.5489328011779
 30
0.0
 40
5.0
  1
Benennung
 41
0.8
  7
GREEKS
100
AcDbText
  0
LINE
  5
198
330
1E
100
AcDbEntity
  8
STEMPEL
100
AcDbLine
 10
332.0
 20
109.9999999999997
 30
0.0
 11
332.0
 21
40.0
 31
0.0
  0
TEXT
  5
19A
330
1E
100
AcDbEntity
  8
TEXT
 62
     1
100
AcDbText
 10
350.074780787488
 20
88.14901428913959
 30
0.0
 40
7.0
  1
5320125W
 41
0.8
  7
GREEKS
 72
     1
 11
370.874780787488
 21
88.14901428913959
 31
0.0
100
AcDbText
  0
LINE
  5
1D4
330
1E
100
AcDbEntity
  8
STEMPEL
100
AcDbLine
 10
261.6041740131393
 20
182.84557498968
 30
0.0
 11
130.3539472836576
 21
182.8455749896795
 31
0.0
  0
LINE
  5
1D6
330
1E
100
AcDbEntity
  8
HILF
100
AcDbLine
 10
260.9790606483985
 20
192.84557498968
 30
0.0
 11
130.9790606483983
 21
192.84557498968
 31
0.0
  0
LINE
  5
1D7
330
1E
100
AcDbEntity
  8
STEMPEL
100
AcDbLine
 10
129.4790606483984
 20
192.8455749896795
 30
0.0
 11
130.3539472836576
 21
182.8455749896795
 31
0.0
  0
LINE
  5
1D8
330
1E
100
AcDbEntity
  8
STEMPEL
100
AcDbLine
 10
262.4790606483984
 20
192.8455749896804
 30
0.0
 11
261.6041740131393
 21
182.84557498968
 31
0.0
  0
DIMENSION
  5
1E8
330
1E
100
AcDbEntity
  8
BEM
100
AcDbDimension
  2
*D1
 10
262.4790606483989
 20
160.7937244778023
 30
0.0
 11
195.9790606483986
 21
167.2937244778023
 31
0.0
 70
    32
  1
%%c<>
 71
     5
 42
133.0000000000004
  3
Standard
100
AcDbAlignedDimension
 13
129.4790606483984
 23
192.8455749896797
 33
0.0
 14
262.4790606483989
 24
192.84557498968
 34
0.0
100
AcDbRotatedDimension
1001
ACAD
1000
DSTYLE
1002
{
1070
    40
1040
2.0
1070
    41
1040
3.5
1070
    42
1040
1.0
1070
    43
1040
7.0
1070
    44
1040
1.0
1070
    73
1070
     0
1070
    74
1070
     0
1070
    77
1070
     1
1070
    78
1070
     8
1070
    79
1070
     2
1070
   140
1040
3.5
1070
   141
1040
1.5
1070
   146
1040
0.5142857142857144
1070
   147
1040
1.5
1070
   172
1070
     1
1070
   178
1070
     1
1070
   179
1070
     2
1070
   271
1070
     2
1070
   272
1070
     2
1070
   284
1070
     8
1070
   285
1070
     8
1070
   286
1070
     8
1002
}
  0
TEXT
  5
212
330
1E
100
AcDbEntity
  8
TEXT
100
AcDbText
 10
235.1296391125315
 20
51.50334417585292
 30
0.0
 40
5.0
  1
EDV-Art.Nr. 5.320.125C
 41
0.8
  7
GREEKS
100
AcDbText
  0
TEXT
  5
255
330
1E
100
AcDbEntity
  8
TEXT
 62
     1
100
AcDbText
 10
297.9974873842989
 20
131.2276367653921
 30
0.0
 40
7.0
  1
Werkstoff: 1.4404
 41
0.8
  7
GREEKS
100
AcDbText
  0
LINE
  5
952
102
{ACAD_REACTORS
330
FAF
102
}
330
1E
100
AcDbEntity
  8
STEMPEL
100
AcDbLine
 10
129.4790606483984
 20
385.3907768874907
 30
0.0
 11
129.4790606483984
 21
192.8455749896798
 31
0.0
  0
LINE
  5
953
102
{ACAD_REACTORS
330
FAF
102
}
330
1E
100
AcDbEntity
  8
STEMPEL
100
AcDbLine
 10
262.4790606483984
 20
330.3003730918691
 30
0.0
 11
262.4790606483984
 21
192.8455749896801
 31
0.0
  0
LINE
  5
9FA
330
1E
100
AcDbEntity
  8
STEMPEL
100
AcDbLine
 10
370.3905310521674
 20
430.9214780012023
 30
0.0
 11
269.0549636599209
 21
532.2570453934488
 31
0.0
  0
TEXT
  5
9FB
330
1E
100
AcDbEntity
  8
TEXT
 62
     1
100
AcDbText
 10
283.1675538503534
 20
462.1066067069802
 30
0.0
 40
7.0
  1
DN125
 50
44.99999999999999
 41
0.8
  7
GREEKS
100
AcDbText
  0
LINE
  5
9FC
330
1E
100
AcDbEntity
  8
HILF
100
AcDbLine
 10
318.0677947389845
 20
383.1810551526723
 30
0.0
 11
221.314540811391
 21
479.9343090802658
 31
0.0
  0
LINE
  5
9FD
330
1E
100
AcDbEntity
  8
HILF
100
AcDbLine
 10
311.1562300581078
 20
380.4849246789625
 30
0.0
 11
218.6184103376807
 21
473.0227443993895
 31
0.0
  0
LINE
  5
9FE
330
1E
100
AcDbEntity
  8
HILF
100
AcDbLine
 10
334.5517959581276
 20
398.1378693538302
 30
0.0
 11
236.2713550125486
 21
496.418310299409
 31
0.0
  0
LINE
  5
A00
102
{ACAD_REACTORS
330
FAF
102
}
330
1E
100
AcDbEntity
  8
STEMPEL
100
AcDbLine
 10
215.6515432170955
 20
471.5632594561875
 30
0.0
 11
129.4790606483984
 21
385.3907768874907
 31
0.0
  0
ARC
  5
A01
330
1E
100
AcDbEntity
  8
STEMPEL
100
AcDbCircle
 10
277.5775020902236
 20
504.4978403006671
 30
0.0
 40
29.0
100
AcDbArc
 50
110.0000000000069
 51
135.0
  0
LINE
  5
A02
330
1E
100
AcDbEntity
  8
STEMPEL
100
AcDbLine
 10
232.3950598795055
 20
493.9636303680901
 30
0.0
 11
222.8231160923493
 21
484.3916865809339
 31
0.0
  0
ARC
  5
A03
330
1E
100
AcDbEntity
  8
STEMPEL
100
AcDbCircle
 10
234.8439313725206
 20
472.3708713007624
 30
0.0
 40
17.0
100
AcDbArc
 50
135.0
 51
166.5863380965281
  0
ARC
  5
A04
330
1E
100
AcDbEntity
  8
STEMPEL
100
AcDbCircle
 10
208.58047540523
 20
478.6343272680532
 30
0.0
 40
10.0
100
AcDbArc
 50
315.0
 51
346.586338096528
  0
ARC
  5
A05
330
1E
100
AcDbEntity
  8
STEMPEL
100
AcDbCircle
 10
264.0670797156324
 20
490.987417926076
 30
0.0
 40
29.0
100
AcDbArc
 50
135.0
 51
160.1711477430577
  0
ARC
  5
A06
330
1E
100
AcDbEntity
  8
STEMPEL
100
AcDbCircle
 10
218.9600310369614
 20
507.3986592106345
 30
0.0
 40
19.0
100
AcDbArc
 50
315.0
 51
340.2271443659079
  0
LINE
  5
A07
330
1E
100
AcDbEntity
  8
STEMPEL
100
AcDbLine
 10
257.0714054358136
 20
525.003936955077
 30
0.0
 11
243.5609830612224
 21
511.4935145804857
 31
0.0
  0
LINE
  5
A08
330
1E
100
AcDbEntity
  8
STEMPEL
100
AcDbLine
 10
269.054963659921
 20
532.2570453934488
 30
0.0
 11
267.6589179337791
 21
531.7489263034583
 31
0.0
  0
POINT
  5
A09
330
1E
100
AcDbEntity
  8
STEMPEL
100
AcDbPoint
 10
270.2252726729859
 20
531.0867363803838
 30
0.0
  0
LINE
  5
A0A
330
1E
100
AcDbEntity
  8
MITTEL
100
AcDbLine
 10
323.2582812619768
 20
485.1247956032582
 30
0.0
 11
195.9790606483983
 21
357.8455749896798
 31
0.0
  0
LINE
  5
A0B
102
{ACAD_REACTORS
330
FAF
102
}
330
1E
100
AcDbEntity
  8
STEMPEL
100
AcDbLine
 10
309.6967451149063
 20
377.518057558377
 30
0.0
 11
262.4790606483984
 21
330.3003730918691
 31
0.0
  0
ARC
  5
A0C
330
1E
100
AcDbEntity
  8
STEMPEL
100
AcDbCircle
 10
342.6313259593857
 20
439.4440164315047
 30
0.0
 40
29.0
100
AcDbArc
 50
315.0
 51
339.9999999999931
  0
LINE
  5
A0D
330
1E
100
AcDbEntity
  8
STEMPEL
100
AcDbLine
 10
332.0971160268087
 20
394.261574220787
 30
0.0
 11
322.5251722396524
 21
384.6896304336306
 31
0.0
  0
ARC
  5
A0E
330
1E
100
AcDbEntity
  8
STEMPEL
100
AcDbCircle
 10
316.7678129267717
 20
370.4469897465113
 30
0.0
 40
10.0
100
AcDbArc
 50
103.413661903472
 51
135.0
  0
ARC
  5
A0F
330
1E
100
AcDbEntity
  8
STEMPEL
100
AcDbCircle
 10
310.5043569594812
 20
396.7104457138021
 30
0.0
 40
17.0
100
AcDbArc
 50
283.4136619034719
 51
315.0
  0
ARC
  5
A10
330
1E
100
AcDbEntity
  8
STEMPEL
100
AcDbCircle
 10
329.1209035847947
 20
425.9335940569135
 30
0.0
 40
29.0
100
AcDbArc
 50
289.8288522569422
 51
315.0
  0
ARC
  5
A11
330
1E
100
AcDbEntity
  8
STEMPEL
100
AcDbCircle
 10
345.5321448693534
 20
380.8265453782426
 30
0.0
 40
19.0
100
AcDbArc
 50
109.772855634092
 51
135.0
  0
LINE
  5
A12
330
1E
100
AcDbEntity
  8
STEMPEL
100
AcDbLine
 10
363.1374226137956
 20
418.9379197770947
 30
0.0
 11
349.6270002392045
 21
405.4274974025036
 31
0.0
  0
LINE
  5
A13
330
1E
100
AcDbEntity
  8
STEMPEL
100
AcDbLine
 10
370.3905310521673
 20
430.9214780012023
 30
0.0
 11
369.8824119621771
 21
429.5254322750604
 31
0.0
  0
DIMENSION
  5
CC5
330
1E
100
AcDbEntity
  8
BEM
100
AcDbDimension
  2
*D3
 10
100.2441425806751
 20
357.8455749896798
 30
0.0
 11
93.74414258067501
 21
270.3455749896797
 31
0.0
 70
    32
 71
     5
 42
175.0000000000002
  3
Standard
100
AcDbAlignedDimension
 13
130.3539472836576
 23
182.8455749896795
 33
0.0
 14
195.9790606483983
 24
357.8455749896798
 34
0.0
 50
90.0
100
AcDbRotatedDimension
1001
ACAD
1000
DSTYLE
1002
{
1070
    40
1040
2.0
1070
    41
1040
3.5
1070
    42
1040
1.0
1070
    43
1040
7.0
1070
    44
1040
1.0
1070
    73
1070
     0
1070
    74
1070
     0
1070
    77
1070
     1
1070
    78
1070
     8
1070
    79
1070
     2
1070
   140
1040
3.5
1070
   141
1040
1.5
1070
   146
1040
0.5142857142857144
1070
   147
1040
1.5
1070
   172
1070
     1
1070
   178
1070
     1
1070
   179
1070
     2
1070
   271
1070
     2
1070
   272
1070
     2
1070
   284
1070
     8
1070
   285
1070
     8
1070
   286
1070
     8
1002
}
  0
DIMENSION
  5
EFE
330
1E
100
AcDbEntity
  8
BEM
100
AcDbDimension
  2
*D4
 10
195.9790606483984
 20
177.84557498968
 30
0.0
 11
225.587865130029
 21
431.7275113753061
 31
0.0
 70
   162
 71
     5
 42
0.7853981633974489
  3
Standard
100
AcDb2LineAngularDimension
 13
323.2582812619768
 23
485.1247956032582
 33
0.0
 14
195.9790606483983
 24
357.8455749896798
 34
0.0
 15
195.9790606483983
 25
357.8455749896798
 35
0.0
 16
235.7761140158311
 26
426.7760934136035
 36
0.0
1001
ACAD
1000
DSTYLE
1002
{
1070
    40
1040
2.0
1070
    41
1040
3.5
1070
    42
1040
1.0
1070
    43
1040
7.0
1070
    44
1040
1.0
1070
    73
1070
     0
1070
    74
1070
     0
1070
    77
1070
     1
1070
    78
1070
     8
1070
    79
1070
     2
1070
   140
1040
3.5
1070
   141
1040
1.5
1070
   146
1040
0.5142857142857144
1070
   147
1040
1.5
1070
   172
1070
     1
1070
   178
1070
     1
1070
   179
1070
     2
1070
   271
1070
     2
1070
   272
1070
     2
1070
   284
1070
     8
1070
   285
1070
     8
1070
   286
1070
     8
1002
}
  0
TEXT
  5
F7B
330
1E
100
AcDbEntity
  8
TEXT
100
AcDbText
 10
41.85509950977674
 20
111.6719999999999
 30
0.0
 40
5.0
  1
Erstellt mit AUTOCAD 2004
 41
0.8
  7
GREEKS
100
AcDbText
  0
TEXT
  5
F7C
330
1E
100
AcDbEntity
  8
TEXT
100
AcDbText
 10
153.5163572150377
 20
102.4620895087088
 30
0.0
 40
5.0
  1
Maßstab
 41
0.8
  7
GREEKS
100
AcDbText
  0
TEXT
  5
F7D
330
1E
100
AcDbEntity
  8
TEXT
100
AcDbText
 10
192.6882715247924
 20
89.7791437153694
 30
0.0
 40
4.0
  1
DIN EN1124-3
 41
0.8
  7
GREEKS
 72
     1
 11
209.6787477152686
 21
89.7791437153694
 31
0.0
100
AcDbText
  0
TEXT
  5
F7E
330
1E
100
AcDbEntity
  8
TEXT
100
AcDbText
 10
67.65811831396264
 20
18.34829198486668
 30
0.0
 40
4.0
  1
Änderung
 41
0.8
  7
GREEKS
 72
     1
 11
78.40097545681979
 21
18.34829198486668
 31
0.0
100
AcDbText
  0
TEXT
  5
F7F
330
1E
100
AcDbEntity
  8
TEXT
100
AcDbText
 10
110.462610504336
 20
18.6715626933981
 30
0.0
 40
4.0
  1
Tag
 41
0.8
  7
GREEKS
 72
     1
 11
114.1959438376693
 21
18.6715626933981
 31
0.0
100
AcDbText
  0
TEXT
  5
F80
330
1E
100
AcDbEntity
  8
TEXT
100
AcDbText
 10
128.9002860979178
 20
18.59324216966408
 30
0.0
 40
4.0
  1
Name
 41
0.8
  7
GREEKS
 72
     1
 11
135.2240956217273
 21
18.59324216966408
 31
0.0
100
AcDbText
  0
TEXT
  5
F81
330
1E
100
AcDbEntity
  8
BEM
100
AcDbText
 10
416.5811541437436
 20
12.14804815338303
 30
0.0
 40
4.0
  1
Diese Zeichnung ist urheberrechtlich geschützt und bleibt unser Eigentum. Sie darf weder ganz noch teilweise vervielfältigt und nicht an Dritte weitergegeben werden.
 50
90.0
 41
0.8
  7
GREEKS
100
AcDbText
  0
TEXT
  5
F82
330
1E
100
AcDbEntity
  8
TEXT
100
AcDbText
 10
336.7238616296993
 20
73.1811823709997
 30
0.0
 40
5.0
  1
Ersatz für:
 41
0.8
  7
GREEKS
100
AcDbText
  0
LINE
  5
F86
330
1E
100
AcDbEntity
  8
STEMPEL
100
AcDbLine
 10
129.4790606483984
 20
385.3907768874907
 30
0.0
 11
262.4790606483984
 21
330.3003730918691
 31
0.0
  0
ARC
  5
F89
330
1E
100
AcDbEntity
  8
SCHRAFF
100
AcDbCircle
 10
129.4790606483984
 20
385.3907768874907
 30
0.0
 40
5.0
100
AcDbArc
 50
300.6301023541563
 51
14.36989764584433
  0
ARC
  5
F8A
330
1E
100
AcDbEntity
  8
SCHRAFF
100
AcDbCircle
 10
134.0984583109549
 20
383.4773597256652
 30
0.0
 40
5.0
100
AcDbArc
 50
300.6301023541563
 51
14.36989764584433
  0
ARC
  5
F8B
330
1E
100
AcDbEntity
  8
SCHRAFF
100
AcDbCircle
 10
138.7178559735113
 20
381.5639425638398
 30
0.0
 40
5.0
100
AcDbArc
 50
300.6301023541563
 51
14.36989764584433
  0
ARC
  5
F8C
330
1E
100
AcDbEntity
  8
SCHRAFF
100
AcDbCircle
 10
143.3372536360677
 20
379.6505254020143
 30
0.0
 40
5.0
100
AcDbArc
 50
300.6301023541563
 51
14.36989764584433
  0
ARC
  5
F8D
330
1E
100
AcDbEntity
  8
SCHRAFF
100
AcDbCircle
 10
147.9566512986241
 20
377.7371082401888
 30
0.0
 40
5.0
100
AcDbArc
 50
300.6301023541563
 51
14.36989764584433
  0
ARC
  5
F8E
330
1E
100
AcDbEntity
  8
SCHRAFF
100
AcDbCircle
 10
152.5760489611806
 20
375.8236910783634
 30
0.0
 40
5.0
100
AcDbArc
 50
300.6301023541563
 51
14.36989764584433
  0
ARC
  5
F8F
330
1E
100
AcDbEntity
  8
SCHRAFF
100
AcDbCircle
 10
157.195446623737
 20
373.9102739165379
 30
0.0
 40
5.0
100
AcDbArc
 50
300.6301023541563
 51
14.36989764584433
  0
ARC
  5
F90
330
1E
100
AcDbEntity
  8
SCHRAFF
100
AcDbCircle
 10
161.8148442862934
 20
371.9968567547125
 30
0.0
 40
5.0
100
AcDbArc
 50
300.6301023541563
 51
14.36989764584433
  0
ARC
  5
F91
330
1E
100
AcDbEntity
  8
SCHRAFF
100
AcDbCircle
 10
166.4342419488499
 20
370.0834395928871
 30
0.0
 40
5.0
100
AcDbArc
 50
300.6301023541563
 51
14.36989764584433
  0
ARC
  5
F92
330
1E
100
AcDbEntity
  8
SCHRAFF
100
AcDbCircle
 10
171.0536396114063
 20
368.1700224310616
 30
0.0
 40
5.0
100
AcDbArc
 50
300.6301023541563
 51
14.36989764584433
  0
ARC
  5
F93
330
1E
100
AcDbEntity
  8
SCHRAFF
100
AcDbCircle
 10
175.6730372739628
 20
366.2566052692362
 30
0.0
 40
5.0
100
AcDbArc
 50
300.6301023541563
 51
14.36989764584433
  0
ARC
  5
F94
330
1E
100
AcDbEntity
  8
SCHRAFF
100
AcDbCircle
 10
180.2924349365192
 20
364.3431881074107
 30
0.0
 40
5.0
100
AcDbArc
 50
300.6301023541563
 51
14.36989764584433
  0
ARC
  5
F95
330
1E
100
AcDbEntity
  8
SCHRAFF
100
AcDbCircle
 10
184.9118325990757
 20
362.4297709455853
 30
0.0
 40
5.0
100
AcDbArc
 50
300.6301023541563
 51
14.36989764584433
  0
ARC
  5
F96
330
1E
100
AcDbEntity
  8
SCHRAFF
100
AcDbCircle
 10
189.5312302616321
 20
360.5163537837598
 30
0.0
 40
5.0
100
AcDbArc
 50
300.6301023541563
 51
14.36989764584433
  0
ARC
  5
F97
330
1E
100
AcDbEntity
  8
SCHRAFF
100
AcDbCircle
 10
194.1506279241885
 20
358.6029366219344
 30
0.0
 40
5.0
100
AcDbArc
 50
300.6301023541563
 51
14.36989764584433
  0
ARC
  5
F98
330
1E
100
AcDbEntity
  8
SCHRAFF
100
AcDbCircle
 10
198.7700255867449
 20
356.6895194601089
 30
0.0
 40
5.0
100
AcDbArc
 50
300.6301023541563
 51
14.36989764584433
  0
ARC
  5
F99
330
1E
100
AcDbEntity
  8
SCHRAFF
100
AcDbCircle
 10
203.3894232493014
 20
354.7761022982836
 30
0.0
 40
5.0
100
AcDbArc
 50
300.6301023541563
 51
14.36989764584433
  0
ARC
  5
F9A
330
1E
100
AcDbEntity
  8
SCHRAFF
100
AcDbCircle
 10
208.0088209118579
 20
352.862685136458
 30
0.0
 40
5.0
100
AcDbArc
 50
300.6301023541563
 51
14.36989764584433
  0
ARC
  5
F9B
330
1E
100
AcDbEntity
  8
SCHRAFF
100
AcDbCircle
 10
212.6282185744143
 20
350.9492679746326
 30
0.0
 40
5.0
100
AcDbArc
 50
300.6301023541563
 51
14.36989764584433
  0
ARC
  5
F9C
330
1E
100
AcDbEntity
  8
SCHRAFF
100
AcDbCircle
 10
217.2476162369707
 20
349.0358508128071
 30
0.0
 40
5.0
100
AcDbArc
 50
300.6301023541563
 51
14.36989764584433
  0
ARC
  5
F9D
330
1E
100
AcDbEntity
  8
SCHRAFF
100
AcDbCircle
 10
221.8670138995272
 20
347.1224336509818
 30
0.0
 40
5.0
100
AcDbArc
 50
300.6301023541563
 51
14.36989764584433
  0
ARC
  5
F9E
330
1E
100
AcDbEntity
  8
SCHRAFF
100
AcDbCircle
 10
226.4864115620836
 20
345.2090164891562
 30
0.0
 40
5.0
100
AcDbArc
 50
300.6301023541563
 51
14.36989764584433
  0
ARC
  5
F9F
330
1E
100
AcDbEntity
  8
SCHRAFF
100
AcDbCircle
 10
231.10580922464
 20
343.2955993273308
 30
0.0
 40
5.0
100
AcDbArc
 50
300.6301023541563
 51
14.36989764584433
  0
ARC
  5
FA0
330
1E
100
AcDbEntity
  8
SCHRAFF
100
AcDbCircle
 10
235.7252068871965
 20
341.3821821655054
 30
0.0
 40
5.0
100
AcDbArc
 50
300.6301023541563
 51
14.36989764584433
  0
ARC
  5
FA1
330
1E
100
AcDbEntity
  8
SCHRAFF
100
AcDbCircle
 10
240.3446045497529
 20
339.4687650036799
 30
0.0
 40
5.0
100
AcDbArc
 50
300.6301023541563
 51
14.36989764584433
  0
ARC
  5
FA2
330
1E
100
AcDbEntity
  8
SCHRAFF
100
AcDbCircle
 10
244.9640022123094
 20
337.5553478418544
 30
0.0
 40
5.0
100
AcDbArc
 50
300.6301023541563
 51
14.36989764584433
  0
ARC
  5
FA3
330
1E
100
AcDbEntity
  8
SCHRAFF
100
AcDbCircle
 10
249.5833998748658
 20
335.641930680029
 30
0.0
 40
5.0
100
AcDbArc
 50
300.6301023541563
 51
14.36989764584433
  0
ARC
  5
FA4
330
1E
100
AcDbEntity
  8
SCHRAFF
100
AcDbCircle
 10
254.2027975374223
 20
333.7285135182036
 30
0.0
 40
5.0
100
AcDbArc
 50
300.6301023541563
 51
14.36989764584433
  0
ARC
  5
FA5
102
{ACAD_REACTORS
330
FAF
102
}
330
1E
100
AcDbEntity
  8
SCHRAFF
100
AcDbCircle
 10
131.253619290815
 20
384.6557306305754
 30
0.0
 40
3.075688092188281
100
AcDbArc
 50
80.23722794316308
 51
234.7627720568363
  0
ARC
  5
FA6
102
{ACAD_REACTORS
330
FAF
102
}
330
1E
100
AcDbEntity
  8
SCHRAFF
100
AcDbCircle
 10
261.1241448715452
 20
330.861597582515
 30
0.0
 40
4.042241412419556
100
AcDbArc
 50
289.5840451851032
 51
25.41595481489754
  0
HATCH
  5
FAF
330
1E
100
AcDbEntity
  8
SCHRAFF
100
AcDbHatch
 10
0.0
 20
0.0
 30
0.0
210
0.0
220
0.0
230
1.0
  2
_USER
 70
     0
 71
     1
 91
        2
 92
        7
 72
     1
 73
     1
 93
        3
 10
264.775161242589
 20
332.5964736860596
 42
0.0
 10
262.4790606483984
 20
330.3003730918691
 42
0.0
 10
262.4790606483984
 20
327.053196490992
 42
0.4443501521270844
 97
        3
330
A0B
330
953
330
FA6
 92
        7
 72
     1
 73
     1
 93
        3
 10
129.4790606483984
 20
385.3907768874907
 42
0.0
 10
131.775161242589
 20
387.6868774816813
 42
0.7991867819314854
 10
129.4790606483984
 20
382.1436002866136
 42
0.0
 97
        3
330
A00
330
FA5
330
952
 75
     0
 76
     0
 52
0.0
 41
0.1
 77
     0
 78
     1
 53
0.0
 43
0.0
 44
0.0
 45
0.0
 46
0.1
 79
     0
 47
0.2250101828846563
 98
        2
 10
263.6265691735494
 20
329.8666103305718
 10
129.1970966551475
 20
384.3190751965544
  0
DIMENSION
  5
FB0
330
1E
100
AcDbEntity
  8
BEM
100
AcDbDimension
  2
*D5
 10
128.1976380912367
 20
425.6269975468414
 30
0.0
 11
185.473287367347
 21
492.0950349783768
 31
0.0
 70
    32
 71
     5
 42
175.0
 51
315.0
  3
Standard
100
AcDbAlignedDimension
 13
269.0549636599209
 23
532.2570453934488
 33
0.0
 14
195.9790606483983
 24
357.8455749896798
 34
0.0
 50
45.0
100
AcDbRotatedDimension
1001
ACAD
1000
DSTYLE
1002
{
1070
    40
1040
2.0
1070
    41
1040
3.5
1070
    42
1040
1.0
1070
    43
1040
7.0
1070
    44
1040
1.0
1070
    73
1070
     0
1070
    74
1070
     0
1070
    77
1070
     1
1070
    78
1070
     8
1070
    79
1070
     2
1070
   140
1040
3.5
1070
   141
1040
1.5
1070
   146
1040
0.5142857142857144
1070
   147
1040
1.5
1070
   172
1070
     1
1070
   178
1070
     1
1070
   179
1070
     2
1070
   271
1070
     2
1070
   272
1070
     2
1070
   284
1070
     8
1070
   285
1070
     8
1070
   286
1070
     8
1002
}
  0
TEXT
  5
1004
330
1E
100
AcDbEntity
  8
TEXT
100
AcDbText
 10
171.0085209177598
 20
63.10765040825732
 30
0.0
 40
4.0
  1
11.04.
 41
0.8
  7
GREEKS
 72
     1
 11
177.4085209177598
 21
63.10765040825732
 31
0.0
100
AcDbText
  0
ENDSEC
  0
SECTION
  2
OBJECTS
  0
DICTIONARY
  5
C
330
0
100
AcDbDictionary
281
     1
  3
ACAD_COLOR
350
F6D
  3
ACAD_GROUP
350
D
  3
ACAD_LAYOUT
350
19
  3
ACAD_MATERIAL
350
F6C
  3
ACAD_MLINESTYLE
350
16
  3
ACAD_PLOTSETTINGS
350
18
  3
ACAD_PLOTSTYLENAME
350
E
  3
AcDbVariableDictionary
350
246
  0
DICTIONARY
  5
F6D
102
{ACAD_REACTORS
330
C
102
}
330
C
100
AcDbDictionary
281
     1
  0
DICTIONARY
  5
D
102
{ACAD_REACTORS
330
C
102
}
330
C
100
AcDbDictionary
281
     1
  0
DICTIONARY
  5
19
102
{ACAD_REACTORS
330
C
102
}
330
C
100
AcDbDictionary
281
     1
  3
Layout1
350
1D
  3
Model
350
21
  0
DICTIONARY
  5
F6C
102
{ACAD_REACTORS
330
C
102
}
330
C
100
AcDbDictionary
281
     1
  0
DICTIONARY
  5
16
102
{ACAD_REACTORS
330
C
102
}
330
C
100
AcDbDictionary
281
     1
  3
Standard
350
17
  0
DICTIONARY
  5
18
102
{ACAD_REACTORS
330
C
102
}
330
C
100
AcDbDictionary
281
     1
  0
ACDBDICTIONARYWDFLT
  5
E
102
{ACAD_REACTORS
330
C
102
}
330
C
100
AcDbDictionary
281
     1
  3
Normal
350
F
100
AcDbDictionaryWithDefault
340
F
  0
DICTIONARY
  5
246
102
{ACAD_REACTORS
330
C
102
}
330
C
100
AcDbDictionary
281
     1
  3
DIMASSOC
350
FE9
  3
PROJECTNAME
350
FEA
  3
SORTENTS
350
247
  0
LAYOUT
  5
1D
102
{ACAD_REACTORS
330
19
102
}
330
19
100
AcDbPlotSettings
  1

  2
Tektronix Phaser 740
  4

  6

 40
0.0
 41
0.0
 42
0.0
 43
0.0
 44
0.0
 45
0.0
 46
0.0
 47
0.0
 48
0.0
 49
0.0
140
0.0
141
0.0
142
1.0
143
1.0
 70
   688
 72
     0
 73
     0
 74
     5
  7
monochrome.ctb
 75
    16
147
1.0
 76
     0
 77
     2
 78
   300
148
0.0
149
0.0
100
AcDbLayout
  1
Layout1
 70
     0
 71
     1
 10
0.0
 20
0.0
 11
12.0
 21
9.0
 12
0.0
 22
0.0
 32
0.0
 14
1.000000000000000E+20
 24
1.000000000000000E+20
 34
1.000000000000000E+20
 15
-1.000000000000000E+20
 25
-1.000000000000000E+20
 35
-1.000000000000000E+20
146
0.0
 13
0.0
 23
0.0
 33
0.0
 16
1.0
 26
0.0
 36
0.0
 17
0.0
 27
1.0
 37
0.0
 76
     0
330
1A
  0
LAYOUT
  5
21
102
{ACAD_REACTORS
330
19
102
}
330
19
100
AcDbPlotSettings
  1

  2
Tektronix Phaser 740
  4
A4
  6

 40
5.873749732971191
 41
6.085414409637451
 42
5.577407836914062
 43
5.662078857421875
 44
209.9733276367187
 45
296.9683227539062
 46
0.0
 47
0.0
 48
0.0
 49
0.0
140
0.0
141
0.0
142
1.0
143
1.0
 70
 11952
 72
     0
 73
     1
 74
     0
  7
monochrome.ctb
 75
     0
147
1.0
 76
     0
 77
     2
 78
   300
148
1150.120678237584
149
45.30495740799864
100
AcDbLayout
  1
Model
 70
     1
 71
     0
 10
0.0
 20
0.0
 11
12.0
 21
9.0
 12
0.0
 22
0.0
 32
0.0
 14
0.0
 24
0.0
 34
0.0
 15
0.0
 25
0.0
 35
0.0
146
0.0
 13
0.0
 23
0.0
 33
0.0
 16
1.0
 26
0.0
 36
0.0
 17
0.0
 27
1.0
 37
0.0
 76
     0
330
1E
  0
MLINESTYLE
  5
17
102
{ACAD_REACTORS
330
16
102
}
330
16
100
AcDbMlineStyle
  2
STANDARD
 70
     0
  3

 62
   256
 51
90.0
 52
90.0
 71
     2
 49
0.5
 62
   256
  6
BYLAYER
 49
-0.5
 62
   256
  6
BYLAYER
  0
ACDBPLACEHOLDER
  5
F
102
{ACAD_REACTORS
330
E
102
}
330
E
  0
DICTIONARYVAR
  5
FE9
102
{ACAD_REACTORS
330
246
102
}
330
246
100
DictionaryVariables
280
     0
  1
1
  0
DICTIONARYVAR
  5
FEA
102
{ACAD_REACTORS
330
246
102
}
330
246
100
DictionaryVariables
280
     0
  1

  0
DICTIONARYVAR
  5
247
102
{ACAD_REACTORS
330
246
102
}
330
246
100
DictionaryVariables
280
     0
  1
96
  0
ENDSEC
  0
EOF
