  0
SECTION
  2
HEADER
  9
$ACADVER
  1
AC1018
  9
$ACADMAINTVER
 70
     2
  9
$DWGCODEPAGE
  3
ANSI_1252
  9
$INSBASE
 10
0.0
 20
0.0
 30
0.0
  9
$EXTMIN
 10
-0.0170663644951219
 20
-0.0196611851793023
 30
-0.0000000000000099
  9
$EXTMAX
 10
420.0034581064283
 20
594.0181886457158
 30
0.0000000000000054
  9
$LIMMIN
 10
0.0
 20
0.0
  9
$LIMMAX
 10
419.9999999999999
 20
594.0
  9
$ORTHOMODE
 70
     0
  9
$REGENMODE
 70
     1
  9
$FILLMODE
 70
     1
  9
$QTEXTMODE
 70
     0
  9
$MIRRTEXT
 70
     1
  9
$LTSCALE
 40
20.0
  9
$ATTMODE
 70
     1
  9
$TEXTSIZE
 40
3.5
  9
$TRACEWID
 40
0.5
  9
$TEXTSTYLE
  7
STANDARD
  9
$CLAYER
  8
VOLL
  9
$CELTYPE
  6
ByLayer
  9
$CECOLOR
 62
   256
  9
$CELTSCALE
 40
1.0
  9
$DISPSILH
 70
     0
  9
$DIMSCALE
 40
2.0
  9
$DIMASZ
 40
3.5
  9
$DIMEXO
 40
1.0
  9
$DIMDLI
 40
7.0
  9
$DIMRND
 40
0.0
  9
$DIMDLE
 40
0.0
  9
$DIMEXE
 40
1.0
  9
$DIMTP
 40
0.0
  9
$DIMTM
 40
0.0
  9
$DIMTXT
 40
3.5
  9
$DIMCEN
 40
1.5
  9
$DIMTSZ
 40
0.0
  9
$DIMTOL
 70
     0
  9
$DIMLIM
 70
     0
  9
$DIMTIH
 70
     0
  9
$DIMTOH
 70
     0
  9
$DIMSE1
 70
     0
  9
$DIMSE2
 70
     0
  9
$DIMTAD
 70
     1
  9
$DIMZIN
 70
     8
  9
$DIMBLK
  1

  9
$DIMASO
 70
     1
  9
$DIMSHO
 70
     0
  9
$DIMPOST
  1

  9
$DIMAPOST
  1

  9
$DIMALT
 70
     0
  9
$DIMALTD
 70
     2
  9
$DIMALTF
 40
25.4
  9
$DIMLFAC
 40
1.0
  9
$DIMTOFL
 70
     1
  9
$DIMTVP
 40
0.0
  9
$DIMTIX
 70
     0
  9
$DIMSOXD
 70
     0
  9
$DIMSAH
 70
     0
  9
$DIMBLK1
  1

  9
$DIMBLK2
  1

  9
$DIMSTYLE
  2
Standard
  9
$DIMCLRD
 70
     0
  9
$DIMCLRE
 70
     0
  9
$DIMCLRT
 70
     1
  9
$DIMTFAC
 40
0.5142857142857144
  9
$DIMGAP
 40
1.5
  9
$DIMJUST
 70
     0
  9
$DIMSD1
 70
     0
  9
$DIMSD2
 70
     0
  9
$DIMTOLJ
 70
     1
  9
$DIMTZIN
 70
     8
  9
$DIMALTZ
 70
     8
  9
$DIMALTTZ
 70
     8
  9
$DIMUPT
 70
     0
  9
$DIMDEC
 70
     2
  9
$DIMTDEC
 70
     2
  9
$DIMALTU
 70
     2
  9
$DIMALTTD
 70
     2
  9
$DIMTXSTY
  7
STANDARD
  9
$DIMAUNIT
 70
     0
  9
$DIMADEC
 70
     2
  9
$DIMALTRND
 40
0.0
  9
$DIMAZIN
 70
     2
  9
$DIMDSEP
 70
    46
  9
$DIMATFIT
 70
     3
  9
$DIMFRAC
 70
     0
  9
$DIMLDRBLK
  1

  9
$DIMLUNIT
 70
     2
  9
$DIMLWD
 70
    -2
  9
$DIMLWE
 70
    -2
  9
$DIMTMOVE
 70
     0
  9
$LUNITS
 70
     2
  9
$LUPREC
 70
     2
  9
$SKETCHINC
 40
1.0
  9
$FILLETRAD
 40
0.0
  9
$AUNITS
 70
     1
  9
$AUPREC
 70
     3
  9
$MENU
  1
ACAD
  9
$ELEVATION
 40
0.0
  9
$PELEVATION
 40
0.0
  9
$THICKNESS
 40
0.0
  9
$LIMCHECK
 70
     0
  9
$CHAMFERA
 40
0.0
  9
$CHAMFERB
 40
0.0
  9
$CHAMFERC
 40
0.0
  9
$CHAMFERD
 40
0.0
  9
$SKPOLY
 70
     0
  9
$TDCREATE
 40
2452040.637099653
  9
$TDUCREATE
 40
2452040.553766320
  9
$TDUPDATE
 40
2455663.315234086
  9
$TDUUPDATE
 40
2455663.231900753
  9
$TDINDWG
 40
0.4117328935
  9
$TDUSRTIMER
 40
0.4117328935
  9
$USRTIMER
 70
     1
  9
$ANGBASE
 50
0.0
  9
$ANGDIR
 70
     0
  9
$PDMODE
 70
     0
  9
$PDSIZE
 40
0.0
  9
$PLINEWID
 40
0.0
  9
$SPLFRAME
 70
     0
  9
$SPLINETYPE
 70
     6
  9
$SPLINESEGS
 70
     8
  9
$HANDSEED
  5
19DC
  9
$SURFTAB1
 70
     6
  9
$SURFTAB2
 70
     6
  9
$SURFTYPE
 70
     6
  9
$SURFU
 70
     6
  9
$SURFV
 70
     6
  9
$UCSBASE
  2

  9
$UCSNAME
  2

  9
$UCSORG
 10
0.0
 20
0.0
 30
0.0
  9
$UCSXDIR
 10
1.0
 20
0.0
 30
0.0
  9
$UCSYDIR
 10
0.0
 20
1.0
 30
0.0
  9
$UCSORTHOREF
  2

  9
$UCSORTHOVIEW
 70
     0
  9
$UCSORGTOP
 10
0.0
 20
0.0
 30
0.0
  9
$UCSORGBOTTOM
 10
0.0
 20
0.0
 30
0.0
  9
$UCSORGLEFT
 10
0.0
 20
0.0
 30
0.0
  9
$UCSORGRIGHT
 10
0.0
 20
0.0
 30
0.0
  9
$UCSORGFRONT
 10
0.0
 20
0.0
 30
0.0
  9
$UCSORGBACK
 10
0.0
 20
0.0
 30
0.0
  9
$PUCSBASE
  2

  9
$PUCSNAME
  2

  9
$PUCSORG
 10
0.0
 20
0.0
 30
0.0
  9
$PUCSXDIR
 10
1.0
 20
0.0
 30
0.0
  9
$PUCSYDIR
 10
0.0
 20
1.0
 30
0.0
  9
$PUCSORTHOREF
  2

  9
$PUCSORTHOVIEW
 70
     0
  9
$PUCSORGTOP
 10
0.0
 20
0.0
 30
0.0
  9
$PUCSORGBOTTOM
 10
0.0
 20
0.0
 30
0.0
  9
$PUCSORGLEFT
 10
0.0
 20
0.0
 30
0.0
  9
$PUCSORGRIGHT
 10
0.0
 20
0.0
 30
0.0
  9
$PUCSORGFRONT
 10
0.0
 20
0.0
 30
0.0
  9
$PUCSORGBACK
 10
0.0
 20
0.0
 30
0.0
  9
$USERI1
 70
     0
  9
$USERI2
 70
     0
  9
$USERI3
 70
     0
  9
$USERI4
 70
     0
  9
$USERI5
 70
     0
  9
$USERR1
 40
0.0
  9
$USERR2
 40
0.0
  9
$USERR3
 40
0.0
  9
$USERR4
 40
0.0
  9
$USERR5
 40
0.0
  9
$WORLDVIEW
 70
     1
  9
$SHADEDGE
 70
     3
  9
$SHADEDIF
 70
    70
  9
$TILEMODE
 70
     1
  9
$MAXACTVP
 70
    16
  9
$PINSBASE
 10
0.0
 20
0.0
 30
0.0
  9
$PLIMCHECK
 70
     0
  9
$PEXTMIN
 10
1.000000000000000E+20
 20
1.000000000000000E+20
 30
1.000000000000000E+20
  9
$PEXTMAX
 10
-1.000000000000000E+20
 20
-1.000000000000000E+20
 30
-1.000000000000000E+20
  9
$PLIMMIN
 10
0.0
 20
0.0
  9
$PLIMMAX
 10
12.0
 20
9.0
  9
$UNITMODE
 70
     0
  9
$VISRETAIN
 70
     0
  9
$PLINEGEN
 70
     0
  9
$PSLTSCALE
 70
     0
  9
$TREEDEPTH
 70
  3020
  9
$CMLSTYLE
  2
Standard
  9
$CMLJUST
 70
     0
  9
$CMLSCALE
 40
1.0
  9
$PROXYGRAPHICS
 70
     1
  9
$MEASUREMENT
 70
     0
  9
$CELWEIGHT
370
    -1
  9
$ENDCAPS
280
     0
  9
$JOINSTYLE
280
     0
  9
$LWDISPLAY
290
     0
  9
$INSUNITS
 70
     0
  9
$HYPERLINKBASE
  1

  9
$STYLESHEET
  1
monochrome 1.ctb
  9
$XEDIT
290
     1
  9
$CEPSNTYPE
380
     0
  9
$PSTYLEMODE
290
     1
  9
$FINGERPRINTGUID
  2
{7AADB5C8-6110-11D8-B72B-000102183313}
  9
$VERSIONGUID
  2
{3F461D50-0E59-41C6-B575-5F44A1ABB49B}
  9
$EXTNAMES
290
     1
  9
$PSVPSCALE
 40
0.0
  9
$OLESTARTUP
290
     0
  9
$SORTENTS
280
    96
  9
$INDEXCTL
280
     0
  9
$HIDETEXT
280
     0
  9
$XCLIPFRAME
290
     0
  9
$HALOGAP
280
     0
  9
$OBSCOLOR
 70
   257
  9
$OBSLTYPE
280
     0
  9
$INTERSECTIONDISPLAY
280
     0
  9
$INTERSECTIONCOLOR
 70
   257
  9
$DIMASSOC
280
     1
  9
$PROJECTNAME
  1

  0
ENDSEC
  0
SECTION
  2
CLASSES
  0
CLASS
  1
ACDBDICTIONARYWDFLT
  2
AcDbDictionaryWithDefault
  3
ObjectDBX Classes
 90
        0
 91
        1
280
     0
281
     0
  0
CLASS
  1
DICTIONARYVAR
  2
AcDbDictionaryVar
  3
ObjectDBX Classes
 90
        0
 91
        3
280
     0
281
     0
  0
ENDSEC
  0
SECTION
  2
TABLES
  0
TABLE
  2
VPORT
  5
8
330
0
100
AcDbSymbolTable
 70
     3
  0
VPORT
  5
19DB
330
8
100
AcDbSymbolTableRecord
100
AcDbViewportTableRecord
  2
*Active
 70
     0
 10
0.0
 20
0.0
 11
1.0
 21
1.0
 12
210.0
 22
297.0
 13
0.0
 23
0.0
 14
1.0
 24
1.0
 15
10.0
 25
10.0
 16
0.0
 26
0.0
 36
1.0
 17
0.0
 27
0.0
 37
0.0
 40
594.0
 41
1.334231805929919
 42
50.0
 43
0.0
 44
0.0
 50
0.0
 51
0.0
 71
     0
 72
  1500
 73
     1
 74
     0
 75
     0
 76
     0
 77
     0
 78
     0
281
     0
 65
     1
110
0.0
120
0.0
130
0.0
111
1.0
121
0.0
131
0.0
112
0.0
122
1.0
132
0.0
 79
     0
146
0.0
  0
ENDTAB
  0
TABLE
  2
LTYPE
  5
5
330
0
100
AcDbSymbolTable
 70
     2
  0
LTYPE
  5
13
330
5
100
AcDbSymbolTableRecord
100
AcDbLinetypeTableRecord
  2
ByBlock
 70
     0
  3

 72
    65
 73
     0
 40
0.0
  0
LTYPE
  5
14
330
5
100
AcDbSymbolTableRecord
100
AcDbLinetypeTableRecord
  2
ByLayer
 70
     0
  3

 72
    65
 73
     0
 40
0.0
  0
LTYPE
  5
15
330
5
100
AcDbSymbolTableRecord
100
AcDbLinetypeTableRecord
  2
Continuous
 70
     0
  3
Solid line
 72
    65
 73
     0
 40
0.0
  0
LTYPE
  5
35
330
5
100
AcDbSymbolTableRecord
100
AcDbLinetypeTableRecord
  2
STRICHPUNKT
 70
     0
  3
__ . __ . __ . __ . __ . __ . __ . __ . __ . __
 72
    65
 73
     4
 40
1.0
 49
0.5
 74
     0
 49
-0.25
 74
     0
 49
0.0
 74
     0
 49
-0.25
 74
     0
  0
ENDTAB
  0
TABLE
  2
LAYER
  5
2
330
0
100
AcDbSymbolTable
 70
     9
  0
LAYER
  5
10
330
2
100
AcDbSymbolTableRecord
100
AcDbLayerTableRecord
  2
0
 70
     0
 62
     7
  6
Continuous
370
    -3
390
F
  0
LAYER
  5
38
330
2
100
AcDbSymbolTableRecord
100
AcDbLayerTableRecord
  2
VOLL
 70
     0
 62
     1
  6
Continuous
370
    -3
390
F
  0
LAYER
  5
39
330
2
100
AcDbSymbolTableRecord
100
AcDbLayerTableRecord
  2
HILF
 70
     0
 62
     2
  6
Continuous
370
    -3
390
F
  0
LAYER
  5
3A
330
2
100
AcDbSymbolTableRecord
100
AcDbLayerTableRecord
  2
MITTEL
 70
     0
 62
     2
  6
STRICHPUNKT
370
    -3
390
F
  0
LAYER
  5
3B
330
2
100
AcDbSymbolTableRecord
100
AcDbLayerTableRecord
  2
BEM
 70
     0
 62
     7
  6
Continuous
370
    -3
390
F
  0
LAYER
  5
3C
330
2
100
AcDbSymbolTableRecord
100
AcDbLayerTableRecord
  2
STEMPEL
 70
     0
 62
     3
  6
Continuous
370
    -3
390
F
  0
LAYER
  5
3D
330
2
100
AcDbSymbolTableRecord
100
AcDbLayerTableRecord
  2
TEXT
 70
     0
 62
     7
  6
Continuous
370
    -3
390
F
  0
LAYER
  5
3E
330
2
100
AcDbSymbolTableRecord
100
AcDbLayerTableRecord
  2
DEFPOINTS
 70
     0
 62
     7
  6
Continuous
290
     0
370
    -3
390
F
  0
LAYER
  5
3F
330
2
100
AcDbSymbolTableRecord
100
AcDbLayerTableRecord
  2
SCHRAFF
 70
     0
 62
     7
  6
Continuous
370
    -3
390
F
  0
ENDTAB
  0
TABLE
  2
STYLE
  5
3
330
0
100
AcDbSymbolTable
 70
     2
  0
STYLE
  5
11
330
3
100
AcDbSymbolTableRecord
100
AcDbTextStyleTableRecord
  2
STANDARD
 70
     0
 40
0.0
 41
0.8
 50
0.0
 71
     0
 42
3.5
  3
simplex.shx
  4

  0
STYLE
  5
34
330
3
100
AcDbSymbolTableRecord
100
AcDbTextStyleTableRecord
  2
GREEKS
 70
     0
 40
0.0
 41
0.8
 50
0.0
 71
     0
 42
2.5
  3
SIMPLEX.shx
  4

  0
ENDTAB
  0
TABLE
  2
VIEW
  5
6
330
0
100
AcDbSymbolTable
 70
     0
  0
ENDTAB
  0
TABLE
  2
UCS
  5
7
330
0
100
AcDbSymbolTable
 70
     0
  0
ENDTAB
  0
TABLE
  2
APPID
  5
9
330
0
100
AcDbSymbolTable
 70
     2
  0
APPID
  5
12
330
9
100
AcDbSymbolTableRecord
100
AcDbRegAppTableRecord
  2
ACAD
 70
     0
  0
APPID
  5
DDB
330
9
100
AcDbSymbolTableRecord
100
AcDbRegAppTableRecord
  2
AVE_RENDER
 70
     0
  0
ENDTAB
  0
TABLE
  2
DIMSTYLE
  5
A
330
0
100
AcDbSymbolTable
 70
     1
100
AcDbDimStyleTable
 71
     1
340
1CB
  0
DIMSTYLE
105
1CB
102
{ACAD_REACTORS
330
1748
330
17DE
330
183F
330
184C
102
}
330
A
100
AcDbSymbolTableRecord
100
AcDbDimStyleTableRecord
  2
Standard
 70
     0
340
11
  0
ENDTAB
  0
TABLE
  2
BLOCK_RECORD
  5
1
330
0
100
AcDbSymbolTable
 70
     8
  0
BLOCK_RECORD
  5
1E
330
1
100
AcDbSymbolTableRecord
100
AcDbBlockTableRecord
  2
*Model_Space
340
21
  0
BLOCK_RECORD
  5
1A
330
1
100
AcDbSymbolTableRecord
100
AcDbBlockTableRecord
  2
*Paper_Space
340
1D
  0
BLOCK_RECORD
  5
22
330
1
100
AcDbSymbolTableRecord
100
AcDbBlockTableRecord
  2
LOGO
340
0
102
{BLKREFS
331
135
102
}
  0
BLOCK_RECORD
  5
1793
330
1
100
AcDbSymbolTableRecord
100
AcDbBlockTableRecord
  2
*D1
340
0
  0
BLOCK_RECORD
  5
17FF
330
1
100
AcDbSymbolTableRecord
100
AcDbBlockTableRecord
  2
*D2
340
0
  0
BLOCK_RECORD
  5
1840
330
1
100
AcDbSymbolTableRecord
100
AcDbBlockTableRecord
  2
*D4
340
0
  0
BLOCK_RECORD
  5
184D
330
1
100
AcDbSymbolTableRecord
100
AcDbBlockTableRecord
  2
*D5
340
0
  0
ENDTAB
  0
ENDSEC
  0
SECTION
  2
BLOCKS
  0
BLOCK
  5
43
330
1E
100
AcDbEntity
  8
0
100
AcDbBlockBegin
  2
*Model_Space
 70
     0
 10
0.0
 20
0.0
 30
0.0
  3
*Model_Space
  1

  0
ENDBLK
  5
44
330
1E
100
AcDbEntity
  8
0
100
AcDbBlockEnd
  0
BLOCK
  5
41
330
1A
100
AcDbEntity
 67
     1
  8
0
100
AcDbBlockBegin
  2
*Paper_Space
 70
     0
 10
0.0
 20
0.0
 30
0.0
  3
*Paper_Space
  1

  0
ENDBLK
  5
42
330
1A
100
AcDbEntity
 67
     1
  8
0
100
AcDbBlockEnd
  0
BLOCK
  5
45
330
22
100
AcDbEntity
  8
0
100
AcDbBlockBegin
  2
LOGO
 70
     0
 10
0.0
 20
0.0
 30
0.0
  3
LOGO
  1

  0
ARC
  5
46
330
22
100
AcDbEntity
  8
0
100
AcDbCircle
 10
11.59973089678112
 20
-9.271599258481501
 30
0.0
 40
4.5
100
AcDbArc
 50
270.0
 51
231.0575587310159
  0
LINE
  5
47
330
22
100
AcDbEntity
  8
0
100
AcDbLine
 10
3.599730896781125
 20
-4.771599258481529
 30
0.0
 11
3.599730896781153
 21
-11.77159925848133
 31
0.0
  0
LINE
  5
48
330
22
100
AcDbEntity
  8
0
100
AcDbLine
 10
2.599730896781125
 20
-4.771599258481529
 30
0.0
 11
2.599730896781153
 21
-11.77159925848133
 31
0.0
  0
CIRCLE
  5
49
330
22
100
AcDbEntity
  8
0
100
AcDbCircle
 10
11.59973089678112
 20
-9.271599258481501
 30
0.0
 40
3.5
  0
ARC
  5
4A
330
22
100
AcDbEntity
  8
0
100
AcDbCircle
 10
31.59973089678115
 20
-9.271599258481472
 30
0.0
 40
4.5
100
AcDbArc
 50
270.0
 51
231.0575587310182
  0
LINE
  5
4B
330
22
100
AcDbEntity
  8
0
100
AcDbLine
 10
17.59973089678112
 20
-4.771599258481472
 30
0.0
 11
17.59973089678115
 21
-13.77159925848147
 31
0.0
  0
ARC
  5
4C
330
22
100
AcDbEntity
  8
0
100
AcDbCircle
 10
22.59973089678116
 20
-7.271599258481472
 30
0.0
 40
2.5
100
AcDbArc
 50
293.1161887722295
 51
90.0
  0
CIRCLE
  5
4D
330
22
100
AcDbEntity
  8
0
100
AcDbCircle
 10
31.59973089678115
 20
-9.271599258481472
 30
0.0
 40
3.5
  0
ARC
  5
4E
330
22
100
AcDbEntity
  8
0
100
AcDbCircle
 10
4.599730896781153
 20
-11.77159925848133
 30
0.0
 40
1.0
100
AcDbArc
 50
180.0
 51
270.0
  0
ARC
  5
4F
330
22
100
AcDbEntity
  8
0
100
AcDbCircle
 10
4.599730896781153
 20
-11.77159925848133
 30
0.0
 40
2.0
100
AcDbArc
 50
179.9999999999992
 51
270.0
  0
LINE
  5
50
330
22
100
AcDbEntity
  8
0
100
AcDbLine
 10
11.59973089678115
 20
-13.77159925848144
 30
0.0
 11
4.599730896781153
 21
-13.77159925848147
 31
0.0
  0
LINE
  5
51
330
22
100
AcDbEntity
  8
0
100
AcDbLine
 10
8.771303772034769
 20
-12.77159925848136
 30
0.0
 11
4.599730896781153
 21
-12.77159925848133
 31
0.0
  0
LINE
  5
52
330
22
100
AcDbEntity
  8
0
100
AcDbLine
 10
31.59973089678115
 20
-13.77159925848147
 30
0.0
 11
23.6715276665056
 21
-13.77159925848144
 31
0.0
  0
LINE
  5
53
330
22
100
AcDbEntity
  8
0
100
AcDbLine
 10
23.56565672307022
 20
-9.51278021337896
 30
0.0
 11
24.4388546544846
 21
-12.77159925848144
 31
0.0
  0
LINE
  5
54
330
22
100
AcDbEntity
  8
0
100
AcDbLine
 10
22.59973089678116
 20
-9.771599258481472
 30
0.0
 11
18.59973089678112
 21
-9.771599258481472
 31
0.0
  0
LINE
  5
55
330
22
100
AcDbEntity
  8
0
100
AcDbLine
 10
18.59973089678115
 20
-13.77159925848144
 30
0.0
 11
17.59973089678115
 21
-13.77159925848144
 31
0.0
  0
LINE
  5
56
330
22
100
AcDbEntity
  8
0
100
AcDbLine
 10
18.59973089678115
 20
-9.771599258481472
 30
0.0
 11
18.59973089678115
 21
-13.77159925848144
 31
0.0
  0
LINE
  5
57
330
22
100
AcDbEntity
  8
0
100
AcDbLine
 10
22.59973089678116
 20
-9.771599258481472
 30
0.0
 11
23.67152766650562
 21
-13.77159925848147
 31
0.0
  0
ARC
  5
58
330
22
100
AcDbEntity
  8
0
100
AcDbCircle
 10
22.59973089678116
 20
-7.271599258481472
 30
0.0
 40
2.5
100
AcDbArc
 50
270.0
 51
270.0000000000007
  0
LINE
  5
59
330
22
100
AcDbEntity
  8
0
100
AcDbLine
 10
28.77130377203494
 20
-12.77159925848147
 30
0.0
 11
24.43885465448463
 21
-12.77159925848144
 31
0.0
  0
LINE
  5
5A
330
22
100
AcDbEntity
  8
0
100
AcDbLine
 10
3.599730896781125
 20
-4.771599258481472
 30
0.0
 11
2.599730896781125
 21
-4.771599258481472
 31
0.0
  0
LINE
  5
5B
330
22
100
AcDbEntity
  8
0
100
AcDbLine
 10
22.59973089678116
 20
-8.771599258481472
 30
0.0
 11
18.59973089678115
 21
-8.771599258481472
 31
0.0
  0
LINE
  5
5C
330
22
100
AcDbEntity
  8
0
100
AcDbLine
 10
22.59973089678116
 20
-5.771599258481472
 30
0.0
 11
18.59973089678115
 21
-5.771599258481472
 31
0.0
  0
LINE
  5
5D
330
22
100
AcDbEntity
  8
0
100
AcDbLine
 10
22.59973089678116
 20
-4.771599258481472
 30
0.0
 11
17.59973089678115
 21
-4.771599258481472
 31
0.0
  0
LINE
  5
5E
330
22
100
AcDbEntity
  8
0
100
AcDbLine
 10
18.59973089678115
 20
-5.771599258481472
 30
0.0
 11
18.59973089678115
 21
-8.771599258481472
 31
0.0
  0
ARC
  5
5F
330
22
100
AcDbEntity
  8
0
100
AcDbCircle
 10
22.59973089678116
 20
-7.271599258481472
 30
0.0
 40
1.5
100
AcDbArc
 50
270.0
 51
90.0
  0
ENDBLK
  5
60
330
22
100
AcDbEntity
  8
0
100
AcDbBlockEnd
  0
BLOCK
  5
179F
330
1793
100
AcDbEntity
  8
0
100
AcDbBlockBegin
  2
*D1
 70
     1
 10
0.0
 20
0.0
 30
0.0
  3
*D1
  1

  0
LINE
  5
189A
330
1793
100
AcDbEntity
  8
BEM
 62
     0
370
    -2
100
AcDbLine
 10
205.3403112111924
 20
362.0109221192401
 30
0.0
 11
205.3403112111923
 21
412.8856806082299
 31
0.0
  0
ARC
  5
189B
330
1793
100
AcDbEntity
  8
BEM
 62
     0
370
    -2
100
AcDbCircle
 10
205.3403112111924
 20
360.0109221192401
 30
0.0
 40
50.87475848898984
100
AcDbArc
 50
52.88971816754894
 51
82.11028183245103
  0
SOLID
  5
189C
330
1793
100
AcDbEntity
  8
BEM
 62
     0
100
AcDbTrace
 10
236.8019022347888
 20
401.4620616777531
 30
0.0
 11
235.269403783809
 21
399.7025467041911
 31
0.0
 12
241.314197929985
 22
395.9848088380327
 32
0.0
 13
241.314197929985
 23
395.9848088380327
 33
0.0
  0
SOLID
  5
189D
330
1793
100
AcDbEntity
  8
BEM
 62
     0
100
AcDbTrace
 10
212.2434637986648
 20
409.2402033324267
 30
0.0
 11
212.403988721224
 21
411.5680083486775
 31
0.0
 12
205.3403112111923
 22
410.8856806082299
 32
0.0
 13
205.3403112111923
 23
410.8856806082299
 33
0.0
  0
MTEXT
  5
189E
330
1793
100
AcDbEntity
  8
BEM
 62
     1
100
AcDbMText
 10
228.4681878917103
 20
412.5177238873983
 30
0.0
 40
7.0
 41
0.0
 71
     5
 72
     1
  1
\A1;45°
 11
0.915155081275579
 21
-0.403101943949032
 31
0.0
 73
     1
 44
1.0
  0
POINT
  5
189F
330
1793
100
AcDbEntity
  8
DEFPOINTS
 62
     0
100
AcDbPoint
 10
218.5076676231341
 20
409.1521652499744
 30
0.0
  0
POINT
  5
18A0
330
1793
100
AcDbEntity
  8
DEFPOINTS
 62
     0
100
AcDbPoint
 10
205.3403112111924
 20
360.0109221192401
 30
0.0
  0
POINT
  5
18A1
330
1793
100
AcDbEntity
  8
DEFPOINTS
 62
     0
100
AcDbPoint
 10
313.5276487327339
 20
468.1982596407817
 30
0.0
  0
POINT
  5
18A2
330
1793
100
AcDbEntity
  8
DEFPOINTS
 62
     0
100
AcDbPoint
 10
205.3403112111924
 20
360.0109221192401
 30
0.0
  0
POINT
  5
18A3
330
1793
100
AcDbEntity
  8
DEFPOINTS
 62
     0
100
AcDbPoint
 10
205.3403112111923
 20
207.0109221192403
 30
0.0
  0
ENDBLK
  5
17A0
330
1793
100
AcDbEntity
  8
0
100
AcDbBlockEnd
  0
BLOCK
  5
1809
330
17FF
100
AcDbEntity
  8
0
100
AcDbBlockBegin
  2
*D2
 70
     1
 10
0.0
 20
0.0
 30
0.0
  3
*D2
  1

  0
LINE
  5
18B6
330
17FF
100
AcDbEntity
  8
BEM
 62
     0
370
    -2
100
AcDbLine
 10
154.5403112111924
 20
218.0109221192403
 30
0.0
 11
154.5403112111924
 21
188.9210328661631
 31
0.0
  0
LINE
  5
18B7
330
17FF
100
AcDbEntity
  8
BEM
 62
     0
370
    -2
100
AcDbLine
 10
256.1403112111923
 20
218.0109221192398
 30
0.0
 11
256.1403112111923
 21
188.9210328661631
 31
0.0
  0
LINE
  5
18B8
330
17FF
100
AcDbEntity
  8
BEM
 62
     0
370
    -2
100
AcDbLine
 10
161.5403112111924
 20
190.9210328661631
 30
0.0
 11
249.1403112111923
 21
190.9210328661631
 31
0.0
  0
SOLID
  5
18B9
330
17FF
100
AcDbEntity
  8
BEM
 62
     0
100
AcDbTrace
 10
161.5403112111924
 20
192.0876995328298
 30
0.0
 11
161.5403112111924
 21
189.7543661994965
 31
0.0
 12
154.5403112111924
 22
190.9210328661631
 32
0.0
 13
154.5403112111924
 23
190.9210328661631
 33
0.0
  0
SOLID
  5
18BA
330
17FF
100
AcDbEntity
  8
BEM
 62
     0
100
AcDbTrace
 10
249.1403112111923
 20
192.0876995328298
 30
0.0
 11
249.1403112111923
 21
189.7543661994965
 31
0.0
 12
256.1403112111923
 22
190.9210328661631
 32
0.0
 13
256.1403112111923
 23
190.9210328661631
 33
0.0
  0
MTEXT
  5
18BB
330
17FF
100
AcDbEntity
  8
BEM
 62
     1
100
AcDbMText
 10
205.3403112111923
 20
197.4210328661631
 30
0.0
 40
7.0
 41
0.0
 71
     5
 72
     1
  1
\A1;%%c101.6
 73
     1
 44
1.0
  0
POINT
  5
18BC
330
17FF
100
AcDbEntity
  8
DEFPOINTS
 62
     0
100
AcDbPoint
 10
154.5403112111924
 20
220.0109221192403
 30
0.0
  0
POINT
  5
18BD
330
17FF
100
AcDbEntity
  8
DEFPOINTS
 62
     0
100
AcDbPoint
 10
256.1403112111923
 20
220.0109221192398
 30
0.0
  0
POINT
  5
18BE
330
17FF
100
AcDbEntity
  8
DEFPOINTS
 62
     0
100
AcDbPoint
 10
256.1403112111923
 20
190.9210328661631
 30
0.0
  0
ENDBLK
  5
180A
330
17FF
100
AcDbEntity
  8
0
100
AcDbBlockEnd
  0
BLOCK
  5
184A
330
1840
100
AcDbEntity
  8
0
100
AcDbBlockBegin
  2
*D4
 70
     1
 10
0.0
 20
0.0
 30
0.0
  3
*D4
  1

  0
LINE
  5
18A4
330
1840
100
AcDbEntity
  8
BEM
 62
     0
370
    -2
100
AcDbLine
 10
153.2402205193997
 20
212.0109221192403
 30
0.0
 11
127.9789842806712
 21
212.0109221192403
 31
0.0
  0
LINE
  5
18A5
330
1840
100
AcDbEntity
  8
BEM
 62
     0
370
    -2
100
AcDbLine
 10
203.340311211192
 20
360.0109221192398
 30
0.0
 11
127.9789842806713
 21
360.0109221192399
 31
0.0
  0
LINE
  5
18A6
330
1840
100
AcDbEntity
  8
BEM
 62
     0
370
    -2
100
AcDbLine
 10
129.9789842806712
 20
219.0109221192404
 30
0.0
 11
129.9789842806713
 21
353.0109221192398
 31
0.0
  0
SOLID
  5
18A7
330
1840
100
AcDbEntity
  8
BEM
 62
     0
100
AcDbTrace
 10
128.8123176140046
 20
219.0109221192404
 30
0.0
 11
131.1456509473379
 21
219.0109221192404
 31
0.0
 12
129.9789842806712
 22
212.0109221192403
 32
0.0
 13
129.9789842806712
 23
212.0109221192403
 33
0.0
  0
SOLID
  5
18A8
330
1840
100
AcDbEntity
  8
BEM
 62
     0
100
AcDbTrace
 10
128.8123176140046
 20
353.0109221192398
 30
0.0
 11
131.1456509473379
 21
353.0109221192398
 31
0.0
 12
129.9789842806713
 22
360.0109221192398
 32
0.0
 13
129.9789842806713
 23
360.0109221192398
 33
0.0
  0
MTEXT
  5
18A9
330
1840
100
AcDbEntity
  8
BEM
 62
     1
100
AcDbMText
 10
123.4789842806712
 20
286.0109221192402
 30
0.0
 40
7.0
 41
0.0
 71
     5
 72
     1
  1
\A1;148
 11
0.0000000000000001
 21
1.0
 31
0.0
 73
     1
 44
1.0
  0
POINT
  5
18AA
330
1840
100
AcDbEntity
  8
DEFPOINTS
 62
     0
100
AcDbPoint
 10
155.2402205193997
 20
212.0109221192403
 30
0.0
  0
POINT
  5
18AB
330
1840
100
AcDbEntity
  8
DEFPOINTS
 62
     0
100
AcDbPoint
 10
205.340311211192
 20
360.0109221192398
 30
0.0
  0
POINT
  5
18AC
330
1840
100
AcDbEntity
  8
DEFPOINTS
 62
     0
100
AcDbPoint
 10
129.9789842806713
 20
360.0109221192398
 30
0.0
  0
ENDBLK
  5
184B
330
1840
100
AcDbEntity
  8
0
100
AcDbBlockEnd
  0
BLOCK
  5
1857
330
184D
100
AcDbEntity
  8
0
100
AcDbBlockBegin
  2
*D5
 70
     1
 10
0.0
 20
0.0
 30
0.0
  3
*D5
  1

  0
LINE
  5
19D1
330
184D
100
AcDbEntity
  8
BEM
 62
     0
370
    -2
100
AcDbLine
 10
203.9260976488193
 20
361.4251356816132
 30
0.0
 11
144.1963149566368
 21
421.1549183737954
 31
0.0
  0
LINE
  5
19D2
330
184D
100
AcDbEntity
  8
BEM
 62
     0
370
    -2
100
AcDbLine
 10
269.9275981044148
 20
504.7272424572363
 30
0.0
 11
248.8481185722461
 21
525.806721989405
 31
0.0
  0
LINE
  5
19D3
330
184D
100
AcDbEntity
  8
BEM
 62
     0
370
    -2
100
AcDbLine
 10
150.5602759873157
 20
424.6904522797282
 30
0.0
 11
245.3125846663134
 21
519.4427609587259
 31
0.0
  0
SOLID
  5
19D4
330
184D
100
AcDbEntity
  8
BEM
 62
     0
100
AcDbTrace
 10
149.7353180759314
 20
425.5154101911124
 30
0.0
 11
151.3852338987
 21
423.8654943683439
 31
0.0
 12
145.6105285190099
 22
419.7407048114223
 32
0.0
 13
145.6105285190099
 23
419.7407048114223
 33
0.0
  0
SOLID
  5
19D5
330
184D
100
AcDbEntity
  8
BEM
 62
     0
100
AcDbTrace
 10
244.487626754929
 20
520.2677188701102
 30
0.0
 11
246.1375425776977
 21
518.6178030473416
 31
0.0
 12
250.2623321346192
 22
524.3925084270318
 32
0.0
 13
250.2623321346192
 23
524.3925084270318
 33
0.0
  0
MTEXT
  5
19D6
330
184D
100
AcDbEntity
  8
BEM
 62
     1
100
AcDbMText
 10
193.3402362491019
 20
476.6628006969397
 30
0.0
 40
7.0
 41
0.0
 71
     5
 72
     1
  1
\A1;148
 11
0.7071067811865469
 21
0.7071067811865484
 31
0.0
 73
     1
 44
1.0
  0
POINT
  5
19D7
330
184D
100
AcDbEntity
  8
DEFPOINTS
 62
     0
100
AcDbPoint
 10
205.3403112111923
 20
360.0109221192401
 30
0.0
  0
POINT
  5
19D8
330
184D
100
AcDbEntity
  8
DEFPOINTS
 62
     0
100
AcDbPoint
 10
271.3418116667879
 20
503.3130288948632
 30
0.0
  0
POINT
  5
19D9
330
184D
100
AcDbEntity
  8
DEFPOINTS
 62
     0
100
AcDbPoint
 10
250.2623321346192
 20
524.3925084270318
 30
0.0
  0
ENDBLK
  5
1858
330
184D
100
AcDbEntity
  8
0
100
AcDbBlockEnd
  0
ENDSEC
  0
SECTION
  2
ENTITIES
  0
TEXT
  5
134
330
1E
100
AcDbEntity
  8
TEXT
100
AcDbText
 10
204.4216048581257
 20
63.0896391972351
 30
0.0
 40
4.0
  1
Koeh
 41
0.8
  7
GREEKS
 72
     1
 11
209.6787477152686
 21
63.0896391972351
 31
0.0
100
AcDbText
  0
INSERT
  5
135
330
1E
100
AcDbEntity
  8
STEMPEL
100
AcDbBlockReference
  2
LOGO
 10
150.9955485457794
 20
45.02105276448322
 30
0.0
 41
2.0
 42
2.0
 43
2.0
  0
LINE
  5
136
330
1E
100
AcDbEntity
  8
HILF
100
AcDbLine
 10
420.0
 20
0.0
 30
0.0
 11
0.0
 21
0.0
 31
0.0
  0
LINE
  5
137
330
1E
100
AcDbEntity
  8
HILF
100
AcDbLine
 10
419.9999999999999
 20
594.0000000000002
 30
0.0
 11
0.0
 21
594.0
 31
0.0
  0
LINE
  5
138
330
1E
100
AcDbEntity
  8
STEMPEL
100
AcDbLine
 10
410.0
 20
584.0
 30
0.0
 11
39.99999999999989
 21
584.0
 31
0.0
  0
LINE
  5
139
330
1E
100
AcDbEntity
  8
STEMPEL
100
AcDbLine
 10
410.0
 20
10.0
 30
0.0
 11
39.99999999999989
 21
10.0
 31
0.0
  0
LINE
  5
13A
330
1E
100
AcDbEntity
  8
STEMPEL
100
AcDbLine
 10
49.99999999999989
 20
10.0
 30
0.0
 11
410.0
 21
10.0
 31
0.0
  0
TEXT
  5
13B
330
1E
100
AcDbEntity
  8
TEXT
100
AcDbText
 10
202.4626584226295
 20
73.30961091915225
 30
0.0
 40
4.0
  1
Name
 41
0.8
  7
GREEKS
100
AcDbText
  0
TEXT
  5
13C
330
1E
100
AcDbEntity
  8
TEXT
100
AcDbText
 10
196.5498279101549
 20
102.6506227776589
 30
0.0
 40
5.0
  1
Zul. Abw.
 41
0.8
  7
GREEKS
 72
     4
 11
209.9783993387263
 21
105.1506227776589
 31
0.0
100
AcDbText
  0
LINE
  5
13D
330
1E
100
AcDbEntity
  8
HILF
100
AcDbLine
 10
146.0000000000001
 20
49.99999999999997
 30
0.0
 11
230.0
 21
49.99999999999997
 31
0.0
  0
LINE
  5
13E
330
1E
100
AcDbEntity
  8
HILF
100
AcDbLine
 10
146.0000000000001
 20
59.99999999999997
 30
0.0
 11
230.0
 21
59.99999999999997
 31
0.0
  0
LINE
  5
13F
330
1E
100
AcDbEntity
  8
HILF
100
AcDbLine
 10
146.0000000000001
 20
69.99999999999994
 30
0.0
 11
230.0
 21
69.99999999999994
 31
0.0
  0
LINE
  5
140
330
1E
100
AcDbEntity
  8
STEMPEL
100
AcDbLine
 10
410.0
 20
80.0
 30
0.0
 11
146.0000000000001
 21
79.99999999999994
 31
0.0
  0
LINE
  5
141
330
1E
100
AcDbEntity
  8
STEMPEL
100
AcDbLine
 10
410.0
 20
40.0
 30
0.0
 11
146.0000000000001
 21
39.99999999999997
 31
0.0
  0
LINE
  5
142
330
1E
100
AcDbEntity
  8
STEMPEL
100
AcDbLine
 10
410.0
 20
110.0
 30
0.0
 11
39.99999999999997
 21
110.0
 31
0.0
  0
LINE
  5
144
330
1E
100
AcDbEntity
  8
HILF
100
AcDbLine
 10
0.0
 20
0.0
 30
0.0
 11
-0.0000000000001137
 21
594.0
 31
0.0
  0
LINE
  5
145
330
1E
100
AcDbEntity
  8
STEMPEL
100
AcDbLine
 10
40.0
 20
10.0
 30
0.0
 11
39.99999999999989
 21
584.0
 31
0.0
  0
LINE
  5
148
330
1E
100
AcDbEntity
  8
HILF
100
AcDbLine
 10
40.00000000000008
 20
39.99999999999997
 30
0.0
 11
146.0000000000001
 21
39.99999999999997
 31
0.0
  0
LINE
  5
149
330
1E
100
AcDbEntity
  8
HILF
100
AcDbLine
 10
40.00000000000008
 20
49.99999999999997
 30
0.0
 11
146.0000000000001
 21
49.99999999999997
 31
0.0
  0
LINE
  5
14A
330
1E
100
AcDbEntity
  8
HILF
100
AcDbLine
 10
40.00000000000008
 20
59.99999999999997
 30
0.0
 11
146.0000000000001
 21
59.99999999999997
 31
0.0
  0
LINE
  5
14B
330
1E
100
AcDbEntity
  8
HILF
100
AcDbLine
 10
40.00000000000008
 20
69.99999999999994
 30
0.0
 11
146.0000000000001
 21
69.99999999999994
 31
0.0
  0
LINE
  5
14C
330
1E
100
AcDbEntity
  8
HILF
100
AcDbLine
 10
40.00000000000008
 20
79.99999999999994
 30
0.0
 11
146.0000000000001
 21
79.99999999999994
 31
0.0
  0
LINE
  5
14D
330
1E
100
AcDbEntity
  8
HILF
100
AcDbLine
 10
40.00000000000008
 20
90.00000000000005
 30
0.0
 11
146.0000000000001
 21
90.00000000000005
 31
0.0
  0
LINE
  5
14E
330
1E
100
AcDbEntity
  8
HILF
100
AcDbLine
 10
40.00000000000008
 20
100.0
 30
0.0
 11
146.0000000000001
 21
100.0
 31
0.0
  0
LINE
  5
14F
330
1E
100
AcDbEntity
  8
STEMPEL
100
AcDbLine
 10
145.9999999999999
 20
29.99999999999997
 30
0.0
 11
39.99999999999997
 21
29.99999999999997
 31
0.0
  0
TEXT
  5
150
330
1E
100
AcDbEntity
  8
TEXT
100
AcDbText
 10
48.26641107045756
 20
13.65465846027192
 30
0.0
 40
4.0
  1
Index
 50
90.0
 41
0.8
  7
GREEKS
100
AcDbText
  0
LINE
  5
151
330
1E
100
AcDbEntity
  8
VOLL
100
AcDbLine
 10
54.00000000000009
 20
110.0
 30
0.0
 11
53.99999999999997
 21
9.999999999999971
 31
0.0
  0
LINE
  5
152
330
1E
100
AcDbEntity
  8
HILF
100
AcDbLine
 10
31.08767135713856
 20
297.0
 30
0.0
 11
0.0000000000001137
 21
297.0
 31
0.0
  0
LINE
  5
154
330
1E
100
AcDbEntity
  8
VOLL
100
AcDbLine
 10
124.0000000000001
 20
109.9999999999999
 30
0.0
 11
124.0
 21
9.999999999999971
 31
0.0
  0
LINE
  5
155
330
1E
100
AcDbEntity
  8
VOLL
100
AcDbLine
 10
104.0000000000001
 20
109.9999999999999
 30
0.0
 11
104.0
 21
9.999999999999971
 31
0.0
  0
LINE
  5
157
330
1E
100
AcDbEntity
  8
STEMPEL
100
AcDbLine
 10
146.0000000000001
 20
109.9999999999999
 30
0.0
 11
146.0
 21
9.999999999999971
 31
0.0
  0
TEXT
  5
159
330
1E
100
AcDbEntity
  8
TEXT
100
AcDbText
 10
172.331167315365
 20
73.31880501229926
 30
0.0
 40
4.0
  1
Tag
 41
0.8
  7
GREEKS
100
AcDbText
  0
TEXT
  5
15A
330
1E
100
AcDbEntity
  8
TEXT
100
AcDbText
 10
147.5836127167615
 20
63.62990369617964
 30
0.0
 40
4.0
  1
Gez.
 41
0.8
  7
GREEKS
100
AcDbText
  0
LINE
  5
15B
330
1E
100
AcDbEntity
  8
VOLL
100
AcDbLine
 10
164.0000000000001
 20
79.99999999999994
 30
0.0
 11
164.0000000000001
 21
39.99999999999997
 31
0.0
  0
TEXT
  5
15C
330
1E
100
AcDbEntity
  8
TEXT
100
AcDbText
 10
147.6006777387303
 20
43.52946389649807
 30
0.0
 40
4.0
  1
Norm.
 41
0.8
  7
GREEKS
100
AcDbText
  0
TEXT
  5
15D
330
1E
100
AcDbEntity
  8
TEXT
100
AcDbText
 10
147.5515086571672
 20
53.68926291428377
 30
0.0
 40
4.0
  1
Gepr.
 41
0.8
  7
GREEKS
100
AcDbText
  0
TEXT
  5
15E
330
1E
100
AcDbEntity
  8
TEXT
 62
     1
100
AcDbText
 10
160.5006306481887
 20
88.14901428913959
 30
0.0
 40
7.0
  1
1:2
 41
0.8
  7
GREEKS
100
AcDbText
  0
TEXT
  5
160
330
1E
100
AcDbEntity
  8
TEXT
100
AcDbText
 10
148.622109822104
 20
73.14025471151666
 30
0.0
 40
4.0
  1
2011
 41
0.8
  7
GREEKS
100
AcDbText
  0
LINE
  5
161
330
1E
100
AcDbEntity
  8
VOLL
100
AcDbLine
 10
190.0000000000001
 20
109.9999999999998
 30
0.0
 11
190.0
 21
39.99999999999997
 31
0.0
  0
LINE
  5
186
330
1E
100
AcDbEntity
  8
HILF
100
AcDbLine
 10
420.0
 20
-0.0000000000001137
 30
0.0
 11
419.9999999999999
 21
594.0
 31
0.0
  0
LINE
  5
187
330
1E
100
AcDbEntity
  8
STEMPEL
100
AcDbLine
 10
410.0
 20
10.0
 30
0.0
 11
410.0
 21
584.0
 31
0.0
  0
TEXT
  5
188
330
1E
100
AcDbEntity
  8
TEXT
100
AcDbText
 10
337.2400861497006
 20
52.07416177878602
 30
0.0
 40
5.0
  1
ersetzt durch:
 41
0.8
  7
GREEKS
100
AcDbText
  0
TEXT
  5
18A
330
1E
100
AcDbEntity
  8
TEXT
100
AcDbText
 10
336.178754957634
 20
102.3132034537136
 30
0.0
 40
5.0
  1
Zeichnungs Nr.
 41
0.8
  7
GREEKS
100
AcDbText
  0
LINE
  5
18B
330
1E
100
AcDbEntity
  8
HILF
100
AcDbLine
 10
233.4909699289885
 20
14.89398258028314
 30
0.0
 11
404.8588839326728
 21
14.89398258028314
 31
0.0
  0
LINE
  5
18C
330
1E
100
AcDbEntity
  8
HILF
100
AcDbLine
 10
336.7238616296993
 20
83.77983636955827
 30
0.0
 11
404.8588839326728
 21
83.77983636955827
 31
0.0
  0
LINE
  5
18D
330
1E
100
AcDbEntity
  8
VOLL
100
AcDbLine
 10
332.0
 20
60.0
 30
0.0
 11
410.0
 21
60.0
 31
0.0
  0
TEXT
  5
18E
330
1E
100
AcDbEntity
  8
TEXT
 62
     1
100
AcDbText
 10
234.9283864320014
 20
87.41748789253779
 30
0.0
 40
7.0
  1
Bogen DN100 45°
 41
0.8
  7
GREEKS
100
AcDbText
  0
LINE
  5
18F
330
1E
100
AcDbEntity
  8
HILF
100
AcDbLine
 10
234.7736801096947
 20
49.99999999999997
 30
0.0
 11
324.835391655631
 21
49.99999999999997
 31
0.0
  0
LINE
  5
190
330
1E
100
AcDbEntity
  8
HILF
100
AcDbLine
 10
234.7736801096947
 20
59.99999999999997
 30
0.0
 11
324.835391655631
 21
59.99999999999997
 31
0.0
  0
LINE
  5
191
330
1E
100
AcDbEntity
  8
HILF
100
AcDbLine
 10
234.7736801096947
 20
69.99999999999994
 30
0.0
 11
324.835391655631
 21
69.99999999999994
 31
0.0
  0
LINE
  5
192
330
1E
100
AcDbEntity
  8
HILF
100
AcDbLine
 10
234.7736801096947
 20
84.03758247564139
 30
0.0
 11
324.8353916556311
 21
84.03758247564139
 31
0.0
  0
LINE
  5
193
330
1E
100
AcDbEntity
  8
STEMPEL
100
AcDbLine
 10
230.0
 20
110.0
 30
0.0
 11
230.0
 21
9.999999999999971
 31
0.0
  0
TEXT
  5
194
330
1E
100
AcDbEntity
  8
TEXT
100
AcDbText
 10
235.1296391125315
 20
71.50334417585288
 30
0.0
 40
5.0
  1
dünnwandig
 41
0.8
  7
GREEKS
100
AcDbText
  0
TEXT
  5
195
330
1E
100
AcDbEntity
  8
TEXT
100
AcDbText
 10
234.9837501577827
 20
42.62974153022632
 30
0.0
 40
4.0
  1
5320100W.DWG
 41
0.8
  7
GREEKS
100
AcDbText
  0
TEXT
  5
196
330
1E
100
AcDbEntity
  8
TEXT
100
AcDbText
 10
234.742238391136
 20
30.84560570193057
 30
0.0
 40
5.0
  1
Bauvorhaben
 41
0.8
  7
GREEKS
100
AcDbText
  0
TEXT
  5
197
330
1E
100
AcDbEntity
  8
TEXT
100
AcDbText
 10
234.877940380901
 20
102.5489328011779
 30
0.0
 40
5.0
  1
Benennung
 41
0.8
  7
GREEKS
100
AcDbText
  0
LINE
  5
198
330
1E
100
AcDbEntity
  8
STEMPEL
100
AcDbLine
 10
332.0
 20
109.9999999999997
 30
0.0
 11
332.0
 21
40.0
 31
0.0
  0
TEXT
  5
19A
330
1E
100
AcDbEntity
  8
TEXT
 62
     1
100
AcDbText
 10
350.4992288445131
 20
88.14901428913959
 30
0.0
 40
7.0
  1
5320100W
 41
0.8
  7
GREEKS
 72
     1
 11
371.2992288445131
 21
88.14901428913959
 31
0.0
100
AcDbText
  0
TEXT
  5
212
330
1E
100
AcDbEntity
  8
TEXT
100
AcDbText
 10
235.1296391125315
 20
51.50334417585291
 30
0.0
 40
5.0
  1
EDV-Art.Nr. 5.320.100C
 41
0.8
  7
GREEKS
100
AcDbText
  0
TEXT
  5
E61
330
1E
100
AcDbEntity
  8
TEXT
 62
     1
100
AcDbText
 10
297.0573649355706
 20
132.2248663682012
 30
0.0
 40
7.0
  1
Werkstoff: 1.4404
 41
0.8
  7
GREEKS
100
AcDbText
  0
TEXT
  5
12CF
330
1E
100
AcDbEntity
  8
VOLL
100
AcDbText
 10
1383.918177163095
 20
253.7900361884587
 30
0.0
 40
1.8
  1

  7
GREEKS
100
AcDbText
  0
TEXT
  5
1574
330
1E
100
AcDbEntity
  8
BEM
100
AcDbText
 10
416.5811541437437
 20
12.14804815338303
 30
0.0
 40
4.0
  1
Diese Zeichnung ist urheberrechtlich geschützt und bleibt unser Eigentum. Sie darf weder ganz noch teilweise vervielfältigt und nicht an Dritte weitergegeben werden.
 50
90.0
 41
0.8
  7
GREEKS
100
AcDbText
  0
TEXT
  5
1575
330
1E
100
AcDbEntity
  8
TEXT
100
AcDbText
 10
336.7238616296993
 20
73.1811823709997
 30
0.0
 40
5.0
  1
Ersatz für:
 41
0.8
  7
GREEKS
100
AcDbText
  0
TEXT
  5
1576
330
1E
100
AcDbEntity
  8
TEXT
100
AcDbText
 10
192.6882715247924
 20
89.50150693558043
 30
0.0
 40
4.0
  1
DIN EN1124-3
 41
0.8
  7
GREEKS
 72
     1
 11
209.6787477152686
 21
89.50150693558043
 31
0.0
100
AcDbText
  0
TEXT
  5
1577
330
1E
100
AcDbEntity
  8
TEXT
100
AcDbText
 10
153.5163572150377
 20
102.4620895087088
 30
0.0
 40
5.0
  1
Maßstab
 41
0.8
  7
GREEKS
100
AcDbText
  0
TEXT
  5
1578
330
1E
100
AcDbEntity
  8
TEXT
100
AcDbText
 10
41.85509950977674
 20
111.6719999999999
 30
0.0
 40
5.0
  1
Erstellt mit AUTOCAD 2004
 41
0.8
  7
GREEKS
100
AcDbText
  0
TEXT
  5
1579
330
1E
100
AcDbEntity
  8
TEXT
100
AcDbText
 10
129.3020371565846
 20
18.59324216966408
 30
0.0
 40
4.0
  1
Name
 41
0.8
  7
GREEKS
 72
     1
 11
135.6258466803941
 21
18.59324216966408
 31
0.0
100
AcDbText
  0
TEXT
  5
157A
330
1E
100
AcDbEntity
  8
TEXT
100
AcDbText
 10
110.2468354498985
 20
18.6715626933981
 30
0.0
 40
4.0
  1
Tag
 41
0.8
  7
GREEKS
 72
     1
 11
113.9801687832318
 21
18.6715626933981
 31
0.0
100
AcDbText
  0
TEXT
  5
157B
330
1E
100
AcDbEntity
  8
TEXT
100
AcDbText
 10
66.72469466776535
 20
18.67381894984132
 30
0.0
 40
4.0
  1
Änderung
 41
0.8
  7
GREEKS
 72
     1
 11
77.46755181062249
 21
18.67381894984132
 31
0.0
100
AcDbText
  0
LINE
  5
16B5
330
1E
100
AcDbEntity
  8
MITTEL
100
AcDbLine
 10
205.3403112111923
 20
360.0109221192401
 30
0.0
 11
205.3403112111923
 21
207.0109221192403
 31
0.0
  0
LINE
  5
1707
330
1E
100
AcDbEntity
  8
MITTEL
100
AcDbLine
 10
313.5276487327339
 20
468.1982596407818
 30
0.0
 11
205.3403112111923
 21
360.0109221192401
 31
0.0
  0
DIMENSION
  5
1748
330
1E
100
AcDbEntity
  8
BEM
100
AcDbDimension
  2
*D1
 10
205.3403112111923
 20
207.0109221192403
 30
0.0
 11
225.8480252560417
 21
406.569215859107
 31
0.0
 70
   162
 71
     5
 42
0.785398163397449
  3
Standard
100
AcDb2LineAngularDimension
 13
313.5276487327339
 23
468.1982596407818
 33
0.0
 14
205.3403112111923
 24
360.0109221192401
 34
0.0
 15
205.3403112111923
 25
360.0109221192401
 35
0.0
 16
218.5076676231341
 26
409.1521652499744
 36
0.0
1001
ACAD
1000
DSTYLE
1002
{
1070
    40
1040
2.0
1070
    41
1040
3.5
1070
    42
1040
1.0
1070
    43
1040
7.0
1070
    44
1040
1.0
1070
    73
1070
     0
1070
    74
1070
     0
1070
    77
1070
     1
1070
    78
1070
     8
1070
    79
1070
     2
1070
   140
1040
3.5
1070
   141
1040
1.5
1070
   146
1040
0.5142857142857144
1070
   147
1040
1.5
1070
   172
1070
     1
1070
   178
1070
     1
1070
   179
1070
     2
1070
   271
1070
     2
1070
   272
1070
     2
1070
   284
1070
     8
1070
   285
1070
     8
1070
   286
1070
     8
1002
}
  0
LINE
  5
17DB
330
1E
100
AcDbEntity
  8
STEMPEL
100
AcDbLine
 10
256.140311211192
 20
338.9688731506863
 30
0.0
 11
256.1403112111923
 21
220.0109221192398
 31
0.0
  0
LINE
  5
17DC
330
1E
100
AcDbEntity
  8
STEMPEL
100
AcDbLine
 10
255.4404019029848
 20
212.0109221192398
 30
0.0
 11
155.2402205193997
 21
212.0109221192403
 31
0.0
  0
LINE
  5
17DD
330
1E
100
AcDbEntity
  8
HILF
100
AcDbLine
 10
254.8855364142628
 20
220.0109221192398
 30
0.0
 11
155.7950860081214
 21
220.0109221192403
 31
0.0
  0
DIMENSION
  5
17DE
330
1E
100
AcDbEntity
  8
BEM
100
AcDbDimension
  2
*D2
 10
256.1403112111923
 20
190.9210328661631
 30
0.0
 11
205.3403112111923
 21
197.4210328661631
 31
0.0
 70
    32
  1
%%c<>
 71
     5
 42
101.5999999999999
  3
Standard
100
AcDbAlignedDimension
 13
154.5403112111924
 23
220.0109221192403
 33
0.0
 14
256.1403112111923
 24
220.0109221192398
 34
0.0
100
AcDbRotatedDimension
1001
ACAD
1000
DSTYLE
1002
{
1070
    40
1040
2.0
1070
    41
1040
3.5
1070
    42
1040
1.0
1070
    43
1040
7.0
1070
    44
1040
1.0
1070
    73
1070
     0
1070
    74
1070
     0
1070
    77
1070
     1
1070
    78
1070
     8
1070
    79
1070
     2
1070
   140
1040
3.5
1070
   141
1040
1.5
1070
   146
1040
0.5142857142857144
1070
   147
1040
1.5
1070
   172
1070
     1
1070
   178
1070
     1
1070
   179
1070
     2
1070
   271
1070
     2
1070
   272
1070
     2
1070
   284
1070
     8
1070
   285
1070
     8
1070
   286
1070
     8
1002
}
  0
LINE
  5
17DF
330
1E
100
AcDbEntity
  8
STEMPEL
100
AcDbLine
 10
256.1403112111923
 20
220.010922119241
 30
0.0
 11
255.4404019029848
 21
212.0109221192398
 31
0.0
  0
LINE
  5
17FD
330
1E
100
AcDbEntity
  8
STEMPEL
100
AcDbLine
 10
154.5403112111924
 20
381.0529710877931
 30
0.0
 11
154.5403112111924
 21
220.0109221192403
 31
0.0
  0
LINE
  5
17FE
330
1E
100
AcDbEntity
  8
STEMPEL
100
AcDbLine
 10
154.5403112111924
 20
220.0109221192403
 30
0.0
 11
155.2402205193997
 21
212.0109221192403
 31
0.0
  0
TEXT
  5
1839
330
1E
100
AcDbEntity
  8
TEXT
 62
     1
100
AcDbText
 10
274.1651931009969
 20
450.9688135317102
 30
0.0
 40
7.0
  1
DN100
 50
44.99999999999973
 41
0.8
  7
GREEKS
100
AcDbText
  0
LINE
  5
183E
330
1E
100
AcDbEntity
  8
STEMPEL
100
AcDbLine
 10
256.140311211192
 20
338.9688731506863
 30
0.0
 11
154.5403112111924
 21
381.0529710877931
 31
0.0
  0
DIMENSION
  5
183F
330
1E
100
AcDbEntity
  8
BEM
100
AcDbDimension
  2
*D4
 10
129.9789842806713
 20
360.0109221192398
 30
0.0
 11
123.4789842806712
 21
286.0109221192402
 31
0.0
 70
    32
 71
     5
 42
147.9999999999995
  3
Standard
100
AcDbAlignedDimension
 13
155.2402205193997
 23
212.0109221192403
 33
0.0
 14
205.340311211192
 24
360.0109221192398
 34
0.0
 50
90.0
100
AcDbRotatedDimension
1001
ACAD
1000
DSTYLE
1002
{
1070
    40
1040
2.0
1070
    41
1040
3.5
1070
    42
1040
1.0
1070
    43
1040
7.0
1070
    44
1040
1.0
1070
    73
1070
     0
1070
    74
1070
     0
1070
    77
1070
     1
1070
    78
1070
     8
1070
    79
1070
     2
1070
   140
1040
3.5
1070
   141
1040
1.5
1070
   146
1040
0.5142857142857144
1070
   147
1040
1.5
1070
   172
1070
     1
1070
   178
1070
     1
1070
   179
1070
     2
1070
   271
1070
     2
1070
   272
1070
     2
1070
   284
1070
     8
1070
   285
1070
     8
1070
   286
1070
     8
1002
}
  0
DIMENSION
  5
184C
330
1E
100
AcDbEntity
  8
BEM
100
AcDbDimension
  2
*D5
 10
250.2623321346192
 20
524.3925084270318
 30
0.0
 11
193.3402362491019
 21
476.6628006969396
 31
0.0
 70
    32
 71
     5
 42
148.0000000000004
 51
314.9999999999999
  3
Standard
100
AcDbAlignedDimension
 13
205.3403112111923
 23
360.0109221192401
 33
0.0
 14
271.3418116667879
 24
503.3130288948632
 34
0.0
 50
44.99999999999978
100
AcDbRotatedDimension
1001
ACAD
1000
DSTYLE
1002
{
1070
    40
1040
2.0
1070
    41
1040
3.5
1070
    42
1040
1.0
1070
    43
1040
7.0
1070
    44
1040
1.0
1070
    73
1070
     0
1070
    74
1070
     0
1070
    77
1070
     1
1070
    78
1070
     8
1070
    79
1070
     2
1070
   140
1040
3.5
1070
   141
1040
1.5
1070
   146
1040
0.5142857142857144
1070
   147
1040
1.5
1070
   172
1070
     1
1070
   178
1070
     1
1070
   179
1070
     2
1070
   271
1070
     2
1070
   272
1070
     2
1070
   284
1070
     8
1070
   285
1070
     8
1070
   286
1070
     8
1002
}
  0
ARC
  5
1879
330
1E
100
AcDbEntity
  8
SCHRAFF
100
AcDbCircle
 10
152.6925521461697
 20
381.8183379525233
 30
0.0
 40
5.0
100
AcDbArc
 50
300.6301023541563
 51
14.36989764584362
  0
ARC
  5
187A
330
1E
100
AcDbEntity
  8
SCHRAFF
100
AcDbCircle
 10
157.3119498087262
 20
379.9049207906979
 30
0.0
 40
5.0
100
AcDbArc
 50
300.6301023541563
 51
14.36989764584362
  0
ARC
  5
187B
330
1E
100
AcDbEntity
  8
SCHRAFF
100
AcDbCircle
 10
161.9313474712826
 20
377.9915036288723
 30
0.0
 40
5.0
100
AcDbArc
 50
300.6301023541563
 51
14.36989764584362
  0
ARC
  5
187C
330
1E
100
AcDbEntity
  8
SCHRAFF
100
AcDbCircle
 10
166.5507451338391
 20
376.0780864670469
 30
0.0
 40
5.0
100
AcDbArc
 50
300.6301023541563
 51
14.36989764584362
  0
ARC
  5
187D
330
1E
100
AcDbEntity
  8
SCHRAFF
100
AcDbCircle
 10
171.1701427963954
 20
374.1646693052214
 30
0.0
 40
5.0
100
AcDbArc
 50
300.6301023541563
 51
14.36989764584362
  0
ARC
  5
187E
330
1E
100
AcDbEntity
  8
SCHRAFF
100
AcDbCircle
 10
175.7895404589519
 20
372.251252143396
 30
0.0
 40
5.0
100
AcDbArc
 50
300.6301023541563
 51
14.36989764584362
  0
ARC
  5
187F
330
1E
100
AcDbEntity
  8
SCHRAFF
100
AcDbCircle
 10
180.4089381215083
 20
370.3378349815704
 30
0.0
 40
5.0
100
AcDbArc
 50
300.6301023541563
 51
14.36989764584362
  0
ARC
  5
1880
330
1E
100
AcDbEntity
  8
SCHRAFF
100
AcDbCircle
 10
185.0283357840648
 20
368.424417819745
 30
0.0
 40
5.0
100
AcDbArc
 50
300.6301023541563
 51
14.36989764584362
  0
ARC
  5
1881
330
1E
100
AcDbEntity
  8
SCHRAFF
100
AcDbCircle
 10
189.6477334466212
 20
366.5110006579196
 30
0.0
 40
5.0
100
AcDbArc
 50
300.6301023541563
 51
14.36989764584362
  0
ARC
  5
1882
330
1E
100
AcDbEntity
  8
SCHRAFF
100
AcDbCircle
 10
194.2671311091776
 20
364.597583496094
 30
0.0
 40
5.0
100
AcDbArc
 50
300.6301023541563
 51
14.36989764584362
  0
ARC
  5
1883
330
1E
100
AcDbEntity
  8
SCHRAFF
100
AcDbCircle
 10
198.8865287717341
 20
362.6841663342686
 30
0.0
 40
5.0
100
AcDbArc
 50
300.6301023541563
 51
14.36989764584362
  0
ARC
  5
1884
330
1E
100
AcDbEntity
  8
SCHRAFF
100
AcDbCircle
 10
203.4925521461697
 20
360.738774683687
 30
0.0
 40
5.0
100
AcDbArc
 50
300.6301023541563
 51
14.36989764584362
  0
ARC
  5
1885
330
1E
100
AcDbEntity
  8
SCHRAFF
100
AcDbCircle
 10
208.1251021367268
 20
358.8574239495097
 30
0.0
 40
5.0
100
AcDbArc
 50
300.6301023541563
 51
14.36989764584362
  0
ARC
  5
1886
330
1E
100
AcDbEntity
  8
SCHRAFF
100
AcDbCircle
 10
212.7444997992832
 20
356.9440067876842
 30
0.0
 40
5.0
100
AcDbArc
 50
300.6301023541563
 51
14.36989764584362
  0
ARC
  5
1887
330
1E
100
AcDbEntity
  8
SCHRAFF
100
AcDbCircle
 10
217.3638974618397
 20
355.0305896258588
 30
0.0
 40
5.0
100
AcDbArc
 50
300.6301023541563
 51
14.36989764584362
  0
ARC
  5
1888
330
1E
100
AcDbEntity
  8
SCHRAFF
100
AcDbCircle
 10
221.9832951243962
 20
353.1171724640334
 30
0.0
 40
5.0
100
AcDbArc
 50
300.6301023541563
 51
14.36989764584362
  0
ARC
  5
1889
330
1E
100
AcDbEntity
  8
SCHRAFF
100
AcDbCircle
 10
226.6026927869525
 20
351.2037553022078
 30
0.0
 40
5.0
100
AcDbArc
 50
300.6301023541563
 51
14.36989764584362
  0
ARC
  5
188A
330
1E
100
AcDbEntity
  8
SCHRAFF
100
AcDbCircle
 10
231.222090449509
 20
349.2903381403824
 30
0.0
 40
5.0
100
AcDbArc
 50
300.6301023541563
 51
14.36989764584362
  0
ARC
  5
188B
330
1E
100
AcDbEntity
  8
SCHRAFF
100
AcDbCircle
 10
235.8414881120654
 20
347.3769209785569
 30
0.0
 40
5.0
100
AcDbArc
 50
300.6301023541563
 51
14.36989764584362
  0
ARC
  5
188C
330
1E
100
AcDbEntity
  8
SCHRAFF
100
AcDbCircle
 10
240.4608857746218
 20
345.4635038167314
 30
0.0
 40
5.0
100
AcDbArc
 50
300.6301023541563
 51
14.36989764584362
  0
ARC
  5
188D
330
1E
100
AcDbEntity
  8
SCHRAFF
100
AcDbCircle
 10
245.0802834371782
 20
343.5500866549059
 30
0.0
 40
5.0
100
AcDbArc
 50
300.6301023541563
 51
14.36989764584362
  0
ARC
  5
188E
330
1E
100
AcDbEntity
  8
SCHRAFF
100
AcDbCircle
 10
249.6996810997347
 20
341.6366694930805
 30
0.0
 40
5.0
100
AcDbArc
 50
300.6301023541563
 51
14.36989764584362
  0
ARC
  5
1890
330
1E
100
AcDbEntity
  8
SCHRAFF
100
AcDbCircle
 10
156.7933312824084
 20
380.1197396179968
 30
0.0
 40
3.229619406517406
100
AcDbArc
 50
89.23569775849715
 51
225.764302241502
  0
HATCH
  5
1894
330
1E
100
AcDbEntity
  8
SCHRAFF
100
AcDbHatch
 10
0.0
 20
0.0
 30
0.0
210
0.0
220
0.0
230
1.0
  2
_USER
 70
     0
 71
     0
 91
        1
 92
        7
 72
     1
 73
     1
 93
        3
 10
156.836411805383
 20
383.3490716819837
 42
0.6778695804834482
 10
154.5403112111924
 20
377.8057944869161
 42
0.0
 10
154.5403112111924
 20
381.052971087793
 42
0.0
 97
        0
 75
     0
 76
     0
 52
0.0
 41
0.1
 77
     0
 78
     1
 53
0.0
 43
-444.5926708407482
 44
-3.592457604166838
 45
0.0
 46
0.1
 79
     0
 47
0.050226504793597
 98
        1
 10
154.779048720206
 20
382.2772318016605
  0
ARC
  5
1895
330
1E
100
AcDbEntity
  8
SCHRAFF
100
AcDbCircle
 10
254.6618520310862
 20
339.5812709945011
 30
0.0
 40
4.133056549499274
100
AcDbArc
 50
290.959974903095
 51
24.04002509690354
  0
HATCH
  5
1899
330
1E
100
AcDbEntity
  8
SCHRAFF
100
AcDbHatch
 10
0.0
 20
0.0
 30
0.0
210
0.0
220
0.0
230
1.0
  2
_USER
 70
     0
 71
     0
 91
        1
 92
        7
 72
     1
 73
     1
 93
        3
 10
258.4364118053826
 20
341.2649737448769
 42
0.0
 10
256.1403112111918
 20
338.9688731506861
 42
0.0
 10
256.1403112111918
 20
335.7216965498091
 42
0.4300477257942792
 97
        0
 75
     0
 76
     0
 52
0.0
 41
0.1
 77
     0
 78
     1
 53
0.0
 43
-444.5926708407482
 44
-3.592457604166838
 45
0.0
 46
0.1
 79
     0
 47
0.0596357513308651
 98
        1
 10
258.1966649584706
 20
338.7120797232012
  0
LINE
  5
1907
330
1E
100
AcDbEntity
  8
STEMPEL
100
AcDbLine
 10
342.3095033021724
 20
415.0971489488181
 30
0.0
 11
329.1759218003926
 21
401.963567447038
 31
0.0
  0
ARC
  5
1908
330
1E
100
AcDbEntity
  8
STEMPEL
100
AcDbCircle
 10
323.5663019086349
 20
383.9088682063972
 30
0.0
 40
12.8
100
AcDbArc
 50
108.1119523822754
 51
135.0
  0
ARC
  5
1909
330
1E
100
AcDbEntity
  8
STEMPEL
100
AcDbCircle
 10
298.8600431966702
 20
370.3748966371801
 30
0.0
 40
8.0
100
AcDbArc
 50
104.1404189093777
 51
135.0
  0
ARC
  5
190A
330
1E
100
AcDbEntity
  8
STEMPEL
100
AcDbCircle
 10
293.355241121082
 20
391.8815736029178
 30
0.0
 40
14.2
100
AcDbArc
 50
284.3570682370605
 51
315.0
  0
LINE
  5
190B
330
1E
100
AcDbEntity
  8
STEMPEL
100
AcDbLine
 10
293.1321832438788
 20
375.9607451833734
 30
0.0
 11
256.1403112111916
 21
338.9688731506864
 31
0.0
  0
LINE
  5
190C
330
1E
100
AcDbEntity
  8
STEMPEL
100
AcDbLine
 10
314.5153351094472
 20
392.959835005585
 30
0.0
 11
303.3961574139311
 21
381.8406573100689
 31
0.0
  0
ARC
  5
190D
330
1E
100
AcDbEntity
  8
STEMPEL
100
AcDbCircle
 10
312.063937695678
 20
419.0755515517524
 30
0.0
 40
24.2
100
AcDbArc
 50
288.1119523822754
 51
315.0
  0
ARC
  5
190E
330
1E
100
AcDbEntity
  8
STEMPEL
100
AcDbCircle
 10
325.1975191974579
 20
432.2091330535323
 30
0.0
 40
24.2
100
AcDbArc
 50
315.0
 51
345.2636519420999
  0
ARC
  5
1910
330
1E
100
AcDbEntity
  8
STEMPEL
100
AcDbCircle
 10
229.2382572983494
 20
478.2369128166826
 30
0.0
 40
12.8
100
AcDbArc
 50
315.0
 51
341.8880476177246
  0
ARC
  5
1911
330
1E
100
AcDbEntity
  8
STEMPEL
100
AcDbCircle
 10
264.4049406437047
 20
466.7345486037257
 30
0.0
 40
24.2
100
AcDbArc
 50
135.0
 51
161.8880476177246
  0
LINE
  5
1912
330
1E
100
AcDbEntity
  8
STEMPEL
100
AcDbLine
 10
260.4265380407702
 20
496.9801142102201
 30
0.0
 11
247.2929565389904
 21
483.8465327084401
 31
0.0
  0
ARC
  5
1913
330
1E
100
AcDbEntity
  8
STEMPEL
100
AcDbCircle
 10
215.7042857291323
 20
453.5306541047179
 30
0.0
 40
8.0
100
AcDbArc
 50
315.0
 51
345.8595810906223
  0
ARC
  5
1914
330
1E
100
AcDbEntity
  8
STEMPEL
100
AcDbCircle
 10
237.2109626948701
 20
448.0258520291297
 30
0.0
 40
14.2
100
AcDbArc
 50
135.0
 51
165.6429317629395
  0
LINE
  5
1915
330
1E
100
AcDbEntity
  8
STEMPEL
100
AcDbLine
 10
221.2901342753257
 20
447.8027941519265
 30
0.0
 11
154.5403112111918
 21
381.0529710877934
 31
0.0
  0
LINE
  5
1916
330
1E
100
AcDbEntity
  8
STEMPEL
100
AcDbLine
 10
238.2892240975372
 20
469.1859460174947
 30
0.0
 11
227.1700464020211
 21
458.0667683219786
 31
0.0
  0
ARC
  5
1917
330
1E
100
AcDbEntity
  8
STEMPEL
100
AcDbCircle
 10
277.5385221454846
 20
479.8681301055056
 30
0.0
 40
24.2
100
AcDbArc
 50
104.7363480579001
 51
135.0
  0
LINE
  5
1919
330
1E
100
AcDbEntity
  8
STEMPEL
100
AcDbLine
 10
348.6014983320428
 20
426.0533422296076
 30
0.0
 11
271.3418116667877
 21
503.3130288948631
 31
0.0
  0
LINE
  5
191A
330
1E
100
AcDbEntity
  8
HILF
100
AcDbLine
 10
294.0362022399892
 20
378.2088329673176
 30
0.0
 11
223.5382220592698
 21
448.7068131480369
 31
0.0
  0
LINE
  5
191B
330
1E
100
AcDbEntity
  8
HILF
100
AcDbLine
 10
299.5032653911068
 20
380.427238285005
 30
0.0
 11
225.7566273769573
 21
454.1738762991546
 31
0.0
  0
LINE
  5
191C
330
1E
100
AcDbEntity
  8
HILF
100
AcDbLine
 10
315.9973524163139
 20
395.6864317737354
 30
0.0
 11
241.0158208656877
 21
470.6679633243616
 31
0.0
  0
TEXT
  5
1957
330
1E
100
AcDbEntity
  8
TEXT
100
AcDbText
 10
171.0085209177598
 20
63.10765040825732
 30
0.0
 40
4.0
  1
11.04.
 41
0.8
  7
GREEKS
 72
     1
 11
177.4085209177598
 21
63.10765040825732
 31
0.0
100
AcDbText
  0
ENDSEC
  0
SECTION
  2
OBJECTS
  0
DICTIONARY
  5
C
330
0
100
AcDbDictionary
281
     1
  3
ACAD_COLOR
350
FE6
  3
ACAD_GROUP
350
D
  3
ACAD_LAYOUT
350
19
  3
ACAD_MATERIAL
350
FE5
  3
ACAD_MLINESTYLE
350
16
  3
ACAD_PLOTSETTINGS
350
18
  3
ACAD_PLOTSTYLENAME
350
E
  3
AcDbVariableDictionary
350
246
  0
DICTIONARY
  5
FE6
102
{ACAD_REACTORS
330
C
102
}
330
C
100
AcDbDictionary
281
     1
  0
DICTIONARY
  5
D
102
{ACAD_REACTORS
330
C
102
}
330
C
100
AcDbDictionary
281
     1
  0
DICTIONARY
  5
19
102
{ACAD_REACTORS
330
C
102
}
330
C
100
AcDbDictionary
281
     1
  3
Layout1
350
1D
  3
Model
350
21
  0
DICTIONARY
  5
FE5
102
{ACAD_REACTORS
330
C
102
}
330
C
100
AcDbDictionary
281
     1
  0
DICTIONARY
  5
16
102
{ACAD_REACTORS
330
C
102
}
330
C
100
AcDbDictionary
281
     1
  3
Standard
350
17
  0
DICTIONARY
  5
18
102
{ACAD_REACTORS
330
C
102
}
330
C
100
AcDbDictionary
281
     1
  0
ACDBDICTIONARYWDFLT
  5
E
102
{ACAD_REACTORS
330
C
102
}
330
C
100
AcDbDictionary
281
     1
  3
Normal
350
F
100
AcDbDictionaryWithDefault
340
F
  0
DICTIONARY
  5
246
102
{ACAD_REACTORS
330
C
102
}
330
C
100
AcDbDictionary
281
     1
  3
DIMASSOC
350
1595
  3
PROJECTNAME
350
1596
  3
SORTENTS
350
247
  0
LAYOUT
  5
1D
102
{ACAD_REACTORS
330
19
102
}
330
19
100
AcDbPlotSettings
  1

  2
Tektronix Phaser 740
  4

  6

 40
0.0
 41
0.0
 42
0.0
 43
0.0
 44
0.0
 45
0.0
 46
0.0
 47
0.0
 48
0.0
 49
0.0
140
0.0
141
0.0
142
1.0
143
1.0
 70
   688
 72
     0
 73
     0
 74
     5
  7
monochrome.ctb
 75
    16
147
1.0
 76
     0
 77
     2
 78
   300
148
0.0
149
0.0
100
AcDbLayout
  1
Layout1
 70
     0
 71
     1
 10
0.0
 20
0.0
 11
12.0
 21
9.0
 12
0.0
 22
0.0
 32
0.0
 14
1.000000000000000E+20
 24
1.000000000000000E+20
 34
1.000000000000000E+20
 15
-1.000000000000000E+20
 25
-1.000000000000000E+20
 35
-1.000000000000000E+20
146
0.0
 13
0.0
 23
0.0
 33
0.0
 16
1.0
 26
0.0
 36
0.0
 17
0.0
 27
1.0
 37
0.0
 76
     0
330
1A
  0
LAYOUT
  5
21
102
{ACAD_REACTORS
330
19
102
}
330
19
100
AcDbPlotSettings
  1

  2
Tektronix Phaser 740
  4
A4
  6

 40
5.873749732971191
 41
6.085414409637451
 42
5.577407836914062
 43
5.662078857421875
 44
209.9733276367187
 45
296.9683227539062
 46
0.0
 47
0.0
 48
0.0
 49
0.0
140
0.0
141
0.0
142
1.0
143
1.0
 70
 11952
 72
     0
 73
     1
 74
     0
  7
monochrome.ctb
 75
     0
147
1.0
 76
     0
 77
     2
 78
   300
148
1150.120678237584
149
45.30495740799864
100
AcDbLayout
  1
Model
 70
     1
 71
     0
 10
0.0
 20
0.0
 11
12.0
 21
9.0
 12
0.0
 22
0.0
 32
0.0
 14
0.0
 24
0.0
 34
0.0
 15
0.0
 25
0.0
 35
0.0
146
0.0
 13
0.0
 23
0.0
 33
0.0
 16
1.0
 26
0.0
 36
0.0
 17
0.0
 27
1.0
 37
0.0
 76
     0
330
1E
  0
MLINESTYLE
  5
17
102
{ACAD_REACTORS
330
16
102
}
330
16
100
AcDbMlineStyle
  2
STANDARD
 70
     0
  3

 62
   256
 51
90.0
 52
90.0
 71
     2
 49
0.5
 62
   256
  6
BYLAYER
 49
-0.5
 62
   256
  6
BYLAYER
  0
ACDBPLACEHOLDER
  5
F
102
{ACAD_REACTORS
330
E
102
}
330
E
  0
DICTIONARYVAR
  5
1595
102
{ACAD_REACTORS
330
246
102
}
330
246
100
DictionaryVariables
280
     0
  1
1
  0
DICTIONARYVAR
  5
1596
102
{ACAD_REACTORS
330
246
102
}
330
246
100
DictionaryVariables
280
     0
  1

  0
DICTIONARYVAR
  5
247
102
{ACAD_REACTORS
330
246
102
}
330
246
100
DictionaryVariables
280
     0
  1
96
  0
ENDSEC
  0
EOF
