  0
SECTION
  2
HEADER
  9
$ACADVER
  1
AC1018
  9
$ACADMAINTVER
 70
     2
  9
$DWGCODEPAGE
  3
ANSI_1252
  9
$INSBASE
 10
0.0
 20
0.0
 30
0.0
  9
$EXTMIN
 10
-0.0298507829536448
 20
-0.0271749795965661
 30
-0.0000000000000022
  9
$EXTMAX
 10
420.0161727695562
 20
594.027199183924
 30
0.0000000000000131
  9
$LIMMIN
 10
0.0
 20
0.0
  9
$LIMMAX
 10
419.9999999999999
 20
594.0000000000002
  9
$ORTHOMODE
 70
     0
  9
$REGENMODE
 70
     1
  9
$FILLMODE
 70
     1
  9
$QTEXTMODE
 70
     0
  9
$MIRRTEXT
 70
     1
  9
$LTSCALE
 40
20.0
  9
$ATTMODE
 70
     1
  9
$TEXTSIZE
 40
3.5
  9
$TRACEWID
 40
0.5
  9
$TEXTSTYLE
  7
STANDARD
  9
$CLAYER
  8
SCHRAFF
  9
$CELTYPE
  6
ByLayer
  9
$CECOLOR
 62
   256
  9
$CELTSCALE
 40
1.0
  9
$DISPSILH
 70
     0
  9
$DIMSCALE
 40
2.0
  9
$DIMASZ
 40
3.5
  9
$DIMEXO
 40
1.0
  9
$DIMDLI
 40
7.0
  9
$DIMRND
 40
0.0
  9
$DIMDLE
 40
0.0
  9
$DIMEXE
 40
1.0
  9
$DIMTP
 40
0.0
  9
$DIMTM
 40
0.0
  9
$DIMTXT
 40
3.5
  9
$DIMCEN
 40
1.5
  9
$DIMTSZ
 40
0.0
  9
$DIMTOL
 70
     0
  9
$DIMLIM
 70
     0
  9
$DIMTIH
 70
     0
  9
$DIMTOH
 70
     0
  9
$DIMSE1
 70
     0
  9
$DIMSE2
 70
     0
  9
$DIMTAD
 70
     1
  9
$DIMZIN
 70
     8
  9
$DIMBLK
  1

  9
$DIMASO
 70
     1
  9
$DIMSHO
 70
     0
  9
$DIMPOST
  1

  9
$DIMAPOST
  1

  9
$DIMALT
 70
     0
  9
$DIMALTD
 70
     2
  9
$DIMALTF
 40
25.4
  9
$DIMLFAC
 40
1.0
  9
$DIMTOFL
 70
     1
  9
$DIMTVP
 40
0.0
  9
$DIMTIX
 70
     0
  9
$DIMSOXD
 70
     0
  9
$DIMSAH
 70
     0
  9
$DIMBLK1
  1

  9
$DIMBLK2
  1

  9
$DIMSTYLE
  2
Standard
  9
$DIMCLRD
 70
     0
  9
$DIMCLRE
 70
     0
  9
$DIMCLRT
 70
     1
  9
$DIMTFAC
 40
0.5142857142857144
  9
$DIMGAP
 40
1.5
  9
$DIMJUST
 70
     0
  9
$DIMSD1
 70
     0
  9
$DIMSD2
 70
     0
  9
$DIMTOLJ
 70
     1
  9
$DIMTZIN
 70
     8
  9
$DIMALTZ
 70
     8
  9
$DIMALTTZ
 70
     8
  9
$DIMUPT
 70
     0
  9
$DIMDEC
 70
     2
  9
$DIMTDEC
 70
     2
  9
$DIMALTU
 70
     2
  9
$DIMALTTD
 70
     2
  9
$DIMTXSTY
  7
STANDARD
  9
$DIMAUNIT
 70
     0
  9
$DIMADEC
 70
     2
  9
$DIMALTRND
 40
0.0
  9
$DIMAZIN
 70
     2
  9
$DIMDSEP
 70
    46
  9
$DIMATFIT
 70
     3
  9
$DIMFRAC
 70
     0
  9
$DIMLDRBLK
  1

  9
$DIMLUNIT
 70
     2
  9
$DIMLWD
 70
    -2
  9
$DIMLWE
 70
    -2
  9
$DIMTMOVE
 70
     0
  9
$LUNITS
 70
     2
  9
$LUPREC
 70
     2
  9
$SKETCHINC
 40
1.0
  9
$FILLETRAD
 40
159.5
  9
$AUNITS
 70
     1
  9
$AUPREC
 70
     3
  9
$MENU
  1
ACAD
  9
$ELEVATION
 40
0.0
  9
$PELEVATION
 40
0.0
  9
$THICKNESS
 40
0.0
  9
$LIMCHECK
 70
     0
  9
$CHAMFERA
 40
0.0
  9
$CHAMFERB
 40
0.0
  9
$CHAMFERC
 40
0.0
  9
$CHAMFERD
 40
0.0
  9
$SKPOLY
 70
     0
  9
$TDCREATE
 40
2452040.637099653
  9
$TDUCREATE
 40
2452040.553766320
  9
$TDUPDATE
 40
2455660.599862720
  9
$TDUUPDATE
 40
2455660.516529387
  9
$TDINDWG
 40
0.1984473727
  9
$TDUSRTIMER
 40
0.1984473727
  9
$USRTIMER
 70
     1
  9
$ANGBASE
 50
0.0
  9
$ANGDIR
 70
     0
  9
$PDMODE
 70
     0
  9
$PDSIZE
 40
0.0
  9
$PLINEWID
 40
0.0
  9
$SPLFRAME
 70
     0
  9
$SPLINETYPE
 70
     6
  9
$SPLINESEGS
 70
     8
  9
$HANDSEED
  5
122C
  9
$SURFTAB1
 70
     6
  9
$SURFTAB2
 70
     6
  9
$SURFTYPE
 70
     6
  9
$SURFU
 70
     6
  9
$SURFV
 70
     6
  9
$UCSBASE
  2

  9
$UCSNAME
  2

  9
$UCSORG
 10
0.0
 20
0.0
 30
0.0
  9
$UCSXDIR
 10
1.0
 20
0.0
 30
0.0
  9
$UCSYDIR
 10
0.0
 20
1.0
 30
0.0
  9
$UCSORTHOREF
  2

  9
$UCSORTHOVIEW
 70
     0
  9
$UCSORGTOP
 10
0.0
 20
0.0
 30
0.0
  9
$UCSORGBOTTOM
 10
0.0
 20
0.0
 30
0.0
  9
$UCSORGLEFT
 10
0.0
 20
0.0
 30
0.0
  9
$UCSORGRIGHT
 10
0.0
 20
0.0
 30
0.0
  9
$UCSORGFRONT
 10
0.0
 20
0.0
 30
0.0
  9
$UCSORGBACK
 10
0.0
 20
0.0
 30
0.0
  9
$PUCSBASE
  2

  9
$PUCSNAME
  2

  9
$PUCSORG
 10
0.0
 20
0.0
 30
0.0
  9
$PUCSXDIR
 10
1.0
 20
0.0
 30
0.0
  9
$PUCSYDIR
 10
0.0
 20
1.0
 30
0.0
  9
$PUCSORTHOREF
  2

  9
$PUCSORTHOVIEW
 70
     0
  9
$PUCSORGTOP
 10
0.0
 20
0.0
 30
0.0
  9
$PUCSORGBOTTOM
 10
0.0
 20
0.0
 30
0.0
  9
$PUCSORGLEFT
 10
0.0
 20
0.0
 30
0.0
  9
$PUCSORGRIGHT
 10
0.0
 20
0.0
 30
0.0
  9
$PUCSORGFRONT
 10
0.0
 20
0.0
 30
0.0
  9
$PUCSORGBACK
 10
0.0
 20
0.0
 30
0.0
  9
$USERI1
 70
     0
  9
$USERI2
 70
     0
  9
$USERI3
 70
     0
  9
$USERI4
 70
     0
  9
$USERI5
 70
     0
  9
$USERR1
 40
0.0
  9
$USERR2
 40
0.0
  9
$USERR3
 40
0.0
  9
$USERR4
 40
0.0
  9
$USERR5
 40
0.0
  9
$WORLDVIEW
 70
     1
  9
$SHADEDGE
 70
     3
  9
$SHADEDIF
 70
    70
  9
$TILEMODE
 70
     1
  9
$MAXACTVP
 70
    16
  9
$PINSBASE
 10
0.0
 20
0.0
 30
0.0
  9
$PLIMCHECK
 70
     0
  9
$PEXTMIN
 10
1.000000000000000E+20
 20
1.000000000000000E+20
 30
1.000000000000000E+20
  9
$PEXTMAX
 10
-1.000000000000000E+20
 20
-1.000000000000000E+20
 30
-1.000000000000000E+20
  9
$PLIMMIN
 10
0.0
 20
0.0
  9
$PLIMMAX
 10
12.0
 20
9.0
  9
$UNITMODE
 70
     0
  9
$VISRETAIN
 70
     0
  9
$PLINEGEN
 70
     0
  9
$PSLTSCALE
 70
     0
  9
$TREEDEPTH
 70
  3020
  9
$CMLSTYLE
  2
Standard
  9
$CMLJUST
 70
     0
  9
$CMLSCALE
 40
1.0
  9
$PROXYGRAPHICS
 70
     1
  9
$MEASUREMENT
 70
     0
  9
$CELWEIGHT
370
    -1
  9
$ENDCAPS
280
     0
  9
$JOINSTYLE
280
     0
  9
$LWDISPLAY
290
     0
  9
$INSUNITS
 70
     0
  9
$HYPERLINKBASE
  1

  9
$STYLESHEET
  1
monochrome 1.ctb
  9
$XEDIT
290
     1
  9
$CEPSNTYPE
380
     0
  9
$PSTYLEMODE
290
     1
  9
$FINGERPRINTGUID
  2
{7AADB5C8-6110-11D8-B72B-000102183313}
  9
$VERSIONGUID
  2
{8FF695AD-DCE8-4501-B62A-5F49483C8D06}
  9
$EXTNAMES
290
     1
  9
$PSVPSCALE
 40
0.0
  9
$OLESTARTUP
290
     0
  9
$SORTENTS
280
    96
  9
$INDEXCTL
280
     0
  9
$HIDETEXT
280
     0
  9
$XCLIPFRAME
290
     0
  9
$HALOGAP
280
     0
  9
$OBSCOLOR
 70
   257
  9
$OBSLTYPE
280
     0
  9
$INTERSECTIONDISPLAY
280
     0
  9
$INTERSECTIONCOLOR
 70
   257
  9
$DIMASSOC
280
     1
  9
$PROJECTNAME
  1

  0
ENDSEC
  0
SECTION
  2
CLASSES
  0
CLASS
  1
ACDBDICTIONARYWDFLT
  2
AcDbDictionaryWithDefault
  3
ObjectDBX Classes
 90
        0
 91
        1
280
     0
281
     0
  0
CLASS
  1
DICTIONARYVAR
  2
AcDbDictionaryVar
  3
ObjectDBX Classes
 90
        0
 91
        3
280
     0
281
     0
  0
ENDSEC
  0
SECTION
  2
TABLES
  0
TABLE
  2
VPORT
  5
8
330
0
100
AcDbSymbolTable
 70
     3
  0
VPORT
  5
122B
330
8
100
AcDbSymbolTableRecord
100
AcDbViewportTableRecord
  2
*Active
 70
     0
 10
0.0
 20
0.0
 11
1.0
 21
1.0
 12
210.0
 22
297.0
 13
0.0
 23
0.0
 14
1.0
 24
1.0
 15
10.0
 25
10.0
 16
0.0
 26
0.0
 36
1.0
 17
0.0
 27
0.0
 37
0.0
 40
594.0
 41
1.334231805929919
 42
50.0
 43
0.0
 44
0.0
 50
0.0
 51
0.0
 71
     0
 72
  1500
 73
     1
 74
     0
 75
     0
 76
     0
 77
     0
 78
     0
281
     0
 65
     1
110
0.0
120
0.0
130
0.0
111
1.0
121
0.0
131
0.0
112
0.0
122
1.0
132
0.0
 79
     0
146
0.0
  0
ENDTAB
  0
TABLE
  2
LTYPE
  5
5
330
0
100
AcDbSymbolTable
 70
     2
  0
LTYPE
  5
13
330
5
100
AcDbSymbolTableRecord
100
AcDbLinetypeTableRecord
  2
ByBlock
 70
     0
  3

 72
    65
 73
     0
 40
0.0
  0
LTYPE
  5
14
330
5
100
AcDbSymbolTableRecord
100
AcDbLinetypeTableRecord
  2
ByLayer
 70
     0
  3

 72
    65
 73
     0
 40
0.0
  0
LTYPE
  5
15
330
5
100
AcDbSymbolTableRecord
100
AcDbLinetypeTableRecord
  2
Continuous
 70
     0
  3
Solid line
 72
    65
 73
     0
 40
0.0
  0
LTYPE
  5
35
330
5
100
AcDbSymbolTableRecord
100
AcDbLinetypeTableRecord
  2
STRICHPUNKT
 70
     0
  3
__ . __ . __ . __ . __ . __ . __ . __ . __ . __
 72
    65
 73
     4
 40
1.0
 49
0.5
 74
     0
 49
-0.25
 74
     0
 49
0.0
 74
     0
 49
-0.25
 74
     0
  0
ENDTAB
  0
TABLE
  2
LAYER
  5
2
330
0
100
AcDbSymbolTable
 70
     9
  0
LAYER
  5
10
330
2
100
AcDbSymbolTableRecord
100
AcDbLayerTableRecord
  2
0
 70
     0
 62
     7
  6
Continuous
370
    -3
390
F
  0
LAYER
  5
38
330
2
100
AcDbSymbolTableRecord
100
AcDbLayerTableRecord
  2
VOLL
 70
     0
 62
     1
  6
Continuous
370
    -3
390
F
  0
LAYER
  5
39
330
2
100
AcDbSymbolTableRecord
100
AcDbLayerTableRecord
  2
HILF
 70
     0
 62
     2
  6
Continuous
370
    -3
390
F
  0
LAYER
  5
3A
330
2
100
AcDbSymbolTableRecord
100
AcDbLayerTableRecord
  2
MITTEL
 70
     0
 62
     2
  6
STRICHPUNKT
370
    -3
390
F
  0
LAYER
  5
3B
330
2
100
AcDbSymbolTableRecord
100
AcDbLayerTableRecord
  2
BEM
 70
     0
 62
     7
  6
Continuous
370
    -3
390
F
  0
LAYER
  5
3C
330
2
100
AcDbSymbolTableRecord
100
AcDbLayerTableRecord
  2
STEMPEL
 70
     0
 62
     3
  6
Continuous
370
    -3
390
F
  0
LAYER
  5
3D
330
2
100
AcDbSymbolTableRecord
100
AcDbLayerTableRecord
  2
TEXT
 70
     0
 62
     7
  6
Continuous
370
    -3
390
F
  0
LAYER
  5
3E
330
2
100
AcDbSymbolTableRecord
100
AcDbLayerTableRecord
  2
DEFPOINTS
 70
     0
 62
     7
  6
Continuous
290
     0
370
    -3
390
F
  0
LAYER
  5
3F
330
2
100
AcDbSymbolTableRecord
100
AcDbLayerTableRecord
  2
SCHRAFF
 70
     0
 62
     7
  6
Continuous
370
    -3
390
F
  0
ENDTAB
  0
TABLE
  2
STYLE
  5
3
330
0
100
AcDbSymbolTable
 70
     2
  0
STYLE
  5
11
330
3
100
AcDbSymbolTableRecord
100
AcDbTextStyleTableRecord
  2
STANDARD
 70
     0
 40
0.0
 41
0.8
 50
0.0
 71
     0
 42
3.5
  3
simplex.shx
  4

  0
STYLE
  5
34
330
3
100
AcDbSymbolTableRecord
100
AcDbTextStyleTableRecord
  2
GREEKS
 70
     0
 40
0.0
 41
0.8
 50
0.0
 71
     0
 42
2.5
  3
SIMPLEX.shx
  4

  0
ENDTAB
  0
TABLE
  2
VIEW
  5
6
330
0
100
AcDbSymbolTable
 70
     0
  0
ENDTAB
  0
TABLE
  2
UCS
  5
7
330
0
100
AcDbSymbolTable
 70
     0
  0
ENDTAB
  0
TABLE
  2
APPID
  5
9
330
0
100
AcDbSymbolTable
 70
     1
  0
APPID
  5
12
330
9
100
AcDbSymbolTableRecord
100
AcDbRegAppTableRecord
  2
ACAD
 70
     0
  0
ENDTAB
  0
TABLE
  2
DIMSTYLE
  5
A
330
0
100
AcDbSymbolTable
 70
     1
100
AcDbDimStyleTable
 71
     1
340
1CB
  0
DIMSTYLE
105
1CB
102
{ACAD_REACTORS
330
DC0
330
1072
330
107F
330
11DA
102
}
330
A
100
AcDbSymbolTableRecord
100
AcDbDimStyleTableRecord
  2
Standard
 70
     0
340
11
  0
ENDTAB
  0
TABLE
  2
BLOCK_RECORD
  5
1
330
0
100
AcDbSymbolTable
 70
     9
  0
BLOCK_RECORD
  5
1E
330
1
100
AcDbSymbolTableRecord
100
AcDbBlockTableRecord
  2
*Model_Space
340
21
  0
BLOCK_RECORD
  5
1A
330
1
100
AcDbSymbolTableRecord
100
AcDbBlockTableRecord
  2
*Paper_Space
340
1D
  0
BLOCK_RECORD
  5
22
330
1
100
AcDbSymbolTableRecord
100
AcDbBlockTableRecord
  2
LOGO
340
0
102
{BLKREFS
331
135
102
}
  0
BLOCK_RECORD
  5
DCA
330
1
100
AcDbSymbolTableRecord
100
AcDbBlockTableRecord
  2
*D1
340
0
  0
BLOCK_RECORD
  5
1073
330
1
100
AcDbSymbolTableRecord
100
AcDbBlockTableRecord
  2
*D5
340
0
  0
BLOCK_RECORD
  5
1080
330
1
100
AcDbSymbolTableRecord
100
AcDbBlockTableRecord
  2
*D6
340
0
  0
BLOCK_RECORD
  5
11DB
330
1
100
AcDbSymbolTableRecord
100
AcDbBlockTableRecord
  2
*D8
340
0
  0
ENDTAB
  0
ENDSEC
  0
SECTION
  2
BLOCKS
  0
BLOCK
  5
43
330
1E
100
AcDbEntity
  8
0
100
AcDbBlockBegin
  2
*Model_Space
 70
     0
 10
0.0
 20
0.0
 30
0.0
  3
*Model_Space
  1

  0
ENDBLK
  5
44
330
1E
100
AcDbEntity
  8
0
100
AcDbBlockEnd
  0
BLOCK
  5
41
330
1A
100
AcDbEntity
 67
     1
  8
0
100
AcDbBlockBegin
  2
*Paper_Space
 70
     0
 10
0.0
 20
0.0
 30
0.0
  3
*Paper_Space
  1

  0
ENDBLK
  5
42
330
1A
100
AcDbEntity
 67
     1
  8
0
100
AcDbBlockEnd
  0
BLOCK
  5
45
330
22
100
AcDbEntity
  8
0
100
AcDbBlockBegin
  2
LOGO
 70
     0
 10
0.0
 20
0.0
 30
0.0
  3
LOGO
  1

  0
ARC
  5
46
330
22
100
AcDbEntity
  8
0
100
AcDbCircle
 10
11.59973089678112
 20
-9.271599258481501
 30
0.0
 40
4.5
100
AcDbArc
 50
270.0
 51
231.0575587310159
  0
LINE
  5
47
330
22
100
AcDbEntity
  8
0
100
AcDbLine
 10
3.599730896781125
 20
-4.771599258481529
 30
0.0
 11
3.599730896781153
 21
-11.77159925848133
 31
0.0
  0
LINE
  5
48
330
22
100
AcDbEntity
  8
0
100
AcDbLine
 10
2.599730896781125
 20
-4.771599258481529
 30
0.0
 11
2.599730896781153
 21
-11.77159925848133
 31
0.0
  0
CIRCLE
  5
49
330
22
100
AcDbEntity
  8
0
100
AcDbCircle
 10
11.59973089678112
 20
-9.271599258481501
 30
0.0
 40
3.5
  0
ARC
  5
4A
330
22
100
AcDbEntity
  8
0
100
AcDbCircle
 10
31.59973089678115
 20
-9.271599258481472
 30
0.0
 40
4.5
100
AcDbArc
 50
270.0
 51
231.0575587310182
  0
LINE
  5
4B
330
22
100
AcDbEntity
  8
0
100
AcDbLine
 10
17.59973089678112
 20
-4.771599258481472
 30
0.0
 11
17.59973089678115
 21
-13.77159925848147
 31
0.0
  0
ARC
  5
4C
330
22
100
AcDbEntity
  8
0
100
AcDbCircle
 10
22.59973089678116
 20
-7.271599258481472
 30
0.0
 40
2.5
100
AcDbArc
 50
293.1161887722295
 51
90.0
  0
CIRCLE
  5
4D
330
22
100
AcDbEntity
  8
0
100
AcDbCircle
 10
31.59973089678115
 20
-9.271599258481472
 30
0.0
 40
3.5
  0
ARC
  5
4E
330
22
100
AcDbEntity
  8
0
100
AcDbCircle
 10
4.599730896781153
 20
-11.77159925848133
 30
0.0
 40
1.0
100
AcDbArc
 50
180.0
 51
270.0
  0
ARC
  5
4F
330
22
100
AcDbEntity
  8
0
100
AcDbCircle
 10
4.599730896781153
 20
-11.77159925848133
 30
0.0
 40
2.0
100
AcDbArc
 50
179.9999999999992
 51
270.0
  0
LINE
  5
50
330
22
100
AcDbEntity
  8
0
100
AcDbLine
 10
11.59973089678115
 20
-13.77159925848144
 30
0.0
 11
4.599730896781153
 21
-13.77159925848147
 31
0.0
  0
LINE
  5
51
330
22
100
AcDbEntity
  8
0
100
AcDbLine
 10
8.771303772034769
 20
-12.77159925848136
 30
0.0
 11
4.599730896781153
 21
-12.77159925848133
 31
0.0
  0
LINE
  5
52
330
22
100
AcDbEntity
  8
0
100
AcDbLine
 10
31.59973089678115
 20
-13.77159925848147
 30
0.0
 11
23.6715276665056
 21
-13.77159925848144
 31
0.0
  0
LINE
  5
53
330
22
100
AcDbEntity
  8
0
100
AcDbLine
 10
23.56565672307022
 20
-9.51278021337896
 30
0.0
 11
24.4388546544846
 21
-12.77159925848144
 31
0.0
  0
LINE
  5
54
330
22
100
AcDbEntity
  8
0
100
AcDbLine
 10
22.59973089678116
 20
-9.771599258481472
 30
0.0
 11
18.59973089678112
 21
-9.771599258481472
 31
0.0
  0
LINE
  5
55
330
22
100
AcDbEntity
  8
0
100
AcDbLine
 10
18.59973089678115
 20
-13.77159925848144
 30
0.0
 11
17.59973089678115
 21
-13.77159925848144
 31
0.0
  0
LINE
  5
56
330
22
100
AcDbEntity
  8
0
100
AcDbLine
 10
18.59973089678115
 20
-9.771599258481472
 30
0.0
 11
18.59973089678115
 21
-13.77159925848144
 31
0.0
  0
LINE
  5
57
330
22
100
AcDbEntity
  8
0
100
AcDbLine
 10
22.59973089678116
 20
-9.771599258481472
 30
0.0
 11
23.67152766650562
 21
-13.77159925848147
 31
0.0
  0
ARC
  5
58
330
22
100
AcDbEntity
  8
0
100
AcDbCircle
 10
22.59973089678116
 20
-7.271599258481472
 30
0.0
 40
2.5
100
AcDbArc
 50
270.0
 51
270.0000000000007
  0
LINE
  5
59
330
22
100
AcDbEntity
  8
0
100
AcDbLine
 10
28.77130377203494
 20
-12.77159925848147
 30
0.0
 11
24.43885465448463
 21
-12.77159925848144
 31
0.0
  0
LINE
  5
5A
330
22
100
AcDbEntity
  8
0
100
AcDbLine
 10
3.599730896781125
 20
-4.771599258481472
 30
0.0
 11
2.599730896781125
 21
-4.771599258481472
 31
0.0
  0
LINE
  5
5B
330
22
100
AcDbEntity
  8
0
100
AcDbLine
 10
22.59973089678116
 20
-8.771599258481472
 30
0.0
 11
18.59973089678115
 21
-8.771599258481472
 31
0.0
  0
LINE
  5
5C
330
22
100
AcDbEntity
  8
0
100
AcDbLine
 10
22.59973089678116
 20
-5.771599258481472
 30
0.0
 11
18.59973089678115
 21
-5.771599258481472
 31
0.0
  0
LINE
  5
5D
330
22
100
AcDbEntity
  8
0
100
AcDbLine
 10
22.59973089678116
 20
-4.771599258481472
 30
0.0
 11
17.59973089678115
 21
-4.771599258481472
 31
0.0
  0
LINE
  5
5E
330
22
100
AcDbEntity
  8
0
100
AcDbLine
 10
18.59973089678115
 20
-5.771599258481472
 30
0.0
 11
18.59973089678115
 21
-8.771599258481472
 31
0.0
  0
ARC
  5
5F
330
22
100
AcDbEntity
  8
0
100
AcDbCircle
 10
22.59973089678116
 20
-7.271599258481472
 30
0.0
 40
1.5
100
AcDbArc
 50
270.0
 51
90.0
  0
ENDBLK
  5
60
330
22
100
AcDbEntity
  8
0
100
AcDbBlockEnd
  0
BLOCK
  5
DD4
330
DCA
100
AcDbEntity
  8
0
100
AcDbBlockBegin
  2
*D1
 70
     1
 10
0.0
 20
0.0
 30
0.0
  3
*D1
  1

  0
LINE
  5
1155
330
DCA
100
AcDbEntity
  8
BEM
 62
     0
370
    -2
100
AcDbLine
 10
136.0260839430811
 20
229.5589544561088
 30
0.0
 11
136.0260839430811
 21
203.8680691715969
 31
0.0
  0
LINE
  5
1156
330
DCA
100
AcDbEntity
  8
BEM
 62
     0
370
    -2
100
AcDbLine
 10
224.9260839430813
 20
229.5589544561118
 30
0.0
 11
224.9260839430813
 21
203.8680691715969
 31
0.0
  0
LINE
  5
1157
330
DCA
100
AcDbEntity
  8
BEM
 62
     0
370
    -2
100
AcDbLine
 10
143.0260839430812
 20
205.8680691715969
 30
0.0
 11
217.9260839430813
 21
205.8680691715969
 31
0.0
  0
SOLID
  5
1158
330
DCA
100
AcDbEntity
  8
BEM
 62
     0
100
AcDbTrace
 10
143.0260839430812
 20
207.0347358382636
 30
0.0
 11
143.0260839430812
 21
204.7014025049302
 31
0.0
 12
136.0260839430811
 22
205.8680691715969
 32
0.0
 13
136.0260839430811
 23
205.8680691715969
 33
0.0
  0
SOLID
  5
1159
330
DCA
100
AcDbEntity
  8
BEM
 62
     0
100
AcDbTrace
 10
217.9260839430813
 20
207.0347358382636
 30
0.0
 11
217.9260839430813
 21
204.7014025049302
 31
0.0
 12
224.9260839430813
 22
205.8680691715969
 32
0.0
 13
224.9260839430813
 23
205.8680691715969
 33
0.0
  0
MTEXT
  5
115A
330
DCA
100
AcDbEntity
  8
BEM
 62
     1
100
AcDbMText
 10
180.4760839430812
 20
212.3680691715969
 30
0.0
 40
7.0
 41
0.0
 71
     5
 72
     1
  1
\A1;%%c88.9
 73
     1
 44
1.0
  0
POINT
  5
115B
330
DCA
100
AcDbEntity
  8
DEFPOINTS
 62
     0
100
AcDbPoint
 10
136.0260839430811
 20
231.5589544561088
 30
0.0
  0
POINT
  5
115C
330
DCA
100
AcDbEntity
  8
DEFPOINTS
 62
     0
100
AcDbPoint
 10
224.9260839430813
 20
231.5589544561118
 30
0.0
  0
POINT
  5
115D
330
DCA
100
AcDbEntity
  8
DEFPOINTS
 62
     0
100
AcDbPoint
 10
224.9260839430813
 20
205.8680691715969
 30
0.0
  0
ENDBLK
  5
DD5
330
DCA
100
AcDbEntity
  8
0
100
AcDbBlockEnd
  0
BLOCK
  5
107D
330
1073
100
AcDbEntity
  8
0
100
AcDbBlockBegin
  2
*D5
 70
     1
 10
0.0
 20
0.0
 30
0.0
  3
*D5
  1

  0
LINE
  5
1221
330
1073
100
AcDbEntity
  8
BEM
 62
     0
370
    -2
100
AcDbLine
 10
134.4635272607109
 20
226.5589544561087
 30
0.0
 11
114.0587622314128
 21
226.5589544561087
 31
0.0
  0
LINE
  5
1222
330
1073
100
AcDbEntity
  8
BEM
 62
     0
370
    -2
100
AcDbLine
 10
178.4760839430812
 20
381.5582616773194
 30
0.0
 11
114.0587622314129
 21
381.5582616773194
 31
0.0
  0
LINE
  5
1223
330
1073
100
AcDbEntity
  8
BEM
 62
     0
370
    -2
100
AcDbLine
 10
116.0587622314128
 20
233.5589544561087
 30
0.0
 11
116.0587622314129
 21
374.5582616773194
 31
0.0
  0
SOLID
  5
1224
330
1073
100
AcDbEntity
  8
BEM
 62
     0
100
AcDbTrace
 10
114.8920955647461
 20
233.5589544561087
 30
0.0
 11
117.2254288980795
 21
233.5589544561087
 31
0.0
 12
116.0587622314128
 22
226.5589544561087
 32
0.0
 13
116.0587622314128
 23
226.5589544561087
 33
0.0
  0
SOLID
  5
1225
330
1073
100
AcDbEntity
  8
BEM
 62
     0
100
AcDbTrace
 10
114.8920955647462
 20
374.5582616773194
 30
0.0
 11
117.2254288980795
 21
374.5582616773194
 31
0.0
 12
116.0587622314129
 22
381.5582616773194
 32
0.0
 13
116.0587622314129
 23
381.5582616773194
 33
0.0
  0
MTEXT
  5
1226
330
1073
100
AcDbEntity
  8
BEM
 62
     1
100
AcDbMText
 10
109.5587622314128
 20
304.0586080667141
 30
0.0
 40
7.0
 41
0.0
 71
     5
 72
     1
  1
\A1;155
 11
0.0000000000000001
 21
1.0
 31
0.0
 73
     1
 44
1.0
  0
POINT
  5
1227
330
1073
100
AcDbEntity
  8
DEFPOINTS
 62
     0
100
AcDbPoint
 10
136.4635272607109
 20
226.5589544561087
 30
0.0
  0
POINT
  5
1228
330
1073
100
AcDbEntity
  8
DEFPOINTS
 62
     0
100
AcDbPoint
 10
180.4760839430812
 20
381.5582616773194
 30
0.0
  0
POINT
  5
1229
330
1073
100
AcDbEntity
  8
DEFPOINTS
 62
     0
100
AcDbPoint
 10
116.0587622314129
 20
381.5582616773194
 30
0.0
  0
ENDBLK
  5
107E
330
1073
100
AcDbEntity
  8
0
100
AcDbBlockEnd
  0
BLOCK
  5
108A
330
1080
100
AcDbEntity
  8
0
100
AcDbBlockBegin
  2
*D6
 70
     1
 10
0.0
 20
0.0
 30
0.0
  3
*D6
  1

  0
LINE
  5
1218
330
1080
100
AcDbEntity
  8
BEM
 62
     0
370
    -2
100
AcDbLine
 10
309.2826425529537
 20
480.8528068946428
 30
0.0
 11
297.3697331295836
 21
513.5832565353605
 31
0.0
  0
LINE
  5
1219
330
1080
100
AcDbEntity
  8
BEM
 62
     0
370
    -2
100
AcDbLine
 10
179.7920436564298
 20
383.4376469188912
 30
0.0
 11
151.7180279068836
 21
460.5703712641823
 31
0.0
  0
LINE
  5
121A
330
1080
100
AcDbEntity
  8
BEM
 62
     0
370
    -2
100
AcDbLine
 10
291.4759250707335
 20
509.309730290509
 30
0.0
 11
158.9799165390363
 21
461.0851270258903
 31
0.0
  0
SOLID
  5
121B
330
1080
100
AcDbEntity
  8
BEM
 62
     0
100
AcDbTrace
 10
291.0769015701869
 20
510.4060383480925
 30
0.0
 11
291.8749485712801
 21
508.2134222329255
 31
0.0
 12
298.0537734162349
 22
511.7038712937888
 32
0.0
 13
298.0537734162349
 23
511.7038712937888
 33
0.0
  0
SOLID
  5
121C
330
1080
100
AcDbEntity
  8
BEM
 62
     0
100
AcDbTrace
 10
158.5808930384897
 20
462.1814350834738
 30
0.0
 11
159.3789400395829
 21
459.9888189683066
 31
0.0
 12
152.4020681935349
 22
458.6909860226105
 32
0.0
 13
152.4020681935349
 23
458.6909860226105
 33
0.0
  0
MTEXT
  5
121D
330
1080
100
AcDbEntity
  8
BEM
 62
     1
100
AcDbMText
 10
223.0047898732681
 20
491.305430693308
 30
0.0
 40
7.0
 41
0.0
 71
     5
 72
     1
  1
\A1;155
 11
0.9396926207859078
 21
0.3420201433256703
 31
0.0
 73
     1
 44
1.0
  0
POINT
  5
121E
330
1080
100
AcDbEntity
  8
DEFPOINTS
 62
     0
100
AcDbPoint
 10
309.9666828396051
 20
478.9734216530709
 30
0.0
  0
POINT
  5
121F
330
1080
100
AcDbEntity
  8
DEFPOINTS
 62
     0
100
AcDbPoint
 10
180.4760839430811
 20
381.5582616773194
 30
0.0
  0
POINT
  5
1220
330
1080
100
AcDbEntity
  8
DEFPOINTS
 62
     0
100
AcDbPoint
 10
152.4020681935349
 20
458.6909860226105
 30
0.0
  0
ENDBLK
  5
108B
330
1080
100
AcDbEntity
  8
0
100
AcDbBlockEnd
  0
BLOCK
  5
11E6
330
11DB
100
AcDbEntity
  8
0
100
AcDbBlockBegin
  2
*D8
 70
     1
 10
0.0
 20
0.0
 30
0.0
  3
*D8
  1

  0
LINE
  5
1204
330
11DB
100
AcDbEntity
  8
SCHRAFF
 62
     0
370
    -2
100
AcDbLine
 10
180.4760839430812
 20
383.5582616773194
 30
0.0
 11
180.4760839430811
 21
458.3055098309265
 31
0.0
  0
ARC
  5
1205
330
11DB
100
AcDbEntity
  8
SCHRAFF
 62
     0
370
    -2
100
AcDbCircle
 10
180.4760839430812
 20
381.5582616773194
 30
0.0
 40
74.7472481536071
100
AcDbArc
 50
25.36765126704484
 51
84.63234873295528
  0
SOLID
  5
1206
330
11DB
100
AcDbEntity
  8
SCHRAFF
 62
     0
100
AcDbTrace
 10
249.0924237609251
 20
414.031775015424
 30
0.0
 11
246.9395807786387
 21
413.1319352863251
 31
0.0
 12
250.7155214570789
 22
407.1233262040155
 32
0.0
 13
250.7155214570789
 23
407.1233262040155
 33
0.0
  0
SOLID
  5
1207
330
11DB
100
AcDbEntity
  8
SCHRAFF
 62
     0
100
AcDbTrace
 10
187.4137773309439
 20
454.8123515783903
 30
0.0
 11
187.523034418909
 21
457.1431255556722
 31
0.0
 12
180.4760839430811
 22
456.3055098309265
 32
0.0
 13
180.4760839430811
 23
456.3055098309265
 33
0.0
  0
MTEXT
  5
1208
330
11DB
100
AcDbEntity
  8
SCHRAFF
 62
     1
100
AcDbMText
 10
216.8071286518668
 20
454.2299241249477
 30
0.0
 40
7.0
 41
0.0
 71
     5
 72
     1
  1
\A1;70°
 11
0.8944507549379929
 21
-0.4471664645194835
 31
0.0
 73
     1
 44
1.0
  0
POINT
  5
1209
330
11DB
100
AcDbEntity
  8
DEFPOINTS
 62
     0
100
AcDbPoint
 10
234.8452620301347
 20
432.8529356764315
 30
0.0
  0
POINT
  5
120A
330
11DB
100
AcDbEntity
  8
DEFPOINTS
 62
     0
100
AcDbPoint
 10
180.4760839430812
 20
381.5582616773194
 30
0.0
  0
POINT
  5
120B
330
11DB
100
AcDbEntity
  8
DEFPOINTS
 62
     0
100
AcDbPoint
 10
330.8262522697102
 20
436.2812476651257
 30
0.0
  0
POINT
  5
120C
330
11DB
100
AcDbEntity
  8
DEFPOINTS
 62
     0
100
AcDbPoint
 10
180.4760839430812
 20
381.5582616773194
 30
0.0
  0
POINT
  5
120D
330
11DB
100
AcDbEntity
  8
DEFPOINTS
 62
     0
100
AcDbPoint
 10
180.4760839430812
 20
221.558954456109
 30
0.0
  0
ENDBLK
  5
11E7
330
11DB
100
AcDbEntity
  8
0
100
AcDbBlockEnd
  0
ENDSEC
  0
SECTION
  2
ENTITIES
  0
TEXT
  5
134
330
1E
100
AcDbEntity
  8
TEXT
100
AcDbText
 10
204.4216048581257
 20
63.0896391972351
 30
0.0
 40
4.0
  1
Koeh
 41
0.8
  7
GREEKS
 72
     1
 11
209.6787477152686
 21
63.0896391972351
 31
0.0
100
AcDbText
  0
INSERT
  5
135
330
1E
100
AcDbEntity
  8
STEMPEL
100
AcDbBlockReference
  2
LOGO
 10
150.9955485457794
 20
45.02105276448322
 30
0.0
 41
2.0
 42
2.0
 43
2.0
  0
LINE
  5
136
330
1E
100
AcDbEntity
  8
HILF
100
AcDbLine
 10
420.0
 20
0.0
 30
0.0
 11
0.0
 21
0.0
 31
0.0
  0
LINE
  5
137
330
1E
100
AcDbEntity
  8
HILF
100
AcDbLine
 10
419.9999999999999
 20
594.0000000000002
 30
0.0
 11
0.0
 21
594.0
 31
0.0
  0
LINE
  5
138
330
1E
100
AcDbEntity
  8
STEMPEL
100
AcDbLine
 10
410.0
 20
584.0
 30
0.0
 11
39.99999999999989
 21
584.0
 31
0.0
  0
LINE
  5
139
330
1E
100
AcDbEntity
  8
STEMPEL
100
AcDbLine
 10
410.0
 20
10.0
 30
0.0
 11
39.99999999999989
 21
10.0
 31
0.0
  0
LINE
  5
13A
330
1E
100
AcDbEntity
  8
STEMPEL
100
AcDbLine
 10
49.99999999999989
 20
10.0
 30
0.0
 11
410.0
 21
10.0
 31
0.0
  0
TEXT
  5
13B
330
1E
100
AcDbEntity
  8
TEXT
100
AcDbText
 10
202.4626584226295
 20
73.30961091915225
 30
0.0
 40
4.0
  1
Name
 41
0.8
  7
GREEKS
100
AcDbText
  0
TEXT
  5
13C
330
1E
100
AcDbEntity
  8
TEXT
100
AcDbText
 10
196.5498279101549
 20
102.6506227776589
 30
0.0
 40
5.0
  1
Zul. Abw.
 41
0.8
  7
GREEKS
 72
     4
 11
209.9783993387263
 21
105.1506227776589
 31
0.0
100
AcDbText
  0
LINE
  5
13D
330
1E
100
AcDbEntity
  8
HILF
100
AcDbLine
 10
146.0000000000001
 20
49.99999999999997
 30
0.0
 11
230.0
 21
49.99999999999997
 31
0.0
  0
LINE
  5
13E
330
1E
100
AcDbEntity
  8
HILF
100
AcDbLine
 10
146.0000000000001
 20
59.99999999999997
 30
0.0
 11
230.0
 21
59.99999999999997
 31
0.0
  0
LINE
  5
13F
330
1E
100
AcDbEntity
  8
HILF
100
AcDbLine
 10
146.0000000000001
 20
69.99999999999994
 30
0.0
 11
230.0
 21
69.99999999999994
 31
0.0
  0
LINE
  5
140
330
1E
100
AcDbEntity
  8
STEMPEL
100
AcDbLine
 10
410.0
 20
80.0
 30
0.0
 11
146.0000000000001
 21
79.99999999999994
 31
0.0
  0
LINE
  5
141
330
1E
100
AcDbEntity
  8
STEMPEL
100
AcDbLine
 10
410.0
 20
40.0
 30
0.0
 11
146.0000000000001
 21
39.99999999999997
 31
0.0
  0
LINE
  5
142
330
1E
100
AcDbEntity
  8
STEMPEL
100
AcDbLine
 10
410.0
 20
110.0
 30
0.0
 11
39.99999999999997
 21
110.0
 31
0.0
  0
LINE
  5
144
330
1E
100
AcDbEntity
  8
HILF
100
AcDbLine
 10
0.0
 20
0.0
 30
0.0
 11
-0.0000000000001137
 21
594.0
 31
0.0
  0
LINE
  5
145
330
1E
100
AcDbEntity
  8
STEMPEL
100
AcDbLine
 10
40.0
 20
10.0
 30
0.0
 11
39.99999999999989
 21
584.0
 31
0.0
  0
TEXT
  5
146
330
1E
100
AcDbEntity
  8
TEXT
100
AcDbText
 10
41.85509950977674
 20
111.6719999999999
 30
0.0
 40
5.0
  1
Erstellt mit AUTOCAD 2004
 41
0.8
  7
GREEKS
100
AcDbText
  0
TEXT
  5
147
330
1E
100
AcDbEntity
  8
TEXT
100
AcDbText
 10
66.72469466776535
 20
18.67381894984132
 30
0.0
 40
4.0
  1
Änderung
 41
0.8
  7
GREEKS
 72
     1
 11
77.46755181062249
 21
18.67381894984132
 31
0.0
100
AcDbText
  0
LINE
  5
148
330
1E
100
AcDbEntity
  8
HILF
100
AcDbLine
 10
40.00000000000008
 20
39.99999999999997
 30
0.0
 11
146.0000000000001
 21
39.99999999999997
 31
0.0
  0
LINE
  5
149
330
1E
100
AcDbEntity
  8
HILF
100
AcDbLine
 10
40.00000000000008
 20
49.99999999999997
 30
0.0
 11
146.0000000000001
 21
49.99999999999997
 31
0.0
  0
LINE
  5
14A
330
1E
100
AcDbEntity
  8
HILF
100
AcDbLine
 10
40.00000000000008
 20
59.99999999999997
 30
0.0
 11
146.0000000000001
 21
59.99999999999997
 31
0.0
  0
LINE
  5
14B
330
1E
100
AcDbEntity
  8
HILF
100
AcDbLine
 10
40.00000000000008
 20
69.99999999999994
 30
0.0
 11
146.0000000000001
 21
69.99999999999994
 31
0.0
  0
LINE
  5
14C
330
1E
100
AcDbEntity
  8
HILF
100
AcDbLine
 10
40.00000000000008
 20
79.99999999999994
 30
0.0
 11
146.0000000000001
 21
79.99999999999994
 31
0.0
  0
LINE
  5
14D
330
1E
100
AcDbEntity
  8
HILF
100
AcDbLine
 10
40.00000000000008
 20
90.00000000000005
 30
0.0
 11
146.0000000000001
 21
90.00000000000005
 31
0.0
  0
LINE
  5
14E
330
1E
100
AcDbEntity
  8
HILF
100
AcDbLine
 10
40.00000000000008
 20
100.0
 30
0.0
 11
146.0000000000001
 21
100.0
 31
0.0
  0
LINE
  5
14F
330
1E
100
AcDbEntity
  8
STEMPEL
100
AcDbLine
 10
145.9999999999999
 20
29.99999999999997
 30
0.0
 11
39.99999999999997
 21
29.99999999999997
 31
0.0
  0
TEXT
  5
150
330
1E
100
AcDbEntity
  8
TEXT
100
AcDbText
 10
48.26641107045756
 20
13.65465846027192
 30
0.0
 40
4.0
  1
Index
 50
90.0
 41
0.8
  7
GREEKS
100
AcDbText
  0
LINE
  5
151
330
1E
100
AcDbEntity
  8
VOLL
100
AcDbLine
 10
54.00000000000009
 20
110.0
 30
0.0
 11
53.99999999999997
 21
9.999999999999971
 31
0.0
  0
LINE
  5
152
330
1E
100
AcDbEntity
  8
HILF
100
AcDbLine
 10
31.08767135713856
 20
297.0
 30
0.0
 11
0.0000000000001137
 21
297.0
 31
0.0
  0
TEXT
  5
153
330
1E
100
AcDbEntity
  8
TEXT
100
AcDbText
 10
110.2468354498985
 20
18.6715626933981
 30
0.0
 40
4.0
  1
Tag
 41
0.8
  7
GREEKS
 72
     1
 11
113.9801687832318
 21
18.6715626933981
 31
0.0
100
AcDbText
  0
LINE
  5
154
330
1E
100
AcDbEntity
  8
VOLL
100
AcDbLine
 10
124.0000000000001
 20
109.9999999999999
 30
0.0
 11
124.0
 21
9.999999999999971
 31
0.0
  0
LINE
  5
155
330
1E
100
AcDbEntity
  8
VOLL
100
AcDbLine
 10
104.0000000000001
 20
109.9999999999999
 30
0.0
 11
104.0
 21
9.999999999999971
 31
0.0
  0
TEXT
  5
156
330
1E
100
AcDbEntity
  8
TEXT
100
AcDbText
 10
129.3020371565846
 20
18.59324216966408
 30
0.0
 40
4.0
  1
Name
 41
0.8
  7
GREEKS
 72
     1
 11
135.6258466803941
 21
18.59324216966408
 31
0.0
100
AcDbText
  0
LINE
  5
157
330
1E
100
AcDbEntity
  8
STEMPEL
100
AcDbLine
 10
146.0000000000001
 20
109.9999999999999
 30
0.0
 11
146.0
 21
9.999999999999971
 31
0.0
  0
TEXT
  5
159
330
1E
100
AcDbEntity
  8
TEXT
100
AcDbText
 10
172.331167315365
 20
73.31880501229926
 30
0.0
 40
4.0
  1
Tag
 41
0.8
  7
GREEKS
100
AcDbText
  0
TEXT
  5
15A
330
1E
100
AcDbEntity
  8
TEXT
100
AcDbText
 10
147.5836127167615
 20
63.62990369617964
 30
0.0
 40
4.0
  1
Gez.
 41
0.8
  7
GREEKS
100
AcDbText
  0
LINE
  5
15B
330
1E
100
AcDbEntity
  8
VOLL
100
AcDbLine
 10
164.0000000000001
 20
79.99999999999994
 30
0.0
 11
164.0000000000001
 21
39.99999999999997
 31
0.0
  0
TEXT
  5
15C
330
1E
100
AcDbEntity
  8
TEXT
100
AcDbText
 10
147.6006777387303
 20
43.52946389649807
 30
0.0
 40
4.0
  1
Norm.
 41
0.8
  7
GREEKS
100
AcDbText
  0
TEXT
  5
15D
330
1E
100
AcDbEntity
  8
TEXT
100
AcDbText
 10
147.5515086571672
 20
53.68926291428377
 30
0.0
 40
4.0
  1
Gepr.
 41
0.8
  7
GREEKS
100
AcDbText
  0
TEXT
  5
15E
330
1E
100
AcDbEntity
  8
TEXT
 62
     1
100
AcDbText
 10
160.5006306481887
 20
88.14901428913959
 30
0.0
 40
7.0
  1
1:2
 41
0.8
  7
GREEKS
100
AcDbText
  0
TEXT
  5
15F
330
1E
100
AcDbEntity
  8
TEXT
100
AcDbText
 10
153.5163572150377
 20
102.4620895087088
 30
0.0
 40
5.0
  1
Maßstab
 41
0.8
  7
GREEKS
100
AcDbText
  0
TEXT
  5
160
330
1E
100
AcDbEntity
  8
TEXT
100
AcDbText
 10
148.622109822104
 20
73.14025471151666
 30
0.0
 40
4.0
  1
2011
 41
0.8
  7
GREEKS
100
AcDbText
  0
LINE
  5
161
330
1E
100
AcDbEntity
  8
VOLL
100
AcDbLine
 10
190.0000000000001
 20
109.9999999999998
 30
0.0
 11
190.0
 21
39.99999999999997
 31
0.0
  0
LINE
  5
186
330
1E
100
AcDbEntity
  8
HILF
100
AcDbLine
 10
420.0
 20
-0.0000000000001137
 30
0.0
 11
419.9999999999999
 21
594.0
 31
0.0
  0
LINE
  5
187
330
1E
100
AcDbEntity
  8
STEMPEL
100
AcDbLine
 10
410.0
 20
10.0
 30
0.0
 11
410.0
 21
584.0
 31
0.0
  0
TEXT
  5
188
330
1E
100
AcDbEntity
  8
TEXT
100
AcDbText
 10
337.2400861497006
 20
52.07416177878602
 30
0.0
 40
5.0
  1
ersetzt durch:
 41
0.8
  7
GREEKS
100
AcDbText
  0
TEXT
  5
189
330
1E
100
AcDbEntity
  8
TEXT
100
AcDbText
 10
336.7238616296993
 20
73.1811823709997
 30
0.0
 40
5.0
  1
Ersatz für:
 41
0.8
  7
GREEKS
100
AcDbText
  0
TEXT
  5
18A
330
1E
100
AcDbEntity
  8
TEXT
100
AcDbText
 10
336.178754957634
 20
102.3132034537136
 30
0.0
 40
5.0
  1
Zeichnungs Nr.
 41
0.8
  7
GREEKS
100
AcDbText
  0
LINE
  5
18B
330
1E
100
AcDbEntity
  8
HILF
100
AcDbLine
 10
233.4909699289885
 20
14.89398258028314
 30
0.0
 11
404.8588839326728
 21
14.89398258028314
 31
0.0
  0
LINE
  5
18C
330
1E
100
AcDbEntity
  8
HILF
100
AcDbLine
 10
336.7238616296993
 20
83.77983636955827
 30
0.0
 11
404.8588839326728
 21
83.77983636955827
 31
0.0
  0
LINE
  5
18D
330
1E
100
AcDbEntity
  8
VOLL
100
AcDbLine
 10
332.0
 20
60.0
 30
0.0
 11
410.0
 21
60.0
 31
0.0
  0
TEXT
  5
18E
330
1E
100
AcDbEntity
  8
TEXT
 62
     1
100
AcDbText
 10
234.9283864320014
 20
87.41748789253779
 30
0.0
 40
7.0
  1
Bogen DN80 70°
 41
0.8
  7
GREEKS
100
AcDbText
  0
LINE
  5
18F
330
1E
100
AcDbEntity
  8
HILF
100
AcDbLine
 10
234.7736801096947
 20
49.99999999999997
 30
0.0
 11
324.835391655631
 21
49.99999999999997
 31
0.0
  0
LINE
  5
190
330
1E
100
AcDbEntity
  8
HILF
100
AcDbLine
 10
234.7736801096947
 20
59.99999999999997
 30
0.0
 11
324.835391655631
 21
59.99999999999997
 31
0.0
  0
LINE
  5
191
330
1E
100
AcDbEntity
  8
HILF
100
AcDbLine
 10
234.7736801096947
 20
69.99999999999994
 30
0.0
 11
324.835391655631
 21
69.99999999999994
 31
0.0
  0
LINE
  5
192
330
1E
100
AcDbEntity
  8
HILF
100
AcDbLine
 10
234.7736801096947
 20
84.03758247564139
 30
0.0
 11
324.8353916556311
 21
84.03758247564139
 31
0.0
  0
LINE
  5
193
330
1E
100
AcDbEntity
  8
STEMPEL
100
AcDbLine
 10
230.0
 20
110.0
 30
0.0
 11
230.0
 21
9.999999999999971
 31
0.0
  0
TEXT
  5
194
330
1E
100
AcDbEntity
  8
TEXT
100
AcDbText
 10
235.1296391125315
 20
71.50334417585288
 30
0.0
 40
5.0
  1
dünnwandig
 41
0.8
  7
GREEKS
100
AcDbText
  0
TEXT
  5
195
330
1E
100
AcDbEntity
  8
TEXT
100
AcDbText
 10
234.9837501577827
 20
42.62974153022632
 30
0.0
 40
4.0
  1
5310080W.DWG
 41
0.8
  7
GREEKS
100
AcDbText
  0
TEXT
  5
196
330
1E
100
AcDbEntity
  8
TEXT
100
AcDbText
 10
234.742238391136
 20
30.84560570193057
 30
0.0
 40
5.0
  1
Bauvorhaben
 41
0.8
  7
GREEKS
100
AcDbText
  0
TEXT
  5
197
330
1E
100
AcDbEntity
  8
TEXT
100
AcDbText
 10
234.877940380901
 20
102.5489328011779
 30
0.0
 40
5.0
  1
Benennung
 41
0.8
  7
GREEKS
100
AcDbText
  0
LINE
  5
198
330
1E
100
AcDbEntity
  8
STEMPEL
100
AcDbLine
 10
332.0
 20
109.9999999999997
 30
0.0
 11
332.0
 21
40.0
 31
0.0
  0
TEXT
  5
19A
330
1E
100
AcDbEntity
  8
TEXT
 62
     1
100
AcDbText
 10
349.4762010939861
 20
88.14901428913959
 30
0.0
 40
7.0
  1
5310080W
 41
0.8
  7
GREEKS
 72
     1
 11
370.276201093986
 21
88.14901428913959
 31
0.0
100
AcDbText
  0
TEXT
  5
212
330
1E
100
AcDbEntity
  8
TEXT
100
AcDbText
 10
235.1296391125315
 20
51.50334417585291
 30
0.0
 40
5.0
  1
EDV-Art.Nr. 5.310.080C
 41
0.8
  7
GREEKS
100
AcDbText
  0
TEXT
  5
255
330
1E
100
AcDbEntity
  8
TEXT
 62
     1
100
AcDbText
 10
297.9974873842989
 20
131.2276367653921
 30
0.0
 40
7.0
  1
Werkstoff: 1.4404
 41
0.8
  7
GREEKS
100
AcDbText
  0
LINE
  5
95F
330
1E
100
AcDbEntity
  8
MITTEL
100
AcDbLine
 10
180.4760839430812
 20
381.5582616773194
 30
0.0
 11
180.4760839430812
 21
221.558954456109
 31
0.0
  0
LINE
  5
A23
330
1E
100
AcDbEntity
  8
MITTEL
100
AcDbLine
 10
330.8262522697102
 20
436.2812476651257
 30
0.0
 11
180.4760839430812
 21
381.5582616773194
 31
0.0
  0
DIMENSION
  5
DC0
330
1E
100
AcDbEntity
  8
BEM
100
AcDbDimension
  2
*D1
 10
224.9260839430813
 20
205.8680691715969
 30
0.0
 11
180.4760839430812
 21
212.3680691715969
 31
0.0
 70
    32
  1
%%c<>
 71
     5
 42
88.90000000000013
  3
Standard
100
AcDbAlignedDimension
 13
136.0260839430811
 23
231.5589544561088
 33
0.0
 14
224.9260839430813
 24
231.5589544561118
 34
0.0
100
AcDbRotatedDimension
1001
ACAD
1000
DSTYLE
1002
{
1070
    40
1040
2.0
1070
    41
1040
3.5
1070
    42
1040
1.0
1070
    43
1040
7.0
1070
    44
1040
1.0
1070
    73
1070
     0
1070
    74
1070
     0
1070
    77
1070
     1
1070
    78
1070
     8
1070
    79
1070
     2
1070
   140
1040
3.5
1070
   141
1040
1.5
1070
   146
1040
0.5
1070
   147
1040
1.5
1070
   172
1070
     1
1070
   178
1070
     1
1070
   179
1070
     2
1070
   271
1070
     2
1070
   272
1070
     2
1070
   284
1070
     8
1070
   285
1070
     8
1070
   286
1070
     8
1002
}
  0
LINE
  5
DC1
330
1E
100
AcDbEntity
  8
HILF
100
AcDbLine
 10
223.7215001380291
 20
231.5589544561091
 30
0.0
 11
137.2306677481333
 21
231.5589544561087
 31
0.0
  0
LINE
  5
DC2
330
1E
100
AcDbEntity
  8
STEMPEL
100
AcDbLine
 10
224.4886406254516
 20
226.558954456109
 30
0.0
 11
136.4635272607109
 21
226.5589544561087
 31
0.0
  0
LINE
  5
DC3
102
{ACAD_REACTORS
330
11D9
102
}
330
1E
100
AcDbEntity
  8
STEMPEL
100
AcDbLine
 10
224.9260839430811
 20
323.2787243386151
 30
0.0
 11
224.9260839430813
 21
231.5589544561118
 31
0.0
  0
LINE
  5
DC7
330
1E
100
AcDbEntity
  8
STEMPEL
100
AcDbLine
 10
224.9260839430813
 20
231.5589544561118
 30
0.0
 11
224.4886406254516
 21
226.558954456109
 31
0.0
  0
LINE
  5
DC8
330
1E
100
AcDbEntity
  8
STEMPEL
100
AcDbLine
 10
136.0260839430812
 20
231.5589544561088
 30
0.0
 11
136.4635272607109
 21
226.5589544561087
 31
0.0
  0
LINE
  5
DC9
102
{ACAD_REACTORS
330
11D9
102
}
330
1E
100
AcDbEntity
  8
STEMPEL
100
AcDbLine
 10
136.0260839430812
 20
351.3087866699567
 30
0.0
 11
136.0260839430812
 21
231.5589544561088
 31
0.0
  0
ARC
  5
E6D
330
1E
100
AcDbEntity
  8
STEMPEL
100
AcDbCircle
 10
313.243914261187
 20
365.3394180805522
 30
0.0
 40
13.6
100
AcDbArc
 50
85.14949765977165
 51
110.0000000000006
  0
ARC
  5
E6E
330
1E
100
AcDbEntity
  8
STEMPEL
100
AcDbCircle
 10
298.4156752355101
 20
452.5258466540252
 30
0.0
 40
24.2
100
AcDbArc
 50
110.0000000000006
 51
134.8505023402276
  0
LINE
  5
E6F
330
1E
100
AcDbEntity
  8
HILF
100
AcDbLine
 10
311.0317246455585
 20
379.9731536632563
 30
0.0
 11
279.4686192295972
 21
466.6920730814763
 31
0.0
  0
LINE
  5
E70
330
1E
100
AcDbEntity
  8
HILF
100
AcDbLine
 10
282.2307044802249
 20
372.2941842496068
 30
0.0
 11
252.4698113815301
 21
454.0615660210741
 31
0.0
  0
LINE
  5
E71
330
1E
100
AcDbEntity
  8
HILF
100
AcDbLine
 10
287.4668699540035
 20
372.1461539134634
 30
0.0
 11
256.3857947800388
 21
457.5407061263033
 31
0.0
  0
LINE
  5
E72
330
1E
100
AcDbEntity
  8
STEMPEL
100
AcDbLine
 10
308.5924403119581
 20
378.1192377232404
 30
0.0
 11
290.7434887107728
 21
371.6227506275509
 31
0.0
  0
ARC
  5
E73
330
1E
100
AcDbEntity
  8
STEMPEL
100
AcDbCircle
 10
286.7760550481948
 20
382.5231850286675
 30
0.0
 40
11.6
100
AcDbArc
 50
261.0449756281402
 51
290.0000000000007
  0
ARC
  5
E74
330
1E
100
AcDbEntity
  8
STEMPEL
100
AcDbCircle
 10
283.5383455924922
 20
361.9767197005276
 30
0.0
 40
9.200000000000001
100
AcDbArc
 50
81.04497562814026
 51
110.0000000000006
  0
ARC
  5
E75
330
1E
100
AcDbEntity
  8
STEMPEL
100
AcDbCircle
 10
246.8395842136477
 20
462.8057379108554
 30
0.0
 40
9.200000000000001
100
AcDbArc
 50
290.0000000000007
 51
318.9550243718589
  0
LINE
  5
E76
330
1E
100
AcDbEntity
  8
STEMPEL
100
AcDbLine
 10
276.4083448250124
 20
466.544313339194
 30
0.0
 11
258.5593932238273
 21
460.0478262435046
 31
0.0
  0
ARC
  5
E77
330
1E
100
AcDbEntity
  8
STEMPEL
100
AcDbCircle
 10
262.5268268864051
 20
449.147391842388
 30
0.0
 40
11.6
100
AcDbArc
 50
110.0000000000006
 51
138.9550243718589
  0
ARC
  5
E78
330
1E
100
AcDbEntity
  8
STEMPEL
100
AcDbCircle
 10
271.7568708757834
 20
479.3241329818823
 30
0.0
 40
13.6
100
AcDbArc
 50
290.0000000000007
 51
314.8505023402275
  0
LINE
  5
E79
330
1E
100
AcDbEntity
  8
STEMPEL
100
AcDbLine
 10
342.2888954919567
 20
390.168872243924
 30
0.0
 11
309.966682839605
 21
478.9734216530709
 31
0.0
  0
ARC
  5
E7A
330
1E
100
AcDbEntity
  8
STEMPEL
100
AcDbCircle
 10
323.6792365722854
 20
405.6388623826895
 30
0.0
 40
24.2
100
AcDbArc
 50
290.0000000000007
 51
320.2636519420975
  0
LINE
  5
E7B
330
1E
100
AcDbEntity
  8
STEMPEL
100
AcDbLine
 10
331.9561240407666
 20
382.8983009596706
 30
0.0
 11
324.717024257254
 21
380.2634841155891
 31
0.0
  0
ARC
  5
E7C
330
1E
100
AcDbEntity
  8
STEMPEL
100
AcDbCircle
 10
316.4401367887727
 20
403.004045538608
 30
0.0
 40
24.2
100
AcDbArc
 50
265.1494976597716
 51
290.0000000000007
  0
TEXT
  5
E7D
330
1E
100
AcDbEntity
  8
TEXT
 62
     1
100
AcDbText
 10
293.8932774507239
 20
441.1304682392569
 30
0.0
 40
7.0
  1
DN80
 50
20.00000000000069
 41
0.8
  7
GREEKS
100
AcDbText
  0
ARC
  5
E7E
330
1E
100
AcDbEntity
  8
STEMPEL
100
AcDbCircle
 10
305.6547750190228
 20
455.1606634981068
 30
0.0
 40
24.2
100
AcDbArc
 50
79.73634805790211
 51
110.0000000000006
  0
LINE
  5
E7F
330
1E
100
AcDbEntity
  8
STEMPEL
100
AcDbLine
 10
297.3778875505417
 20
477.9012249211258
 30
0.0
 11
290.1387877670289
 21
475.2664080770443
 31
0.0
  0
LINE
  5
E80
102
{ACAD_REACTORS
330
11CD
102
}
330
1E
100
AcDbEntity
  8
STEMPEL
100
AcDbLine
 10
249.9861695322439
 20
454.1605657996252
 30
0.0
 11
193.6984970193218
 21
433.6735284487978
 31
0.0
  0
LINE
  5
E81
102
{ACAD_REACTORS
330
11CD
102
}
330
1E
100
AcDbEntity
  8
STEMPEL
100
AcDbLine
 10
280.3917602738959
 20
370.6218918117583
 30
0.0
 11
250.4437304939046
 21
359.7217003969237
 31
0.0
  0
TEXT
  5
F42
330
1E
100
AcDbEntity
  8
BEM
100
AcDbText
 10
416.5811541437437
 20
12.14804815338303
 30
0.0
 40
4.0
  1
Diese Zeichnung ist urheberrechtlich geschützt und bleibt unser Eigentum. Sie darf weder ganz noch teilweise vervielfältigt und nicht an Dritte weitergegeben werden.
 50
90.0
 41
0.8
  7
GREEKS
100
AcDbText
  0
TEXT
  5
F43
330
1E
100
AcDbEntity
  8
TEXT
100
AcDbText
 10
192.6882715247924
 20
89.50150693558043
 30
0.0
 40
4.0
  1
DIN EN1124-3
 41
0.8
  7
GREEKS
 72
     1
 11
209.6787477152686
 21
89.50150693558043
 31
0.0
100
AcDbText
  0
TEXT
  5
F6C
330
1E
100
AcDbEntity
  8
TEXT
100
AcDbText
 10
170.398997108236
 20
63.10765040825732
 30
0.0
 40
4.0
  1
08.04.
 41
0.8
  7
GREEKS
 72
     1
 11
177.4085209177598
 21
63.10765040825732
 31
0.0
100
AcDbText
  0
LINE
  5
1051
330
1E
100
AcDbEntity
  8
MITTEL
100
AcDbLine
 10
222.071113756613
 20
396.6976144228603
 30
0.0
 11
180.4760839430812
 21
337.293755504286
 31
0.0
  0
LINE
  5
1052
102
{ACAD_REACTORS
330
11CD
330
11D9
102
}
330
1E
100
AcDbEntity
  8
STEMPEL
100
AcDbLine
 10
193.6984970193218
 20
433.6735284487978
 30
0.0
 11
136.0260839430812
 21
351.3087866699567
 31
0.0
  0
LINE
  5
1053
102
{ACAD_REACTORS
330
11CD
330
11D9
102
}
330
1E
100
AcDbEntity
  8
STEMPEL
100
AcDbLine
 10
250.4437304939046
 20
359.7217003969237
 30
0.0
 11
224.9260839430811
 21
323.2787243386151
 31
0.0
  0
LINE
  5
1054
330
1E
100
AcDbEntity
  8
STEMPEL
100
AcDbLine
 10
250.4437304939046
 20
359.7217003969237
 30
0.0
 11
193.6984970193218
 21
433.6735284487978
 31
0.0
  0
LINE
  5
1056
330
1E
100
AcDbEntity
  8
STEMPEL
100
AcDbLine
 10
224.9260839430811
 20
323.2787243386151
 30
0.0
 11
136.0260839430812
 21
351.3087866699567
 31
0.0
  0
DIMENSION
  5
1072
330
1E
100
AcDbEntity
  8
BEM
100
AcDbDimension
  2
*D5
 10
116.0587622314129
 20
381.5582616773194
 30
0.0
 11
109.5587622314128
 21
304.0586080667141
 31
0.0
 70
    32
 71
     5
 42
154.9993072212106
  3
Standard
100
AcDbAlignedDimension
 13
136.4635272607109
 23
226.5589544561087
 33
0.0
 14
180.4760839430812
 24
381.5582616773194
 34
0.0
 50
90.0
100
AcDbRotatedDimension
1001
ACAD
1000
DSTYLE
1002
{
1070
    40
1040
2.0
1070
    41
1040
3.5
1070
    42
1040
1.0
1070
    43
1040
7.0
1070
    44
1040
1.0
1070
    73
1070
     0
1070
    74
1070
     0
1070
    77
1070
     1
1070
    78
1070
     8
1070
    79
1070
     2
1070
   140
1040
3.5
1070
   141
1040
1.5
1070
   146
1040
0.5142857142857144
1070
   147
1040
1.5
1070
   172
1070
     1
1070
   178
1070
     1
1070
   179
1070
     2
1070
   271
1070
     2
1070
   272
1070
     2
1070
   284
1070
     8
1070
   285
1070
     8
1070
   286
1070
     8
1002
}
  0
DIMENSION
  5
107F
330
1E
100
AcDbEntity
  8
BEM
100
AcDbDimension
  2
*D6
 10
152.4020681935349
 20
458.6909860226105
 30
0.0
 11
223.0047898732681
 21
491.305430693308
 31
0.0
 70
    32
 71
     5
 42
154.9993072212109
 51
339.9999999999999
  3
Standard
100
AcDbAlignedDimension
 13
309.966682839605
 23
478.9734216530709
 33
0.0
 14
180.4760839430812
 24
381.5582616773194
 34
0.0
 50
20.00000000000011
100
AcDbRotatedDimension
1001
ACAD
1000
DSTYLE
1002
{
1070
    40
1040
2.0
1070
    41
1040
3.5
1070
    42
1040
1.0
1070
    43
1040
7.0
1070
    44
1040
1.0
1070
    73
1070
     0
1070
    74
1070
     0
1070
    77
1070
     1
1070
    78
1070
     8
1070
    79
1070
     2
1070
   140
1040
3.5
1070
   141
1040
1.5
1070
   146
1040
0.5142857142857144
1070
   147
1040
1.5
1070
   172
1070
     1
1070
   178
1070
     1
1070
   179
1070
     2
1070
   271
1070
     2
1070
   272
1070
     2
1070
   284
1070
     8
1070
   285
1070
     8
1070
   286
1070
     8
1002
}
  0
ARC
  5
119A
330
1E
100
AcDbEntity
  8
SCHRAFF
100
AcDbCircle
 10
136.0260839430812
 20
351.3087866699567
 30
0.0
 40
5.0
100
AcDbArc
 50
305.6301023541558
 51
19.36989764584417
  0
ARC
  5
119B
330
1E
100
AcDbEntity
  8
SCHRAFF
100
AcDbCircle
 10
140.7946686968223
 20
349.8052576724353
 30
0.0
 40
5.0
100
AcDbArc
 50
305.6301023541558
 51
19.36989764584417
  0
ARC
  5
119C
330
1E
100
AcDbEntity
  8
SCHRAFF
100
AcDbCircle
 10
145.5632534505634
 20
348.301728674914
 30
0.0
 40
5.0
100
AcDbArc
 50
305.6301023541558
 51
19.36989764584417
  0
ARC
  5
119D
330
1E
100
AcDbEntity
  8
SCHRAFF
100
AcDbCircle
 10
150.3318382043046
 20
346.7981996773926
 30
0.0
 40
5.0
100
AcDbArc
 50
305.6301023541558
 51
19.36989764584417
  0
ARC
  5
119E
330
1E
100
AcDbEntity
  8
SCHRAFF
100
AcDbCircle
 10
155.1004229580457
 20
345.2946706798712
 30
0.0
 40
5.0
100
AcDbArc
 50
305.6301023541558
 51
19.36989764584417
  0
ARC
  5
119F
330
1E
100
AcDbEntity
  8
SCHRAFF
100
AcDbCircle
 10
159.8690077117868
 20
343.7911416823498
 30
0.0
 40
5.0
100
AcDbArc
 50
305.6301023541558
 51
19.36989764584417
  0
ARC
  5
11A0
330
1E
100
AcDbEntity
  8
SCHRAFF
100
AcDbCircle
 10
164.6375924655279
 20
342.2876126848285
 30
0.0
 40
5.0
100
AcDbArc
 50
305.6301023541558
 51
19.36989764584417
  0
ARC
  5
11A1
330
1E
100
AcDbEntity
  8
SCHRAFF
100
AcDbCircle
 10
169.406177219269
 20
340.7840836873071
 30
0.0
 40
5.0
100
AcDbArc
 50
305.6301023541558
 51
19.36989764584417
  0
ARC
  5
11A2
330
1E
100
AcDbEntity
  8
SCHRAFF
100
AcDbCircle
 10
174.1747619730102
 20
339.2805546897858
 30
0.0
 40
5.0
100
AcDbArc
 50
305.6301023541558
 51
19.36989764584417
  0
ARC
  5
11A3
330
1E
100
AcDbEntity
  8
SCHRAFF
100
AcDbCircle
 10
178.9433467267513
 20
337.7770256922644
 30
0.0
 40
5.0
100
AcDbArc
 50
305.6301023541558
 51
19.36989764584417
  0
ARC
  5
11A4
330
1E
100
AcDbEntity
  8
SCHRAFF
100
AcDbCircle
 10
183.7119314804924
 20
336.2734966947431
 30
0.0
 40
5.0
100
AcDbArc
 50
305.6301023541558
 51
19.36989764584417
  0
ARC
  5
11A5
330
1E
100
AcDbEntity
  8
SCHRAFF
100
AcDbCircle
 10
188.4805162342335
 20
334.7699676972217
 30
0.0
 40
5.0
100
AcDbArc
 50
305.6301023541558
 51
19.36989764584417
  0
ARC
  5
11A6
330
1E
100
AcDbEntity
  8
SCHRAFF
100
AcDbCircle
 10
193.2491009879747
 20
333.2664386997003
 30
0.0
 40
5.0
100
AcDbArc
 50
305.6301023541558
 51
19.36989764584417
  0
ARC
  5
11A7
330
1E
100
AcDbEntity
  8
SCHRAFF
100
AcDbCircle
 10
198.0176857417158
 20
331.7629097021789
 30
0.0
 40
5.0
100
AcDbArc
 50
305.6301023541558
 51
19.36989764584417
  0
ARC
  5
11A8
330
1E
100
AcDbEntity
  8
SCHRAFF
100
AcDbCircle
 10
202.7862704954569
 20
330.2593807046576
 30
0.0
 40
5.0
100
AcDbArc
 50
305.6301023541558
 51
19.36989764584417
  0
ARC
  5
11A9
330
1E
100
AcDbEntity
  8
SCHRAFF
100
AcDbCircle
 10
207.5548552491981
 20
328.7558517071362
 30
0.0
 40
5.0
100
AcDbArc
 50
305.6301023541558
 51
19.36989764584417
  0
ARC
  5
11AA
330
1E
100
AcDbEntity
  8
SCHRAFF
100
AcDbCircle
 10
212.3234400029392
 20
327.2523227096149
 30
0.0
 40
5.0
100
AcDbArc
 50
305.6301023541558
 51
19.36989764584417
  0
ARC
  5
11AB
330
1E
100
AcDbEntity
  8
SCHRAFF
100
AcDbCircle
 10
217.0920247566803
 20
325.7487937120935
 30
0.0
 40
5.0
100
AcDbArc
 50
305.6301023541558
 51
19.36989764584417
  0
ARC
  5
11AC
102
{ACAD_REACTORS
330
11D9
102
}
330
1E
100
AcDbEntity
  8
SCHRAFF
100
AcDbCircle
 10
137.7149667146468
 20
350.7762839775234
 30
0.0
 40
3.111356067145719
100
AcDbArc
 50
87.87529968040237
 51
237.1247003195985
  0
ARC
  5
11AD
102
{ACAD_REACTORS
330
11D9
102
}
330
1E
100
AcDbEntity
  8
SCHRAFF
100
AcDbCircle
 10
224.2016240544363
 20
323.507145664096
 30
0.0
 40
3.450909567639619
100
AcDbArc
 50
282.1184274386632
 51
42.88157256133818
  0
ARC
  5
11AE
330
1E
100
AcDbEntity
  8
SCHRAFF
100
AcDbCircle
 10
196.7423041643655
 20
429.7067617473415
 30
0.0
 40
5.0
100
AcDbArc
 50
270.6301023541558
 51
344.3698976458442
  0
ARC
  5
11AF
102
{ACAD_REACTORS
330
11CD
102
}
330
1E
100
AcDbEntity
  8
SCHRAFF
100
AcDbCircle
 10
194.7765177975413
 20
432.2686244181724
 30
0.0
 40
3.111356067145719
100
AcDbArc
 50
52.87529968040153
 51
202.1247003195977
  0
ARC
  5
11B0
330
1E
100
AcDbEntity
  8
SCHRAFF
100
AcDbCircle
 10
193.6984970193219
 20
433.6735284487978
 30
0.0
 40
5.0
100
AcDbArc
 50
270.6301023541558
 51
344.3698976458442
  0
ARC
  5
11B1
330
1E
100
AcDbEntity
  8
SCHRAFF
100
AcDbCircle
 10
211.9613398895836
 20
409.8729282400608
 30
0.0
 40
5.0
100
AcDbArc
 50
270.6301023541558
 51
344.3698976458442
  0
ARC
  5
11B2
330
1E
100
AcDbEntity
  8
SCHRAFF
100
AcDbCircle
 10
208.91753274454
 20
413.8396949415169
 30
0.0
 40
5.0
100
AcDbArc
 50
270.6301023541558
 51
344.3698976458442
  0
ARC
  5
11B3
330
1E
100
AcDbEntity
  8
SCHRAFF
100
AcDbCircle
 10
205.8737255994964
 20
417.8064616429731
 30
0.0
 40
5.0
100
AcDbArc
 50
270.6301023541558
 51
344.3698976458442
  0
ARC
  5
11B4
330
1E
100
AcDbEntity
  8
SCHRAFF
100
AcDbCircle
 10
202.8299184544528
 20
421.7732283444292
 30
0.0
 40
5.0
100
AcDbArc
 50
270.6301023541558
 51
344.3698976458442
  0
ARC
  5
11B5
330
1E
100
AcDbEntity
  8
SCHRAFF
100
AcDbCircle
 10
215.0051470346272
 20
405.9061615386046
 30
0.0
 40
5.0
100
AcDbArc
 50
270.6301023541558
 51
344.3698976458442
  0
ARC
  5
11B6
330
1E
100
AcDbEntity
  8
SCHRAFF
100
AcDbCircle
 10
199.7861113094091
 20
425.7399950458854
 30
0.0
 40
5.0
100
AcDbArc
 50
270.6301023541558
 51
344.3698976458442
  0
ARC
  5
11B7
330
1E
100
AcDbEntity
  8
SCHRAFF
100
AcDbCircle
 10
218.0489541796708
 20
401.9393948371485
 30
0.0
 40
5.0
100
AcDbArc
 50
270.6301023541558
 51
344.3698976458442
  0
ARC
  5
11B8
330
1E
100
AcDbEntity
  8
SCHRAFF
100
AcDbCircle
 10
227.1803756148015
 20
390.03909473278
 30
0.0
 40
5.0
100
AcDbArc
 50
270.6301023541558
 51
344.3698976458442
  0
ARC
  5
11B9
330
1E
100
AcDbEntity
  8
SCHRAFF
100
AcDbCircle
 10
221.0927613247143
 20
397.9726281356923
 30
0.0
 40
5.0
100
AcDbArc
 50
270.6301023541558
 51
344.3698976458442
  0
ARC
  5
11BA
330
1E
100
AcDbEntity
  8
SCHRAFF
100
AcDbCircle
 10
224.1365684697579
 20
394.0058614342362
 30
0.0
 40
5.0
100
AcDbArc
 50
270.6301023541558
 51
344.3698976458442
  0
ARC
  5
11BB
330
1E
100
AcDbEntity
  8
SCHRAFF
100
AcDbCircle
 10
233.2679899048887
 20
382.1055613298677
 30
0.0
 40
5.0
100
AcDbArc
 50
270.6301023541558
 51
344.3698976458442
  0
ARC
  5
11BC
330
1E
100
AcDbEntity
  8
SCHRAFF
100
AcDbCircle
 10
230.2241827598452
 20
386.0723280313238
 30
0.0
 40
5.0
100
AcDbArc
 50
270.6301023541558
 51
344.3698976458442
  0
ARC
  5
11BD
330
1E
100
AcDbEntity
  8
SCHRAFF
100
AcDbCircle
 10
236.3117970499323
 20
378.1387946284115
 30
0.0
 40
5.0
100
AcDbArc
 50
270.6301023541558
 51
344.3698976458442
  0
ARC
  5
11BE
102
{ACAD_REACTORS
330
11CD
102
}
330
1E
100
AcDbEntity
  8
SCHRAFF
100
AcDbCircle
 10
249.9813047849722
 20
360.3243453138588
 30
0.0
 40
3.450909567639619
100
AcDbArc
 50
247.1184274386618
 51
7.881572561336826
  0
ARC
  5
11BF
330
1E
100
AcDbEntity
  8
SCHRAFF
100
AcDbCircle
 10
239.355604194976
 20
374.1720279269553
 30
0.0
 40
5.0
100
AcDbArc
 50
270.6301023541558
 51
344.3698976458442
  0
ARC
  5
11C0
330
1E
100
AcDbEntity
  8
SCHRAFF
100
AcDbCircle
 10
242.3994113400195
 20
370.2052612254992
 30
0.0
 40
5.0
100
AcDbArc
 50
270.6301023541558
 51
344.3698976458442
  0
ARC
  5
11C1
330
1E
100
AcDbEntity
  8
SCHRAFF
100
AcDbCircle
 10
245.4432184850631
 20
366.2384945240429
 30
0.0
 40
5.0
100
AcDbArc
 50
270.6301023541558
 51
344.3698976458442
  0
HATCH
  5
11CD
330
1E
100
AcDbEntity
  8
SCHRAFF
100
AcDbHatch
 10
0.0
 20
0.0
 30
0.0
210
0.0
220
0.0
230
1.0
  2
_USER
 70
     0
 71
     1
 91
        2
 92
        7
 72
     1
 73
     1
 93
        3
 10
196.6543822640437
 20
434.7493826937833
 42
0.7621365529491157
 10
191.8942622222963
 20
431.0968141197311
 42
0.0
 10
193.6984970193218
 20
433.6735284487978
 42
0.0
 97
        3
330
11AF
330
1052
330
E80
 92
        7
 72
     1
 73
     1
 93
        3
 10
253.3996157386265
 20
360.7975546419091
 42
0.0
 10
250.4437304939046
 20
359.7217003969237
 42
0.0
 10
248.6394956968791
 20
357.1449860678569
 42
0.5817986359208814
 97
        3
330
E81
330
1053
330
11BE
 75
     0
 76
     0
 52
0.0
 41
0.1
 77
     0
 78
     1
 53
0.0
 43
0.0
 44
0.0
 45
0.0
 46
0.1
 79
     0
 47
0.2722280553686423
 98
        2
 10
194.0153833955905
 20
434.3887170816276
 10
250.6729772654558
 20
358.437089088035
  0
HATCH
  5
11D9
330
1E
100
AcDbEntity
  8
SCHRAFF
100
AcDbHatch
 10
0.0
 20
0.0
 30
0.0
210
0.0
220
0.0
230
1.0
  2
_USER
 70
     0
 71
     1
 91
        2
 92
        7
 72
     1
 73
     1
 93
        3
 10
226.7303187401066
 20
325.8554386676818
 42
0.0
 10
224.9260839430811
 20
323.2787243386151
 42
0.0
 10
224.9260839430811
 20
320.1331369631926
 42
0.581798635920848
 97
        3
330
1053
330
DC3
330
11AD
 92
        7
 72
     1
 73
     1
 93
        3
 10
136.0260839430812
 20
351.3087866699567
 42
0.0
 10
137.8303187401068
 20
353.8855009990236
 42
0.7621365529491751
 10
136.0260839430812
 20
348.1631992945341
 42
0.0
 97
        3
330
1052
330
11AC
330
DC9
 75
     0
 76
     0
 52
0.0
 41
0.1
 77
     0
 78
     1
 53
0.0
 43
0.0
 44
0.0
 45
0.0
 46
0.1
 79
     0
 47
0.2722280553686423
 98
        2
 10
226.1576732967492
 20
323.3196695421059
 10
135.1786503758417
 20
350.8147029492611
  0
DIMENSION
  5
11DA
330
1E
100
AcDbEntity
  8
SCHRAFF
100
AcDbDimension
  2
*D8
 10
180.4760839430812
 20
221.558954456109
 30
0.0
 11
213.9005466324902
 21
448.4159942178507
 31
0.0
 70
   162
 71
     5
 42
1.221730476396029
  3
Standard
100
AcDb2LineAngularDimension
 13
330.8262522697102
 23
436.2812476651257
 33
0.0
 14
180.4760839430812
 24
381.5582616773194
 34
0.0
 15
180.4760839430812
 25
381.5582616773194
 35
0.0
 16
234.8452620301347
 26
432.8529356764315
 36
0.0
1001
ACAD
1000
DSTYLE
1002
{
1070
    40
1040
2.0
1070
    41
1040
3.5
1070
    42
1040
1.0
1070
    43
1040
7.0
1070
    44
1040
1.0
1070
    73
1070
     0
1070
    74
1070
     0
1070
    77
1070
     1
1070
    78
1070
     8
1070
    79
1070
     2
1070
   140
1040
3.5
1070
   141
1040
1.5
1070
   146
1040
0.5142857142857144
1070
   147
1040
1.5
1070
   172
1070
     1
1070
   178
1070
     1
1070
   179
1070
     2
1070
   271
1070
     2
1070
   272
1070
     2
1070
   284
1070
     8
1070
   285
1070
     8
1070
   286
1070
     8
1002
}
  0
ENDSEC
  0
SECTION
  2
OBJECTS
  0
DICTIONARY
  5
C
330
0
100
AcDbDictionary
281
     1
  3
ACAD_COLOR
350
B7D
  3
ACAD_GROUP
350
D
  3
ACAD_LAYOUT
350
19
  3
ACAD_MATERIAL
350
B7C
  3
ACAD_MLINESTYLE
350
16
  3
ACAD_PLOTSETTINGS
350
18
  3
ACAD_PLOTSTYLENAME
350
E
  3
AcDbVariableDictionary
350
246
  0
DICTIONARY
  5
B7D
102
{ACAD_REACTORS
330
C
102
}
330
C
100
AcDbDictionary
281
     1
  0
DICTIONARY
  5
D
102
{ACAD_REACTORS
330
C
102
}
330
C
100
AcDbDictionary
281
     1
  0
DICTIONARY
  5
19
102
{ACAD_REACTORS
330
C
102
}
330
C
100
AcDbDictionary
281
     1
  3
Layout1
350
1D
  3
Model
350
21
  0
DICTIONARY
  5
B7C
102
{ACAD_REACTORS
330
C
102
}
330
C
100
AcDbDictionary
281
     1
  0
DICTIONARY
  5
16
102
{ACAD_REACTORS
330
C
102
}
330
C
100
AcDbDictionary
281
     1
  3
Standard
350
17
  0
DICTIONARY
  5
18
102
{ACAD_REACTORS
330
C
102
}
330
C
100
AcDbDictionary
281
     1
  0
ACDBDICTIONARYWDFLT
  5
E
102
{ACAD_REACTORS
330
C
102
}
330
C
100
AcDbDictionary
281
     1
  3
Normal
350
F
100
AcDbDictionaryWithDefault
340
F
  0
DICTIONARY
  5
246
102
{ACAD_REACTORS
330
C
102
}
330
C
100
AcDbDictionary
281
     1
  3
DIMASSOC
350
F51
  3
PROJECTNAME
350
F52
  3
SORTENTS
350
247
  0
LAYOUT
  5
1D
102
{ACAD_REACTORS
330
19
102
}
330
19
100
AcDbPlotSettings
  1

  2
Tektronix Phaser 740
  4

  6

 40
0.0
 41
0.0
 42
0.0
 43
0.0
 44
0.0
 45
0.0
 46
0.0
 47
0.0
 48
0.0
 49
0.0
140
0.0
141
0.0
142
1.0
143
1.0
 70
   688
 72
     0
 73
     0
 74
     5
  7
monochrome.ctb
 75
    16
147
1.0
 76
     0
 77
     2
 78
   300
148
0.0
149
0.0
100
AcDbLayout
  1
Layout1
 70
     0
 71
     1
 10
0.0
 20
0.0
 11
12.0
 21
9.0
 12
0.0
 22
0.0
 32
0.0
 14
1.000000000000000E+20
 24
1.000000000000000E+20
 34
1.000000000000000E+20
 15
-1.000000000000000E+20
 25
-1.000000000000000E+20
 35
-1.000000000000000E+20
146
0.0
 13
0.0
 23
0.0
 33
0.0
 16
1.0
 26
0.0
 36
0.0
 17
0.0
 27
1.0
 37
0.0
 76
     0
330
1A
  0
LAYOUT
  5
21
102
{ACAD_REACTORS
330
19
102
}
330
19
100
AcDbPlotSettings
  1

  2
Tektronix Phaser 740
  4
A4
  6

 40
5.873749732971191
 41
6.085414409637451
 42
5.577407836914062
 43
5.662078857421875
 44
209.9733276367187
 45
296.9683227539062
 46
0.0
 47
0.0
 48
0.0
 49
0.0
140
0.0
141
0.0
142
1.0
143
1.0
 70
 11952
 72
     0
 73
     1
 74
     0
  7
monochrome.ctb
 75
     0
147
1.0
 76
     0
 77
     2
 78
   300
148
1150.120678237584
149
45.30495740799864
100
AcDbLayout
  1
Model
 70
     1
 71
     0
 10
0.0
 20
0.0
 11
12.0
 21
9.0
 12
0.0
 22
0.0
 32
0.0
 14
0.0
 24
0.0
 34
0.0
 15
0.0
 25
0.0
 35
0.0
146
0.0
 13
0.0
 23
0.0
 33
0.0
 16
1.0
 26
0.0
 36
0.0
 17
0.0
 27
1.0
 37
0.0
 76
     0
330
1E
  0
MLINESTYLE
  5
17
102
{ACAD_REACTORS
330
16
102
}
330
16
100
AcDbMlineStyle
  2
STANDARD
 70
     0
  3

 62
   256
 51
90.0
 52
90.0
 71
     2
 49
0.5
 62
   256
  6
BYLAYER
 49
-0.5
 62
   256
  6
BYLAYER
  0
ACDBPLACEHOLDER
  5
F
102
{ACAD_REACTORS
330
E
102
}
330
E
  0
DICTIONARYVAR
  5
F51
102
{ACAD_REACTORS
330
246
102
}
330
246
100
DictionaryVariables
280
     0
  1
1
  0
DICTIONARYVAR
  5
F52
102
{ACAD_REACTORS
330
246
102
}
330
246
100
DictionaryVariables
280
     0
  1

  0
DICTIONARYVAR
  5
247
102
{ACAD_REACTORS
330
246
102
}
330
246
100
DictionaryVariables
280
     0
  1
96
  0
ENDSEC
  0
EOF
