  0
SECTION
  2
HEADER
  9
$ACADVER
  1
AC1018
  9
$ACADMAINTVER
 70
     2
  9
$DWGCODEPAGE
  3
ANSI_1252
  9
$INSBASE
 10
0.0
 20
0.0
 30
0.0
  9
$EXTMIN
 10
-0.0234777161904276
 20
-0.0287301860505522
 30
-0.0000000000000099
  9
$EXTMAX
 10
420.0098650573044
 20
594.0272521142626
 30
0.0000000000000054
  9
$LIMMIN
 10
0.0
 20
0.0
  9
$LIMMAX
 10
419.9999999999999
 20
594.0
  9
$ORTHOMODE
 70
     0
  9
$REGENMODE
 70
     1
  9
$FILLMODE
 70
     1
  9
$QTEXTMODE
 70
     0
  9
$MIRRTEXT
 70
     1
  9
$LTSCALE
 40
20.0
  9
$ATTMODE
 70
     1
  9
$TEXTSIZE
 40
3.5
  9
$TRACEWID
 40
0.5
  9
$TEXTSTYLE
  7
STANDARD
  9
$CLAYER
  8
BEM
  9
$CELTYPE
  6
ByLayer
  9
$CECOLOR
 62
   256
  9
$CELTSCALE
 40
1.0
  9
$DISPSILH
 70
     0
  9
$DIMSCALE
 40
2.0
  9
$DIMASZ
 40
3.5
  9
$DIMEXO
 40
1.0
  9
$DIMDLI
 40
7.0
  9
$DIMRND
 40
0.0
  9
$DIMDLE
 40
0.0
  9
$DIMEXE
 40
1.0
  9
$DIMTP
 40
0.0
  9
$DIMTM
 40
0.0
  9
$DIMTXT
 40
3.5
  9
$DIMCEN
 40
1.5
  9
$DIMTSZ
 40
0.0
  9
$DIMTOL
 70
     0
  9
$DIMLIM
 70
     0
  9
$DIMTIH
 70
     0
  9
$DIMTOH
 70
     0
  9
$DIMSE1
 70
     0
  9
$DIMSE2
 70
     0
  9
$DIMTAD
 70
     1
  9
$DIMZIN
 70
     8
  9
$DIMBLK
  1

  9
$DIMASO
 70
     1
  9
$DIMSHO
 70
     0
  9
$DIMPOST
  1

  9
$DIMAPOST
  1

  9
$DIMALT
 70
     0
  9
$DIMALTD
 70
     2
  9
$DIMALTF
 40
25.4
  9
$DIMLFAC
 40
1.0
  9
$DIMTOFL
 70
     1
  9
$DIMTVP
 40
0.0
  9
$DIMTIX
 70
     0
  9
$DIMSOXD
 70
     0
  9
$DIMSAH
 70
     0
  9
$DIMBLK1
  1

  9
$DIMBLK2
  1

  9
$DIMSTYLE
  2
Standard
  9
$DIMCLRD
 70
     0
  9
$DIMCLRE
 70
     0
  9
$DIMCLRT
 70
     1
  9
$DIMTFAC
 40
0.5142857142857144
  9
$DIMGAP
 40
1.5
  9
$DIMJUST
 70
     0
  9
$DIMSD1
 70
     0
  9
$DIMSD2
 70
     0
  9
$DIMTOLJ
 70
     1
  9
$DIMTZIN
 70
     8
  9
$DIMALTZ
 70
     8
  9
$DIMALTTZ
 70
     8
  9
$DIMUPT
 70
     0
  9
$DIMDEC
 70
     2
  9
$DIMTDEC
 70
     2
  9
$DIMALTU
 70
     2
  9
$DIMALTTD
 70
     2
  9
$DIMTXSTY
  7
STANDARD
  9
$DIMAUNIT
 70
     0
  9
$DIMADEC
 70
     2
  9
$DIMALTRND
 40
0.0
  9
$DIMAZIN
 70
     2
  9
$DIMDSEP
 70
    46
  9
$DIMATFIT
 70
     3
  9
$DIMFRAC
 70
     0
  9
$DIMLDRBLK
  1

  9
$DIMLUNIT
 70
     2
  9
$DIMLWD
 70
    -2
  9
$DIMLWE
 70
    -2
  9
$DIMTMOVE
 70
     0
  9
$LUNITS
 70
     2
  9
$LUPREC
 70
     2
  9
$SKETCHINC
 40
1.0
  9
$FILLETRAD
 40
0.0
  9
$AUNITS
 70
     1
  9
$AUPREC
 70
     3
  9
$MENU
  1
ACAD
  9
$ELEVATION
 40
0.0
  9
$PELEVATION
 40
0.0
  9
$THICKNESS
 40
0.0
  9
$LIMCHECK
 70
     0
  9
$CHAMFERA
 40
0.0
  9
$CHAMFERB
 40
0.0
  9
$CHAMFERC
 40
0.0
  9
$CHAMFERD
 40
0.0
  9
$SKPOLY
 70
     0
  9
$TDCREATE
 40
2452040.637099653
  9
$TDUCREATE
 40
2452040.553766320
  9
$TDUPDATE
 40
2455660.585223634
  9
$TDUUPDATE
 40
2455660.501890301
  9
$TDINDWG
 40
0.3589046991
  9
$TDUSRTIMER
 40
0.3589046991
  9
$USRTIMER
 70
     1
  9
$ANGBASE
 50
0.0
  9
$ANGDIR
 70
     0
  9
$PDMODE
 70
     0
  9
$PDSIZE
 40
0.0
  9
$PLINEWID
 40
0.0
  9
$SPLFRAME
 70
     0
  9
$SPLINETYPE
 70
     6
  9
$SPLINESEGS
 70
     8
  9
$HANDSEED
  5
1667
  9
$SURFTAB1
 70
     6
  9
$SURFTAB2
 70
     6
  9
$SURFTYPE
 70
     6
  9
$SURFU
 70
     6
  9
$SURFV
 70
     6
  9
$UCSBASE
  2

  9
$UCSNAME
  2

  9
$UCSORG
 10
0.0
 20
0.0
 30
0.0
  9
$UCSXDIR
 10
1.0
 20
0.0
 30
0.0
  9
$UCSYDIR
 10
0.0
 20
1.0
 30
0.0
  9
$UCSORTHOREF
  2

  9
$UCSORTHOVIEW
 70
     0
  9
$UCSORGTOP
 10
0.0
 20
0.0
 30
0.0
  9
$UCSORGBOTTOM
 10
0.0
 20
0.0
 30
0.0
  9
$UCSORGLEFT
 10
0.0
 20
0.0
 30
0.0
  9
$UCSORGRIGHT
 10
0.0
 20
0.0
 30
0.0
  9
$UCSORGFRONT
 10
0.0
 20
0.0
 30
0.0
  9
$UCSORGBACK
 10
0.0
 20
0.0
 30
0.0
  9
$PUCSBASE
  2

  9
$PUCSNAME
  2

  9
$PUCSORG
 10
0.0
 20
0.0
 30
0.0
  9
$PUCSXDIR
 10
1.0
 20
0.0
 30
0.0
  9
$PUCSYDIR
 10
0.0
 20
1.0
 30
0.0
  9
$PUCSORTHOREF
  2

  9
$PUCSORTHOVIEW
 70
     0
  9
$PUCSORGTOP
 10
0.0
 20
0.0
 30
0.0
  9
$PUCSORGBOTTOM
 10
0.0
 20
0.0
 30
0.0
  9
$PUCSORGLEFT
 10
0.0
 20
0.0
 30
0.0
  9
$PUCSORGRIGHT
 10
0.0
 20
0.0
 30
0.0
  9
$PUCSORGFRONT
 10
0.0
 20
0.0
 30
0.0
  9
$PUCSORGBACK
 10
0.0
 20
0.0
 30
0.0
  9
$USERI1
 70
     0
  9
$USERI2
 70
     0
  9
$USERI3
 70
     0
  9
$USERI4
 70
     0
  9
$USERI5
 70
     0
  9
$USERR1
 40
0.0
  9
$USERR2
 40
0.0
  9
$USERR3
 40
0.0
  9
$USERR4
 40
0.0
  9
$USERR5
 40
0.0
  9
$WORLDVIEW
 70
     1
  9
$SHADEDGE
 70
     3
  9
$SHADEDIF
 70
    70
  9
$TILEMODE
 70
     1
  9
$MAXACTVP
 70
    16
  9
$PINSBASE
 10
0.0
 20
0.0
 30
0.0
  9
$PLIMCHECK
 70
     0
  9
$PEXTMIN
 10
1.000000000000000E+20
 20
1.000000000000000E+20
 30
1.000000000000000E+20
  9
$PEXTMAX
 10
-1.000000000000000E+20
 20
-1.000000000000000E+20
 30
-1.000000000000000E+20
  9
$PLIMMIN
 10
0.0
 20
0.0
  9
$PLIMMAX
 10
12.0
 20
9.0
  9
$UNITMODE
 70
     0
  9
$VISRETAIN
 70
     0
  9
$PLINEGEN
 70
     0
  9
$PSLTSCALE
 70
     0
  9
$TREEDEPTH
 70
  3020
  9
$CMLSTYLE
  2
Standard
  9
$CMLJUST
 70
     0
  9
$CMLSCALE
 40
1.0
  9
$PROXYGRAPHICS
 70
     1
  9
$MEASUREMENT
 70
     0
  9
$CELWEIGHT
370
    -1
  9
$ENDCAPS
280
     0
  9
$JOINSTYLE
280
     0
  9
$LWDISPLAY
290
     0
  9
$INSUNITS
 70
     0
  9
$HYPERLINKBASE
  1

  9
$STYLESHEET
  1
monochrome 1.ctb
  9
$XEDIT
290
     1
  9
$CEPSNTYPE
380
     0
  9
$PSTYLEMODE
290
     1
  9
$FINGERPRINTGUID
  2
{7AADB5C8-6110-11D8-B72B-000102183313}
  9
$VERSIONGUID
  2
{A3E3BE96-C14F-4ED7-9A16-B8E82342F9AE}
  9
$EXTNAMES
290
     1
  9
$PSVPSCALE
 40
0.0
  9
$OLESTARTUP
290
     0
  9
$SORTENTS
280
    96
  9
$INDEXCTL
280
     0
  9
$HIDETEXT
280
     0
  9
$XCLIPFRAME
290
     0
  9
$HALOGAP
280
     0
  9
$OBSCOLOR
 70
   257
  9
$OBSLTYPE
280
     0
  9
$INTERSECTIONDISPLAY
280
     0
  9
$INTERSECTIONCOLOR
 70
   257
  9
$DIMASSOC
280
     1
  9
$PROJECTNAME
  1

  0
ENDSEC
  0
SECTION
  2
CLASSES
  0
CLASS
  1
ACDBDICTIONARYWDFLT
  2
AcDbDictionaryWithDefault
  3
ObjectDBX Classes
 90
        0
 91
        1
280
     0
281
     0
  0
CLASS
  1
DICTIONARYVAR
  2
AcDbDictionaryVar
  3
ObjectDBX Classes
 90
        0
 91
        3
280
     0
281
     0
  0
ENDSEC
  0
SECTION
  2
TABLES
  0
TABLE
  2
VPORT
  5
8
330
0
100
AcDbSymbolTable
 70
     3
  0
VPORT
  5
1666
330
8
100
AcDbSymbolTableRecord
100
AcDbViewportTableRecord
  2
*Active
 70
     0
 10
0.0
 20
0.0
 11
1.0
 21
1.0
 12
210.0
 22
297.0
 13
0.0
 23
0.0
 14
1.0
 24
1.0
 15
10.0
 25
10.0
 16
0.0
 26
0.0
 36
1.0
 17
0.0
 27
0.0
 37
0.0
 40
594.0
 41
1.334231805929919
 42
50.0
 43
0.0
 44
0.0
 50
0.0
 51
0.0
 71
     0
 72
  1500
 73
     1
 74
     0
 75
     0
 76
     0
 77
     0
 78
     0
281
     0
 65
     1
110
0.0
120
0.0
130
0.0
111
1.0
121
0.0
131
0.0
112
0.0
122
1.0
132
0.0
 79
     0
146
0.0
  0
ENDTAB
  0
TABLE
  2
LTYPE
  5
5
330
0
100
AcDbSymbolTable
 70
     2
  0
LTYPE
  5
13
330
5
100
AcDbSymbolTableRecord
100
AcDbLinetypeTableRecord
  2
ByBlock
 70
     0
  3

 72
    65
 73
     0
 40
0.0
  0
LTYPE
  5
14
330
5
100
AcDbSymbolTableRecord
100
AcDbLinetypeTableRecord
  2
ByLayer
 70
     0
  3

 72
    65
 73
     0
 40
0.0
  0
LTYPE
  5
15
330
5
100
AcDbSymbolTableRecord
100
AcDbLinetypeTableRecord
  2
Continuous
 70
     0
  3
Solid line
 72
    65
 73
     0
 40
0.0
  0
LTYPE
  5
35
330
5
100
AcDbSymbolTableRecord
100
AcDbLinetypeTableRecord
  2
STRICHPUNKT
 70
     0
  3
__ . __ . __ . __ . __ . __ . __ . __ . __ . __
 72
    65
 73
     4
 40
1.0
 49
0.5
 74
     0
 49
-0.25
 74
     0
 49
0.0
 74
     0
 49
-0.25
 74
     0
  0
ENDTAB
  0
TABLE
  2
LAYER
  5
2
330
0
100
AcDbSymbolTable
 70
     9
  0
LAYER
  5
10
330
2
100
AcDbSymbolTableRecord
100
AcDbLayerTableRecord
  2
0
 70
     0
 62
     7
  6
Continuous
370
    -3
390
F
  0
LAYER
  5
38
330
2
100
AcDbSymbolTableRecord
100
AcDbLayerTableRecord
  2
VOLL
 70
     0
 62
     1
  6
Continuous
370
    -3
390
F
  0
LAYER
  5
39
330
2
100
AcDbSymbolTableRecord
100
AcDbLayerTableRecord
  2
HILF
 70
     0
 62
     2
  6
Continuous
370
    -3
390
F
  0
LAYER
  5
3A
330
2
100
AcDbSymbolTableRecord
100
AcDbLayerTableRecord
  2
MITTEL
 70
     0
 62
     2
  6
STRICHPUNKT
370
    -3
390
F
  0
LAYER
  5
3B
330
2
100
AcDbSymbolTableRecord
100
AcDbLayerTableRecord
  2
BEM
 70
     0
 62
     7
  6
Continuous
370
    -3
390
F
  0
LAYER
  5
3C
330
2
100
AcDbSymbolTableRecord
100
AcDbLayerTableRecord
  2
STEMPEL
 70
     0
 62
     3
  6
Continuous
370
    -3
390
F
  0
LAYER
  5
3D
330
2
100
AcDbSymbolTableRecord
100
AcDbLayerTableRecord
  2
TEXT
 70
     0
 62
     7
  6
Continuous
370
    -3
390
F
  0
LAYER
  5
3E
330
2
100
AcDbSymbolTableRecord
100
AcDbLayerTableRecord
  2
DEFPOINTS
 70
     0
 62
     7
  6
Continuous
290
     0
370
    -3
390
F
  0
LAYER
  5
3F
330
2
100
AcDbSymbolTableRecord
100
AcDbLayerTableRecord
  2
SCHRAFF
 70
     0
 62
     7
  6
Continuous
370
    -3
390
F
  0
ENDTAB
  0
TABLE
  2
STYLE
  5
3
330
0
100
AcDbSymbolTable
 70
     2
  0
STYLE
  5
11
330
3
100
AcDbSymbolTableRecord
100
AcDbTextStyleTableRecord
  2
STANDARD
 70
     0
 40
0.0
 41
0.8
 50
0.0
 71
     0
 42
3.5
  3
simplex.shx
  4

  0
STYLE
  5
34
330
3
100
AcDbSymbolTableRecord
100
AcDbTextStyleTableRecord
  2
GREEKS
 70
     0
 40
0.0
 41
0.8
 50
0.0
 71
     0
 42
2.5
  3
SIMPLEX.shx
  4

  0
ENDTAB
  0
TABLE
  2
VIEW
  5
6
330
0
100
AcDbSymbolTable
 70
     0
  0
ENDTAB
  0
TABLE
  2
UCS
  5
7
330
0
100
AcDbSymbolTable
 70
     0
  0
ENDTAB
  0
TABLE
  2
APPID
  5
9
330
0
100
AcDbSymbolTable
 70
     2
  0
APPID
  5
12
330
9
100
AcDbSymbolTableRecord
100
AcDbRegAppTableRecord
  2
ACAD
 70
     0
  0
APPID
  5
DDB
330
9
100
AcDbSymbolTableRecord
100
AcDbRegAppTableRecord
  2
AVE_RENDER
 70
     0
  0
ENDTAB
  0
TABLE
  2
DIMSTYLE
  5
A
330
0
100
AcDbSymbolTable
 70
     1
100
AcDbDimStyleTable
 71
     1
340
1CB
  0
DIMSTYLE
105
1CB
102
{ACAD_REACTORS
330
13C7
330
148D
330
1641
330
164E
102
}
330
A
100
AcDbSymbolTableRecord
100
AcDbDimStyleTableRecord
  2
Standard
 70
     0
340
11
  0
ENDTAB
  0
TABLE
  2
BLOCK_RECORD
  5
1
330
0
100
AcDbSymbolTable
 70
    10
  0
BLOCK_RECORD
  5
1E
330
1
100
AcDbSymbolTableRecord
100
AcDbBlockTableRecord
  2
*Model_Space
340
21
  0
BLOCK_RECORD
  5
1A
330
1
100
AcDbSymbolTableRecord
100
AcDbBlockTableRecord
  2
*Paper_Space
340
1D
  0
BLOCK_RECORD
  5
22
330
1
100
AcDbSymbolTableRecord
100
AcDbBlockTableRecord
  2
LOGO
340
0
102
{BLKREFS
331
135
102
}
  0
BLOCK_RECORD
  5
13CE
330
1
100
AcDbSymbolTableRecord
100
AcDbBlockTableRecord
  2
*D1
340
0
  0
BLOCK_RECORD
  5
148E
330
1
100
AcDbSymbolTableRecord
100
AcDbBlockTableRecord
  2
*D4
340
0
  0
BLOCK_RECORD
  5
1642
330
1
100
AcDbSymbolTableRecord
100
AcDbBlockTableRecord
  2
*D8
340
0
  0
BLOCK_RECORD
  5
164F
330
1
100
AcDbSymbolTableRecord
100
AcDbBlockTableRecord
  2
*D9
340
0
  0
ENDTAB
  0
ENDSEC
  0
SECTION
  2
BLOCKS
  0
BLOCK
  5
43
330
1E
100
AcDbEntity
  8
0
100
AcDbBlockBegin
  2
*Model_Space
 70
     0
 10
0.0
 20
0.0
 30
0.0
  3
*Model_Space
  1

  0
ENDBLK
  5
44
330
1E
100
AcDbEntity
  8
0
100
AcDbBlockEnd
  0
BLOCK
  5
41
330
1A
100
AcDbEntity
 67
     1
  8
0
100
AcDbBlockBegin
  2
*Paper_Space
 70
     0
 10
0.0
 20
0.0
 30
0.0
  3
*Paper_Space
  1

  0
ENDBLK
  5
42
330
1A
100
AcDbEntity
 67
     1
  8
0
100
AcDbBlockEnd
  0
BLOCK
  5
45
330
22
100
AcDbEntity
  8
0
100
AcDbBlockBegin
  2
LOGO
 70
     0
 10
0.0
 20
0.0
 30
0.0
  3
LOGO
  1

  0
ARC
  5
46
330
22
100
AcDbEntity
  8
0
100
AcDbCircle
 10
11.59973089678112
 20
-9.271599258481501
 30
0.0
 40
4.5
100
AcDbArc
 50
270.0
 51
231.0575587310159
  0
LINE
  5
47
330
22
100
AcDbEntity
  8
0
100
AcDbLine
 10
3.599730896781125
 20
-4.771599258481529
 30
0.0
 11
3.599730896781153
 21
-11.77159925848133
 31
0.0
  0
LINE
  5
48
330
22
100
AcDbEntity
  8
0
100
AcDbLine
 10
2.599730896781125
 20
-4.771599258481529
 30
0.0
 11
2.599730896781153
 21
-11.77159925848133
 31
0.0
  0
CIRCLE
  5
49
330
22
100
AcDbEntity
  8
0
100
AcDbCircle
 10
11.59973089678112
 20
-9.271599258481501
 30
0.0
 40
3.5
  0
ARC
  5
4A
330
22
100
AcDbEntity
  8
0
100
AcDbCircle
 10
31.59973089678115
 20
-9.271599258481472
 30
0.0
 40
4.5
100
AcDbArc
 50
270.0
 51
231.0575587310182
  0
LINE
  5
4B
330
22
100
AcDbEntity
  8
0
100
AcDbLine
 10
17.59973089678112
 20
-4.771599258481472
 30
0.0
 11
17.59973089678115
 21
-13.77159925848147
 31
0.0
  0
ARC
  5
4C
330
22
100
AcDbEntity
  8
0
100
AcDbCircle
 10
22.59973089678116
 20
-7.271599258481472
 30
0.0
 40
2.5
100
AcDbArc
 50
293.1161887722295
 51
90.0
  0
CIRCLE
  5
4D
330
22
100
AcDbEntity
  8
0
100
AcDbCircle
 10
31.59973089678115
 20
-9.271599258481472
 30
0.0
 40
3.5
  0
ARC
  5
4E
330
22
100
AcDbEntity
  8
0
100
AcDbCircle
 10
4.599730896781153
 20
-11.77159925848133
 30
0.0
 40
1.0
100
AcDbArc
 50
180.0
 51
270.0
  0
ARC
  5
4F
330
22
100
AcDbEntity
  8
0
100
AcDbCircle
 10
4.599730896781153
 20
-11.77159925848133
 30
0.0
 40
2.0
100
AcDbArc
 50
179.9999999999992
 51
270.0
  0
LINE
  5
50
330
22
100
AcDbEntity
  8
0
100
AcDbLine
 10
11.59973089678115
 20
-13.77159925848144
 30
0.0
 11
4.599730896781153
 21
-13.77159925848147
 31
0.0
  0
LINE
  5
51
330
22
100
AcDbEntity
  8
0
100
AcDbLine
 10
8.771303772034769
 20
-12.77159925848136
 30
0.0
 11
4.599730896781153
 21
-12.77159925848133
 31
0.0
  0
LINE
  5
52
330
22
100
AcDbEntity
  8
0
100
AcDbLine
 10
31.59973089678115
 20
-13.77159925848147
 30
0.0
 11
23.6715276665056
 21
-13.77159925848144
 31
0.0
  0
LINE
  5
53
330
22
100
AcDbEntity
  8
0
100
AcDbLine
 10
23.56565672307022
 20
-9.51278021337896
 30
0.0
 11
24.4388546544846
 21
-12.77159925848144
 31
0.0
  0
LINE
  5
54
330
22
100
AcDbEntity
  8
0
100
AcDbLine
 10
22.59973089678116
 20
-9.771599258481472
 30
0.0
 11
18.59973089678112
 21
-9.771599258481472
 31
0.0
  0
LINE
  5
55
330
22
100
AcDbEntity
  8
0
100
AcDbLine
 10
18.59973089678115
 20
-13.77159925848144
 30
0.0
 11
17.59973089678115
 21
-13.77159925848144
 31
0.0
  0
LINE
  5
56
330
22
100
AcDbEntity
  8
0
100
AcDbLine
 10
18.59973089678115
 20
-9.771599258481472
 30
0.0
 11
18.59973089678115
 21
-13.77159925848144
 31
0.0
  0
LINE
  5
57
330
22
100
AcDbEntity
  8
0
100
AcDbLine
 10
22.59973089678116
 20
-9.771599258481472
 30
0.0
 11
23.67152766650562
 21
-13.77159925848147
 31
0.0
  0
ARC
  5
58
330
22
100
AcDbEntity
  8
0
100
AcDbCircle
 10
22.59973089678116
 20
-7.271599258481472
 30
0.0
 40
2.5
100
AcDbArc
 50
270.0
 51
270.0000000000007
  0
LINE
  5
59
330
22
100
AcDbEntity
  8
0
100
AcDbLine
 10
28.77130377203494
 20
-12.77159925848147
 30
0.0
 11
24.43885465448463
 21
-12.77159925848144
 31
0.0
  0
LINE
  5
5A
330
22
100
AcDbEntity
  8
0
100
AcDbLine
 10
3.599730896781125
 20
-4.771599258481472
 30
0.0
 11
2.599730896781125
 21
-4.771599258481472
 31
0.0
  0
LINE
  5
5B
330
22
100
AcDbEntity
  8
0
100
AcDbLine
 10
22.59973089678116
 20
-8.771599258481472
 30
0.0
 11
18.59973089678115
 21
-8.771599258481472
 31
0.0
  0
LINE
  5
5C
330
22
100
AcDbEntity
  8
0
100
AcDbLine
 10
22.59973089678116
 20
-5.771599258481472
 30
0.0
 11
18.59973089678115
 21
-5.771599258481472
 31
0.0
  0
LINE
  5
5D
330
22
100
AcDbEntity
  8
0
100
AcDbLine
 10
22.59973089678116
 20
-4.771599258481472
 30
0.0
 11
17.59973089678115
 21
-4.771599258481472
 31
0.0
  0
LINE
  5
5E
330
22
100
AcDbEntity
  8
0
100
AcDbLine
 10
18.59973089678115
 20
-5.771599258481472
 30
0.0
 11
18.59973089678115
 21
-8.771599258481472
 31
0.0
  0
ARC
  5
5F
330
22
100
AcDbEntity
  8
0
100
AcDbCircle
 10
22.59973089678116
 20
-7.271599258481472
 30
0.0
 40
1.5
100
AcDbArc
 50
270.0
 51
90.0
  0
ENDBLK
  5
60
330
22
100
AcDbEntity
  8
0
100
AcDbBlockEnd
  0
BLOCK
  5
13D8
330
13CE
100
AcDbEntity
  8
0
100
AcDbBlockBegin
  2
*D1
 70
     1
 10
0.0
 20
0.0
 30
0.0
  3
*D1
  1

  0
LINE
  5
154D
330
13CE
100
AcDbEntity
  8
BEM
 62
     0
370
    -2
100
AcDbLine
 10
99.20608822072995
 20
180.6737970241374
 30
0.0
 11
99.20608822072995
 21
151.5839077710602
 31
0.0
  0
LINE
  5
154E
330
13CE
100
AcDbEntity
  8
BEM
 62
     0
370
    -2
100
AcDbLine
 10
200.8060882207299
 20
180.6737970241369
 30
0.0
 11
200.8060882207299
 21
151.5839077710602
 31
0.0
  0
LINE
  5
154F
330
13CE
100
AcDbEntity
  8
BEM
 62
     0
370
    -2
100
AcDbLine
 10
106.2060882207299
 20
153.5839077710602
 30
0.0
 11
193.8060882207298
 21
153.5839077710602
 31
0.0
  0
SOLID
  5
1550
330
13CE
100
AcDbEntity
  8
BEM
 62
     0
100
AcDbTrace
 10
106.2060882207299
 20
154.7505744377269
 30
0.0
 11
106.2060882207299
 21
152.4172411043936
 31
0.0
 12
99.20608822072995
 22
153.5839077710602
 32
0.0
 13
99.20608822072995
 23
153.5839077710602
 33
0.0
  0
SOLID
  5
1551
330
13CE
100
AcDbEntity
  8
BEM
 62
     0
100
AcDbTrace
 10
193.8060882207298
 20
154.7505744377269
 30
0.0
 11
193.8060882207298
 21
152.4172411043936
 31
0.0
 12
200.8060882207299
 22
153.5839077710602
 32
0.0
 13
200.8060882207299
 23
153.5839077710602
 33
0.0
  0
MTEXT
  5
1552
330
13CE
100
AcDbEntity
  8
BEM
 62
     1
100
AcDbMText
 10
150.0060882207299
 20
160.0839077710602
 30
0.0
 40
7.0
 41
0.0
 71
     5
 72
     1
  1
\A1;%%c101.6
 73
     1
 44
1.0
  0
POINT
  5
1553
330
13CE
100
AcDbEntity
  8
DEFPOINTS
 62
     0
100
AcDbPoint
 10
99.20608822072995
 20
182.6737970241374
 30
0.0
  0
POINT
  5
1554
330
13CE
100
AcDbEntity
  8
DEFPOINTS
 62
     0
100
AcDbPoint
 10
200.8060882207299
 20
182.6737970241369
 30
0.0
  0
POINT
  5
1555
330
13CE
100
AcDbEntity
  8
DEFPOINTS
 62
     0
100
AcDbPoint
 10
200.8060882207299
 20
153.5839077710602
 30
0.0
  0
ENDBLK
  5
13D9
330
13CE
100
AcDbEntity
  8
0
100
AcDbBlockEnd
  0
BLOCK
  5
1498
330
148E
100
AcDbEntity
  8
0
100
AcDbBlockBegin
  2
*D4
 70
     1
 10
0.0
 20
0.0
 30
0.0
  3
*D4
  1

  0
LINE
  5
162B
330
148E
100
AcDbEntity
  8
BEM
 62
     0
370
    -2
100
AcDbLine
 10
97.90599752893729
 20
174.6737970241374
 30
0.0
 11
76.61253957896993
 21
174.6737970241374
 31
0.0
  0
LINE
  5
162C
330
148E
100
AcDbEntity
  8
BEM
 62
     0
370
    -2
100
AcDbLine
 10
148.0060882207299
 20
411.6737970241371
 30
0.0
 11
76.61253957896997
 21
411.6737970241372
 31
0.0
  0
LINE
  5
162D
330
148E
100
AcDbEntity
  8
BEM
 62
     0
370
    -2
100
AcDbLine
 10
78.61253957896993
 20
181.6737970241374
 30
0.0
 11
78.61253957896997
 21
404.6737970241371
 31
0.0
  0
SOLID
  5
162E
330
148E
100
AcDbEntity
  8
BEM
 62
     0
100
AcDbTrace
 10
77.44587291230326
 20
181.6737970241374
 30
0.0
 11
79.7792062456366
 21
181.6737970241374
 31
0.0
 12
78.61253957896993
 22
174.6737970241374
 32
0.0
 13
78.61253957896993
 23
174.6737970241374
 33
0.0
  0
SOLID
  5
162F
330
148E
100
AcDbEntity
  8
BEM
 62
     0
100
AcDbTrace
 10
77.4458729123033
 20
404.6737970241371
 30
0.0
 11
79.77920624563664
 21
404.6737970241371
 31
0.0
 12
78.61253957896997
 22
411.6737970241372
 32
0.0
 13
78.61253957896997
 23
411.6737970241372
 33
0.0
  0
MTEXT
  5
1630
330
148E
100
AcDbEntity
  8
BEM
 62
     1
100
AcDbMText
 10
72.1125395789699
 20
293.1737970241373
 30
0.0
 40
7.0
 41
0.0
 71
     5
 72
     1
  1
\A1;237
 11
0.0000000000000001
 21
1.0
 31
0.0
 73
     1
 44
1.0
  0
POINT
  5
1631
330
148E
100
AcDbEntity
  8
DEFPOINTS
 62
     0
100
AcDbPoint
 10
99.90599752893729
 20
174.6737970241374
 30
0.0
  0
POINT
  5
1632
330
148E
100
AcDbEntity
  8
DEFPOINTS
 62
     0
100
AcDbPoint
 10
150.0060882207299
 20
411.6737970241371
 30
0.0
  0
POINT
  5
1633
330
148E
100
AcDbEntity
  8
DEFPOINTS
 62
     0
100
AcDbPoint
 10
78.61253957896997
 20
411.6737970241372
 30
0.0
  0
ENDBLK
  5
1499
330
148E
100
AcDbEntity
  8
0
100
AcDbBlockEnd
  0
BLOCK
  5
164C
330
1642
100
AcDbEntity
  8
0
100
AcDbBlockBegin
  2
*D8
 70
     1
 10
0.0
 20
0.0
 30
0.0
  3
*D8
  1

  0
LINE
  5
165C
330
1642
100
AcDbEntity
  8
BEM
 62
     0
370
    -2
100
AcDbLine
 10
383.7189726742904
 20
480.6017614860201
 30
0.0
 11
380.7136357222747
 21
537.9470066601091
 31
0.0
  0
LINE
  5
165D
330
1642
100
AcDbEntity
  8
BEM
 62
     0
370
    -2
100
AcDbLine
 10
149.901416308244
 20
413.6710560936463
 30
0.0
 11
144.0384359854398
 21
525.5433850305309
 31
0.0
  0
LINE
  5
165E
330
1642
100
AcDbEntity
  8
BEM
 62
     0
370
    -2
100
AcDbLine
 10
373.8279008914787
 20
535.5833958968992
 30
0.0
 11
151.1335146412077
 21
523.9124776547223
 31
0.0
  0
SOLID
  5
165F
330
1642
100
AcDbEntity
  8
BEM
 62
     0
100
AcDbTrace
 10
373.7668422758618
 20
536.7484636874462
 30
0.0
 11
373.8889595070954
 21
534.4183281063522
 31
0.0
 12
380.8183076347606
 22
535.9497475905998
 32
0.0
 13
380.8183076347606
 23
535.9497475905998
 33
0.0
  0
SOLID
  5
1660
330
1642
100
AcDbEntity
  8
BEM
 62
     0
100
AcDbTrace
 10
151.0724560255909
 20
525.0775454452694
 30
0.0
 11
151.1945732568245
 21
522.7474098641754
 31
0.0
 12
144.1431078979257
 22
523.5461259610217
 32
0.0
 13
144.1431078979257
 23
523.5461259610217
 33
0.0
  0
MTEXT
  5
1661
330
1642
100
AcDbEntity
  8
BEM
 62
     1
100
AcDbMText
 10
262.1405240507641
 20
536.2390287517155
 30
0.0
 40
7.0
 41
0.0
 71
     5
 72
     1
  1
\A1;237
 11
0.9986295347545738
 21
0.0523359562429453
 31
0.0
 73
     1
 44
1.0
  0
POINT
  5
1662
330
1642
100
AcDbEntity
  8
DEFPOINTS
 62
     0
100
AcDbPoint
 10
383.8236445867762
 20
478.6045024165109
 30
0.0
  0
POINT
  5
1663
330
1642
100
AcDbEntity
  8
DEFPOINTS
 62
     0
100
AcDbPoint
 10
150.0060882207299
 20
411.6737970241371
 30
0.0
  0
POINT
  5
1664
330
1642
100
AcDbEntity
  8
DEFPOINTS
 62
     0
100
AcDbPoint
 10
144.1431078979257
 20
523.5461259610217
 30
0.0
  0
ENDBLK
  5
164D
330
1642
100
AcDbEntity
  8
0
100
AcDbBlockEnd
  0
BLOCK
  5
165A
330
164F
100
AcDbEntity
  8
0
100
AcDbBlockBegin
  2
*D9
 70
     1
 10
0.0
 20
0.0
 30
0.0
  3
*D9
  1

  0
LINE
  5
1650
330
164F
100
AcDbEntity
  8
BEM
 62
     0
370
    -2
100
AcDbLine
 10
150.0060882207299
 20
413.6737970241371
 30
0.0
 11
150.00608822073
 21
506.4282187635604
 31
0.0
  0
ARC
  5
1651
330
164F
100
AcDbEntity
  8
BEM
 62
     0
370
    -2
100
AcDbCircle
 10
150.0060882207299
 20
411.6737970241371
 30
0.0
 40
92.75442173942327
100
AcDbArc
 50
7.325030419430642
 51
85.67496958056944
  0
SOLID
  5
1652
330
164F
100
AcDbEntity
  8
BEM
 62
     0
100
AcDbTrace
 10
243.1654601663565
 20
423.60477060092
 30
0.0
 11
240.8415920456383
 21
423.3948148866526
 31
0.0
 12
242.6333932487998
 22
416.5281883816313
 32
0.0
 13
242.6333932487998
 23
416.5281883816313
 33
0.0
  0
SOLID
  5
1653
330
164F
100
AcDbEntity
  8
BEM
 62
     0
100
AcDbTrace
 10
156.9570798821375
 20
502.998244625978
 30
0.0
 11
157.0451259991152
 21
505.3299161992767
 31
0.0
 12
150.0060882207299
 22
504.4282187635604
 32
0.0
 13
150.0060882207299
 23
504.4282187635604
 33
0.0
  0
MTEXT
  5
1654
330
164F
100
AcDbEntity
  8
BEM
 62
     1
100
AcDbMText
 10
218.3283235828995
 20
483.6704107635596
 30
0.0
 40
7.0
 41
0.0
 71
     5
 72
     1
  1
\A1;87°
 11
0.7253743710122878
 21
-0.6883545756937539
 31
0.0
 73
     1
 44
1.0
  0
POINT
  5
1655
330
164F
100
AcDbEntity
  8
DEFPOINTS
 62
     0
100
AcDbPoint
 10
228.666298986938
 20
460.8261519466688
 30
0.0
  0
POINT
  5
1656
330
164F
100
AcDbEntity
  8
DEFPOINTS
 62
     0
100
AcDbPoint
 10
150.0060882207299
 20
411.6737970241371
 30
0.0
  0
POINT
  5
1657
330
164F
100
AcDbEntity
  8
DEFPOINTS
 62
     0
100
AcDbPoint
 10
391.6744356313365
 20
424.3390984349296
 30
0.0
  0
POINT
  5
1658
330
164F
100
AcDbEntity
  8
DEFPOINTS
 62
     0
100
AcDbPoint
 10
150.0060882207299
 20
411.6737970241371
 30
0.0
  0
POINT
  5
1659
330
164F
100
AcDbEntity
  8
DEFPOINTS
 62
     0
100
AcDbPoint
 10
150.0060882207299
 20
169.6737970241374
 30
0.0
  0
ENDBLK
  5
165B
330
164F
100
AcDbEntity
  8
0
100
AcDbBlockEnd
  0
ENDSEC
  0
SECTION
  2
ENTITIES
  0
TEXT
  5
134
330
1E
100
AcDbEntity
  8
TEXT
100
AcDbText
 10
204.4216048581257
 20
63.0896391972351
 30
0.0
 40
4.0
  1
Koeh
 41
0.8
  7
GREEKS
 72
     1
 11
209.6787477152686
 21
63.0896391972351
 31
0.0
100
AcDbText
  0
INSERT
  5
135
330
1E
100
AcDbEntity
  8
STEMPEL
100
AcDbBlockReference
  2
LOGO
 10
150.9955485457794
 20
45.02105276448322
 30
0.0
 41
2.0
 42
2.0
 43
2.0
  0
LINE
  5
136
330
1E
100
AcDbEntity
  8
HILF
100
AcDbLine
 10
420.0
 20
0.0
 30
0.0
 11
0.0
 21
0.0
 31
0.0
  0
LINE
  5
137
330
1E
100
AcDbEntity
  8
HILF
100
AcDbLine
 10
419.9999999999999
 20
594.0000000000002
 30
0.0
 11
0.0
 21
594.0
 31
0.0
  0
LINE
  5
138
330
1E
100
AcDbEntity
  8
STEMPEL
100
AcDbLine
 10
410.0
 20
584.0
 30
0.0
 11
39.99999999999989
 21
584.0
 31
0.0
  0
LINE
  5
139
330
1E
100
AcDbEntity
  8
STEMPEL
100
AcDbLine
 10
410.0
 20
10.0
 30
0.0
 11
39.99999999999989
 21
10.0
 31
0.0
  0
LINE
  5
13A
330
1E
100
AcDbEntity
  8
STEMPEL
100
AcDbLine
 10
49.99999999999989
 20
10.0
 30
0.0
 11
410.0
 21
10.0
 31
0.0
  0
TEXT
  5
13B
330
1E
100
AcDbEntity
  8
TEXT
100
AcDbText
 10
202.4626584226295
 20
73.30961091915225
 30
0.0
 40
4.0
  1
Name
 41
0.8
  7
GREEKS
100
AcDbText
  0
TEXT
  5
13C
330
1E
100
AcDbEntity
  8
TEXT
100
AcDbText
 10
196.5498279101549
 20
102.6506227776589
 30
0.0
 40
5.0
  1
Zul. Abw.
 41
0.8
  7
GREEKS
 72
     4
 11
209.9783993387263
 21
105.1506227776589
 31
0.0
100
AcDbText
  0
LINE
  5
13D
330
1E
100
AcDbEntity
  8
HILF
100
AcDbLine
 10
146.0000000000001
 20
49.99999999999997
 30
0.0
 11
230.0
 21
49.99999999999997
 31
0.0
  0
LINE
  5
13E
330
1E
100
AcDbEntity
  8
HILF
100
AcDbLine
 10
146.0000000000001
 20
59.99999999999997
 30
0.0
 11
230.0
 21
59.99999999999997
 31
0.0
  0
LINE
  5
13F
330
1E
100
AcDbEntity
  8
HILF
100
AcDbLine
 10
146.0000000000001
 20
69.99999999999994
 30
0.0
 11
230.0
 21
69.99999999999994
 31
0.0
  0
LINE
  5
140
330
1E
100
AcDbEntity
  8
STEMPEL
100
AcDbLine
 10
410.0
 20
80.0
 30
0.0
 11
146.0000000000001
 21
79.99999999999994
 31
0.0
  0
LINE
  5
141
330
1E
100
AcDbEntity
  8
STEMPEL
100
AcDbLine
 10
410.0
 20
40.0
 30
0.0
 11
146.0000000000001
 21
39.99999999999997
 31
0.0
  0
LINE
  5
142
330
1E
100
AcDbEntity
  8
STEMPEL
100
AcDbLine
 10
410.0
 20
110.0
 30
0.0
 11
39.99999999999997
 21
110.0
 31
0.0
  0
LINE
  5
144
330
1E
100
AcDbEntity
  8
HILF
100
AcDbLine
 10
0.0
 20
0.0
 30
0.0
 11
-0.0000000000001137
 21
594.0
 31
0.0
  0
LINE
  5
145
330
1E
100
AcDbEntity
  8
STEMPEL
100
AcDbLine
 10
40.0
 20
10.0
 30
0.0
 11
39.99999999999989
 21
584.0
 31
0.0
  0
LINE
  5
148
330
1E
100
AcDbEntity
  8
HILF
100
AcDbLine
 10
40.00000000000008
 20
39.99999999999997
 30
0.0
 11
146.0000000000001
 21
39.99999999999997
 31
0.0
  0
LINE
  5
149
330
1E
100
AcDbEntity
  8
HILF
100
AcDbLine
 10
40.00000000000008
 20
49.99999999999997
 30
0.0
 11
146.0000000000001
 21
49.99999999999997
 31
0.0
  0
LINE
  5
14A
330
1E
100
AcDbEntity
  8
HILF
100
AcDbLine
 10
40.00000000000008
 20
59.99999999999997
 30
0.0
 11
146.0000000000001
 21
59.99999999999997
 31
0.0
  0
LINE
  5
14B
330
1E
100
AcDbEntity
  8
HILF
100
AcDbLine
 10
40.00000000000008
 20
69.99999999999994
 30
0.0
 11
146.0000000000001
 21
69.99999999999994
 31
0.0
  0
LINE
  5
14C
330
1E
100
AcDbEntity
  8
HILF
100
AcDbLine
 10
40.00000000000008
 20
79.99999999999994
 30
0.0
 11
146.0000000000001
 21
79.99999999999994
 31
0.0
  0
LINE
  5
14D
330
1E
100
AcDbEntity
  8
HILF
100
AcDbLine
 10
40.00000000000008
 20
90.00000000000005
 30
0.0
 11
146.0000000000001
 21
90.00000000000005
 31
0.0
  0
LINE
  5
14E
330
1E
100
AcDbEntity
  8
HILF
100
AcDbLine
 10
40.00000000000008
 20
100.0
 30
0.0
 11
146.0000000000001
 21
100.0
 31
0.0
  0
LINE
  5
14F
330
1E
100
AcDbEntity
  8
STEMPEL
100
AcDbLine
 10
145.9999999999999
 20
29.99999999999997
 30
0.0
 11
39.99999999999997
 21
29.99999999999997
 31
0.0
  0
TEXT
  5
150
330
1E
100
AcDbEntity
  8
TEXT
100
AcDbText
 10
48.26641107045756
 20
13.65465846027192
 30
0.0
 40
4.0
  1
Index
 50
90.0
 41
0.8
  7
GREEKS
100
AcDbText
  0
LINE
  5
151
330
1E
100
AcDbEntity
  8
VOLL
100
AcDbLine
 10
54.00000000000009
 20
110.0
 30
0.0
 11
53.99999999999997
 21
9.999999999999971
 31
0.0
  0
LINE
  5
152
330
1E
100
AcDbEntity
  8
HILF
100
AcDbLine
 10
31.08767135713856
 20
297.0
 30
0.0
 11
0.0000000000001137
 21
297.0
 31
0.0
  0
LINE
  5
154
330
1E
100
AcDbEntity
  8
VOLL
100
AcDbLine
 10
124.0000000000001
 20
109.9999999999999
 30
0.0
 11
124.0
 21
9.999999999999971
 31
0.0
  0
LINE
  5
155
330
1E
100
AcDbEntity
  8
VOLL
100
AcDbLine
 10
104.0000000000001
 20
109.9999999999999
 30
0.0
 11
104.0
 21
9.999999999999971
 31
0.0
  0
LINE
  5
157
330
1E
100
AcDbEntity
  8
STEMPEL
100
AcDbLine
 10
146.0000000000001
 20
109.9999999999999
 30
0.0
 11
146.0
 21
9.999999999999971
 31
0.0
  0
TEXT
  5
159
330
1E
100
AcDbEntity
  8
TEXT
100
AcDbText
 10
172.331167315365
 20
73.31880501229926
 30
0.0
 40
4.0
  1
Tag
 41
0.8
  7
GREEKS
100
AcDbText
  0
TEXT
  5
15A
330
1E
100
AcDbEntity
  8
TEXT
100
AcDbText
 10
147.5836127167615
 20
63.62990369617964
 30
0.0
 40
4.0
  1
Gez.
 41
0.8
  7
GREEKS
100
AcDbText
  0
LINE
  5
15B
330
1E
100
AcDbEntity
  8
VOLL
100
AcDbLine
 10
164.0000000000001
 20
79.99999999999994
 30
0.0
 11
164.0000000000001
 21
39.99999999999997
 31
0.0
  0
TEXT
  5
15C
330
1E
100
AcDbEntity
  8
TEXT
100
AcDbText
 10
147.6006777387303
 20
43.52946389649807
 30
0.0
 40
4.0
  1
Norm.
 41
0.8
  7
GREEKS
100
AcDbText
  0
TEXT
  5
15D
330
1E
100
AcDbEntity
  8
TEXT
100
AcDbText
 10
147.5515086571672
 20
53.68926291428377
 30
0.0
 40
4.0
  1
Gepr.
 41
0.8
  7
GREEKS
100
AcDbText
  0
TEXT
  5
15E
330
1E
100
AcDbEntity
  8
TEXT
 62
     1
100
AcDbText
 10
160.5006306481887
 20
88.14901428913959
 30
0.0
 40
7.0
  1
1:2
 41
0.8
  7
GREEKS
100
AcDbText
  0
TEXT
  5
160
330
1E
100
AcDbEntity
  8
TEXT
100
AcDbText
 10
148.622109822104
 20
73.14025471151666
 30
0.0
 40
4.0
  1
2011
 41
0.8
  7
GREEKS
100
AcDbText
  0
LINE
  5
161
330
1E
100
AcDbEntity
  8
VOLL
100
AcDbLine
 10
190.0000000000001
 20
109.9999999999998
 30
0.0
 11
190.0
 21
39.99999999999997
 31
0.0
  0
LINE
  5
186
330
1E
100
AcDbEntity
  8
HILF
100
AcDbLine
 10
420.0
 20
-0.0000000000001137
 30
0.0
 11
419.9999999999999
 21
594.0
 31
0.0
  0
LINE
  5
187
330
1E
100
AcDbEntity
  8
STEMPEL
100
AcDbLine
 10
410.0
 20
10.0
 30
0.0
 11
410.0
 21
584.0
 31
0.0
  0
TEXT
  5
188
330
1E
100
AcDbEntity
  8
TEXT
100
AcDbText
 10
337.2400861497006
 20
52.07416177878602
 30
0.0
 40
5.0
  1
ersetzt durch:
 41
0.8
  7
GREEKS
100
AcDbText
  0
TEXT
  5
18A
330
1E
100
AcDbEntity
  8
TEXT
100
AcDbText
 10
336.178754957634
 20
102.3132034537136
 30
0.0
 40
5.0
  1
Zeichnungs Nr.
 41
0.8
  7
GREEKS
100
AcDbText
  0
LINE
  5
18B
330
1E
100
AcDbEntity
  8
HILF
100
AcDbLine
 10
233.4909699289885
 20
14.89398258028314
 30
0.0
 11
404.8588839326728
 21
14.89398258028314
 31
0.0
  0
LINE
  5
18C
330
1E
100
AcDbEntity
  8
HILF
100
AcDbLine
 10
336.7238616296993
 20
83.77983636955827
 30
0.0
 11
404.8588839326728
 21
83.77983636955827
 31
0.0
  0
LINE
  5
18D
330
1E
100
AcDbEntity
  8
VOLL
100
AcDbLine
 10
332.0
 20
60.0
 30
0.0
 11
410.0
 21
60.0
 31
0.0
  0
TEXT
  5
18E
330
1E
100
AcDbEntity
  8
TEXT
 62
     1
100
AcDbText
 10
234.9283864320014
 20
87.41748789253779
 30
0.0
 40
7.0
  1
Bogen DN100 87°
 41
0.8
  7
GREEKS
100
AcDbText
  0
LINE
  5
18F
330
1E
100
AcDbEntity
  8
HILF
100
AcDbLine
 10
234.7736801096947
 20
49.99999999999997
 30
0.0
 11
324.835391655631
 21
49.99999999999997
 31
0.0
  0
LINE
  5
190
330
1E
100
AcDbEntity
  8
HILF
100
AcDbLine
 10
234.7736801096947
 20
59.99999999999997
 30
0.0
 11
324.835391655631
 21
59.99999999999997
 31
0.0
  0
LINE
  5
191
330
1E
100
AcDbEntity
  8
HILF
100
AcDbLine
 10
234.7736801096947
 20
69.99999999999994
 30
0.0
 11
324.835391655631
 21
69.99999999999994
 31
0.0
  0
LINE
  5
192
330
1E
100
AcDbEntity
  8
HILF
100
AcDbLine
 10
234.7736801096947
 20
84.03758247564139
 30
0.0
 11
324.8353916556311
 21
84.03758247564139
 31
0.0
  0
LINE
  5
193
330
1E
100
AcDbEntity
  8
STEMPEL
100
AcDbLine
 10
230.0
 20
110.0
 30
0.0
 11
230.0
 21
9.999999999999971
 31
0.0
  0
TEXT
  5
194
330
1E
100
AcDbEntity
  8
TEXT
100
AcDbText
 10
235.1296391125315
 20
71.50334417585288
 30
0.0
 40
5.0
  1
dünnwandig
 41
0.8
  7
GREEKS
100
AcDbText
  0
TEXT
  5
195
330
1E
100
AcDbEntity
  8
TEXT
100
AcDbText
 10
234.9837501577827
 20
42.62974153022632
 30
0.0
 40
4.0
  1
5300100W.DWG
 41
0.8
  7
GREEKS
100
AcDbText
  0
TEXT
  5
196
330
1E
100
AcDbEntity
  8
TEXT
100
AcDbText
 10
234.742238391136
 20
30.84560570193057
 30
0.0
 40
5.0
  1
Bauvorhaben
 41
0.8
  7
GREEKS
100
AcDbText
  0
TEXT
  5
197
330
1E
100
AcDbEntity
  8
TEXT
100
AcDbText
 10
234.877940380901
 20
102.5489328011779
 30
0.0
 40
5.0
  1
Benennung
 41
0.8
  7
GREEKS
100
AcDbText
  0
LINE
  5
198
330
1E
100
AcDbEntity
  8
STEMPEL
100
AcDbLine
 10
332.0
 20
109.9999999999997
 30
0.0
 11
332.0
 21
40.0
 31
0.0
  0
TEXT
  5
19A
330
1E
100
AcDbEntity
  8
TEXT
 62
     1
100
AcDbText
 10
348.0209001885017
 20
88.14901428913959
 30
0.0
 40
7.0
  1
5300100W
 41
0.8
  7
GREEKS
 72
     1
 11
368.8209001885017
 21
88.14901428913959
 31
0.0
100
AcDbText
  0
TEXT
  5
212
330
1E
100
AcDbEntity
  8
TEXT
100
AcDbText
 10
235.1296391125315
 20
51.50334417585291
 30
0.0
 40
5.0
  1
EDV-Art.Nr. 5.300.100C
 41
0.8
  7
GREEKS
100
AcDbText
  0
TEXT
  5
E61
330
1E
100
AcDbEntity
  8
TEXT
 62
     1
100
AcDbText
 10
297.0573649355706
 20
132.2248663682012
 30
0.0
 40
7.0
  1
Werkstoff: 1.4404
 41
0.8
  7
GREEKS
100
AcDbText
  0
LINE
  5
1006
330
1E
100
AcDbEntity
  8
MITTEL
100
AcDbLine
 10
391.6744356313366
 20
424.3390984349296
 30
0.0
 11
150.0060882207299
 21
411.6737970241371
 31
0.0
  0
LINE
  5
1007
330
1E
100
AcDbEntity
  8
MITTEL
100
AcDbLine
 10
233.4922794329943
 20
416.0491229063714
 30
0.0
 11
150.0060882207297
 21
328.0730338714807
 31
0.0
  0
LINE
  5
1008
330
1E
100
AcDbEntity
  8
MITTEL
100
AcDbLine
 10
150.0060882207299
 20
411.6737970241371
 30
0.0
 11
150.0060882207299
 21
169.6737970241374
 31
0.0
  0
TEXT
  5
12CF
330
1E
100
AcDbEntity
  8
VOLL
100
AcDbText
 10
1383.918177163095
 20
253.7900361884587
 30
0.0
 40
1.8
  1

  7
GREEKS
100
AcDbText
  0
DIMENSION
  5
13C7
330
1E
100
AcDbEntity
  8
BEM
100
AcDbDimension
  2
*D1
 10
200.8060882207299
 20
153.5839077710602
 30
0.0
 11
150.0060882207299
 21
160.0839077710602
 31
0.0
 70
    32
  1
%%c<>
 71
     5
 42
101.5999999999999
  3
Standard
100
AcDbAlignedDimension
 13
99.20608822072995
 23
182.6737970241374
 33
0.0
 14
200.8060882207299
 24
182.6737970241369
 34
0.0
100
AcDbRotatedDimension
1001
ACAD
1000
DSTYLE
1002
{
1070
    40
1040
2.0
1070
    41
1040
3.5
1070
    42
1040
1.0
1070
    43
1040
7.0
1070
    44
1040
1.0
1070
    73
1070
     0
1070
    74
1070
     0
1070
    77
1070
     1
1070
    78
1070
     8
1070
    79
1070
     2
1070
   140
1040
3.5
1070
   141
1040
1.5
1070
   146
1040
0.5142857142857144
1070
   147
1040
1.5
1070
   172
1070
     1
1070
   178
1070
     1
1070
   179
1070
     2
1070
   271
1070
     2
1070
   272
1070
     2
1070
   284
1070
     8
1070
   285
1070
     8
1070
   286
1070
     8
1002
}
  0
LINE
  5
13C8
330
1E
100
AcDbEntity
  8
HILF
100
AcDbLine
 10
199.5513134238003
 20
182.6737970241369
 30
0.0
 11
100.460863017659
 21
182.6737970241374
 31
0.0
  0
LINE
  5
13C9
330
1E
100
AcDbEntity
  8
STEMPEL
100
AcDbLine
 10
200.1061789125224
 20
174.6737970241369
 30
0.0
 11
99.90599752893729
 21
174.6737970241374
 31
0.0
  0
LINE
  5
13CA
330
1E
100
AcDbEntity
  8
STEMPEL
100
AcDbLine
 10
99.20608822072995
 20
182.6737970241374
 30
0.0
 11
99.90599752893729
 21
174.6737970241374
 31
0.0
  0
LINE
  5
13CB
330
1E
100
AcDbEntity
  8
STEMPEL
100
AcDbLine
 10
200.8060882207299
 20
182.6737970241381
 30
0.0
 11
200.1061789125224
 21
174.6737970241369
 31
0.0
  0
LINE
  5
13CC
102
{ACAD_REACTORS
330
1465
102
}
330
1E
100
AcDbEntity
  8
STEMPEL
100
AcDbLine
 10
200.8060882207295
 20
307.8058889360155
 30
0.0
 11
200.8060882207299
 21
182.6737970241369
 31
0.0
  0
LINE
  5
13CD
330
1E
100
AcDbEntity
  8
STEMPEL
100
AcDbLine
 10
99.20608822072995
 20
348.340178806946
 30
0.0
 11
99.20608822072995
 21
182.6737970241374
 31
0.0
  0
TEXT
  5
13E8
330
1E
100
AcDbEntity
  8
TEXT
 62
     1
100
AcDbText
 10
350.8936806883373
 20
437.8737485177696
 30
0.0
 40
7.0
  1
DN100
 50
2.999999999999731
 41
0.8
  7
GREEKS
100
AcDbText
  0
LINE
  5
143D
330
1E
100
AcDbEntity
  8
STEMPEL
100
AcDbLine
 10
210.5942433381459
 20
465.7188028613918
 30
0.0
 11
99.20608822072995
 21
348.340178806946
 31
0.0
  0
LINE
  5
143E
102
{ACAD_REACTORS
330
1465
102
}
330
1E
100
AcDbEntity
  8
STEMPEL
100
AcDbLine
 10
256.3903155278428
 20
366.3794429513509
 30
0.0
 11
200.8060882207295
 21
307.8058889360155
 31
0.0
  0
LINE
  5
143F
330
1E
100
AcDbEntity
  8
STEMPEL
100
AcDbLine
 10
210.5942433381459
 20
465.7188028613918
 30
0.0
 11
256.3903155278428
 21
366.3794429513509
 31
0.0
  0
LINE
  5
1441
330
1E
100
AcDbEntity
  8
STEMPEL
100
AcDbLine
 10
99.20608822072995
 20
348.340178806946
 30
0.0
 11
200.8060882207295
 21
307.8058889360155
 31
0.0
  0
ARC
  5
1445
330
1E
100
AcDbEntity
  8
SCHRAFF
100
AcDbCircle
 10
97.34846911498619
 20
349.0812936819656
 30
0.0
 40
5.0
100
AcDbArc
 50
301.3801023541549
 51
15.11989764584417
  0
ARC
  5
1446
330
1E
100
AcDbEntity
  8
SCHRAFF
100
AcDbCircle
 10
101.9925168793457
 20
347.2285064944164
 30
0.0
 40
5.0
100
AcDbArc
 50
301.3801023541549
 51
15.11989764584417
  0
ARC
  5
1447
330
1E
100
AcDbEntity
  8
SCHRAFF
100
AcDbCircle
 10
106.6365646437053
 20
345.3757193068672
 30
0.0
 40
5.0
100
AcDbArc
 50
301.3801023541549
 51
15.11989764584417
  0
ARC
  5
1448
330
1E
100
AcDbEntity
  8
SCHRAFF
100
AcDbCircle
 10
111.2806124080649
 20
343.522932119318
 30
0.0
 40
5.0
100
AcDbArc
 50
301.3801023541549
 51
15.11989764584417
  0
ARC
  5
1449
330
1E
100
AcDbEntity
  8
SCHRAFF
100
AcDbCircle
 10
115.9246601724245
 20
341.6701449317688
 30
0.0
 40
5.0
100
AcDbArc
 50
301.3801023541549
 51
15.11989764584417
  0
ARC
  5
144A
330
1E
100
AcDbEntity
  8
SCHRAFF
100
AcDbCircle
 10
120.5687079367841
 20
339.8173577442196
 30
0.0
 40
5.0
100
AcDbArc
 50
301.3801023541549
 51
15.11989764584417
  0
ARC
  5
144B
330
1E
100
AcDbEntity
  8
SCHRAFF
100
AcDbCircle
 10
125.2127557011437
 20
337.9645705566704
 30
0.0
 40
5.0
100
AcDbArc
 50
301.3801023541549
 51
15.11989764584417
  0
ARC
  5
144C
330
1E
100
AcDbEntity
  8
SCHRAFF
100
AcDbCircle
 10
129.8568034655033
 20
336.1117833691212
 30
0.0
 40
5.0
100
AcDbArc
 50
301.3801023541549
 51
15.11989764584417
  0
ARC
  5
144D
330
1E
100
AcDbEntity
  8
SCHRAFF
100
AcDbCircle
 10
134.5008512298628
 20
334.2589961815719
 30
0.0
 40
5.0
100
AcDbArc
 50
301.3801023541549
 51
15.11989764584417
  0
ARC
  5
144E
330
1E
100
AcDbEntity
  8
SCHRAFF
100
AcDbCircle
 10
139.1448989942225
 20
332.4062089940229
 30
0.0
 40
5.0
100
AcDbArc
 50
301.3801023541549
 51
15.11989764584417
  0
ARC
  5
144F
330
1E
100
AcDbEntity
  8
SCHRAFF
100
AcDbCircle
 10
143.7889467585821
 20
330.5534218064735
 30
0.0
 40
5.0
100
AcDbArc
 50
301.3801023541549
 51
15.11989764584417
  0
ARC
  5
1450
330
1E
100
AcDbEntity
  8
SCHRAFF
100
AcDbCircle
 10
148.4329945229417
 20
328.7006346189243
 30
0.0
 40
5.0
100
AcDbArc
 50
301.3801023541549
 51
15.11989764584417
  0
ARC
  5
1451
330
1E
100
AcDbEntity
  8
SCHRAFF
100
AcDbCircle
 10
153.0770422873013
 20
326.8478474313751
 30
0.0
 40
5.0
100
AcDbArc
 50
301.3801023541549
 51
15.11989764584417
  0
ARC
  5
1452
330
1E
100
AcDbEntity
  8
SCHRAFF
100
AcDbCircle
 10
157.7210900516609
 20
324.9950602438259
 30
0.0
 40
5.0
100
AcDbArc
 50
301.3801023541549
 51
15.11989764584417
  0
ARC
  5
1453
330
1E
100
AcDbEntity
  8
SCHRAFF
100
AcDbCircle
 10
162.3651378160206
 20
323.1422730562768
 30
0.0
 40
5.0
100
AcDbArc
 50
301.3801023541549
 51
15.11989764584417
  0
ARC
  5
1454
330
1E
100
AcDbEntity
  8
SCHRAFF
100
AcDbCircle
 10
167.0091855803802
 20
321.2894858687274
 30
0.0
 40
5.0
100
AcDbArc
 50
301.3801023541549
 51
15.11989764584417
  0
ARC
  5
1455
330
1E
100
AcDbEntity
  8
SCHRAFF
100
AcDbCircle
 10
171.6532333447397
 20
319.4366986811782
 30
0.0
 40
5.0
100
AcDbArc
 50
301.3801023541549
 51
15.11989764584417
  0
ARC
  5
1456
330
1E
100
AcDbEntity
  8
SCHRAFF
100
AcDbCircle
 10
176.2972811090993
 20
317.5839114936291
 30
0.0
 40
5.0
100
AcDbArc
 50
301.3801023541549
 51
15.11989764584417
  0
ARC
  5
1457
330
1E
100
AcDbEntity
  8
SCHRAFF
100
AcDbCircle
 10
180.9413288734589
 20
315.7311243060799
 30
0.0
 40
5.0
100
AcDbArc
 50
301.3801023541549
 51
15.11989764584417
  0
ARC
  5
1458
330
1E
100
AcDbEntity
  8
SCHRAFF
100
AcDbCircle
 10
185.5853766378185
 20
313.8783371185307
 30
0.0
 40
5.0
100
AcDbArc
 50
301.3801023541549
 51
15.11989764584417
  0
ARC
  5
1459
330
1E
100
AcDbEntity
  8
SCHRAFF
100
AcDbCircle
 10
190.2294244021781
 20
312.0255499309815
 30
0.0
 40
5.0
100
AcDbArc
 50
301.3801023541549
 51
15.11989764584417
  0
ARC
  5
145A
330
1E
100
AcDbEntity
  8
SCHRAFF
100
AcDbCircle
 10
194.8734721665377
 20
310.1727627434323
 30
0.0
 40
5.0
100
AcDbArc
 50
301.3801023541549
 51
15.11989764584417
  0
ARC
  5
145C
330
1E
100
AcDbEntity
  8
SCHRAFF
100
AcDbCircle
 10
101.1486367810837
 20
347.5651805152753
 30
0.0
 40
3.130533231642351
100
AcDbArc
 50
84.85388604378419
 51
231.6461139562171
  0
HATCH
  5
1460
330
1E
100
AcDbEntity
  8
SCHRAFF
100
AcDbHatch
 10
0.0
 20
0.0
 30
0.0
210
0.0
220
0.0
230
1.0
  2
_USER
 70
     0
 71
     0
 91
        1
 92
        7
 72
     1
 73
     1
 93
        3
 10
101.4294328457889
 20
350.6830951844834
 42
0.7453242762511309
 10
99.20608822072995
 20
345.1102378672517
 42
0.0
 10
99.20608822072995
 20
348.340178806946
 42
0.0
 97
        0
 75
     0
 76
     0
 52
0.0
 41
0.1
 77
     0
 78
     1
 53
0.0
 43
-417.0430490615872
 44
-2.395044988048994
 45
0.0
 46
0.1
 79
     0
 47
0.0504757214856016
 98
        1
 10
99.55874594608486
 20
349.203689512183
  0
ARC
  5
1461
102
{ACAD_REACTORS
330
1465
102
}
330
1E
100
AcDbEntity
  8
SCHRAFF
100
AcDbCircle
 10
199.0058085660976
 20
308.5241276896531
 30
0.0
 40
4.339254512669228
100
AcDbArc
 50
294.5119011215412
 51
21.98809887845958
  0
HATCH
  5
1465
330
1E
100
AcDbEntity
  8
SCHRAFF
100
AcDbHatch
 10
0.0
 20
0.0
 30
0.0
210
0.0
220
0.0
230
1.0
  2
_USER
 70
     0
 71
     1
 91
        1
 92
        7
 72
     1
 73
     1
 93
        3
 10
203.0294328457886
 20
310.148805313553
 42
0.0
 10
200.8060882207295
 20
307.8058889360155
 42
0.0
 10
200.8060882207295
 20
304.5759479963212
 42
0.4013700738722085
 97
        3
330
143E
330
13CC
330
1461
 75
     0
 76
     0
 52
0.0
 41
0.1
 77
     0
 78
     1
 53
0.0
 43
-417.0430490615872
 44
-2.395044988048994
 45
0.0
 46
0.1
 79
     0
 47
0.1857443365031994
 98
        1
 10
202.3901651783922
 20
307.5859281776741
  0
ARC
  5
1466
330
1E
100
AcDbEntity
  8
SCHRAFF
100
AcDbCircle
 10
211.4698446580474
 20
463.8194767730083
 30
0.0
 40
3.130533231642351
100
AcDbArc
 50
41.35388604378248
 51
188.1461139562154
  0
HATCH
  5
1467
330
1E
100
AcDbEntity
  8
SCHRAFF
100
AcDbHatch
 10
0.0
 20
0.0
 30
0.0
210
0.0
220
0.0
230
1.0
  2
_USER
 70
     0
 71
     0
 91
        1
 92
        7
 72
     1
 73
     1
 93
        3
 10
208.3708987130872
 20
463.3758864838539
 42
-0.7453242762511309
 10
213.8197577560378
 20
465.8878449090784
 42
0.0
 10
210.5942433381462
 20
465.7188028613914
 42
0.0
 97
        0
 75
     0
 76
     0
 52
0.0
 41
0.1
 77
     0
 78
     1
 53
272.9999999999996
 43
533.8304044393218
 44
999.6165019684736
 45
-0.0998629534754574
 46
-0.0052335956242937
 79
     0
 47
0.0504757214856016
 98
        1
 10
209.7503727236026
 20
465.3214357827079
  0
ARC
  5
1468
330
1E
100
AcDbEntity
  8
SCHRAFF
100
AcDbCircle
 10
209.7569238630713
 20
467.5350892090413
 30
0.0
 40
5.0
100
AcDbArc
 50
257.8801023541554
 51
331.6198976458447
  0
ARC
  5
1469
330
1E
100
AcDbEntity
  8
SCHRAFF
100
AcDbCircle
 10
211.8502225507585
 20
462.9943733399159
 30
0.0
 40
5.0
100
AcDbArc
 50
257.8801023541554
 51
331.6198976458447
  0
ARC
  5
146A
330
1E
100
AcDbEntity
  8
SCHRAFF
100
AcDbCircle
 10
213.9435212384457
 20
458.4536574707907
 30
0.0
 40
5.0
100
AcDbArc
 50
257.8801023541554
 51
331.6198976458447
  0
ARC
  5
146B
330
1E
100
AcDbEntity
  8
SCHRAFF
100
AcDbCircle
 10
216.0368199261328
 20
453.9129416016652
 30
0.0
 40
5.0
100
AcDbArc
 50
257.8801023541554
 51
331.6198976458447
  0
ARC
  5
146C
330
1E
100
AcDbEntity
  8
SCHRAFF
100
AcDbCircle
 10
218.1301186138199
 20
449.37222573254
 30
0.0
 40
5.0
100
AcDbArc
 50
257.8801023541554
 51
331.6198976458447
  0
ARC
  5
146D
330
1E
100
AcDbEntity
  8
SCHRAFF
100
AcDbCircle
 10
220.2234173015071
 20
444.8315098634146
 30
0.0
 40
5.0
100
AcDbArc
 50
257.8801023541554
 51
331.6198976458447
  0
ARC
  5
146E
330
1E
100
AcDbEntity
  8
SCHRAFF
100
AcDbCircle
 10
228.5966120522555
 20
426.6686463869128
 30
0.0
 40
5.0
100
AcDbArc
 50
257.8801023541554
 51
331.6198976458447
  0
ARC
  5
146F
330
1E
100
AcDbEntity
  8
SCHRAFF
100
AcDbCircle
 10
224.4100146768813
 20
435.7500781251637
 30
0.0
 40
5.0
100
AcDbArc
 50
257.8801023541554
 51
331.6198976458447
  0
ARC
  5
1470
330
1E
100
AcDbEntity
  8
SCHRAFF
100
AcDbCircle
 10
226.5033133645685
 20
431.2093622560383
 30
0.0
 40
5.0
100
AcDbArc
 50
257.8801023541554
 51
331.6198976458447
  0
ARC
  5
1471
330
1E
100
AcDbEntity
  8
SCHRAFF
100
AcDbCircle
 10
222.3167159891942
 20
440.290793994289
 30
0.0
 40
5.0
100
AcDbArc
 50
257.8801023541554
 51
331.6198976458447
  0
ARC
  5
1472
330
1E
100
AcDbEntity
  8
SCHRAFF
100
AcDbCircle
 10
230.6899107399428
 20
422.1279305177874
 30
0.0
 40
5.0
100
AcDbArc
 50
257.8801023541554
 51
331.6198976458447
  0
ARC
  5
1473
330
1E
100
AcDbEntity
  8
SCHRAFF
100
AcDbCircle
 10
243.2497028660656
 20
394.8836353030351
 30
0.0
 40
5.0
100
AcDbArc
 50
257.8801023541554
 51
331.6198976458447
  0
ARC
  5
1474
330
1E
100
AcDbEntity
  8
SCHRAFF
100
AcDbCircle
 10
241.1564041783785
 20
399.4243511721606
 30
0.0
 40
5.0
100
AcDbArc
 50
257.8801023541554
 51
331.6198976458447
  0
ARC
  5
1475
330
1E
100
AcDbEntity
  8
SCHRAFF
100
AcDbCircle
 10
239.0631054906912
 20
403.9650670412858
 30
0.0
 40
5.0
100
AcDbArc
 50
257.8801023541554
 51
331.6198976458447
  0
ARC
  5
1476
330
1E
100
AcDbEntity
  8
SCHRAFF
100
AcDbCircle
 10
232.7832094276299
 20
417.5872146486621
 30
0.0
 40
5.0
100
AcDbArc
 50
257.8801023541554
 51
331.6198976458447
  0
ARC
  5
1477
330
1E
100
AcDbEntity
  8
SCHRAFF
100
AcDbCircle
 10
234.8765081153171
 20
413.0464987795368
 30
0.0
 40
5.0
100
AcDbArc
 50
257.8801023541554
 51
331.6198976458447
  0
ARC
  5
1478
330
1E
100
AcDbEntity
  8
SCHRAFF
100
AcDbCircle
 10
236.9698068030042
 20
408.5057829104113
 30
0.0
 40
5.0
100
AcDbArc
 50
257.8801023541554
 51
331.6198976458447
  0
ARC
  5
1479
330
1E
100
AcDbEntity
  8
SCHRAFF
100
AcDbCircle
 10
251.622897616814
 20
376.7207718265336
 30
0.0
 40
5.0
100
AcDbArc
 50
257.8801023541554
 51
331.6198976458447
  0
ARC
  5
147A
330
1E
100
AcDbEntity
  8
SCHRAFF
100
AcDbCircle
 10
245.3430015537527
 20
390.3429194339097
 30
0.0
 40
5.0
100
AcDbArc
 50
257.8801023541554
 51
331.6198976458447
  0
ARC
  5
147B
330
1E
100
AcDbEntity
  8
SCHRAFF
100
AcDbCircle
 10
247.4363002414398
 20
385.8022035647843
 30
0.0
 40
5.0
100
AcDbArc
 50
257.8801023541554
 51
331.6198976458447
  0
ARC
  5
147C
330
1E
100
AcDbEntity
  8
SCHRAFF
100
AcDbCircle
 10
249.5295989291269
 20
381.2614876956589
 30
0.0
 40
5.0
100
AcDbArc
 50
257.8801023541554
 51
331.6198976458447
  0
ARC
  5
147D
330
1E
100
AcDbEntity
  8
SCHRAFF
100
AcDbCircle
 10
255.5788417382252
 20
368.1396656733014
 30
0.0
 40
4.339254512669228
100
AcDbArc
 50
251.0119011215401
 51
338.4880988784583
  0
HATCH
  5
147E
330
1E
100
AcDbEntity
  8
SCHRAFF
100
AcDbHatch
 10
0.0
 20
0.0
 30
0.0
210
0.0
220
0.0
230
1.0
  2
_USER
 70
     0
 71
     0
 91
        1
 92
        7
 72
     1
 73
     1
 93
        3
 10
254.1669709027837
 20
364.036526573813
 42
0.0
 10
256.3903155278429
 20
366.3794429513506
 42
0.0
 10
259.6158299457346
 20
366.5484849990378
 42
-0.4013700738722163
 97
        0
 75
     0
 76
     0
 52
0.0
 41
0.1
 77
     0
 78
     1
 53
272.9999999999996
 43
533.8304044393218
 44
999.6165019684736
 45
-0.0998629534754574
 46
-0.0052335956242937
 79
     0
 47
0.1857443365031994
 98
        1
 10
256.6928790199514
 20
364.8090487727283
  0
ARC
  5
147F
330
1E
100
AcDbEntity
  8
SCHRAFF
100
AcDbCircle
 10
253.7161963045012
 20
372.1800559574082
 30
0.0
 40
5.0
100
AcDbArc
 50
257.8801023541554
 51
331.6198976458447
  0
DIMENSION
  5
148D
330
1E
100
AcDbEntity
  8
BEM
100
AcDbDimension
  2
*D4
 10
78.61253957896997
 20
411.6737970241372
 30
0.0
 11
72.1125395789699
 21
293.1737970241373
 31
0.0
 70
    32
 71
     5
 42
236.9999999999997
  3
Standard
100
AcDbAlignedDimension
 13
99.90599752893729
 23
174.6737970241374
 33
0.0
 14
150.0060882207299
 24
411.6737970241371
 34
0.0
 50
90.0
100
AcDbRotatedDimension
1001
ACAD
1000
DSTYLE
1002
{
1070
    40
1040
2.0
1070
    41
1040
3.5
1070
    42
1040
1.0
1070
    43
1040
7.0
1070
    44
1040
1.0
1070
    73
1070
     0
1070
    74
1070
     0
1070
    77
1070
     1
1070
    78
1070
     8
1070
    79
1070
     2
1070
   140
1040
3.5
1070
   141
1040
1.5
1070
   146
1040
0.5142857142857144
1070
   147
1040
1.5
1070
   172
1070
     1
1070
   178
1070
     1
1070
   179
1070
     2
1070
   271
1070
     2
1070
   272
1070
     2
1070
   284
1070
     8
1070
   285
1070
     8
1070
   286
1070
     8
1002
}
  0
TEXT
  5
1574
330
1E
100
AcDbEntity
  8
BEM
100
AcDbText
 10
416.5811541437437
 20
12.14804815338303
 30
0.0
 40
4.0
  1
Diese Zeichnung ist urheberrechtlich geschützt und bleibt unser Eigentum. Sie darf weder ganz noch teilweise vervielfältigt und nicht an Dritte weitergegeben werden.
 50
90.0
 41
0.8
  7
GREEKS
100
AcDbText
  0
TEXT
  5
1575
330
1E
100
AcDbEntity
  8
TEXT
100
AcDbText
 10
336.7238616296993
 20
73.1811823709997
 30
0.0
 40
5.0
  1
Ersatz für:
 41
0.8
  7
GREEKS
100
AcDbText
  0
TEXT
  5
1576
330
1E
100
AcDbEntity
  8
TEXT
100
AcDbText
 10
192.6882715247924
 20
89.50150693558043
 30
0.0
 40
4.0
  1
DIN EN1124-3
 41
0.8
  7
GREEKS
 72
     1
 11
209.6787477152686
 21
89.50150693558043
 31
0.0
100
AcDbText
  0
TEXT
  5
1577
330
1E
100
AcDbEntity
  8
TEXT
100
AcDbText
 10
153.5163572150377
 20
102.4620895087088
 30
0.0
 40
5.0
  1
Maßstab
 41
0.8
  7
GREEKS
100
AcDbText
  0
TEXT
  5
1578
330
1E
100
AcDbEntity
  8
TEXT
100
AcDbText
 10
41.85509950977674
 20
111.6719999999999
 30
0.0
 40
5.0
  1
Erstellt mit AUTOCAD 2004
 41
0.8
  7
GREEKS
100
AcDbText
  0
TEXT
  5
1579
330
1E
100
AcDbEntity
  8
TEXT
100
AcDbText
 10
129.3020371565846
 20
18.59324216966408
 30
0.0
 40
4.0
  1
Name
 41
0.8
  7
GREEKS
 72
     1
 11
135.6258466803941
 21
18.59324216966408
 31
0.0
100
AcDbText
  0
TEXT
  5
157A
330
1E
100
AcDbEntity
  8
TEXT
100
AcDbText
 10
110.2468354498985
 20
18.6715626933981
 30
0.0
 40
4.0
  1
Tag
 41
0.8
  7
GREEKS
 72
     1
 11
113.9801687832318
 21
18.6715626933981
 31
0.0
100
AcDbText
  0
TEXT
  5
157B
330
1E
100
AcDbEntity
  8
TEXT
100
AcDbText
 10
66.72469466776535
 20
18.67381894984132
 30
0.0
 40
4.0
  1
Änderung
 41
0.8
  7
GREEKS
 72
     1
 11
77.46755181062249
 21
18.67381894984132
 31
0.0
100
AcDbText
  0
LINE
  5
15D0
330
1E
100
AcDbEntity
  8
STEMPEL
100
AcDbLine
 10
377.531943526615
 20
365.6184629969139
 30
0.0
 11
358.9837090396323
 21
364.6463912178298
 31
0.0
  0
ARC
  5
15D1
330
1E
100
AcDbEntity
  8
STEMPEL
100
AcDbCircle
 10
342.7339971936607
 20
354.9827032612113
 30
0.0
 40
12.8
100
AcDbArc
 50
66.11195238227537
 51
93.0
  0
ARC
  5
15D2
330
1E
100
AcDbEntity
  8
STEMPEL
100
AcDbCircle
 10
315.3176742724045
 20
361.4567161941852
 30
0.0
 40
8.0
100
AcDbArc
 50
62.14041890937775
 51
93.0
  0
ARC
  5
15D3
330
1E
100
AcDbEntity
  8
STEMPEL
100
AcDbCircle
 10
325.617584893502
 20
381.122723445211
 30
0.0
 40
14.2
100
AcDbArc
 50
242.3570682370605
 51
273.0
  0
LINE
  5
15D4
330
1E
100
AcDbEntity
  8
STEMPEL
100
AcDbLine
 10
314.7987070121715
 20
369.4404970405393
 30
0.0
 11
256.3903155278428
 21
366.3794429513511
 31
0.0
  0
LINE
  5
15D5
330
1E
100
AcDbEntity
  8
STEMPEL
100
AcDbLine
 10
342.0640969537509
 20
367.7651613060699
 30
0.0
 11
326.3607554721519
 21
366.942184051696
 31
0.0
  0
ARC
  5
15D6
330
1E
100
AcDbEntity
  8
STEMPEL
100
AcDbCircle
 10
357.7171788985529
 20
388.8132259588904
 30
0.0
 40
24.2
100
AcDbArc
 50
246.1119523822754
 51
273.0
  0
ARC
  5
15D7
330
1E
100
AcDbEntity
  8
STEMPEL
100
AcDbCircle
 10
376.2654133855358
 20
389.7852977379744
 30
0.0
 40
24.2
100
AcDbArc
 50
273.0
 51
303.2636519420998
  0
ARC
  5
15D9
330
1E
100
AcDbEntity
  8
STEMPEL
100
AcDbCircle
 10
335.7523806308517
 20
488.1998831974715
 30
0.0
 40
12.8
100
AcDbArc
 50
273.0
 51
299.8880476177246
  0
ARC
  5
15DA
330
1E
100
AcDbEntity
  8
STEMPEL
100
AcDbCircle
 10
354.1897354477785
 20
456.1208566013487
 30
0.0
 40
24.2
100
AcDbArc
 50
93.0
 51
119.8880476177246
  0
LINE
  5
15DB
330
1E
100
AcDbEntity
  8
STEMPEL
100
AcDbLine
 10
371.4714397936821
 20
481.2597631214933
 30
0.0
 11
352.9232053066992
 21
480.2876913424094
 31
0.0
  0
ARC
  5
15DC
330
1E
100
AcDbEntity
  8
STEMPEL
100
AcDbCircle
 10
309.1629658182343
 20
478.895549481323
 30
0.0
 40
8.0
100
AcDbArc
 50
273.0
 51
303.8595810906223
  0
ARC
  5
15DD
330
1E
100
AcDbEntity
  8
STEMPEL
100
AcDbCircle
 10
321.4621099678122
 20
460.4139085047242
 30
0.0
 40
14.2
100
AcDbArc
 50
93.0
 51
123.6429317629395
  0
LINE
  5
15DE
330
1E
100
AcDbEntity
  8
STEMPEL
100
AcDbLine
 10
309.4813738578882
 20
470.9012577716037
 30
0.0
 11
210.594243338146
 21
465.7188028613918
 31
0.0
  0
LINE
  5
15DF
330
1E
100
AcDbEntity
  8
STEMPEL
100
AcDbLine
 10
336.4222808707615
 20
475.4174251526129
 30
0.0
 11
320.7189393891624
 21
474.5944478982391
 31
0.0
  0
ARC
  5
15E0
330
1E
100
AcDbEntity
  8
STEMPEL
100
AcDbCircle
 10
372.7379699347614
 20
457.0929283804327
 30
0.0
 40
24.2
100
AcDbArc
 50
62.73634805790013
 51
93.0
  0
LINE
  5
15E2
330
1E
100
AcDbEntity
  8
STEMPEL
100
AcDbLine
 10
389.5389313283523
 20
369.5503348909185
 30
0.0
 11
383.8206159504808
 21
478.6622922396255
 31
0.0
  0
LINE
  5
15E3
330
1E
100
AcDbEntity
  8
HILF
100
AcDbLine
 10
316.9747883932826
 20
370.5062450653689
 30
0.0
 11
311.7569354407726
 21
470.068810468678
 31
0.0
  0
LINE
  5
15E4
330
1E
100
AcDbEntity
  8
HILF
100
AcDbLine
 10
322.5220109799678
 20
368.4966622167103
 30
0.0
 11
317.0637111547331
 21
472.6472272646152
 31
0.0
  0
LINE
  5
15E5
330
1E
100
AcDbEntity
  8
HILF
100
AcDbLine
 10
344.9898997953854
 20
368.7997544463063
 30
0.0
 11
339.440200289354
 21
474.6943292967103
 31
0.0
  0
TEXT
  5
1620
330
1E
100
AcDbEntity
  8
TEXT
100
AcDbText
 10
170.398997108236
 20
63.10765040825732
 30
0.0
 40
4.0
  1
08.04.
 41
0.8
  7
GREEKS
 72
     1
 11
177.4085209177598
 21
63.10765040825732
 31
0.0
100
AcDbText
  0
DIMENSION
  5
1641
330
1E
100
AcDbEntity
  8
BEM
100
AcDbDimension
  2
*D8
 10
144.1431078979257
 20
523.5461259610217
 30
0.0
 11
262.1405240507641
 21
536.2390287517155
 31
0.0
 70
    32
 71
     5
 42
237.0000000000009
 51
356.9999999999999
  3
Standard
100
AcDbAlignedDimension
 13
383.8236445867762
 23
478.6045024165109
 33
0.0
 14
150.0060882207299
 24
411.6737970241371
 34
0.0
 50
3.00000000000005
100
AcDbRotatedDimension
1001
ACAD
1000
DSTYLE
1002
{
1070
    40
1040
2.0
1070
    41
1040
3.5
1070
    42
1040
1.0
1070
    43
1040
7.0
1070
    44
1040
1.0
1070
    73
1070
     0
1070
    74
1070
     0
1070
    77
1070
     1
1070
    78
1070
     8
1070
    79
1070
     2
1070
   140
1040
3.5
1070
   141
1040
1.5
1070
   146
1040
0.5142857142857144
1070
   147
1040
1.5
1070
   172
1070
     1
1070
   178
1070
     1
1070
   179
1070
     2
1070
   271
1070
     2
1070
   272
1070
     2
1070
   284
1070
     8
1070
   285
1070
     8
1070
   286
1070
     8
1002
}
  0
DIMENSION
  5
164E
330
1E
100
AcDbEntity
  8
BEM
100
AcDbDimension
  2
*D9
 10
150.0060882207299
 20
169.6737970241374
 30
0.0
 11
218.3283235828996
 21
483.6704107635596
 31
0.0
 70
    34
 71
     5
 42
1.518436449235065
  3
Standard
100
AcDb2LineAngularDimension
 13
391.6744356313366
 23
424.3390984349296
 33
0.0
 14
150.0060882207299
 24
411.6737970241371
 34
0.0
 15
150.0060882207299
 25
411.6737970241371
 35
0.0
 16
228.666298986938
 26
460.8261519466688
 36
0.0
1001
ACAD
1000
DSTYLE
1002
{
1070
    40
1040
2.0
1070
    41
1040
3.5
1070
    42
1040
1.0
1070
    43
1040
7.0
1070
    44
1040
1.0
1070
    73
1070
     0
1070
    74
1070
     0
1070
    77
1070
     1
1070
    78
1070
     8
1070
    79
1070
     2
1070
   140
1040
3.5
1070
   141
1040
1.5
1070
   146
1040
0.5142857142857144
1070
   147
1040
1.5
1070
   172
1070
     1
1070
   178
1070
     1
1070
   179
1070
     2
1070
   271
1070
     2
1070
   272
1070
     2
1070
   284
1070
     8
1070
   285
1070
     8
1070
   286
1070
     8
1002
}
  0
ENDSEC
  0
SECTION
  2
OBJECTS
  0
DICTIONARY
  5
C
330
0
100
AcDbDictionary
281
     1
  3
ACAD_COLOR
350
FE6
  3
ACAD_GROUP
350
D
  3
ACAD_LAYOUT
350
19
  3
ACAD_MATERIAL
350
FE5
  3
ACAD_MLINESTYLE
350
16
  3
ACAD_PLOTSETTINGS
350
18
  3
ACAD_PLOTSTYLENAME
350
E
  3
AcDbVariableDictionary
350
246
  0
DICTIONARY
  5
FE6
102
{ACAD_REACTORS
330
C
102
}
330
C
100
AcDbDictionary
281
     1
  0
DICTIONARY
  5
D
102
{ACAD_REACTORS
330
C
102
}
330
C
100
AcDbDictionary
281
     1
  0
DICTIONARY
  5
19
102
{ACAD_REACTORS
330
C
102
}
330
C
100
AcDbDictionary
281
     1
  3
Layout1
350
1D
  3
Model
350
21
  0
DICTIONARY
  5
FE5
102
{ACAD_REACTORS
330
C
102
}
330
C
100
AcDbDictionary
281
     1
  0
DICTIONARY
  5
16
102
{ACAD_REACTORS
330
C
102
}
330
C
100
AcDbDictionary
281
     1
  3
Standard
350
17
  0
DICTIONARY
  5
18
102
{ACAD_REACTORS
330
C
102
}
330
C
100
AcDbDictionary
281
     1
  0
ACDBDICTIONARYWDFLT
  5
E
102
{ACAD_REACTORS
330
C
102
}
330
C
100
AcDbDictionary
281
     1
  3
Normal
350
F
100
AcDbDictionaryWithDefault
340
F
  0
DICTIONARY
  5
246
102
{ACAD_REACTORS
330
C
102
}
330
C
100
AcDbDictionary
281
     1
  3
DIMASSOC
350
1595
  3
PROJECTNAME
350
1596
  3
SORTENTS
350
247
  0
LAYOUT
  5
1D
102
{ACAD_REACTORS
330
19
102
}
330
19
100
AcDbPlotSettings
  1

  2
Tektronix Phaser 740
  4

  6

 40
0.0
 41
0.0
 42
0.0
 43
0.0
 44
0.0
 45
0.0
 46
0.0
 47
0.0
 48
0.0
 49
0.0
140
0.0
141
0.0
142
1.0
143
1.0
 70
   688
 72
     0
 73
     0
 74
     5
  7
monochrome.ctb
 75
    16
147
1.0
 76
     0
 77
     2
 78
   300
148
0.0
149
0.0
100
AcDbLayout
  1
Layout1
 70
     0
 71
     1
 10
0.0
 20
0.0
 11
12.0
 21
9.0
 12
0.0
 22
0.0
 32
0.0
 14
1.000000000000000E+20
 24
1.000000000000000E+20
 34
1.000000000000000E+20
 15
-1.000000000000000E+20
 25
-1.000000000000000E+20
 35
-1.000000000000000E+20
146
0.0
 13
0.0
 23
0.0
 33
0.0
 16
1.0
 26
0.0
 36
0.0
 17
0.0
 27
1.0
 37
0.0
 76
     0
330
1A
  0
LAYOUT
  5
21
102
{ACAD_REACTORS
330
19
102
}
330
19
100
AcDbPlotSettings
  1

  2
Tektronix Phaser 740
  4
A4
  6

 40
5.873749732971191
 41
6.085414409637451
 42
5.577407836914062
 43
5.662078857421875
 44
209.9733276367187
 45
296.9683227539062
 46
0.0
 47
0.0
 48
0.0
 49
0.0
140
0.0
141
0.0
142
1.0
143
1.0
 70
 11952
 72
     0
 73
     1
 74
     0
  7
monochrome.ctb
 75
     0
147
1.0
 76
     0
 77
     2
 78
   300
148
1150.120678237584
149
45.30495740799864
100
AcDbLayout
  1
Model
 70
     1
 71
     0
 10
0.0
 20
0.0
 11
12.0
 21
9.0
 12
0.0
 22
0.0
 32
0.0
 14
0.0
 24
0.0
 34
0.0
 15
0.0
 25
0.0
 35
0.0
146
0.0
 13
0.0
 23
0.0
 33
0.0
 16
1.0
 26
0.0
 36
0.0
 17
0.0
 27
1.0
 37
0.0
 76
     0
330
1E
  0
MLINESTYLE
  5
17
102
{ACAD_REACTORS
330
16
102
}
330
16
100
AcDbMlineStyle
  2
STANDARD
 70
     0
  3

 62
   256
 51
90.0
 52
90.0
 71
     2
 49
0.5
 62
   256
  6
BYLAYER
 49
-0.5
 62
   256
  6
BYLAYER
  0
ACDBPLACEHOLDER
  5
F
102
{ACAD_REACTORS
330
E
102
}
330
E
  0
DICTIONARYVAR
  5
1595
102
{ACAD_REACTORS
330
246
102
}
330
246
100
DictionaryVariables
280
     0
  1
1
  0
DICTIONARYVAR
  5
1596
102
{ACAD_REACTORS
330
246
102
}
330
246
100
DictionaryVariables
280
     0
  1

  0
DICTIONARYVAR
  5
247
102
{ACAD_REACTORS
330
246
102
}
330
246
100
DictionaryVariables
280
     0
  1
96
  0
ENDSEC
  0
EOF
