  0
SECTION
  2
HEADER
  9
$ACADVER
  1
AC1018
  9
$ACADMAINTVER
 70
     2
  9
$DWGCODEPAGE
  3
ANSI_1252
  9
$INSBASE
 10
0.0
 20
0.0
 30
0.0
  9
$EXTMIN
 10
-0.0042165332389459
 20
-0.0362442327398185
 30
-0.0000000000000099
  9
$EXTMAX
 10
420.022580109557
 20
594.0362629045889
 30
0.0000000000000054
  9
$LIMMIN
 10
0.0
 20
0.0
  9
$LIMMAX
 10
419.9999999999999
 20
594.0000000000002
  9
$ORTHOMODE
 70
     1
  9
$REGENMODE
 70
     1
  9
$FILLMODE
 70
     1
  9
$QTEXTMODE
 70
     0
  9
$MIRRTEXT
 70
     1
  9
$LTSCALE
 40
20.0
  9
$ATTMODE
 70
     1
  9
$TEXTSIZE
 40
3.5
  9
$TRACEWID
 40
0.5
  9
$TEXTSTYLE
  7
STANDARD
  9
$CLAYER
  8
SCHRAFF
  9
$CELTYPE
  6
ByLayer
  9
$CECOLOR
 62
   256
  9
$CELTSCALE
 40
1.0
  9
$DISPSILH
 70
     0
  9
$DIMSCALE
 40
2.0
  9
$DIMASZ
 40
3.5
  9
$DIMEXO
 40
1.0
  9
$DIMDLI
 40
7.0
  9
$DIMRND
 40
0.0
  9
$DIMDLE
 40
0.0
  9
$DIMEXE
 40
1.0
  9
$DIMTP
 40
0.0
  9
$DIMTM
 40
0.0
  9
$DIMTXT
 40
3.5
  9
$DIMCEN
 40
1.5
  9
$DIMTSZ
 40
0.0
  9
$DIMTOL
 70
     0
  9
$DIMLIM
 70
     0
  9
$DIMTIH
 70
     0
  9
$DIMTOH
 70
     0
  9
$DIMSE1
 70
     0
  9
$DIMSE2
 70
     0
  9
$DIMTAD
 70
     1
  9
$DIMZIN
 70
     8
  9
$DIMBLK
  1

  9
$DIMASO
 70
     1
  9
$DIMSHO
 70
     0
  9
$DIMPOST
  1

  9
$DIMAPOST
  1

  9
$DIMALT
 70
     0
  9
$DIMALTD
 70
     2
  9
$DIMALTF
 40
25.4
  9
$DIMLFAC
 40
1.0
  9
$DIMTOFL
 70
     1
  9
$DIMTVP
 40
0.0
  9
$DIMTIX
 70
     0
  9
$DIMSOXD
 70
     0
  9
$DIMSAH
 70
     0
  9
$DIMBLK1
  1

  9
$DIMBLK2
  1

  9
$DIMSTYLE
  2
Standard
  9
$DIMCLRD
 70
     0
  9
$DIMCLRE
 70
     0
  9
$DIMCLRT
 70
     1
  9
$DIMTFAC
 40
0.5142857142857144
  9
$DIMGAP
 40
1.5
  9
$DIMJUST
 70
     0
  9
$DIMSD1
 70
     0
  9
$DIMSD2
 70
     0
  9
$DIMTOLJ
 70
     1
  9
$DIMTZIN
 70
     8
  9
$DIMALTZ
 70
     8
  9
$DIMALTTZ
 70
     8
  9
$DIMUPT
 70
     0
  9
$DIMDEC
 70
     2
  9
$DIMTDEC
 70
     2
  9
$DIMALTU
 70
     2
  9
$DIMALTTD
 70
     2
  9
$DIMTXSTY
  7
STANDARD
  9
$DIMAUNIT
 70
     0
  9
$DIMADEC
 70
     2
  9
$DIMALTRND
 40
0.0
  9
$DIMAZIN
 70
     2
  9
$DIMDSEP
 70
    46
  9
$DIMATFIT
 70
     3
  9
$DIMFRAC
 70
     0
  9
$DIMLDRBLK
  1

  9
$DIMLUNIT
 70
     2
  9
$DIMLWD
 70
    -2
  9
$DIMLWE
 70
    -2
  9
$DIMTMOVE
 70
     0
  9
$LUNITS
 70
     2
  9
$LUPREC
 70
     2
  9
$SKETCHINC
 40
1.0
  9
$FILLETRAD
 40
115.0
  9
$AUNITS
 70
     1
  9
$AUPREC
 70
     3
  9
$MENU
  1
ACAD
  9
$ELEVATION
 40
0.0
  9
$PELEVATION
 40
0.0
  9
$THICKNESS
 40
0.0
  9
$LIMCHECK
 70
     0
  9
$CHAMFERA
 40
0.0
  9
$CHAMFERB
 40
0.0
  9
$CHAMFERC
 40
0.0
  9
$CHAMFERD
 40
0.0
  9
$SKPOLY
 70
     0
  9
$TDCREATE
 40
2452040.637099653
  9
$TDUCREATE
 40
2452040.553766320
  9
$TDUPDATE
 40
2455660.582161621
  9
$TDUUPDATE
 40
2455660.498828287
  9
$TDINDWG
 40
0.1861952431
  9
$TDUSRTIMER
 40
0.1861952431
  9
$USRTIMER
 70
     1
  9
$ANGBASE
 50
0.0
  9
$ANGDIR
 70
     0
  9
$PDMODE
 70
     0
  9
$PDSIZE
 40
0.0
  9
$PLINEWID
 40
0.0
  9
$SPLFRAME
 70
     0
  9
$SPLINETYPE
 70
     6
  9
$SPLINESEGS
 70
     8
  9
$HANDSEED
  5
ED9
  9
$SURFTAB1
 70
     6
  9
$SURFTAB2
 70
     6
  9
$SURFTYPE
 70
     6
  9
$SURFU
 70
     6
  9
$SURFV
 70
     6
  9
$UCSBASE
  2

  9
$UCSNAME
  2

  9
$UCSORG
 10
0.0
 20
0.0
 30
0.0
  9
$UCSXDIR
 10
1.0
 20
0.0
 30
0.0
  9
$UCSYDIR
 10
0.0
 20
1.0
 30
0.0
  9
$UCSORTHOREF
  2

  9
$UCSORTHOVIEW
 70
     0
  9
$UCSORGTOP
 10
0.0
 20
0.0
 30
0.0
  9
$UCSORGBOTTOM
 10
0.0
 20
0.0
 30
0.0
  9
$UCSORGLEFT
 10
0.0
 20
0.0
 30
0.0
  9
$UCSORGRIGHT
 10
0.0
 20
0.0
 30
0.0
  9
$UCSORGFRONT
 10
0.0
 20
0.0
 30
0.0
  9
$UCSORGBACK
 10
0.0
 20
0.0
 30
0.0
  9
$PUCSBASE
  2

  9
$PUCSNAME
  2

  9
$PUCSORG
 10
0.0
 20
0.0
 30
0.0
  9
$PUCSXDIR
 10
1.0
 20
0.0
 30
0.0
  9
$PUCSYDIR
 10
0.0
 20
1.0
 30
0.0
  9
$PUCSORTHOREF
  2

  9
$PUCSORTHOVIEW
 70
     0
  9
$PUCSORGTOP
 10
0.0
 20
0.0
 30
0.0
  9
$PUCSORGBOTTOM
 10
0.0
 20
0.0
 30
0.0
  9
$PUCSORGLEFT
 10
0.0
 20
0.0
 30
0.0
  9
$PUCSORGRIGHT
 10
0.0
 20
0.0
 30
0.0
  9
$PUCSORGFRONT
 10
0.0
 20
0.0
 30
0.0
  9
$PUCSORGBACK
 10
0.0
 20
0.0
 30
0.0
  9
$USERI1
 70
     0
  9
$USERI2
 70
     0
  9
$USERI3
 70
     0
  9
$USERI4
 70
     0
  9
$USERI5
 70
     0
  9
$USERR1
 40
0.0
  9
$USERR2
 40
0.0
  9
$USERR3
 40
0.0
  9
$USERR4
 40
0.0
  9
$USERR5
 40
0.0
  9
$WORLDVIEW
 70
     1
  9
$SHADEDGE
 70
     3
  9
$SHADEDIF
 70
    70
  9
$TILEMODE
 70
     1
  9
$MAXACTVP
 70
    16
  9
$PINSBASE
 10
0.0
 20
0.0
 30
0.0
  9
$PLIMCHECK
 70
     0
  9
$PEXTMIN
 10
1.000000000000000E+20
 20
1.000000000000000E+20
 30
1.000000000000000E+20
  9
$PEXTMAX
 10
-1.000000000000000E+20
 20
-1.000000000000000E+20
 30
-1.000000000000000E+20
  9
$PLIMMIN
 10
0.0
 20
0.0
  9
$PLIMMAX
 10
12.0
 20
9.0
  9
$UNITMODE
 70
     0
  9
$VISRETAIN
 70
     0
  9
$PLINEGEN
 70
     0
  9
$PSLTSCALE
 70
     0
  9
$TREEDEPTH
 70
  3020
  9
$CMLSTYLE
  2
Standard
  9
$CMLJUST
 70
     0
  9
$CMLSCALE
 40
1.0
  9
$PROXYGRAPHICS
 70
     1
  9
$MEASUREMENT
 70
     0
  9
$CELWEIGHT
370
    -1
  9
$ENDCAPS
280
     0
  9
$JOINSTYLE
280
     0
  9
$LWDISPLAY
290
     0
  9
$INSUNITS
 70
     0
  9
$HYPERLINKBASE
  1

  9
$STYLESHEET
  1
monochrome 1.ctb
  9
$XEDIT
290
     1
  9
$CEPSNTYPE
380
     0
  9
$PSTYLEMODE
290
     1
  9
$FINGERPRINTGUID
  2
{7AADB5C8-6110-11D8-B72B-000102183313}
  9
$VERSIONGUID
  2
{F92F1F8A-4B88-4467-AB6E-8A499B23DC60}
  9
$EXTNAMES
290
     1
  9
$PSVPSCALE
 40
0.0
  9
$OLESTARTUP
290
     0
  9
$SORTENTS
280
    96
  9
$INDEXCTL
280
     0
  9
$HIDETEXT
280
     0
  9
$XCLIPFRAME
290
     0
  9
$HALOGAP
280
     0
  9
$OBSCOLOR
 70
   257
  9
$OBSLTYPE
280
     0
  9
$INTERSECTIONDISPLAY
280
     0
  9
$INTERSECTIONCOLOR
 70
   257
  9
$DIMASSOC
280
     1
  9
$PROJECTNAME
  1

  0
ENDSEC
  0
SECTION
  2
CLASSES
  0
CLASS
  1
ACDBDICTIONARYWDFLT
  2
AcDbDictionaryWithDefault
  3
ObjectDBX Classes
 90
        0
 91
        1
280
     0
281
     0
  0
CLASS
  1
DICTIONARYVAR
  2
AcDbDictionaryVar
  3
ObjectDBX Classes
 90
        0
 91
        3
280
     0
281
     0
  0
ENDSEC
  0
SECTION
  2
TABLES
  0
TABLE
  2
VPORT
  5
8
330
0
100
AcDbSymbolTable
 70
     3
  0
VPORT
  5
ED8
330
8
100
AcDbSymbolTableRecord
100
AcDbViewportTableRecord
  2
*Active
 70
     0
 10
0.0
 20
0.0
 11
1.0
 21
1.0
 12
210.0
 22
297.0
 13
0.0
 23
0.0
 14
1.0
 24
1.0
 15
10.0
 25
10.0
 16
0.0
 26
0.0
 36
1.0
 17
0.0
 27
0.0
 37
0.0
 40
594.0
 41
1.334231805929919
 42
50.0
 43
0.0
 44
0.0
 50
0.0
 51
0.0
 71
     0
 72
  1500
 73
     1
 74
     0
 75
     0
 76
     0
 77
     0
 78
     0
281
     0
 65
     1
110
0.0
120
0.0
130
0.0
111
1.0
121
0.0
131
0.0
112
0.0
122
1.0
132
0.0
 79
     0
146
0.0
  0
ENDTAB
  0
TABLE
  2
LTYPE
  5
5
330
0
100
AcDbSymbolTable
 70
     2
  0
LTYPE
  5
13
330
5
100
AcDbSymbolTableRecord
100
AcDbLinetypeTableRecord
  2
ByBlock
 70
     0
  3

 72
    65
 73
     0
 40
0.0
  0
LTYPE
  5
14
330
5
100
AcDbSymbolTableRecord
100
AcDbLinetypeTableRecord
  2
ByLayer
 70
     0
  3

 72
    65
 73
     0
 40
0.0
  0
LTYPE
  5
15
330
5
100
AcDbSymbolTableRecord
100
AcDbLinetypeTableRecord
  2
Continuous
 70
     0
  3
Solid line
 72
    65
 73
     0
 40
0.0
  0
LTYPE
  5
35
330
5
100
AcDbSymbolTableRecord
100
AcDbLinetypeTableRecord
  2
STRICHPUNKT
 70
     0
  3
__ . __ . __ . __ . __ . __ . __ . __ . __ . __
 72
    65
 73
     4
 40
1.0
 49
0.5
 74
     0
 49
-0.25
 74
     0
 49
0.0
 74
     0
 49
-0.25
 74
     0
  0
ENDTAB
  0
TABLE
  2
LAYER
  5
2
330
0
100
AcDbSymbolTable
 70
     9
  0
LAYER
  5
10
330
2
100
AcDbSymbolTableRecord
100
AcDbLayerTableRecord
  2
0
 70
     0
 62
     7
  6
Continuous
370
    -3
390
F
  0
LAYER
  5
38
330
2
100
AcDbSymbolTableRecord
100
AcDbLayerTableRecord
  2
VOLL
 70
     0
 62
     1
  6
Continuous
370
    -3
390
F
  0
LAYER
  5
39
330
2
100
AcDbSymbolTableRecord
100
AcDbLayerTableRecord
  2
HILF
 70
     0
 62
     2
  6
Continuous
370
    -3
390
F
  0
LAYER
  5
3A
330
2
100
AcDbSymbolTableRecord
100
AcDbLayerTableRecord
  2
MITTEL
 70
     0
 62
     2
  6
STRICHPUNKT
370
    -3
390
F
  0
LAYER
  5
3B
330
2
100
AcDbSymbolTableRecord
100
AcDbLayerTableRecord
  2
BEM
 70
     0
 62
     7
  6
Continuous
370
    -3
390
F
  0
LAYER
  5
3C
330
2
100
AcDbSymbolTableRecord
100
AcDbLayerTableRecord
  2
STEMPEL
 70
     0
 62
     3
  6
Continuous
370
    -3
390
F
  0
LAYER
  5
3D
330
2
100
AcDbSymbolTableRecord
100
AcDbLayerTableRecord
  2
TEXT
 70
     0
 62
     7
  6
Continuous
370
    -3
390
F
  0
LAYER
  5
3E
330
2
100
AcDbSymbolTableRecord
100
AcDbLayerTableRecord
  2
DEFPOINTS
 70
     0
 62
     7
  6
Continuous
290
     0
370
    -3
390
F
  0
LAYER
  5
3F
330
2
100
AcDbSymbolTableRecord
100
AcDbLayerTableRecord
  2
SCHRAFF
 70
     0
 62
     7
  6
Continuous
370
    -3
390
F
  0
ENDTAB
  0
TABLE
  2
STYLE
  5
3
330
0
100
AcDbSymbolTable
 70
     2
  0
STYLE
  5
11
330
3
100
AcDbSymbolTableRecord
100
AcDbTextStyleTableRecord
  2
STANDARD
 70
     0
 40
0.0
 41
0.8
 50
0.0
 71
     0
 42
3.5
  3
simplex.shx
  4

  0
STYLE
  5
34
330
3
100
AcDbSymbolTableRecord
100
AcDbTextStyleTableRecord
  2
GREEKS
 70
     0
 40
0.0
 41
0.8
 50
0.0
 71
     0
 42
2.5
  3
SIMPLEX.shx
  4

  0
ENDTAB
  0
TABLE
  2
VIEW
  5
6
330
0
100
AcDbSymbolTable
 70
     0
  0
ENDTAB
  0
TABLE
  2
UCS
  5
7
330
0
100
AcDbSymbolTable
 70
     0
  0
ENDTAB
  0
TABLE
  2
APPID
  5
9
330
0
100
AcDbSymbolTable
 70
     1
  0
APPID
  5
12
330
9
100
AcDbSymbolTableRecord
100
AcDbRegAppTableRecord
  2
ACAD
 70
     0
  0
ENDTAB
  0
TABLE
  2
DIMSTYLE
  5
A
330
0
100
AcDbSymbolTable
 70
     1
100
AcDbDimStyleTable
 71
     1
340
1CB
  0
DIMSTYLE
105
1CB
102
{ACAD_REACTORS
330
CA3
330
DB4
330
DC1
330
E11
102
}
330
A
100
AcDbSymbolTableRecord
100
AcDbDimStyleTableRecord
  2
Standard
 70
     0
340
11
  0
ENDTAB
  0
TABLE
  2
BLOCK_RECORD
  5
1
330
0
100
AcDbSymbolTable
 70
     9
  0
BLOCK_RECORD
  5
1E
330
1
100
AcDbSymbolTableRecord
100
AcDbBlockTableRecord
  2
*Model_Space
340
21
  0
BLOCK_RECORD
  5
1A
330
1
100
AcDbSymbolTableRecord
100
AcDbBlockTableRecord
  2
*Paper_Space
340
1D
  0
BLOCK_RECORD
  5
22
330
1
100
AcDbSymbolTableRecord
100
AcDbBlockTableRecord
  2
LOGO
340
0
102
{BLKREFS
331
135
102
}
  0
BLOCK_RECORD
  5
CD1
330
1
100
AcDbSymbolTableRecord
100
AcDbBlockTableRecord
  2
*D2
340
0
  0
BLOCK_RECORD
  5
DB5
330
1
100
AcDbSymbolTableRecord
100
AcDbBlockTableRecord
  2
*D6
340
0
  0
BLOCK_RECORD
  5
DC2
330
1
100
AcDbSymbolTableRecord
100
AcDbBlockTableRecord
  2
*D7
340
0
  0
BLOCK_RECORD
  5
E12
330
1
100
AcDbSymbolTableRecord
100
AcDbBlockTableRecord
  2
*D8
340
0
  0
ENDTAB
  0
ENDSEC
  0
SECTION
  2
BLOCKS
  0
BLOCK
  5
43
330
1E
100
AcDbEntity
  8
0
100
AcDbBlockBegin
  2
*Model_Space
 70
     0
 10
0.0
 20
0.0
 30
0.0
  3
*Model_Space
  1

  0
ENDBLK
  5
44
330
1E
100
AcDbEntity
  8
0
100
AcDbBlockEnd
  0
BLOCK
  5
41
330
1A
100
AcDbEntity
 67
     1
  8
0
100
AcDbBlockBegin
  2
*Paper_Space
 70
     0
 10
0.0
 20
0.0
 30
0.0
  3
*Paper_Space
  1

  0
ENDBLK
  5
42
330
1A
100
AcDbEntity
 67
     1
  8
0
100
AcDbBlockEnd
  0
BLOCK
  5
45
330
22
100
AcDbEntity
  8
0
100
AcDbBlockBegin
  2
LOGO
 70
     0
 10
0.0
 20
0.0
 30
0.0
  3
LOGO
  1

  0
ARC
  5
46
330
22
100
AcDbEntity
  8
0
100
AcDbCircle
 10
11.59973089678112
 20
-9.271599258481501
 30
0.0
 40
4.5
100
AcDbArc
 50
270.0
 51
231.0575587310159
  0
LINE
  5
47
330
22
100
AcDbEntity
  8
0
100
AcDbLine
 10
3.599730896781125
 20
-4.771599258481529
 30
0.0
 11
3.599730896781153
 21
-11.77159925848133
 31
0.0
  0
LINE
  5
48
330
22
100
AcDbEntity
  8
0
100
AcDbLine
 10
2.599730896781125
 20
-4.771599258481529
 30
0.0
 11
2.599730896781153
 21
-11.77159925848133
 31
0.0
  0
CIRCLE
  5
49
330
22
100
AcDbEntity
  8
0
100
AcDbCircle
 10
11.59973089678112
 20
-9.271599258481501
 30
0.0
 40
3.5
  0
ARC
  5
4A
330
22
100
AcDbEntity
  8
0
100
AcDbCircle
 10
31.59973089678115
 20
-9.271599258481472
 30
0.0
 40
4.5
100
AcDbArc
 50
270.0
 51
231.0575587310182
  0
LINE
  5
4B
330
22
100
AcDbEntity
  8
0
100
AcDbLine
 10
17.59973089678112
 20
-4.771599258481472
 30
0.0
 11
17.59973089678115
 21
-13.77159925848147
 31
0.0
  0
ARC
  5
4C
330
22
100
AcDbEntity
  8
0
100
AcDbCircle
 10
22.59973089678116
 20
-7.271599258481472
 30
0.0
 40
2.5
100
AcDbArc
 50
293.1161887722295
 51
90.0
  0
CIRCLE
  5
4D
330
22
100
AcDbEntity
  8
0
100
AcDbCircle
 10
31.59973089678115
 20
-9.271599258481472
 30
0.0
 40
3.5
  0
ARC
  5
4E
330
22
100
AcDbEntity
  8
0
100
AcDbCircle
 10
4.599730896781153
 20
-11.77159925848133
 30
0.0
 40
1.0
100
AcDbArc
 50
180.0
 51
270.0
  0
ARC
  5
4F
330
22
100
AcDbEntity
  8
0
100
AcDbCircle
 10
4.599730896781153
 20
-11.77159925848133
 30
0.0
 40
2.0
100
AcDbArc
 50
179.9999999999992
 51
270.0
  0
LINE
  5
50
330
22
100
AcDbEntity
  8
0
100
AcDbLine
 10
11.59973089678115
 20
-13.77159925848144
 30
0.0
 11
4.599730896781153
 21
-13.77159925848147
 31
0.0
  0
LINE
  5
51
330
22
100
AcDbEntity
  8
0
100
AcDbLine
 10
8.771303772034769
 20
-12.77159925848136
 30
0.0
 11
4.599730896781153
 21
-12.77159925848133
 31
0.0
  0
LINE
  5
52
330
22
100
AcDbEntity
  8
0
100
AcDbLine
 10
31.59973089678115
 20
-13.77159925848147
 30
0.0
 11
23.6715276665056
 21
-13.77159925848144
 31
0.0
  0
LINE
  5
53
330
22
100
AcDbEntity
  8
0
100
AcDbLine
 10
23.56565672307022
 20
-9.51278021337896
 30
0.0
 11
24.4388546544846
 21
-12.77159925848144
 31
0.0
  0
LINE
  5
54
330
22
100
AcDbEntity
  8
0
100
AcDbLine
 10
22.59973089678116
 20
-9.771599258481472
 30
0.0
 11
18.59973089678112
 21
-9.771599258481472
 31
0.0
  0
LINE
  5
55
330
22
100
AcDbEntity
  8
0
100
AcDbLine
 10
18.59973089678115
 20
-13.77159925848144
 30
0.0
 11
17.59973089678115
 21
-13.77159925848144
 31
0.0
  0
LINE
  5
56
330
22
100
AcDbEntity
  8
0
100
AcDbLine
 10
18.59973089678115
 20
-9.771599258481472
 30
0.0
 11
18.59973089678115
 21
-13.77159925848144
 31
0.0
  0
LINE
  5
57
330
22
100
AcDbEntity
  8
0
100
AcDbLine
 10
22.59973089678116
 20
-9.771599258481472
 30
0.0
 11
23.67152766650562
 21
-13.77159925848147
 31
0.0
  0
ARC
  5
58
330
22
100
AcDbEntity
  8
0
100
AcDbCircle
 10
22.59973089678116
 20
-7.271599258481472
 30
0.0
 40
2.5
100
AcDbArc
 50
270.0
 51
270.0000000000007
  0
LINE
  5
59
330
22
100
AcDbEntity
  8
0
100
AcDbLine
 10
28.77130377203494
 20
-12.77159925848147
 30
0.0
 11
24.43885465448463
 21
-12.77159925848144
 31
0.0
  0
LINE
  5
5A
330
22
100
AcDbEntity
  8
0
100
AcDbLine
 10
3.599730896781125
 20
-4.771599258481472
 30
0.0
 11
2.599730896781125
 21
-4.771599258481472
 31
0.0
  0
LINE
  5
5B
330
22
100
AcDbEntity
  8
0
100
AcDbLine
 10
22.59973089678116
 20
-8.771599258481472
 30
0.0
 11
18.59973089678115
 21
-8.771599258481472
 31
0.0
  0
LINE
  5
5C
330
22
100
AcDbEntity
  8
0
100
AcDbLine
 10
22.59973089678116
 20
-5.771599258481472
 30
0.0
 11
18.59973089678115
 21
-5.771599258481472
 31
0.0
  0
LINE
  5
5D
330
22
100
AcDbEntity
  8
0
100
AcDbLine
 10
22.59973089678116
 20
-4.771599258481472
 30
0.0
 11
17.59973089678115
 21
-4.771599258481472
 31
0.0
  0
LINE
  5
5E
330
22
100
AcDbEntity
  8
0
100
AcDbLine
 10
18.59973089678115
 20
-5.771599258481472
 30
0.0
 11
18.59973089678115
 21
-8.771599258481472
 31
0.0
  0
ARC
  5
5F
330
22
100
AcDbEntity
  8
0
100
AcDbCircle
 10
22.59973089678116
 20
-7.271599258481472
 30
0.0
 40
1.5
100
AcDbArc
 50
270.0
 51
90.0
  0
ENDBLK
  5
60
330
22
100
AcDbEntity
  8
0
100
AcDbBlockEnd
  0
BLOCK
  5
CDB
330
CD1
100
AcDbEntity
  8
0
100
AcDbBlockBegin
  2
*D2
 70
     1
 10
0.0
 20
0.0
 30
0.0
  3
*D2
  1

  0
LINE
  5
E61
330
CD1
100
AcDbEntity
  8
BEM
 62
     0
370
    -2
100
AcDbLine
 10
137.6803046358859
 20
220.1651315494909
 30
0.0
 11
137.6803046358859
 21
194.474246264979
 31
0.0
  0
LINE
  5
E62
330
CD1
100
AcDbEntity
  8
BEM
 62
     0
370
    -2
100
AcDbLine
 10
226.580304635886
 20
220.1651315494939
 30
0.0
 11
226.580304635886
 21
194.474246264979
 31
0.0
  0
LINE
  5
E63
330
CD1
100
AcDbEntity
  8
BEM
 62
     0
370
    -2
100
AcDbLine
 10
144.6803046358859
 20
196.474246264979
 30
0.0
 11
219.580304635886
 21
196.474246264979
 31
0.0
  0
SOLID
  5
E64
330
CD1
100
AcDbEntity
  8
BEM
 62
     0
100
AcDbTrace
 10
144.6803046358859
 20
197.6409129316456
 30
0.0
 11
144.6803046358859
 21
195.3075795983123
 31
0.0
 12
137.6803046358859
 22
196.474246264979
 32
0.0
 13
137.6803046358859
 23
196.474246264979
 33
0.0
  0
SOLID
  5
E65
330
CD1
100
AcDbEntity
  8
BEM
 62
     0
100
AcDbTrace
 10
219.580304635886
 20
197.6409129316456
 30
0.0
 11
219.580304635886
 21
195.3075795983123
 31
0.0
 12
226.580304635886
 22
196.474246264979
 32
0.0
 13
226.580304635886
 23
196.474246264979
 33
0.0
  0
MTEXT
  5
E66
330
CD1
100
AcDbEntity
  8
BEM
 62
     1
100
AcDbMText
 10
182.130304635886
 20
202.974246264979
 30
0.0
 40
7.0
 41
0.0
 71
     5
 72
     1
  1
\A1;%%c88.9
 73
     1
 44
1.0
  0
POINT
  5
E67
330
CD1
100
AcDbEntity
  8
DEFPOINTS
 62
     0
100
AcDbPoint
 10
137.6803046358859
 20
222.1651315494909
 30
0.0
  0
POINT
  5
E68
330
CD1
100
AcDbEntity
  8
DEFPOINTS
 62
     0
100
AcDbPoint
 10
226.580304635886
 20
222.1651315494939
 30
0.0
  0
POINT
  5
E69
330
CD1
100
AcDbEntity
  8
DEFPOINTS
 62
     0
100
AcDbPoint
 10
226.580304635886
 20
196.474246264979
 30
0.0
  0
ENDBLK
  5
CDC
330
CD1
100
AcDbEntity
  8
0
100
AcDbBlockEnd
  0
BLOCK
  5
DBF
330
DB5
100
AcDbEntity
  8
0
100
AcDbBlockBegin
  2
*D6
 70
     1
 10
0.0
 20
0.0
 30
0.0
  3
*D6
  1

  0
LINE
  5
ECE
330
DB5
100
AcDbEntity
  8
BEM
 62
     0
370
    -2
100
AcDbLine
 10
136.1177479535156
 20
217.1651315494909
 30
0.0
 11
113.0453754021796
 21
217.1651315494909
 31
0.0
  0
LINE
  5
ECF
330
DB5
100
AcDbEntity
  8
BEM
 62
     0
370
    -2
100
AcDbLine
 10
180.1303046358859
 20
407.1651315494909
 30
0.0
 11
113.0453754021796
 21
407.1651315494909
 31
0.0
  0
LINE
  5
ED0
330
DB5
100
AcDbEntity
  8
BEM
 62
     0
370
    -2
100
AcDbLine
 10
115.0453754021796
 20
224.1651315494909
 30
0.0
 11
115.0453754021796
 21
400.165131549491
 31
0.0
  0
SOLID
  5
ED1
330
DB5
100
AcDbEntity
  8
BEM
 62
     0
100
AcDbTrace
 10
113.8787087355129
 20
224.1651315494909
 30
0.0
 11
116.2120420688462
 21
224.1651315494909
 31
0.0
 12
115.0453754021796
 22
217.1651315494909
 32
0.0
 13
115.0453754021796
 23
217.1651315494909
 33
0.0
  0
SOLID
  5
ED2
330
DB5
100
AcDbEntity
  8
BEM
 62
     0
100
AcDbTrace
 10
113.8787087355129
 20
400.165131549491
 30
0.0
 11
116.2120420688463
 21
400.165131549491
 31
0.0
 12
115.0453754021796
 22
407.1651315494909
 32
0.0
 13
115.0453754021796
 23
407.1651315494909
 33
0.0
  0
MTEXT
  5
ED3
330
DB5
100
AcDbEntity
  8
BEM
 62
     1
100
AcDbMText
 10
108.5453754021795
 20
312.1651315494909
 30
0.0
 40
7.0
 41
0.0
 71
     5
 72
     1
  1
\A1;190
 11
0.0000000000000001
 21
1.0
 31
0.0
 73
     1
 44
1.0
  0
POINT
  5
ED4
330
DB5
100
AcDbEntity
  8
DEFPOINTS
 62
     0
100
AcDbPoint
 10
138.1177479535156
 20
217.1651315494909
 30
0.0
  0
POINT
  5
ED5
330
DB5
100
AcDbEntity
  8
DEFPOINTS
 62
     0
100
AcDbPoint
 10
182.130304635886
 20
407.1651315494909
 30
0.0
  0
POINT
  5
ED6
330
DB5
100
AcDbEntity
  8
DEFPOINTS
 62
     0
100
AcDbPoint
 10
115.0453754021796
 20
407.1651315494909
 30
0.0
  0
ENDBLK
  5
DC0
330
DB5
100
AcDbEntity
  8
0
100
AcDbBlockEnd
  0
BLOCK
  5
DCC
330
DC2
100
AcDbEntity
  8
0
100
AcDbBlockBegin
  2
*D7
 70
     1
 10
0.0
 20
0.0
 30
0.0
  3
*D7
  1

  0
LINE
  5
EC5
330
DC2
100
AcDbEntity
  8
BEM
 62
     0
370
    -2
100
AcDbLine
 10
182.0256327234
 20
409.162390619
 30
0.0
 11
178.3124981971098
 21
480.0132180550671
 31
0.0
  0
LINE
  5
EC6
330
DC2
100
AcDbEntity
  8
BEM
 62
     0
370
    -2
100
AcDbLine
 10
369.2922702343662
 20
466.2933789875096
 30
0.0
 11
368.0521098004788
 21
489.9570497412265
 31
0.0
  0
LINE
  5
EC7
330
DC2
100
AcDbEntity
  8
BEM
 62
     0
370
    -2
100
AcDbLine
 10
185.4075768528777
 20
478.3823106792586
 30
0.0
 11
361.1663749696827
 21
487.5934389780168
 31
0.0
  0
SOLID
  5
EC8
330
DC2
100
AcDbEntity
  8
BEM
 62
     0
100
AcDbTrace
 10
185.3465182372609
 20
479.5473784698057
 30
0.0
 11
185.4686354684945
 21
477.2172428887116
 31
0.0
 12
178.4171701095957
 22
478.015958985558
 32
0.0
 13
178.4171701095957
 23
478.015958985558
 33
0.0
  0
SOLID
  5
EC9
330
DC2
100
AcDbEntity
  8
BEM
 62
     0
100
AcDbTrace
 10
361.1053163540659
 20
488.7585067685638
 30
0.0
 11
361.2274335852995
 21
486.4283711874698
 31
0.0
 12
368.1567817129647
 22
487.9597906717174
 32
0.0
 13
368.1567817129647
 23
487.9597906717174
 33
0.0
  0
MTEXT
  5
ECA
330
DC2
100
AcDbEntity
  8
BEM
 62
     1
100
AcDbMText
 10
272.946792195701
 20
489.4789668045425
 30
0.0
 40
7.0
 41
0.0
 71
     5
 72
     1
  1
\A1;190
 11
0.9986295347545739
 21
0.0523359562429444
 31
0.0
 73
     1
 44
1.0
  0
POINT
  5
ECB
330
DC2
100
AcDbEntity
  8
DEFPOINTS
 62
     0
100
AcDbPoint
 10
182.130304635886
 20
407.1651315494909
 30
0.0
  0
POINT
  5
ECC
330
DC2
100
AcDbEntity
  8
DEFPOINTS
 62
     0
100
AcDbPoint
 10
369.3969421468521
 20
464.2961199180005
 30
0.0
  0
POINT
  5
ECD
330
DC2
100
AcDbEntity
  8
DEFPOINTS
 62
     0
100
AcDbPoint
 10
368.1567817129647
 20
487.9597906717174
 30
0.0
  0
ENDBLK
  5
DCD
330
DC2
100
AcDbEntity
  8
0
100
AcDbBlockEnd
  0
BLOCK
  5
E1D
330
E12
100
AcDbEntity
  8
0
100
AcDbBlockBegin
  2
*D8
 70
     1
 10
0.0
 20
0.0
 30
0.0
  3
*D8
  1

  0
LINE
  5
E33
330
E12
100
AcDbEntity
  8
SCHRAFF
 62
     0
370
    -2
100
AcDbLine
 10
182.1303046358859
 20
409.1651315494908
 30
0.0
 11
182.1303046358859
 21
458.1780991386239
 31
0.0
  0
ARC
  5
E34
330
E12
100
AcDbEntity
  8
SCHRAFF
 62
     0
370
    -2
100
AcDbCircle
 10
182.1303046358859
 20
407.1651315494908
 30
0.0
 40
49.01296758913325
100
AcDbArc
 50
11.18991639908895
 51
81.81008360091103
  0
SOLID
  5
E35
330
E12
100
AcDbEntity
  8
SCHRAFF
 62
     0
100
AcDbTrace
 10
231.3692358502382
 20
416.820771597445
 30
0.0
 11
229.0537692924485
 21
416.5325719024384
 31
0.0
 12
231.0761016563631
 22
409.7302720765726
 32
0.0
 13
231.0761016563631
 23
409.7302720765726
 33
0.0
  0
SOLID
  5
E36
330
E12
100
AcDbEntity
  8
SCHRAFF
 62
     0
100
AcDbTrace
 10
189.029122844358
 20
454.5145431769667
 30
0.0
 11
189.1957454152483
 21
456.8419196749392
 31
0.0
 12
182.1303046358859
 22
456.1780991386241
 32
0.0
 13
182.1303046358859
 23
456.1780991386241
 33
0.0
  0
MTEXT
  5
E37
330
E12
100
AcDbEntity
  8
SCHRAFF
 62
     1
100
AcDbMText
 10
209.0257660890518
 20
455.7277068907289
 30
0.0
 40
7.0
 41
0.0
 71
     5
 72
     1
  1
\A1;87°
 11
0.8747969609670864
 21
-0.4844897079224179
 31
0.0
 73
     1
 44
1.0
  0
POINT
  5
E38
330
E12
100
AcDbEntity
  8
DEFPOINTS
 62
     0
100
AcDbPoint
 10
223.695658486827
 20
433.1380472722102
 30
0.0
  0
POINT
  5
E39
330
E12
100
AcDbEntity
  8
DEFPOINTS
 62
     0
100
AcDbPoint
 10
376.8630639130277
 20
417.3706430168649
 30
0.0
  0
POINT
  5
E3A
330
E12
100
AcDbEntity
  8
DEFPOINTS
 62
     0
100
AcDbPoint
 10
182.1303046358859
 20
407.1651315494908
 30
0.0
  0
POINT
  5
E3B
330
E12
100
AcDbEntity
  8
DEFPOINTS
 62
     0
100
AcDbPoint
 10
182.1303046358859
 20
212.1651315494911
 30
0.0
  0
POINT
  5
E3C
330
E12
100
AcDbEntity
  8
DEFPOINTS
 62
     0
100
AcDbPoint
 10
182.1303046358859
 20
407.1651315494908
 30
0.0
  0
ENDBLK
  5
E1E
330
E12
100
AcDbEntity
  8
0
100
AcDbBlockEnd
  0
ENDSEC
  0
SECTION
  2
ENTITIES
  0
TEXT
  5
134
330
1E
100
AcDbEntity
  8
TEXT
100
AcDbText
 10
204.4216048581257
 20
63.0896391972351
 30
0.0
 40
4.0
  1
Koeh
 41
0.8
  7
GREEKS
 72
     1
 11
209.6787477152686
 21
63.0896391972351
 31
0.0
100
AcDbText
  0
INSERT
  5
135
330
1E
100
AcDbEntity
  8
STEMPEL
100
AcDbBlockReference
  2
LOGO
 10
150.9955485457794
 20
45.02105276448322
 30
0.0
 41
2.0
 42
2.0
 43
2.0
  0
LINE
  5
136
330
1E
100
AcDbEntity
  8
HILF
100
AcDbLine
 10
420.0
 20
0.0
 30
0.0
 11
0.0
 21
0.0
 31
0.0
  0
LINE
  5
137
330
1E
100
AcDbEntity
  8
HILF
100
AcDbLine
 10
419.9999999999999
 20
594.0000000000002
 30
0.0
 11
0.0
 21
594.0
 31
0.0
  0
LINE
  5
138
330
1E
100
AcDbEntity
  8
STEMPEL
100
AcDbLine
 10
410.0
 20
584.0
 30
0.0
 11
39.99999999999989
 21
584.0
 31
0.0
  0
LINE
  5
139
330
1E
100
AcDbEntity
  8
STEMPEL
100
AcDbLine
 10
410.0
 20
10.0
 30
0.0
 11
39.99999999999989
 21
10.0
 31
0.0
  0
LINE
  5
13A
330
1E
100
AcDbEntity
  8
STEMPEL
100
AcDbLine
 10
49.99999999999989
 20
10.0
 30
0.0
 11
410.0
 21
10.0
 31
0.0
  0
TEXT
  5
13B
330
1E
100
AcDbEntity
  8
TEXT
100
AcDbText
 10
202.4626584226295
 20
73.30961091915225
 30
0.0
 40
4.0
  1
Name
 41
0.8
  7
GREEKS
100
AcDbText
  0
TEXT
  5
13C
330
1E
100
AcDbEntity
  8
TEXT
100
AcDbText
 10
196.5498279101549
 20
102.6506227776589
 30
0.0
 40
5.0
  1
Zul. Abw.
 41
0.8
  7
GREEKS
 72
     4
 11
209.9783993387263
 21
105.1506227776589
 31
0.0
100
AcDbText
  0
LINE
  5
13D
330
1E
100
AcDbEntity
  8
HILF
100
AcDbLine
 10
146.0000000000001
 20
49.99999999999997
 30
0.0
 11
230.0
 21
49.99999999999997
 31
0.0
  0
LINE
  5
13E
330
1E
100
AcDbEntity
  8
HILF
100
AcDbLine
 10
146.0000000000001
 20
59.99999999999997
 30
0.0
 11
230.0
 21
59.99999999999997
 31
0.0
  0
LINE
  5
13F
330
1E
100
AcDbEntity
  8
HILF
100
AcDbLine
 10
146.0000000000001
 20
69.99999999999994
 30
0.0
 11
230.0
 21
69.99999999999994
 31
0.0
  0
LINE
  5
140
330
1E
100
AcDbEntity
  8
STEMPEL
100
AcDbLine
 10
410.0
 20
80.0
 30
0.0
 11
146.0000000000001
 21
79.99999999999994
 31
0.0
  0
LINE
  5
141
330
1E
100
AcDbEntity
  8
STEMPEL
100
AcDbLine
 10
410.0
 20
40.0
 30
0.0
 11
146.0000000000001
 21
39.99999999999997
 31
0.0
  0
LINE
  5
142
330
1E
100
AcDbEntity
  8
STEMPEL
100
AcDbLine
 10
410.0
 20
110.0
 30
0.0
 11
39.99999999999997
 21
110.0
 31
0.0
  0
LINE
  5
144
330
1E
100
AcDbEntity
  8
HILF
100
AcDbLine
 10
0.0
 20
0.0
 30
0.0
 11
-0.0000000000001137
 21
594.0
 31
0.0
  0
LINE
  5
145
330
1E
100
AcDbEntity
  8
STEMPEL
100
AcDbLine
 10
40.0
 20
10.0
 30
0.0
 11
39.99999999999989
 21
584.0
 31
0.0
  0
LINE
  5
148
330
1E
100
AcDbEntity
  8
HILF
100
AcDbLine
 10
40.00000000000008
 20
39.99999999999997
 30
0.0
 11
146.0000000000001
 21
39.99999999999997
 31
0.0
  0
LINE
  5
149
330
1E
100
AcDbEntity
  8
HILF
100
AcDbLine
 10
40.00000000000008
 20
49.99999999999997
 30
0.0
 11
146.0000000000001
 21
49.99999999999997
 31
0.0
  0
LINE
  5
14A
330
1E
100
AcDbEntity
  8
HILF
100
AcDbLine
 10
40.00000000000008
 20
59.99999999999997
 30
0.0
 11
146.0000000000001
 21
59.99999999999997
 31
0.0
  0
LINE
  5
14B
330
1E
100
AcDbEntity
  8
HILF
100
AcDbLine
 10
40.00000000000008
 20
69.99999999999994
 30
0.0
 11
146.0000000000001
 21
69.99999999999994
 31
0.0
  0
LINE
  5
14C
330
1E
100
AcDbEntity
  8
HILF
100
AcDbLine
 10
40.00000000000008
 20
79.99999999999994
 30
0.0
 11
146.0000000000001
 21
79.99999999999994
 31
0.0
  0
LINE
  5
14D
330
1E
100
AcDbEntity
  8
HILF
100
AcDbLine
 10
40.00000000000008
 20
90.00000000000005
 30
0.0
 11
146.0000000000001
 21
90.00000000000005
 31
0.0
  0
LINE
  5
14E
330
1E
100
AcDbEntity
  8
HILF
100
AcDbLine
 10
40.00000000000008
 20
100.0
 30
0.0
 11
146.0000000000001
 21
100.0
 31
0.0
  0
LINE
  5
14F
330
1E
100
AcDbEntity
  8
STEMPEL
100
AcDbLine
 10
145.9999999999999
 20
29.99999999999997
 30
0.0
 11
39.99999999999997
 21
29.99999999999997
 31
0.0
  0
TEXT
  5
150
330
1E
100
AcDbEntity
  8
TEXT
100
AcDbText
 10
48.26641107045756
 20
13.65465846027192
 30
0.0
 40
4.0
  1
Index
 50
90.0
 41
0.8
  7
GREEKS
100
AcDbText
  0
LINE
  5
151
330
1E
100
AcDbEntity
  8
VOLL
100
AcDbLine
 10
54.00000000000009
 20
110.0
 30
0.0
 11
53.99999999999997
 21
9.999999999999971
 31
0.0
  0
LINE
  5
152
330
1E
100
AcDbEntity
  8
HILF
100
AcDbLine
 10
31.08767135713856
 20
297.0
 30
0.0
 11
0.0000000000001137
 21
297.0
 31
0.0
  0
LINE
  5
154
330
1E
100
AcDbEntity
  8
VOLL
100
AcDbLine
 10
124.0000000000001
 20
109.9999999999999
 30
0.0
 11
124.0
 21
9.999999999999971
 31
0.0
  0
LINE
  5
155
330
1E
100
AcDbEntity
  8
VOLL
100
AcDbLine
 10
104.0000000000001
 20
109.9999999999999
 30
0.0
 11
104.0
 21
9.999999999999971
 31
0.0
  0
LINE
  5
157
330
1E
100
AcDbEntity
  8
STEMPEL
100
AcDbLine
 10
146.0000000000001
 20
109.9999999999999
 30
0.0
 11
146.0
 21
9.999999999999971
 31
0.0
  0
TEXT
  5
159
330
1E
100
AcDbEntity
  8
TEXT
100
AcDbText
 10
172.331167315365
 20
73.31880501229926
 30
0.0
 40
4.0
  1
Tag
 41
0.8
  7
GREEKS
100
AcDbText
  0
TEXT
  5
15A
330
1E
100
AcDbEntity
  8
TEXT
100
AcDbText
 10
147.5836127167615
 20
63.62990369617964
 30
0.0
 40
4.0
  1
Gez.
 41
0.8
  7
GREEKS
100
AcDbText
  0
LINE
  5
15B
330
1E
100
AcDbEntity
  8
VOLL
100
AcDbLine
 10
164.0000000000001
 20
79.99999999999994
 30
0.0
 11
164.0000000000001
 21
39.99999999999997
 31
0.0
  0
TEXT
  5
15C
330
1E
100
AcDbEntity
  8
TEXT
100
AcDbText
 10
147.6006777387303
 20
43.52946389649807
 30
0.0
 40
4.0
  1
Norm.
 41
0.8
  7
GREEKS
100
AcDbText
  0
TEXT
  5
15D
330
1E
100
AcDbEntity
  8
TEXT
100
AcDbText
 10
147.5515086571672
 20
53.68926291428377
 30
0.0
 40
4.0
  1
Gepr.
 41
0.8
  7
GREEKS
100
AcDbText
  0
TEXT
  5
15E
330
1E
100
AcDbEntity
  8
TEXT
 62
     1
100
AcDbText
 10
160.5006306481887
 20
88.14901428913959
 30
0.0
 40
7.0
  1
1:2
 41
0.8
  7
GREEKS
100
AcDbText
  0
TEXT
  5
160
330
1E
100
AcDbEntity
  8
TEXT
100
AcDbText
 10
148.622109822104
 20
73.14025471151666
 30
0.0
 40
4.0
  1
2011
 41
0.8
  7
GREEKS
100
AcDbText
  0
LINE
  5
161
330
1E
100
AcDbEntity
  8
VOLL
100
AcDbLine
 10
190.0000000000001
 20
109.9999999999998
 30
0.0
 11
190.0
 21
39.99999999999997
 31
0.0
  0
LINE
  5
186
330
1E
100
AcDbEntity
  8
HILF
100
AcDbLine
 10
420.0
 20
-0.0000000000001137
 30
0.0
 11
419.9999999999999
 21
594.0
 31
0.0
  0
LINE
  5
187
330
1E
100
AcDbEntity
  8
STEMPEL
100
AcDbLine
 10
410.0
 20
10.0
 30
0.0
 11
410.0
 21
584.0
 31
0.0
  0
TEXT
  5
188
330
1E
100
AcDbEntity
  8
TEXT
100
AcDbText
 10
337.2400861497006
 20
52.07416177878602
 30
0.0
 40
5.0
  1
ersetzt durch:
 41
0.8
  7
GREEKS
100
AcDbText
  0
TEXT
  5
18A
330
1E
100
AcDbEntity
  8
TEXT
100
AcDbText
 10
336.178754957634
 20
102.3132034537136
 30
0.0
 40
5.0
  1
Zeichnungs Nr.
 41
0.8
  7
GREEKS
100
AcDbText
  0
LINE
  5
18B
330
1E
100
AcDbEntity
  8
HILF
100
AcDbLine
 10
233.4909699289885
 20
14.89398258028314
 30
0.0
 11
404.8588839326728
 21
14.89398258028314
 31
0.0
  0
LINE
  5
18C
330
1E
100
AcDbEntity
  8
HILF
100
AcDbLine
 10
336.7238616296993
 20
83.77983636955827
 30
0.0
 11
404.8588839326728
 21
83.77983636955827
 31
0.0
  0
LINE
  5
18D
330
1E
100
AcDbEntity
  8
VOLL
100
AcDbLine
 10
332.0
 20
60.0
 30
0.0
 11
410.0
 21
60.0
 31
0.0
  0
TEXT
  5
18E
330
1E
100
AcDbEntity
  8
TEXT
 62
     1
100
AcDbText
 10
234.9283864320014
 20
87.41748789253779
 30
0.0
 40
7.0
  1
Bogen DN80 87°
 41
0.8
  7
GREEKS
100
AcDbText
  0
LINE
  5
18F
330
1E
100
AcDbEntity
  8
HILF
100
AcDbLine
 10
234.7736801096947
 20
49.99999999999997
 30
0.0
 11
324.835391655631
 21
49.99999999999997
 31
0.0
  0
LINE
  5
190
330
1E
100
AcDbEntity
  8
HILF
100
AcDbLine
 10
234.7736801096947
 20
59.99999999999997
 30
0.0
 11
324.835391655631
 21
59.99999999999997
 31
0.0
  0
LINE
  5
191
330
1E
100
AcDbEntity
  8
HILF
100
AcDbLine
 10
234.7736801096947
 20
69.99999999999994
 30
0.0
 11
324.835391655631
 21
69.99999999999994
 31
0.0
  0
LINE
  5
192
330
1E
100
AcDbEntity
  8
HILF
100
AcDbLine
 10
234.7736801096947
 20
84.03758247564139
 30
0.0
 11
324.8353916556311
 21
84.03758247564139
 31
0.0
  0
LINE
  5
193
330
1E
100
AcDbEntity
  8
STEMPEL
100
AcDbLine
 10
230.0
 20
110.0
 30
0.0
 11
230.0
 21
9.999999999999971
 31
0.0
  0
TEXT
  5
194
330
1E
100
AcDbEntity
  8
TEXT
100
AcDbText
 10
235.1296391125315
 20
71.50334417585288
 30
0.0
 40
5.0
  1
dünnwandig
 41
0.8
  7
GREEKS
100
AcDbText
  0
TEXT
  5
195
330
1E
100
AcDbEntity
  8
TEXT
100
AcDbText
 10
234.9837501577827
 20
42.62974153022632
 30
0.0
 40
4.0
  1
5300080W.DWG
 41
0.8
  7
GREEKS
100
AcDbText
  0
TEXT
  5
196
330
1E
100
AcDbEntity
  8
TEXT
100
AcDbText
 10
234.742238391136
 20
30.84560570193057
 30
0.0
 40
5.0
  1
Bauvorhaben
 41
0.8
  7
GREEKS
100
AcDbText
  0
TEXT
  5
197
330
1E
100
AcDbEntity
  8
TEXT
100
AcDbText
 10
234.877940380901
 20
102.5489328011779
 30
0.0
 40
5.0
  1
Benennung
 41
0.8
  7
GREEKS
100
AcDbText
  0
LINE
  5
198
330
1E
100
AcDbEntity
  8
STEMPEL
100
AcDbLine
 10
332.0
 20
109.9999999999997
 30
0.0
 11
332.0
 21
40.0
 31
0.0
  0
TEXT
  5
19A
330
1E
100
AcDbEntity
  8
TEXT
 62
     1
100
AcDbText
 10
349.5322413514598
 20
88.14901428913959
 30
0.0
 40
7.0
  1
5300080W
 41
0.8
  7
GREEKS
 72
     1
 11
370.8655746847932
 21
88.14901428913959
 31
0.0
100
AcDbText
  0
TEXT
  5
212
330
1E
100
AcDbEntity
  8
TEXT
100
AcDbText
 10
235.1296391125315
 20
51.50334417585291
 30
0.0
 40
5.0
  1
EDV-Art.Nr. 5.300.080C
 41
0.8
  7
GREEKS
100
AcDbText
  0
TEXT
  5
255
330
1E
100
AcDbEntity
  8
TEXT
 62
     1
100
AcDbText
 10
297.9974873842989
 20
131.2276367653921
 30
0.0
 40
7.0
  1
Werkstoff: 1.4404
 41
0.8
  7
GREEKS
100
AcDbText
  0
TEXT
  5
B0F
330
1E
100
AcDbEntity
  8
BEM
100
AcDbText
 10
416.5811541437437
 20
12.14804815338303
 30
0.0
 40
4.0
  1
Diese Zeichnung ist urheberrechtlich geschützt und bleibt unser Eigentum. Sie darf weder ganz noch teilweise vervielfältigt und nicht an Dritte weitergegeben werden.
 50
90.0
 41
0.8
  7
GREEKS
100
AcDbText
  0
TEXT
  5
B10
330
1E
100
AcDbEntity
  8
TEXT
100
AcDbText
 10
336.7238616296993
 20
73.1811823709997
 30
0.0
 40
5.0
  1
Ersatz für:
 41
0.8
  7
GREEKS
100
AcDbText
  0
TEXT
  5
B11
330
1E
100
AcDbEntity
  8
TEXT
100
AcDbText
 10
192.6882715247924
 20
89.00646370679282
 30
0.0
 40
4.0
  1
DIN EN1124-3
 41
0.8
  7
GREEKS
 72
     1
 11
209.6787477152686
 21
89.00646370679282
 31
0.0
100
AcDbText
  0
TEXT
  5
B12
330
1E
100
AcDbEntity
  8
TEXT
100
AcDbText
 10
153.5163572150377
 20
102.4620895087088
 30
0.0
 40
5.0
  1
Maßstab
 41
0.8
  7
GREEKS
100
AcDbText
  0
TEXT
  5
B13
330
1E
100
AcDbEntity
  8
TEXT
100
AcDbText
 10
41.85509950977674
 20
111.6719999999999
 30
0.0
 40
5.0
  1
Erstellt mit AUTOCAD 2004
 41
0.8
  7
GREEKS
100
AcDbText
  0
TEXT
  5
B14
330
1E
100
AcDbEntity
  8
TEXT
100
AcDbText
 10
129.2391668299012
 20
18.59324216966408
 30
0.0
 40
4.0
  1
Name
 41
0.8
  7
GREEKS
 72
     1
 11
135.5629763537107
 21
18.59324216966408
 31
0.0
100
AcDbText
  0
TEXT
  5
B15
330
1E
100
AcDbEntity
  8
TEXT
100
AcDbText
 10
110.3496319666763
 20
18.6715626933981
 30
0.0
 40
4.0
  1
Tag
 41
0.8
  7
GREEKS
 72
     1
 11
114.0829653000096
 21
18.6715626933981
 31
0.0
100
AcDbText
  0
TEXT
  5
B16
330
1E
100
AcDbEntity
  8
TEXT
100
AcDbText
 10
66.99867878482315
 20
18.67381894984132
 30
0.0
 40
4.0
  1
Änderung
 41
0.8
  7
GREEKS
 72
     1
 11
77.7415359276803
 21
18.67381894984132
 31
0.0
100
AcDbText
  0
LINE
  5
B24
330
1E
100
AcDbEntity
  8
MITTEL
100
AcDbLine
 10
376.8630639130277
 20
417.3706430168651
 30
0.0
 11
182.130304635886
 21
407.1651315494909
 31
0.0
  0
LINE
  5
B26
330
1E
100
AcDbEntity
  8
MITTEL
100
AcDbLine
 10
182.130304635886
 20
407.1651315494909
 30
0.0
 11
182.130304635886
 21
212.1651315494911
 31
0.0
  0
TEXT
  5
BDD
330
1E
100
AcDbEntity
  8
TEXT
 62
     1
100
AcDbText
 10
344.3840346697943
 20
430.7091427008024
 30
0.0
 40
7.0
  1
DN80
 50
2.999999999999989
 41
0.8
  7
GREEKS
100
AcDbText
  0
LINE
  5
C21
330
1E
100
AcDbEntity
  8
STEMPEL
100
AcDbLine
 10
225.2584177200676
 20
453.9363809605085
 30
0.0
 11
137.6803046358859
 21
361.6483059827893
 31
0.0
  0
LINE
  5
C23
330
1E
100
AcDbEntity
  8
MITTEL
100
AcDbLine
 10
245.29419930306
 20
410.4754109998654
 30
0.0
 11
182.130304635886
 21
343.9145541642575
 31
0.0
  0
LINE
  5
C37
330
1E
100
AcDbEntity
  8
STEMPEL
100
AcDbLine
 10
265.3299808860521
 20
367.0144410392228
 30
0.0
 11
226.5803046358859
 21
326.1808023457258
 31
0.0
  0
LINE
  5
CA1
330
1E
100
AcDbEntity
  8
STEMPEL
100
AcDbLine
 10
226.1428613182563
 20
217.1651315494911
 30
0.0
 11
138.1177479535156
 21
217.1651315494909
 31
0.0
  0
LINE
  5
CA2
330
1E
100
AcDbEntity
  8
HILF
100
AcDbLine
 10
225.3757208308339
 20
222.1651315494912
 30
0.0
 11
138.8848884409381
 21
222.1651315494909
 31
0.0
  0
DIMENSION
  5
CA3
330
1E
100
AcDbEntity
  8
BEM
100
AcDbDimension
  2
*D2
 10
226.580304635886
 20
196.474246264979
 30
0.0
 11
182.130304635886
 21
202.974246264979
 31
0.0
 70
    32
  1
%%c<>
 71
     5
 42
88.90000000000009
  3
Standard
100
AcDbAlignedDimension
 13
137.6803046358859
 23
222.1651315494909
 33
0.0
 14
226.580304635886
 24
222.1651315494939
 34
0.0
100
AcDbRotatedDimension
1001
ACAD
1000
DSTYLE
1002
{
1070
    40
1040
2.0
1070
    41
1040
3.5
1070
    42
1040
1.0
1070
    43
1040
7.0
1070
    44
1040
1.0
1070
    73
1070
     0
1070
    74
1070
     0
1070
    77
1070
     1
1070
    78
1070
     8
1070
    79
1070
     2
1070
   140
1040
3.5
1070
   141
1040
1.5
1070
   146
1040
0.5
1070
   147
1040
1.5
1070
   172
1070
     1
1070
   178
1070
     1
1070
   179
1070
     2
1070
   271
1070
     2
1070
   272
1070
     2
1070
   284
1070
     8
1070
   285
1070
     8
1070
   286
1070
     8
1002
}
  0
LINE
  5
CA4
330
1E
100
AcDbEntity
  8
STEMPEL
100
AcDbLine
 10
137.6803046358859
 20
222.1651315494909
 30
0.0
 11
138.1177479535156
 21
217.1651315494909
 31
0.0
  0
LINE
  5
CA5
330
1E
100
AcDbEntity
  8
STEMPEL
100
AcDbLine
 10
226.580304635886
 20
222.1651315494939
 30
0.0
 11
226.1428613182563
 21
217.1651315494911
 31
0.0
  0
LINE
  5
CC3
330
1E
100
AcDbEntity
  8
STEMPEL
100
AcDbLine
 10
226.5803046358859
 20
326.1808023457258
 30
0.0
 11
226.580304635886
 21
222.1651315494939
 31
0.0
  0
LINE
  5
CC4
330
1E
100
AcDbEntity
  8
STEMPEL
100
AcDbLine
 10
137.6803046358859
 20
361.6483059827893
 30
0.0
 11
137.6803046358859
 21
222.1651315494909
 31
0.0
  0
LINE
  5
CEF
330
1E
100
AcDbEntity
  8
STEMPEL
100
AcDbLine
 10
338.5958377978316
 20
368.2505737976435
 30
0.0
 11
319.6274114857881
 21
367.2564806981354
 31
0.0
  0
LINE
  5
CF0
330
1E
100
AcDbEntity
  8
STEMPEL
100
AcDbLine
 10
333.6710243153703
 20
462.2216130180488
 30
0.0
 11
314.702598003327
 21
461.2275199185406
 31
0.0
  0
LINE
  5
CF1
330
1E
100
AcDbEntity
  8
HILF
100
AcDbLine
 10
316.6469936961716
 20
368.7150043613834
 30
0.0
 11
311.8909644913672
 21
459.4654477090834
 31
0.0
  0
LINE
  5
CF2
330
1E
100
AcDbEntity
  8
HILF
100
AcDbLine
 10
311.6829036323167
 20
370.387473101643
 30
0.0
 11
307.1288888195661
 21
457.2832522216791
 31
0.0
  0
ARC
  5
CF3
330
1E
100
AcDbEntity
  8
STEMPEL
100
AcDbCircle
 10
315.3096950957451
 20
449.6434173153873
 30
0.0
 40
11.6
100
AcDbArc
 50
93.0
 51
121.9550243718594
  0
ARC
  5
CF4
330
1E
100
AcDbEntity
  8
STEMPEL
100
AcDbCircle
 10
304.3012242435718
 20
467.2914645018852
 30
0.0
 40
9.200000000000001
100
AcDbArc
 50
273.0
 51
301.9550243718594
  0
ARC
  5
CF5
330
1E
100
AcDbEntity
  8
STEMPEL
100
AcDbCircle
 10
309.91687234844
 20
360.1385154227194
 30
0.0
 40
9.200000000000001
100
AcDbArc
 50
64.04497562814062
 51
93.0
  0
ARC
  5
CF6
330
1E
100
AcDbEntity
  8
STEMPEL
100
AcDbCircle
 10
319.0203143933697
 20
378.8405833012885
 30
0.0
 40
11.6
100
AcDbArc
 50
244.0449756281406
 51
273.0
  0
LINE
  5
CF7
330
1E
100
AcDbEntity
  8
STEMPEL
100
AcDbLine
 10
374.3428903316578
 20
369.9218065533002
 30
0.0
 11
369.3969421468521
 21
464.2961199180005
 31
0.0
  0
LINE
  5
CF8
330
1E
100
AcDbEntity
  8
HILF
100
AcDbLine
 10
341.4705695709949
 20
369.3103047093182
 30
0.0
 11
336.640780050767
 21
461.4681787177453
 31
0.0
  0
ARC
  5
CFA
330
1E
100
AcDbEntity
  8
STEMPEL
100
AcDbCircle
 10
358.3112674948379
 20
442.7845458819216
 30
0.0
 40
24.2
100
AcDbArc
 50
62.73634805790209
 51
93.0
  0
ARC
  5
CFB
330
1E
100
AcDbEntity
  8
STEMPEL
100
AcDbCircle
 10
350.6181360506374
 20
442.3813659471986
 30
0.0
 40
24.2
100
AcDbArc
 50
93.0
 51
117.8505023402287
  0
ARC
  5
CFC
330
1E
100
AcDbEntity
  8
STEMPEL
100
AcDbCircle
 10
332.9592553104662
 20
475.8029746907109
 30
0.0
 40
13.6
100
AcDbArc
 50
273.0
 51
297.8505023402287
  0
LINE
  5
CFD
330
1E
100
AcDbEntity
  8
STEMPEL
100
AcDbLine
 10
357.0447373537587
 20
466.9513806229825
 30
0.0
 11
349.3516059095582
 21
466.5482006882594
 31
0.0
  0
ARC
  5
CFE
330
1E
100
AcDbEntity
  8
STEMPEL
100
AcDbCircle
 10
361.069372388841
 20
390.1567694003558
 30
0.0
 40
24.2
100
AcDbArc
 50
273.0
 51
303.2636519420979
  0
ARC
  5
CFF
330
1E
100
AcDbEntity
  8
STEMPEL
100
AcDbCircle
 10
353.3762409446405
 20
389.7535894656327
 30
0.0
 40
24.2
100
AcDbArc
 50
248.1494976597713
 51
273.0
  0
ARC
  5
D00
330
1E
100
AcDbEntity
  8
STEMPEL
100
AcDbCircle
 10
339.3076068027355
 20
354.6692121249813
 30
0.0
 40
13.6
100
AcDbArc
 50
68.14949765977129
 51
93.0
  0
LINE
  5
D01
330
1E
100
AcDbEntity
  8
STEMPEL
100
AcDbLine
 10
362.3359025299203
 20
365.9899346592952
 30
0.0
 11
354.6427710857199
 21
365.5867547245721
 31
0.0
  0
LINE
  5
D02
330
1E
100
AcDbEntity
  8
STEMPEL
100
AcDbLine
 10
309.4353815510049
 20
369.3259071424618
 30
0.0
 11
265.3299808860521
 21
367.0144410392228
 31
0.0
  0
LINE
  5
D03
330
1E
100
AcDbEntity
  8
STEMPEL
100
AcDbLine
 10
304.782715041007
 20
458.1040727821432
 30
0.0
 11
225.2584177200676
 21
453.9363809605085
 31
0.0
  0
LINE
  5
D43
330
1E
100
AcDbEntity
  8
STEMPEL
100
AcDbLine
 10
265.3299808860521
 20
367.0144410392228
 30
0.0
 11
225.2584177200676
 21
453.9363809605085
 31
0.0
  0
LINE
  5
D44
330
1E
100
AcDbEntity
  8
STEMPEL
100
AcDbLine
 10
226.5803046358859
 20
326.1808023457258
 30
0.0
 11
137.6803046358859
 21
361.6483059827893
 31
0.0
  0
DIMENSION
  5
DB4
330
1E
100
AcDbEntity
  8
BEM
100
AcDbDimension
  2
*D6
 10
115.0453754021796
 20
407.1651315494909
 30
0.0
 11
108.5453754021795
 21
312.1651315494909
 31
0.0
 70
    32
 71
     5
 42
190.0000000000001
  3
Standard
100
AcDbAlignedDimension
 13
138.1177479535156
 23
217.1651315494909
 33
0.0
 14
182.130304635886
 24
407.1651315494909
 34
0.0
 50
90.0
100
AcDbRotatedDimension
1001
ACAD
1000
DSTYLE
1002
{
1070
    40
1040
2.0
1070
    41
1040
3.5
1070
    42
1040
1.0
1070
    43
1040
7.0
1070
    44
1040
1.0
1070
    73
1070
     0
1070
    74
1070
     0
1070
    77
1070
     1
1070
    78
1070
     8
1070
    79
1070
     2
1070
   140
1040
3.5
1070
   141
1040
1.5
1070
   146
1040
0.5142857142857144
1070
   147
1040
1.5
1070
   172
1070
     1
1070
   178
1070
     1
1070
   179
1070
     2
1070
   271
1070
     2
1070
   272
1070
     2
1070
   284
1070
     8
1070
   285
1070
     8
1070
   286
1070
     8
1002
}
  0
DIMENSION
  5
DC1
330
1E
100
AcDbEntity
  8
BEM
100
AcDbDimension
  2
*D7
 10
368.1567817129647
 20
487.9597906717174
 30
0.0
 11
272.946792195701
 21
489.4789668045425
 31
0.0
 70
    32
 71
     5
 42
190.0
 51
357.0
  3
Standard
100
AcDbAlignedDimension
 13
182.130304635886
 23
407.1651315494909
 33
0.0
 14
369.3969421468521
 24
464.2961199180005
 34
0.0
 50
3.000000000000044
100
AcDbRotatedDimension
1001
ACAD
1000
DSTYLE
1002
{
1070
    40
1040
2.0
1070
    41
1040
3.5
1070
    42
1040
1.0
1070
    43
1040
7.0
1070
    44
1040
1.0
1070
    73
1070
     0
1070
    74
1070
     0
1070
    77
1070
     1
1070
    78
1070
     8
1070
    79
1070
     2
1070
   140
1040
3.5
1070
   141
1040
1.5
1070
   146
1040
0.5142857142857144
1070
   147
1040
1.5
1070
   172
1070
     1
1070
   178
1070
     1
1070
   179
1070
     2
1070
   271
1070
     2
1070
   272
1070
     2
1070
   284
1070
     8
1070
   285
1070
     8
1070
   286
1070
     8
1002
}
  0
ARC
  5
DD9
330
1E
100
AcDbEntity
  8
SCHRAFF
100
AcDbCircle
 10
224.4210982449926
 20
455.7526673081586
 30
0.0
 40
5.0
100
AcDbArc
 50
264.7500000000006
 51
324.7500000000014
  0
ARC
  5
DDA
330
1E
100
AcDbEntity
  8
SCHRAFF
100
AcDbCircle
 10
226.5143969326796
 20
451.2119514390332
 30
0.0
 40
5.0
100
AcDbArc
 50
264.7500000000006
 51
324.7500000000014
  0
ARC
  5
DDB
330
1E
100
AcDbEntity
  8
SCHRAFF
100
AcDbCircle
 10
228.6076956203668
 20
446.6712355699079
 30
0.0
 40
5.0
100
AcDbArc
 50
264.7500000000006
 51
324.7500000000014
  0
ARC
  5
DDC
330
1E
100
AcDbEntity
  8
SCHRAFF
100
AcDbCircle
 10
230.700994308054
 20
442.1305197007825
 30
0.0
 40
5.0
100
AcDbArc
 50
264.7500000000006
 51
324.7500000000014
  0
ARC
  5
DDD
330
1E
100
AcDbEntity
  8
SCHRAFF
100
AcDbCircle
 10
232.794292995741
 20
437.5898038316571
 30
0.0
 40
5.0
100
AcDbArc
 50
264.7500000000006
 51
324.7500000000014
  0
ARC
  5
DDE
330
1E
100
AcDbEntity
  8
SCHRAFF
100
AcDbCircle
 10
234.8875916834281
 20
433.0490879625318
 30
0.0
 40
5.0
100
AcDbArc
 50
264.7500000000006
 51
324.7500000000014
  0
ARC
  5
DDF
330
1E
100
AcDbEntity
  8
SCHRAFF
100
AcDbCircle
 10
236.9808903711152
 20
428.5083720934064
 30
0.0
 40
5.0
100
AcDbArc
 50
264.7500000000006
 51
324.7500000000014
  0
ARC
  5
DE0
330
1E
100
AcDbEntity
  8
SCHRAFF
100
AcDbCircle
 10
239.0741890588024
 20
423.967656224281
 30
0.0
 40
5.0
100
AcDbArc
 50
264.7500000000006
 51
324.7500000000014
  0
ARC
  5
DE1
330
1E
100
AcDbEntity
  8
SCHRAFF
100
AcDbCircle
 10
241.1674877464894
 20
419.4269403551556
 30
0.0
 40
5.0
100
AcDbArc
 50
264.7500000000006
 51
324.7500000000014
  0
ARC
  5
DE2
330
1E
100
AcDbEntity
  8
SCHRAFF
100
AcDbCircle
 10
243.2607864341766
 20
414.8862244860302
 30
0.0
 40
5.0
100
AcDbArc
 50
264.7500000000006
 51
324.7500000000014
  0
ARC
  5
DE3
330
1E
100
AcDbEntity
  8
SCHRAFF
100
AcDbCircle
 10
245.3540851218638
 20
410.3455086169049
 30
0.0
 40
5.0
100
AcDbArc
 50
264.7500000000006
 51
324.7500000000014
  0
ARC
  5
DE4
330
1E
100
AcDbEntity
  8
SCHRAFF
100
AcDbCircle
 10
247.447383809551
 20
405.8047927477796
 30
0.0
 40
5.0
100
AcDbArc
 50
264.7500000000006
 51
324.7500000000014
  0
ARC
  5
DE5
330
1E
100
AcDbEntity
  8
SCHRAFF
100
AcDbCircle
 10
249.5406824972381
 20
401.2640768786542
 30
0.0
 40
5.0
100
AcDbArc
 50
264.7500000000006
 51
324.7500000000014
  0
ARC
  5
DE6
330
1E
100
AcDbEntity
  8
SCHRAFF
100
AcDbCircle
 10
251.6339811849251
 20
396.7233610095288
 30
0.0
 40
5.0
100
AcDbArc
 50
264.7500000000006
 51
324.7500000000014
  0
ARC
  5
DE7
330
1E
100
AcDbEntity
  8
SCHRAFF
100
AcDbCircle
 10
253.7272798726121
 20
392.1826451404034
 30
0.0
 40
5.0
100
AcDbArc
 50
264.7500000000006
 51
324.7500000000014
  0
ARC
  5
DE8
330
1E
100
AcDbEntity
  8
SCHRAFF
100
AcDbCircle
 10
255.8205785602992
 20
387.6419292712781
 30
0.0
 40
5.0
100
AcDbArc
 50
264.7500000000006
 51
324.7500000000014
  0
ARC
  5
DE9
330
1E
100
AcDbEntity
  8
SCHRAFF
100
AcDbCircle
 10
257.9138772479864
 20
383.1012134021528
 30
0.0
 40
5.0
100
AcDbArc
 50
264.7500000000006
 51
324.7500000000014
  0
ARC
  5
DEA
330
1E
100
AcDbEntity
  8
SCHRAFF
100
AcDbCircle
 10
260.0071759356735
 20
378.5604975330274
 30
0.0
 40
5.0
100
AcDbArc
 50
264.7500000000006
 51
324.7500000000014
  0
ARC
  5
DEB
330
1E
100
AcDbEntity
  8
SCHRAFF
100
AcDbCircle
 10
262.1004746233605
 20
374.0197816639021
 30
0.0
 40
5.0
100
AcDbArc
 50
264.7500000000006
 51
324.7500000000014
  0
ARC
  5
DED
330
1E
100
AcDbEntity
  8
SCHRAFF
100
AcDbCircle
 10
226.0066304782289
 20
452.3133820237352
 30
0.0
 40
2.621779119279959
100
AcDbArc
 50
42.28159957001759
 51
187.2184004299806
  0
ARC
  5
DEF
330
1E
100
AcDbEntity
  8
SCHRAFF
100
AcDbCircle
 10
263.874976232534
 20
370.1705901156744
 30
0.0
 40
5.124042772968079
100
AcDbArc
 50
265.5476143268111
 51
323.9523856731902
  0
HATCH
  5
DFA
330
1E
100
AcDbEntity
  8
SCHRAFF
100
AcDbHatch
 10
0.0
 20
0.0
 30
0.0
210
0.0
220
0.0
230
1.0
  2
_USER
 70
     0
 71
     0
 91
        2
 92
        7
 72
     1
 73
     1
 93
        3
 10
223.4056305325183
 20
451.9839506458939
 42
0.0
 10
225.2584177200676
 20
453.9363809605085
 42
0.0
 10
227.9463464016438
 20
454.077249333581
 42
0.7328064086817028
 97
        0
 92
        7
 72
     1
 73
     1
 93
        3
 10
268.0179095676284
 20
367.1553094122954
 42
0.0
 10
265.3299808860521
 20
367.0144410392228
 42
0.0
 10
263.4771936985029
 20
365.0620107246082
 42
0.2605027209288955
 97
        0
 75
     0
 76
     0
 52
0.0
 41
0.1
 77
     0
 78
     1
 53
0.0
 43
-369.1060665980426
 44
0.0
 45
0.0
 46
0.1
 79
     0
 47
0.2146946760855465
 98
        2
 10
226.5954700265747
 20
454.3759741017955
 10
265.9133726538912
 20
366.3511557692084
  0
ARC
  5
DFB
330
1E
100
AcDbEntity
  8
SCHRAFF
100
AcDbCircle
 10
159.04292435194
 20
353.1254849200633
 30
0.0
 40
5.0
100
AcDbArc
 50
308.2499999999986
 51
8.249999999999465
  0
ARC
  5
DFC
330
1E
100
AcDbEntity
  8
SCHRAFF
100
AcDbCircle
 10
149.7548288232208
 20
356.8310592951616
 30
0.0
 40
5.0
100
AcDbArc
 50
308.2499999999986
 51
8.249999999999465
  0
ARC
  5
DFD
330
1E
100
AcDbEntity
  8
SCHRAFF
100
AcDbCircle
 10
154.3988765875805
 20
354.9782721076125
 30
0.0
 40
5.0
100
AcDbArc
 50
308.2499999999986
 51
8.249999999999465
  0
ARC
  5
DFE
330
1E
100
AcDbEntity
  8
SCHRAFF
100
AcDbCircle
 10
139.3402377391946
 20
360.9860598255465
 30
0.0
 40
2.621779119279959
100
AcDbArc
 50
85.78159957001949
 51
230.7184004299825
  0
ARC
  5
DFF
330
1E
100
AcDbEntity
  8
SCHRAFF
100
AcDbCircle
 10
140.4667332945017
 20
360.53663367026
 30
0.0
 40
5.0
100
AcDbArc
 50
308.2499999999986
 51
8.249999999999465
  0
ARC
  5
E00
330
1E
100
AcDbEntity
  8
SCHRAFF
100
AcDbCircle
 10
135.8226855301421
 20
362.3894208578091
 30
0.0
 40
5.0
100
AcDbArc
 50
308.2499999999986
 51
8.249999999999465
  0
ARC
  5
E01
330
1E
100
AcDbEntity
  8
SCHRAFF
100
AcDbCircle
 10
145.1107810588612
 20
358.6838464827107
 30
0.0
 40
5.0
100
AcDbArc
 50
308.2499999999986
 51
8.249999999999465
  0
ARC
  5
E02
330
1E
100
AcDbEntity
  8
SCHRAFF
100
AcDbCircle
 10
186.9072109380974
 20
342.0087617947682
 30
0.0
 40
5.0
100
AcDbArc
 50
308.2499999999986
 51
8.249999999999465
  0
ARC
  5
E03
330
1E
100
AcDbEntity
  8
SCHRAFF
100
AcDbCircle
 10
191.5512587024571
 20
340.155974607219
 30
0.0
 40
5.0
100
AcDbArc
 50
308.2499999999986
 51
8.249999999999465
  0
ARC
  5
E04
330
1E
100
AcDbEntity
  8
SCHRAFF
100
AcDbCircle
 10
177.6191154093783
 20
345.7143361698667
 30
0.0
 40
5.0
100
AcDbArc
 50
308.2499999999986
 51
8.249999999999465
  0
ARC
  5
E05
330
1E
100
AcDbEntity
  8
SCHRAFF
100
AcDbCircle
 10
182.2631631737379
 20
343.8615489823173
 30
0.0
 40
5.0
100
AcDbArc
 50
308.2499999999986
 51
8.249999999999465
  0
ARC
  5
E06
330
1E
100
AcDbEntity
  8
SCHRAFF
100
AcDbCircle
 10
168.3310198806591
 20
349.4199105449649
 30
0.0
 40
5.0
100
AcDbArc
 50
308.2499999999986
 51
8.249999999999465
  0
ARC
  5
E07
330
1E
100
AcDbEntity
  8
SCHRAFF
100
AcDbCircle
 10
172.9750676450187
 20
347.5671233574159
 30
0.0
 40
5.0
100
AcDbArc
 50
308.2499999999986
 51
8.249999999999465
  0
ARC
  5
E08
330
1E
100
AcDbEntity
  8
SCHRAFF
100
AcDbCircle
 10
163.6869721162995
 20
351.2726977325141
 30
0.0
 40
5.0
100
AcDbArc
 50
308.2499999999986
 51
8.249999999999465
  0
ARC
  5
E09
330
1E
100
AcDbEntity
  8
SCHRAFF
100
AcDbCircle
 10
223.3523318921731
 20
327.468632885973
 30
0.0
 40
5.124042772968079
100
AcDbArc
 50
309.0476143268098
 51
7.452385673188938
  0
ARC
  5
E0A
330
1E
100
AcDbEntity
  8
SCHRAFF
100
AcDbCircle
 10
205.4834019955358
 20
334.5976130445718
 30
0.0
 40
5.0
100
AcDbArc
 50
308.2499999999986
 51
8.249999999999465
  0
ARC
  5
E0B
330
1E
100
AcDbEntity
  8
SCHRAFF
100
AcDbCircle
 10
210.1274497598954
 20
332.7448258570224
 30
0.0
 40
5.0
100
AcDbArc
 50
308.2499999999986
 51
8.249999999999465
  0
ARC
  5
E0C
330
1E
100
AcDbEntity
  8
SCHRAFF
100
AcDbCircle
 10
200.8393542311763
 20
336.4504002321208
 30
0.0
 40
5.0
100
AcDbArc
 50
308.2499999999986
 51
8.249999999999465
  0
ARC
  5
E0D
330
1E
100
AcDbEntity
  8
SCHRAFF
100
AcDbCircle
 10
214.771497524255
 20
330.8920386694735
 30
0.0
 40
5.0
100
AcDbArc
 50
308.2499999999986
 51
8.249999999999465
  0
ARC
  5
E0E
330
1E
100
AcDbEntity
  8
SCHRAFF
100
AcDbCircle
 10
219.4155452886146
 20
329.0392514819245
 30
0.0
 40
5.0
100
AcDbArc
 50
308.2499999999986
 51
8.249999999999465
  0
ARC
  5
E0F
330
1E
100
AcDbEntity
  8
SCHRAFF
100
AcDbCircle
 10
196.1953064668167
 20
338.3031874196699
 30
0.0
 40
5.0
100
AcDbArc
 50
308.2499999999986
 51
8.249999999999465
  0
HATCH
  5
E10
330
1E
100
AcDbEntity
  8
SCHRAFF
100
AcDbHatch
 10
0.0
 20
0.0
 30
0.0
210
0.0
220
0.0
230
1.0
  2
_USER
 70
     0
 71
     0
 91
        2
 92
        7
 72
     1
 73
     1
 93
        3
 10
139.5330918234351
 20
363.6007362974039
 42
0.0
 10
137.680304635886
 20
361.6483059827892
 42
0.0
 10
137.680304635886
 20
358.9566885330441
 42
-0.7328064086817028
 97
        0
 92
        7
 72
     1
 73
     1
 93
        3
 10
226.5803046358858
 20
323.4891848959805
 42
0.0
 10
226.5803046358858
 20
326.1808023457257
 42
0.0
 10
228.433091823435
 20
328.1332326603404
 42
-0.2605027209288955
 97
        0
 75
     0
 76
     0
 52
0.0
 41
0.1
 77
     0
 78
     1
 53
273.0
 43
559.8879479190205
 44
978.9554290030554
 45
-0.0998629534754574
 46
-0.0052335956242944
 79
     0
 47
0.2146946760855465
 98
        2
 10
137.3112898527291
 20
360.2900795325924
 10
227.273213262524
 20
325.6329237648971
  0
DIMENSION
  5
E11
330
1E
100
AcDbEntity
  8
SCHRAFF
100
AcDbDimension
  2
*D8
 10
182.130304635886
 20
407.1651315494909
 30
0.0
 11
205.876582987556
 21
450.0415266444429
 31
0.0
 70
   162
 71
     5
 42
1.518436449235066
  3
Standard
100
AcDb2LineAngularDimension
 13
182.130304635886
 23
407.1651315494909
 33
0.0
 14
182.130304635886
 24
212.1651315494911
 34
0.0
 15
376.8630639130277
 25
417.3706430168651
 35
0.0
 16
223.695658486827
 26
433.1380472722102
 36
0.0
1001
ACAD
1000
DSTYLE
1002
{
1070
    40
1040
2.0
1070
    41
1040
3.5
1070
    42
1040
1.0
1070
    43
1040
7.0
1070
    44
1040
1.0
1070
    73
1070
     0
1070
    74
1070
     0
1070
    77
1070
     1
1070
    78
1070
     8
1070
    79
1070
     2
1070
   140
1040
3.5
1070
   141
1040
1.5
1070
   146
1040
0.5142857142857144
1070
   147
1040
1.5
1070
   172
1070
     1
1070
   178
1070
     1
1070
   179
1070
     2
1070
   271
1070
     2
1070
   272
1070
     2
1070
   284
1070
     8
1070
   285
1070
     8
1070
   286
1070
     8
1002
}
  0
TEXT
  5
EBA
330
1E
100
AcDbEntity
  8
TEXT
100
AcDbText
 10
170.398997108236
 20
63.10765040825732
 30
0.0
 40
4.0
  1
08.04.
 41
0.8
  7
GREEKS
 72
     1
 11
177.4085209177598
 21
63.10765040825732
 31
0.0
100
AcDbText
  0
ENDSEC
  0
SECTION
  2
OBJECTS
  0
DICTIONARY
  5
C
330
0
100
AcDbDictionary
281
     1
  3
ACAD_COLOR
350
B01
  3
ACAD_GROUP
350
D
  3
ACAD_LAYOUT
350
19
  3
ACAD_MATERIAL
350
B00
  3
ACAD_MLINESTYLE
350
16
  3
ACAD_PLOTSETTINGS
350
18
  3
ACAD_PLOTSTYLENAME
350
E
  3
AcDbVariableDictionary
350
246
  0
DICTIONARY
  5
B01
102
{ACAD_REACTORS
330
C
102
}
330
C
100
AcDbDictionary
281
     1
  0
DICTIONARY
  5
D
102
{ACAD_REACTORS
330
C
102
}
330
C
100
AcDbDictionary
281
     1
  0
DICTIONARY
  5
19
102
{ACAD_REACTORS
330
C
102
}
330
C
100
AcDbDictionary
281
     1
  3
Layout1
350
1D
  3
Model
350
21
  0
DICTIONARY
  5
B00
102
{ACAD_REACTORS
330
C
102
}
330
C
100
AcDbDictionary
281
     1
  0
DICTIONARY
  5
16
102
{ACAD_REACTORS
330
C
102
}
330
C
100
AcDbDictionary
281
     1
  3
Standard
350
17
  0
DICTIONARY
  5
18
102
{ACAD_REACTORS
330
C
102
}
330
C
100
AcDbDictionary
281
     1
  0
ACDBDICTIONARYWDFLT
  5
E
102
{ACAD_REACTORS
330
C
102
}
330
C
100
AcDbDictionary
281
     1
  3
Normal
350
F
100
AcDbDictionaryWithDefault
340
F
  0
DICTIONARY
  5
246
102
{ACAD_REACTORS
330
C
102
}
330
C
100
AcDbDictionary
281
     1
  3
DIMASSOC
350
B1F
  3
PROJECTNAME
350
B20
  3
SORTENTS
350
247
  0
LAYOUT
  5
1D
102
{ACAD_REACTORS
330
19
102
}
330
19
100
AcDbPlotSettings
  1

  2
Tektronix Phaser 740
  4

  6

 40
0.0
 41
0.0
 42
0.0
 43
0.0
 44
0.0
 45
0.0
 46
0.0
 47
0.0
 48
0.0
 49
0.0
140
0.0
141
0.0
142
1.0
143
1.0
 70
   688
 72
     0
 73
     0
 74
     5
  7
monochrome.ctb
 75
    16
147
1.0
 76
     0
 77
     2
 78
   300
148
0.0
149
0.0
100
AcDbLayout
  1
Layout1
 70
     0
 71
     1
 10
0.0
 20
0.0
 11
12.0
 21
9.0
 12
0.0
 22
0.0
 32
0.0
 14
1.000000000000000E+20
 24
1.000000000000000E+20
 34
1.000000000000000E+20
 15
-1.000000000000000E+20
 25
-1.000000000000000E+20
 35
-1.000000000000000E+20
146
0.0
 13
0.0
 23
0.0
 33
0.0
 16
1.0
 26
0.0
 36
0.0
 17
0.0
 27
1.0
 37
0.0
 76
     0
330
1A
  0
LAYOUT
  5
21
102
{ACAD_REACTORS
330
19
102
}
330
19
100
AcDbPlotSettings
  1

  2
Tektronix Phaser 740
  4
A4
  6

 40
5.873749732971191
 41
6.085414409637451
 42
5.577407836914062
 43
5.662078857421875
 44
209.9733276367187
 45
296.9683227539062
 46
0.0
 47
0.0
 48
0.0
 49
0.0
140
0.0
141
0.0
142
1.0
143
1.0
 70
 11952
 72
     0
 73
     1
 74
     0
  7
monochrome.ctb
 75
     0
147
1.0
 76
     0
 77
     2
 78
   300
148
1150.120678237584
149
45.30495740799864
100
AcDbLayout
  1
Model
 70
     1
 71
     0
 10
0.0
 20
0.0
 11
12.0
 21
9.0
 12
0.0
 22
0.0
 32
0.0
 14
0.0
 24
0.0
 34
0.0
 15
0.0
 25
0.0
 35
0.0
146
0.0
 13
0.0
 23
0.0
 33
0.0
 16
1.0
 26
0.0
 36
0.0
 17
0.0
 27
1.0
 37
0.0
 76
     0
330
1E
  0
MLINESTYLE
  5
17
102
{ACAD_REACTORS
330
16
102
}
330
16
100
AcDbMlineStyle
  2
STANDARD
 70
     0
  3

 62
   256
 51
90.0
 52
90.0
 71
     2
 49
0.5
 62
   256
  6
BYLAYER
 49
-0.5
 62
   256
  6
BYLAYER
  0
ACDBPLACEHOLDER
  5
F
102
{ACAD_REACTORS
330
E
102
}
330
E
  0
DICTIONARYVAR
  5
B1F
102
{ACAD_REACTORS
330
246
102
}
330
246
100
DictionaryVariables
280
     0
  1
1
  0
DICTIONARYVAR
  5
B20
102
{ACAD_REACTORS
330
246
102
}
330
246
100
DictionaryVariables
280
     0
  1

  0
DICTIONARYVAR
  5
247
102
{ACAD_REACTORS
330
246
102
}
330
246
100
DictionaryVariables
280
     0
  1
96
  0
ENDSEC
  0
EOF
