  0
SECTION
  2
HEADER
  9
$ACADVER
  1
AC1018
  9
$ACADMAINTVER
 70
     2
  9
$DWGCODEPAGE
  3
ANSI_1252
  9
$INSBASE
 10
0.0
 20
0.0
 30
0.0
  9
$EXTMIN
 10
-0.025627235270008
 20
-0.0362442327398185
 30
-0.0000000000000099
  9
$EXTMAX
 10
420.0256404375887
 20
594.0362629045889
 30
0.0000000000000054
  9
$LIMMIN
 10
0.0
 20
0.0
  9
$LIMMAX
 10
419.9999999999999
 20
594.0
  9
$ORTHOMODE
 70
     1
  9
$REGENMODE
 70
     1
  9
$FILLMODE
 70
     1
  9
$QTEXTMODE
 70
     0
  9
$MIRRTEXT
 70
     1
  9
$LTSCALE
 40
20.0
  9
$ATTMODE
 70
     1
  9
$TEXTSIZE
 40
3.5
  9
$TRACEWID
 40
0.5
  9
$TEXTSTYLE
  7
STANDARD
  9
$CLAYER
  8
BEM
  9
$CELTYPE
  6
ByLayer
  9
$CECOLOR
 62
   256
  9
$CELTSCALE
 40
1.0
  9
$DISPSILH
 70
     0
  9
$DIMSCALE
 40
2.0
  9
$DIMASZ
 40
3.5
  9
$DIMEXO
 40
1.0
  9
$DIMDLI
 40
7.0
  9
$DIMRND
 40
0.0
  9
$DIMDLE
 40
0.0
  9
$DIMEXE
 40
1.0
  9
$DIMTP
 40
0.0
  9
$DIMTM
 40
0.0
  9
$DIMTXT
 40
3.5
  9
$DIMCEN
 40
1.5
  9
$DIMTSZ
 40
0.0
  9
$DIMTOL
 70
     0
  9
$DIMLIM
 70
     0
  9
$DIMTIH
 70
     0
  9
$DIMTOH
 70
     0
  9
$DIMSE1
 70
     0
  9
$DIMSE2
 70
     0
  9
$DIMTAD
 70
     1
  9
$DIMZIN
 70
     8
  9
$DIMBLK
  1

  9
$DIMASO
 70
     1
  9
$DIMSHO
 70
     0
  9
$DIMPOST
  1

  9
$DIMAPOST
  1

  9
$DIMALT
 70
     0
  9
$DIMALTD
 70
     2
  9
$DIMALTF
 40
25.4
  9
$DIMLFAC
 40
1.0
  9
$DIMTOFL
 70
     1
  9
$DIMTVP
 40
0.0
  9
$DIMTIX
 70
     0
  9
$DIMSOXD
 70
     0
  9
$DIMSAH
 70
     0
  9
$DIMBLK1
  1

  9
$DIMBLK2
  1

  9
$DIMSTYLE
  2
Standard
  9
$DIMCLRD
 70
     0
  9
$DIMCLRE
 70
     0
  9
$DIMCLRT
 70
     1
  9
$DIMTFAC
 40
0.5142857142857144
  9
$DIMGAP
 40
1.5
  9
$DIMJUST
 70
     0
  9
$DIMSD1
 70
     0
  9
$DIMSD2
 70
     0
  9
$DIMTOLJ
 70
     1
  9
$DIMTZIN
 70
     8
  9
$DIMALTZ
 70
     8
  9
$DIMALTTZ
 70
     8
  9
$DIMUPT
 70
     0
  9
$DIMDEC
 70
     2
  9
$DIMTDEC
 70
     2
  9
$DIMALTU
 70
     2
  9
$DIMALTTD
 70
     2
  9
$DIMTXSTY
  7
STANDARD
  9
$DIMAUNIT
 70
     0
  9
$DIMADEC
 70
     2
  9
$DIMALTRND
 40
0.0
  9
$DIMAZIN
 70
     2
  9
$DIMDSEP
 70
    46
  9
$DIMATFIT
 70
     3
  9
$DIMFRAC
 70
     0
  9
$DIMLDRBLK
  1

  9
$DIMLUNIT
 70
     2
  9
$DIMLWD
 70
    -2
  9
$DIMLWE
 70
    -2
  9
$DIMTMOVE
 70
     0
  9
$LUNITS
 70
     2
  9
$LUPREC
 70
     2
  9
$SKETCHINC
 40
1.0
  9
$FILLETRAD
 40
0.0
  9
$AUNITS
 70
     1
  9
$AUPREC
 70
     3
  9
$MENU
  1
ACAD
  9
$ELEVATION
 40
0.0
  9
$PELEVATION
 40
0.0
  9
$THICKNESS
 40
0.0
  9
$LIMCHECK
 70
     0
  9
$CHAMFERA
 40
0.0
  9
$CHAMFERB
 40
0.0
  9
$CHAMFERC
 40
0.0
  9
$CHAMFERD
 40
0.0
  9
$SKPOLY
 70
     0
  9
$TDCREATE
 40
2452040.637099653
  9
$TDUCREATE
 40
2452040.553766320
  9
$TDUPDATE
 40
2455660.371297975
  9
$TDUUPDATE
 40
2455660.287964641
  9
$TDINDWG
 40
0.2542950231
  9
$TDUSRTIMER
 40
0.2542950231
  9
$USRTIMER
 70
     1
  9
$ANGBASE
 50
0.0
  9
$ANGDIR
 70
     0
  9
$PDMODE
 70
     0
  9
$PDSIZE
 40
0.0
  9
$PLINEWID
 40
0.0
  9
$SPLFRAME
 70
     0
  9
$SPLINETYPE
 70
     6
  9
$SPLINESEGS
 70
     8
  9
$HANDSEED
  5
13DE
  9
$SURFTAB1
 70
     6
  9
$SURFTAB2
 70
     6
  9
$SURFTYPE
 70
     6
  9
$SURFU
 70
     6
  9
$SURFV
 70
     6
  9
$UCSBASE
  2

  9
$UCSNAME
  2

  9
$UCSORG
 10
0.0
 20
0.0
 30
0.0
  9
$UCSXDIR
 10
1.0
 20
0.0
 30
0.0
  9
$UCSYDIR
 10
0.0
 20
1.0
 30
0.0
  9
$UCSORTHOREF
  2

  9
$UCSORTHOVIEW
 70
     0
  9
$UCSORGTOP
 10
0.0
 20
0.0
 30
0.0
  9
$UCSORGBOTTOM
 10
0.0
 20
0.0
 30
0.0
  9
$UCSORGLEFT
 10
0.0
 20
0.0
 30
0.0
  9
$UCSORGRIGHT
 10
0.0
 20
0.0
 30
0.0
  9
$UCSORGFRONT
 10
0.0
 20
0.0
 30
0.0
  9
$UCSORGBACK
 10
0.0
 20
0.0
 30
0.0
  9
$PUCSBASE
  2

  9
$PUCSNAME
  2

  9
$PUCSORG
 10
0.0
 20
0.0
 30
0.0
  9
$PUCSXDIR
 10
1.0
 20
0.0
 30
0.0
  9
$PUCSYDIR
 10
0.0
 20
1.0
 30
0.0
  9
$PUCSORTHOREF
  2

  9
$PUCSORTHOVIEW
 70
     0
  9
$PUCSORGTOP
 10
0.0
 20
0.0
 30
0.0
  9
$PUCSORGBOTTOM
 10
0.0
 20
0.0
 30
0.0
  9
$PUCSORGLEFT
 10
0.0
 20
0.0
 30
0.0
  9
$PUCSORGRIGHT
 10
0.0
 20
0.0
 30
0.0
  9
$PUCSORGFRONT
 10
0.0
 20
0.0
 30
0.0
  9
$PUCSORGBACK
 10
0.0
 20
0.0
 30
0.0
  9
$USERI1
 70
     0
  9
$USERI2
 70
     0
  9
$USERI3
 70
     0
  9
$USERI4
 70
     0
  9
$USERI5
 70
     0
  9
$USERR1
 40
0.0
  9
$USERR2
 40
0.0
  9
$USERR3
 40
0.0
  9
$USERR4
 40
0.0
  9
$USERR5
 40
0.0
  9
$WORLDVIEW
 70
     1
  9
$SHADEDGE
 70
     3
  9
$SHADEDIF
 70
    70
  9
$TILEMODE
 70
     1
  9
$MAXACTVP
 70
    16
  9
$PINSBASE
 10
0.0
 20
0.0
 30
0.0
  9
$PLIMCHECK
 70
     0
  9
$PEXTMIN
 10
1.000000000000000E+20
 20
1.000000000000000E+20
 30
1.000000000000000E+20
  9
$PEXTMAX
 10
-1.000000000000000E+20
 20
-1.000000000000000E+20
 30
-1.000000000000000E+20
  9
$PLIMMIN
 10
0.0
 20
0.0
  9
$PLIMMAX
 10
12.0
 20
9.0
  9
$UNITMODE
 70
     0
  9
$VISRETAIN
 70
     0
  9
$PLINEGEN
 70
     0
  9
$PSLTSCALE
 70
     0
  9
$TREEDEPTH
 70
  3020
  9
$CMLSTYLE
  2
Standard
  9
$CMLJUST
 70
     0
  9
$CMLSCALE
 40
1.0
  9
$PROXYGRAPHICS
 70
     1
  9
$MEASUREMENT
 70
     0
  9
$CELWEIGHT
370
    -1
  9
$ENDCAPS
280
     0
  9
$JOINSTYLE
280
     0
  9
$LWDISPLAY
290
     0
  9
$INSUNITS
 70
     0
  9
$HYPERLINKBASE
  1

  9
$STYLESHEET
  1
monochrome 1.ctb
  9
$XEDIT
290
     1
  9
$CEPSNTYPE
380
     0
  9
$PSTYLEMODE
290
     1
  9
$FINGERPRINTGUID
  2
{7AADB5C8-6110-11D8-B72B-000102183313}
  9
$VERSIONGUID
  2
{555CD6F4-6A8D-4B61-8ADF-E086292960C8}
  9
$EXTNAMES
290
     1
  9
$PSVPSCALE
 40
0.0
  9
$OLESTARTUP
290
     0
  9
$SORTENTS
280
    96
  9
$INDEXCTL
280
     0
  9
$HIDETEXT
280
     0
  9
$XCLIPFRAME
290
     0
  9
$HALOGAP
280
     0
  9
$OBSCOLOR
 70
   257
  9
$OBSLTYPE
280
     0
  9
$INTERSECTIONDISPLAY
280
     0
  9
$INTERSECTIONCOLOR
 70
   257
  9
$DIMASSOC
280
     1
  9
$PROJECTNAME
  1

  0
ENDSEC
  0
SECTION
  2
CLASSES
  0
CLASS
  1
ACDBDICTIONARYWDFLT
  2
AcDbDictionaryWithDefault
  3
ObjectDBX Classes
 90
        0
 91
        1
280
     0
281
     0
  0
CLASS
  1
DICTIONARYVAR
  2
AcDbDictionaryVar
  3
ObjectDBX Classes
 90
        0
 91
        3
280
     0
281
     0
  0
ENDSEC
  0
SECTION
  2
TABLES
  0
TABLE
  2
VPORT
  5
8
330
0
100
AcDbSymbolTable
 70
     3
  0
VPORT
  5
13DD
330
8
100
AcDbSymbolTableRecord
100
AcDbViewportTableRecord
  2
*Active
 70
     0
 10
0.0
 20
0.0
 11
1.0
 21
1.0
 12
210.0
 22
297.0
 13
0.0
 23
0.0
 14
1.0
 24
1.0
 15
10.0
 25
10.0
 16
0.0
 26
0.0
 36
1.0
 17
0.0
 27
0.0
 37
0.0
 40
594.0
 41
1.334231805929919
 42
50.0
 43
0.0
 44
0.0
 50
0.0
 51
0.0
 71
     0
 72
  1500
 73
     1
 74
     0
 75
     0
 76
     0
 77
     0
 78
     0
281
     0
 65
     1
110
0.0
120
0.0
130
0.0
111
1.0
121
0.0
131
0.0
112
0.0
122
1.0
132
0.0
 79
     0
146
0.0
  0
ENDTAB
  0
TABLE
  2
LTYPE
  5
5
330
0
100
AcDbSymbolTable
 70
     2
  0
LTYPE
  5
13
330
5
100
AcDbSymbolTableRecord
100
AcDbLinetypeTableRecord
  2
ByBlock
 70
     0
  3

 72
    65
 73
     0
 40
0.0
  0
LTYPE
  5
14
330
5
100
AcDbSymbolTableRecord
100
AcDbLinetypeTableRecord
  2
ByLayer
 70
     0
  3

 72
    65
 73
     0
 40
0.0
  0
LTYPE
  5
15
330
5
100
AcDbSymbolTableRecord
100
AcDbLinetypeTableRecord
  2
Continuous
 70
     0
  3
Solid line
 72
    65
 73
     0
 40
0.0
  0
LTYPE
  5
35
330
5
100
AcDbSymbolTableRecord
100
AcDbLinetypeTableRecord
  2
STRICHPUNKT
 70
     0
  3
__ . __ . __ . __ . __ . __ . __ . __ . __ . __
 72
    65
 73
     4
 40
1.0
 49
0.5
 74
     0
 49
-0.25
 74
     0
 49
0.0
 74
     0
 49
-0.25
 74
     0
  0
ENDTAB
  0
TABLE
  2
LAYER
  5
2
330
0
100
AcDbSymbolTable
 70
     9
  0
LAYER
  5
10
330
2
100
AcDbSymbolTableRecord
100
AcDbLayerTableRecord
  2
0
 70
     0
 62
     7
  6
Continuous
370
    -3
390
F
  0
LAYER
  5
38
330
2
100
AcDbSymbolTableRecord
100
AcDbLayerTableRecord
  2
VOLL
 70
     0
 62
     1
  6
Continuous
370
    -3
390
F
  0
LAYER
  5
39
330
2
100
AcDbSymbolTableRecord
100
AcDbLayerTableRecord
  2
HILF
 70
     0
 62
     2
  6
Continuous
370
    -3
390
F
  0
LAYER
  5
3A
330
2
100
AcDbSymbolTableRecord
100
AcDbLayerTableRecord
  2
MITTEL
 70
     0
 62
     2
  6
STRICHPUNKT
370
    -3
390
F
  0
LAYER
  5
3B
330
2
100
AcDbSymbolTableRecord
100
AcDbLayerTableRecord
  2
BEM
 70
     0
 62
     7
  6
Continuous
370
    -3
390
F
  0
LAYER
  5
3C
330
2
100
AcDbSymbolTableRecord
100
AcDbLayerTableRecord
  2
STEMPEL
 70
     0
 62
     3
  6
Continuous
370
    -3
390
F
  0
LAYER
  5
3D
330
2
100
AcDbSymbolTableRecord
100
AcDbLayerTableRecord
  2
TEXT
 70
     0
 62
     7
  6
Continuous
370
    -3
390
F
  0
LAYER
  5
3E
330
2
100
AcDbSymbolTableRecord
100
AcDbLayerTableRecord
  2
DEFPOINTS
 70
     0
 62
     7
  6
Continuous
290
     0
370
    -3
390
F
  0
LAYER
  5
3F
330
2
100
AcDbSymbolTableRecord
100
AcDbLayerTableRecord
  2
SCHRAFF
 70
     0
 62
     7
  6
Continuous
370
    -3
390
F
  0
ENDTAB
  0
TABLE
  2
STYLE
  5
3
330
0
100
AcDbSymbolTable
 70
     2
  0
STYLE
  5
11
330
3
100
AcDbSymbolTableRecord
100
AcDbTextStyleTableRecord
  2
STANDARD
 70
     0
 40
0.0
 41
0.8
 50
0.0
 71
     0
 42
3.5
  3
simplex.shx
  4

  0
STYLE
  5
34
330
3
100
AcDbSymbolTableRecord
100
AcDbTextStyleTableRecord
  2
GREEKS
 70
     0
 40
0.0
 41
0.8
 50
0.0
 71
     0
 42
2.5
  3
SIMPLEX.shx
  4

  0
ENDTAB
  0
TABLE
  2
VIEW
  5
6
330
0
100
AcDbSymbolTable
 70
     0
  0
ENDTAB
  0
TABLE
  2
UCS
  5
7
330
0
100
AcDbSymbolTable
 70
     0
  0
ENDTAB
  0
TABLE
  2
APPID
  5
9
330
0
100
AcDbSymbolTable
 70
     1
  0
APPID
  5
12
330
9
100
AcDbSymbolTableRecord
100
AcDbRegAppTableRecord
  2
ACAD
 70
     0
  0
ENDTAB
  0
TABLE
  2
DIMSTYLE
  5
A
330
0
100
AcDbSymbolTable
 70
     1
100
AcDbDimStyleTable
 71
     1
340
1CB
  0
DIMSTYLE
105
1CB
102
{ACAD_REACTORS
330
1DB
330
1E8
330
A32
330
121F
330
1282
330
12FD
102
}
330
A
100
AcDbSymbolTableRecord
100
AcDbDimStyleTableRecord
  2
Standard
 70
     0
340
11
  0
ENDTAB
  0
TABLE
  2
BLOCK_RECORD
  5
1
330
0
100
AcDbSymbolTable
 70
     9
  0
BLOCK_RECORD
  5
1E
330
1
100
AcDbSymbolTableRecord
100
AcDbBlockTableRecord
  2
*Model_Space
340
21
  0
BLOCK_RECORD
  5
1A
330
1
100
AcDbSymbolTableRecord
100
AcDbBlockTableRecord
  2
*Paper_Space
340
1D
  0
BLOCK_RECORD
  5
22
330
1
100
AcDbSymbolTableRecord
100
AcDbBlockTableRecord
  2
LOGO
340
0
102
{BLKREFS
331
135
102
}
  0
BLOCK_RECORD
  5
1DC
330
1
100
AcDbSymbolTableRecord
100
AcDbBlockTableRecord
  2
*D1
340
0
  0
BLOCK_RECORD
  5
1E9
330
1
100
AcDbSymbolTableRecord
100
AcDbBlockTableRecord
  2
*D2
340
0
  0
BLOCK_RECORD
  5
A33
330
1
100
AcDbSymbolTableRecord
100
AcDbBlockTableRecord
  2
*D4
340
0
  0
BLOCK_RECORD
  5
1220
330
1
100
AcDbSymbolTableRecord
100
AcDbBlockTableRecord
  2
*D6
340
0
  0
BLOCK_RECORD
  5
1283
330
1
100
AcDbSymbolTableRecord
100
AcDbBlockTableRecord
  2
*D7
340
0
  0
BLOCK_RECORD
  5
12FE
330
1
100
AcDbSymbolTableRecord
100
AcDbBlockTableRecord
  2
*D8
340
0
  0
ENDTAB
  0
ENDSEC
  0
SECTION
  2
BLOCKS
  0
BLOCK
  5
43
330
1E
100
AcDbEntity
  8
0
100
AcDbBlockBegin
  2
*Model_Space
 70
     0
 10
0.0
 20
0.0
 30
0.0
  3
*Model_Space
  1

  0
ENDBLK
  5
44
330
1E
100
AcDbEntity
  8
0
100
AcDbBlockEnd
  0
BLOCK
  5
41
330
1A
100
AcDbEntity
 67
     1
  8
0
100
AcDbBlockBegin
  2
*Paper_Space
 70
     0
 10
0.0
 20
0.0
 30
0.0
  3
*Paper_Space
  1

  0
ENDBLK
  5
42
330
1A
100
AcDbEntity
 67
     1
  8
0
100
AcDbBlockEnd
  0
BLOCK
  5
45
330
22
100
AcDbEntity
  8
0
100
AcDbBlockBegin
  2
LOGO
 70
     0
 10
0.0
 20
0.0
 30
0.0
  3
LOGO
  1

  0
ARC
  5
46
330
22
100
AcDbEntity
  8
0
100
AcDbCircle
 10
11.59973089678112
 20
-9.271599258481501
 30
0.0
 40
4.5
100
AcDbArc
 50
270.0
 51
231.0575587310159
  0
LINE
  5
47
330
22
100
AcDbEntity
  8
0
100
AcDbLine
 10
3.599730896781125
 20
-4.771599258481529
 30
0.0
 11
3.599730896781153
 21
-11.77159925848133
 31
0.0
  0
LINE
  5
48
330
22
100
AcDbEntity
  8
0
100
AcDbLine
 10
2.599730896781125
 20
-4.771599258481529
 30
0.0
 11
2.599730896781153
 21
-11.77159925848133
 31
0.0
  0
CIRCLE
  5
49
330
22
100
AcDbEntity
  8
0
100
AcDbCircle
 10
11.59973089678112
 20
-9.271599258481501
 30
0.0
 40
3.5
  0
ARC
  5
4A
330
22
100
AcDbEntity
  8
0
100
AcDbCircle
 10
31.59973089678115
 20
-9.271599258481472
 30
0.0
 40
4.5
100
AcDbArc
 50
270.0
 51
231.0575587310182
  0
LINE
  5
4B
330
22
100
AcDbEntity
  8
0
100
AcDbLine
 10
17.59973089678112
 20
-4.771599258481472
 30
0.0
 11
17.59973089678115
 21
-13.77159925848147
 31
0.0
  0
ARC
  5
4C
330
22
100
AcDbEntity
  8
0
100
AcDbCircle
 10
22.59973089678116
 20
-7.271599258481472
 30
0.0
 40
2.5
100
AcDbArc
 50
293.1161887722295
 51
90.0
  0
CIRCLE
  5
4D
330
22
100
AcDbEntity
  8
0
100
AcDbCircle
 10
31.59973089678115
 20
-9.271599258481472
 30
0.0
 40
3.5
  0
ARC
  5
4E
330
22
100
AcDbEntity
  8
0
100
AcDbCircle
 10
4.599730896781153
 20
-11.77159925848133
 30
0.0
 40
1.0
100
AcDbArc
 50
180.0
 51
270.0
  0
ARC
  5
4F
330
22
100
AcDbEntity
  8
0
100
AcDbCircle
 10
4.599730896781153
 20
-11.77159925848133
 30
0.0
 40
2.0
100
AcDbArc
 50
179.9999999999992
 51
270.0
  0
LINE
  5
50
330
22
100
AcDbEntity
  8
0
100
AcDbLine
 10
11.59973089678115
 20
-13.77159925848144
 30
0.0
 11
4.599730896781153
 21
-13.77159925848147
 31
0.0
  0
LINE
  5
51
330
22
100
AcDbEntity
  8
0
100
AcDbLine
 10
8.771303772034769
 20
-12.77159925848136
 30
0.0
 11
4.599730896781153
 21
-12.77159925848133
 31
0.0
  0
LINE
  5
52
330
22
100
AcDbEntity
  8
0
100
AcDbLine
 10
31.59973089678115
 20
-13.77159925848147
 30
0.0
 11
23.6715276665056
 21
-13.77159925848144
 31
0.0
  0
LINE
  5
53
330
22
100
AcDbEntity
  8
0
100
AcDbLine
 10
23.56565672307022
 20
-9.51278021337896
 30
0.0
 11
24.4388546544846
 21
-12.77159925848144
 31
0.0
  0
LINE
  5
54
330
22
100
AcDbEntity
  8
0
100
AcDbLine
 10
22.59973089678116
 20
-9.771599258481472
 30
0.0
 11
18.59973089678112
 21
-9.771599258481472
 31
0.0
  0
LINE
  5
55
330
22
100
AcDbEntity
  8
0
100
AcDbLine
 10
18.59973089678115
 20
-13.77159925848144
 30
0.0
 11
17.59973089678115
 21
-13.77159925848144
 31
0.0
  0
LINE
  5
56
330
22
100
AcDbEntity
  8
0
100
AcDbLine
 10
18.59973089678115
 20
-9.771599258481472
 30
0.0
 11
18.59973089678115
 21
-13.77159925848144
 31
0.0
  0
LINE
  5
57
330
22
100
AcDbEntity
  8
0
100
AcDbLine
 10
22.59973089678116
 20
-9.771599258481472
 30
0.0
 11
23.67152766650562
 21
-13.77159925848147
 31
0.0
  0
ARC
  5
58
330
22
100
AcDbEntity
  8
0
100
AcDbCircle
 10
22.59973089678116
 20
-7.271599258481472
 30
0.0
 40
2.5
100
AcDbArc
 50
270.0
 51
270.0000000000007
  0
LINE
  5
59
330
22
100
AcDbEntity
  8
0
100
AcDbLine
 10
28.77130377203494
 20
-12.77159925848147
 30
0.0
 11
24.43885465448463
 21
-12.77159925848144
 31
0.0
  0
LINE
  5
5A
330
22
100
AcDbEntity
  8
0
100
AcDbLine
 10
3.599730896781125
 20
-4.771599258481472
 30
0.0
 11
2.599730896781125
 21
-4.771599258481472
 31
0.0
  0
LINE
  5
5B
330
22
100
AcDbEntity
  8
0
100
AcDbLine
 10
22.59973089678116
 20
-8.771599258481472
 30
0.0
 11
18.59973089678115
 21
-8.771599258481472
 31
0.0
  0
LINE
  5
5C
330
22
100
AcDbEntity
  8
0
100
AcDbLine
 10
22.59973089678116
 20
-5.771599258481472
 30
0.0
 11
18.59973089678115
 21
-5.771599258481472
 31
0.0
  0
LINE
  5
5D
330
22
100
AcDbEntity
  8
0
100
AcDbLine
 10
22.59973089678116
 20
-4.771599258481472
 30
0.0
 11
17.59973089678115
 21
-4.771599258481472
 31
0.0
  0
LINE
  5
5E
330
22
100
AcDbEntity
  8
0
100
AcDbLine
 10
18.59973089678115
 20
-5.771599258481472
 30
0.0
 11
18.59973089678115
 21
-8.771599258481472
 31
0.0
  0
ARC
  5
5F
330
22
100
AcDbEntity
  8
0
100
AcDbCircle
 10
22.59973089678116
 20
-7.271599258481472
 30
0.0
 40
1.5
100
AcDbArc
 50
270.0
 51
90.0
  0
ENDBLK
  5
60
330
22
100
AcDbEntity
  8
0
100
AcDbBlockEnd
  0
BLOCK
  5
1E6
330
1DC
100
AcDbEntity
  8
0
100
AcDbBlockBegin
  2
*D1
 70
     1
 10
0.0
 20
0.0
 30
0.0
  3
*D1
  1

  0
LINE
  5
1355
330
1DC
100
AcDbEntity
  8
BEM
 62
     0
370
    -2
100
AcDbLine
 10
107.3079275685016
 20
183.3306635994205
 30
0.0
 11
66.57438015850627
 21
183.3306635994205
 31
0.0
  0
LINE
  5
1356
330
1DC
100
AcDbEntity
  8
BEM
 62
     0
370
    -2
100
AcDbLine
 10
101.2779740547986
 20
513.3339565037506
 30
0.0
 11
66.57438015850634
 21
513.3339565037506
 31
0.0
  0
LINE
  5
1357
330
1DC
100
AcDbEntity
  8
BEM
 62
     0
370
    -2
100
AcDbLine
 10
68.57438015850627
 20
190.3306635994205
 30
0.0
 11
68.57438015850634
 21
506.3339565037506
 31
0.0
  0
SOLID
  5
1358
330
1DC
100
AcDbEntity
  8
BEM
 62
     0
100
AcDbTrace
 10
67.4077134918396
 20
190.3306635994205
 30
0.0
 11
69.74104682517294
 21
190.3306635994205
 31
0.0
 12
68.57438015850627
 22
183.3306635994205
 32
0.0
 13
68.57438015850627
 23
183.3306635994205
 33
0.0
  0
SOLID
  5
1359
330
1DC
100
AcDbEntity
  8
BEM
 62
     0
100
AcDbTrace
 10
67.40771349183967
 20
506.3339565037506
 30
0.0
 11
69.74104682517301
 21
506.3339565037506
 31
0.0
 12
68.57438015850634
 22
513.3339565037506
 32
0.0
 13
68.57438015850634
 23
513.3339565037506
 33
0.0
  0
MTEXT
  5
135A
330
1DC
100
AcDbEntity
  8
BEM
 62
     1
100
AcDbMText
 10
62.07438015850625
 20
348.3323100515856
 30
0.0
 40
7.0
 41
0.0
 71
     5
 72
     1
  1
\A1;330
 11
0.0000000000000001
 21
1.0
 31
0.0
 73
     1
 44
1.0
  0
POINT
  5
135B
330
1DC
100
AcDbEntity
  8
DEFPOINTS
 62
     0
100
AcDbPoint
 10
109.3079275685016
 20
183.3306635994205
 30
0.0
  0
POINT
  5
135C
330
1DC
100
AcDbEntity
  8
DEFPOINTS
 62
     0
100
AcDbPoint
 10
103.2779740547986
 20
513.3339565037506
 30
0.0
  0
POINT
  5
135D
330
1DC
100
AcDbEntity
  8
DEFPOINTS
 62
     0
100
AcDbPoint
 10
68.57438015850634
 20
513.3339565037506
 30
0.0
  0
ENDBLK
  5
1E7
330
1DC
100
AcDbEntity
  8
0
100
AcDbBlockEnd
  0
BLOCK
  5
1F3
330
1E9
100
AcDbEntity
  8
0
100
AcDbBlockBegin
  2
*D2
 70
     1
 10
0.0
 20
0.0
 30
0.0
  3
*D2
  1

  0
LINE
  5
12BA
330
1E9
100
AcDbEntity
  8
BEM
 62
     0
370
    -2
100
AcDbLine
 10
108.4330409332423
 20
191.3306635994205
 30
0.0
 11
108.4330409332423
 21
155.206720616752
 31
0.0
  0
LINE
  5
12BB
330
1E9
100
AcDbEntity
  8
BEM
 62
     0
370
    -2
100
AcDbLine
 10
241.4330409332428
 20
191.3306635994208
 30
0.0
 11
241.4330409332428
 21
155.206720616752
 31
0.0
  0
LINE
  5
12BC
330
1E9
100
AcDbEntity
  8
BEM
 62
     0
370
    -2
100
AcDbLine
 10
115.4330409332424
 20
157.206720616752
 30
0.0
 11
234.4330409332429
 21
157.206720616752
 31
0.0
  0
SOLID
  5
12BD
330
1E9
100
AcDbEntity
  8
BEM
 62
     0
100
AcDbTrace
 10
115.4330409332424
 20
158.3733872834187
 30
0.0
 11
115.4330409332424
 21
156.0400539500854
 31
0.0
 12
108.4330409332423
 22
157.206720616752
 32
0.0
 13
108.4330409332423
 23
157.206720616752
 33
0.0
  0
SOLID
  5
12BE
330
1E9
100
AcDbEntity
  8
BEM
 62
     0
100
AcDbTrace
 10
234.4330409332429
 20
158.3733872834187
 30
0.0
 11
234.4330409332429
 21
156.0400539500854
 31
0.0
 12
241.4330409332428
 22
157.206720616752
 32
0.0
 13
241.4330409332428
 23
157.206720616752
 33
0.0
  0
MTEXT
  5
12BF
330
1E9
100
AcDbEntity
  8
BEM
 62
     1
100
AcDbMText
 10
174.9330409332426
 20
163.706720616752
 30
0.0
 40
7.0
 41
0.0
 71
     5
 72
     1
  1
\A1;%%c133
 73
     1
 44
1.0
  0
POINT
  5
12C0
330
1E9
100
AcDbEntity
  8
DEFPOINTS
 62
     0
100
AcDbPoint
 10
108.4330409332423
 20
193.3306635994205
 30
0.0
  0
POINT
  5
12C1
330
1E9
100
AcDbEntity
  8
DEFPOINTS
 62
     0
100
AcDbPoint
 10
241.4330409332428
 20
193.3306635994208
 30
0.0
  0
POINT
  5
12C2
330
1E9
100
AcDbEntity
  8
DEFPOINTS
 62
     0
100
AcDbPoint
 10
241.4330409332428
 20
157.206720616752
 30
0.0
  0
ENDBLK
  5
1F4
330
1E9
100
AcDbEntity
  8
0
100
AcDbBlockEnd
  0
BLOCK
  5
A3D
330
A33
100
AcDbEntity
  8
0
100
AcDbBlockBegin
  2
*D4
 70
     1
 10
0.0
 20
0.0
 30
0.0
  3
*D4
  1

  0
LINE
  5
135E
330
A33
100
AcDbEntity
  8
BEM
 62
     0
370
    -2
100
AcDbLine
 10
172.9330409332423
 20
273.3306635994207
 30
0.0
 11
83.66587194090017
 21
273.3306635994208
 31
0.0
  0
LINE
  5
135F
330
A33
100
AcDbEntity
  8
BEM
 62
     0
370
    -2
100
AcDbLine
 10
107.3079275685016
 20
183.3306635994205
 30
0.0
 11
83.66587194090016
 21
183.3306635994205
 31
0.0
  0
LINE
  5
1360
330
A33
100
AcDbEntity
  8
BEM
 62
     0
370
    -2
100
AcDbLine
 10
85.66587194090017
 20
266.3306635994208
 30
0.0
 11
85.66587194090017
 21
190.3306635994205
 31
0.0
  0
SOLID
  5
1361
330
A33
100
AcDbEntity
  8
BEM
 62
     0
100
AcDbTrace
 10
84.49920527423349
 20
266.3306635994208
 30
0.0
 11
86.83253860756684
 21
266.3306635994208
 31
0.0
 12
85.66587194090017
 22
273.3306635994208
 32
0.0
 13
85.66587194090017
 23
273.3306635994208
 33
0.0
  0
SOLID
  5
1362
330
A33
100
AcDbEntity
  8
BEM
 62
     0
100
AcDbTrace
 10
84.49920527423349
 20
190.3306635994205
 30
0.0
 11
86.83253860756684
 21
190.3306635994205
 31
0.0
 12
85.66587194090017
 22
183.3306635994205
 32
0.0
 13
85.66587194090017
 23
183.3306635994205
 33
0.0
  0
MTEXT
  5
1363
330
A33
100
AcDbEntity
  8
BEM
 62
     1
100
AcDbMText
 10
79.16587194090013
 20
228.3306635994207
 30
0.0
 40
7.0
 41
0.0
 71
     5
 72
     1
  1
\A1;90
 11
0.0000000000000001
 21
1.0
 31
0.0
 73
     1
 44
1.0
  0
POINT
  5
1364
330
A33
100
AcDbEntity
  8
DEFPOINTS
 62
     0
100
AcDbPoint
 10
174.9330409332423
 20
273.3306635994207
 30
0.0
  0
POINT
  5
1365
330
A33
100
AcDbEntity
  8
DEFPOINTS
 62
     0
100
AcDbPoint
 10
109.3079275685016
 20
183.3306635994205
 30
0.0
  0
POINT
  5
1366
330
A33
100
AcDbEntity
  8
DEFPOINTS
 62
     0
100
AcDbPoint
 10
85.66587194090017
 20
183.3306635994205
 30
0.0
  0
ENDBLK
  5
A3E
330
A33
100
AcDbEntity
  8
0
100
AcDbBlockEnd
  0
BLOCK
  5
122A
330
1220
100
AcDbEntity
  8
0
100
AcDbBlockBegin
  2
*D6
 70
     1
 10
0.0
 20
0.0
 30
0.0
  3
*D6
  1

  0
LINE
  5
129F
330
1220
100
AcDbEntity
  8
BEM
 62
     0
370
    -2
100
AcDbLine
 10
240.0188273708693
 20
390.0352450636656
 30
0.0
 11
177.4094387978183
 21
327.4258564906145
 31
0.0
  0
LINE
  5
12A0
330
1220
100
AcDbEntity
  8
BEM
 62
     0
370
    -2
100
AcDbLine
 10
240.0188273708694
 20
286.7976550104298
 30
0.0
 11
229.0282338244363
 21
275.8070614639967
 31
0.0
  0
LINE
  5
12A1
330
1220
100
AcDbEntity
  8
BEM
 62
     0
370
    -2
100
AcDbLine
 10
183.7733998284973
 20
323.8903225846818
 30
0.0
 11
225.4926999185035
 21
282.1710224946756
 31
0.0
  0
SOLID
  5
12A2
330
1220
100
AcDbEntity
  8
BEM
 62
     0
100
AcDbTrace
 10
184.5983577398816
 20
324.7152804960661
 30
0.0
 11
182.9484419171129
 21
323.0653646732975
 31
0.0
 12
178.8236523601914
 22
328.8400700529876
 32
0.0
 13
178.8236523601914
 23
328.8400700529876
 33
0.0
  0
SOLID
  5
12A3
330
1220
100
AcDbEntity
  8
BEM
 62
     0
100
AcDbTrace
 10
226.3176578298879
 20
282.9959804060599
 30
0.0
 11
224.6677420071192
 21
281.3460645832913
 31
0.0
 12
230.4424473868094
 22
277.2212750263697
 32
0.0
 13
230.4424473868094
 23
277.2212750263697
 33
0.0
  0
MTEXT
  5
12A4
330
1220
100
AcDbEntity
  8
BEM
 62
     1
100
AcDbMText
 10
209.229243951213
 20
307.6268666173913
 30
0.0
 40
7.0
 41
0.0
 71
     5
 72
     1
  1
\A1;%%c73
 11
0.7071067811865481
 21
-0.707106781186547
 31
0.0
 73
     1
 44
1.0
  0
POINT
  5
12A5
330
1220
100
AcDbEntity
  8
DEFPOINTS
 62
     0
100
AcDbPoint
 10
241.4330409332424
 20
391.4494586260386
 30
0.0
  0
POINT
  5
12A6
330
1220
100
AcDbEntity
  8
DEFPOINTS
 62
     0
100
AcDbPoint
 10
241.4330409332425
 20
288.211868572803
 30
0.0
  0
POINT
  5
12A7
330
1220
100
AcDbEntity
  8
DEFPOINTS
 62
     0
100
AcDbPoint
 10
230.4424473868094
 20
277.2212750263697
 30
0.0
  0
ENDBLK
  5
122B
330
1220
100
AcDbEntity
  8
0
100
AcDbBlockEnd
  0
BLOCK
  5
128F
330
1283
100
AcDbEntity
  8
0
100
AcDbBlockBegin
  2
*D7
 70
     1
 10
0.0
 20
0.0
 30
0.0
  3
*D7
  1

  0
LINE
  5
1294
330
1283
100
AcDbEntity
  8
BEM
 62
     0
370
    -2
100
AcDbLine
 10
329.7894260130961
 20
428.1870486792745
 30
0.0
 11
369.5075882211177
 21
467.905210887296
 31
0.0
  0
LINE
  5
1295
330
1283
100
AcDbEntity
  8
BEM
 62
     0
370
    -2
100
AcDbLine
 10
174.9330409332423
 20
520.3339565037506
 30
0.0
 11
174.9330409332423
 21
548.5006272665391
 31
0.0
  0
ARC
  5
1296
330
1283
100
AcDbEntity
  8
BEM
 62
     0
370
    -2
100
AcDbCircle
 10
174.9330409332423
 20
273.3306635994207
 30
0.0
 40
273.1699636671184
100
AcDbArc
 50
46.46824865141791
 51
88.5317513485821
  0
SOLID
  5
1297
330
1283
100
AcDbEntity
  8
BEM
 62
     0
100
AcDbTrace
 10
363.89493505997
 20
472.2123796794376
 30
0.0
 11
362.2662942746557
 21
470.5414596822937
 31
0.0
 12
368.0933746587446
 22
466.4909973249229
 32
0.0
 13
368.0933746587446
 23
466.4909973249229
 33
0.0
  0
SOLID
  5
1298
330
1283
100
AcDbEntity
  8
BEM
 62
     0
100
AcDbTrace
 10
181.9175183871884
 20
545.2443686122684
 30
0.0
 11
181.9474143045764
 21
547.5775104164817
 31
0.0
 12
174.9330409332423
 22
546.500627266539
 32
0.0
 13
174.9330409332423
 23
546.500627266539
 33
0.0
  0
MTEXT
  5
1299
330
1283
100
AcDbEntity
  8
BEM
 62
     1
100
AcDbMText
 10
281.9581025587952
 20
531.7120188896465
 30
0.0
 40
7.0
 41
0.0
 71
     5
 72
     1
  1
\A1;45°
 11
0.9238795325112867
 21
-0.3826834323650898
 31
0.0
 73
     1
 44
1.0
  0
POINT
  5
129A
330
1283
100
AcDbEntity
  8
DEFPOINTS
 62
     0
100
AcDbPoint
 10
311.5180227668016
 20
509.9027916860173
 30
0.0
  0
POINT
  5
129B
330
1283
100
AcDbEntity
  8
DEFPOINTS
 62
     0
100
AcDbPoint
 10
328.375212450723
 20
426.7728351169012
 30
0.0
  0
POINT
  5
129C
330
1283
100
AcDbEntity
  8
DEFPOINTS
 62
     0
100
AcDbPoint
 10
174.9330409332423
 20
518.3339565037505
 30
0.0
  0
POINT
  5
129D
330
1283
100
AcDbEntity
  8
DEFPOINTS
 62
     0
100
AcDbPoint
 10
174.9330409332423
 20
178.3306635994208
 30
0.0
  0
POINT
  5
129E
330
1283
100
AcDbEntity
  8
DEFPOINTS
 62
     0
100
AcDbPoint
 10
174.9330409332423
 20
273.3306635994206
 30
0.0
  0
ENDBLK
  5
1290
330
1283
100
AcDbEntity
  8
0
100
AcDbBlockEnd
  0
BLOCK
  5
1308
330
12FE
100
AcDbEntity
  8
0
100
AcDbBlockBegin
  2
*D8
 70
     1
 10
0.0
 20
0.0
 30
0.0
  3
*D8
  1

  0
LINE
  5
13D3
330
12FE
100
AcDbEntity
  8
BEM
 62
     0
370
    -2
100
AcDbLine
 10
176.3472544956152
 20
271.9164500370476
 30
0.0
 11
221.6778889653199
 21
226.585815567343
 31
0.0
  0
LINE
  5
13D4
330
12FE
100
AcDbEntity
  8
BEM
 62
     0
370
    -2
100
AcDbLine
 10
354.0365685953236
 20
394.0404111604355
 30
0.0
 11
371.5845265768678
 21
376.4924531788913
 31
0.0
  0
LINE
  5
13D5
330
12FE
100
AcDbEntity
  8
BEM
 62
     0
370
    -2
100
AcDbLine
 10
225.2134228712526
 20
232.949776598022
 30
0.0
 11
365.2205655461889
 21
372.9569192729585
 31
0.0
  0
SOLID
  5
13D6
330
12FE
100
AcDbEntity
  8
BEM
 62
     0
100
AcDbTrace
 10
224.3884649598683
 20
233.7747345094063
 30
0.0
 11
226.0383807826369
 21
232.1248186866377
 31
0.0
 12
220.2636754029468
 22
228.0000291297161
 32
0.0
 13
220.2636754029468
 23
228.0000291297161
 33
0.0
  0
SOLID
  5
13D7
330
12FE
100
AcDbEntity
  8
BEM
 62
     0
100
AcDbTrace
 10
364.3956076348046
 20
373.7818771843428
 30
0.0
 11
366.0455234575732
 21
372.1319613615742
 31
0.0
 12
370.1703130144947
 22
377.9066667412643
 32
0.0
 13
370.1703130144947
 23
377.9066667412643
 33
0.0
  0
MTEXT
  5
13D8
330
12FE
100
AcDbEntity
  8
BEM
 62
     1
100
AcDbMText
 10
290.6208001310082
 20
307.5495420132028
 30
0.0
 40
7.0
 41
0.0
 71
     5
 72
     1
  1
\A1;212
 11
0.707106781186547
 21
0.7071067811865481
 31
0.0
 73
     1
 44
1.0
  0
POINT
  5
13D9
330
12FE
100
AcDbEntity
  8
DEFPOINTS
 62
     0
100
AcDbPoint
 10
174.9330409332421
 20
273.3306635994206
 30
0.0
  0
POINT
  5
13DA
330
12FE
100
AcDbEntity
  8
DEFPOINTS
 62
     0
100
AcDbPoint
 10
352.6223550329506
 20
395.4546247228084
 30
0.0
  0
POINT
  5
13DB
330
12FE
100
AcDbEntity
  8
DEFPOINTS
 62
     0
100
AcDbPoint
 10
370.1703130144948
 20
377.9066667412643
 30
0.0
  0
ENDBLK
  5
1309
330
12FE
100
AcDbEntity
  8
0
100
AcDbBlockEnd
  0
ENDSEC
  0
SECTION
  2
ENTITIES
  0
LINE
  5
12A
330
1E
100
AcDbEntity
  8
STEMPEL
100
AcDbLine
 10
246.5881078116863
 20
513.3339565037506
 30
0.0
 11
103.2779740547986
 21
513.3339565037506
 31
0.0
  0
TEXT
  5
134
330
1E
100
AcDbEntity
  8
TEXT
100
AcDbText
 10
204.4216048581257
 20
63.0896391972351
 30
0.0
 40
4.0
  1
Koeh
 41
0.8
  7
GREEKS
 72
     1
 11
209.6787477152686
 21
63.0896391972351
 31
0.0
100
AcDbText
  0
INSERT
  5
135
330
1E
100
AcDbEntity
  8
STEMPEL
100
AcDbBlockReference
  2
LOGO
 10
150.9955485457794
 20
45.02105276448322
 30
0.0
 41
2.0
 42
2.0
 43
2.0
  0
LINE
  5
136
330
1E
100
AcDbEntity
  8
HILF
100
AcDbLine
 10
420.0
 20
0.0
 30
0.0
 11
0.0
 21
0.0
 31
0.0
  0
LINE
  5
137
330
1E
100
AcDbEntity
  8
HILF
100
AcDbLine
 10
419.9999999999999
 20
594.0000000000002
 30
0.0
 11
0.0
 21
594.0
 31
0.0
  0
LINE
  5
138
330
1E
100
AcDbEntity
  8
STEMPEL
100
AcDbLine
 10
410.0
 20
584.0
 30
0.0
 11
39.99999999999989
 21
584.0
 31
0.0
  0
LINE
  5
139
330
1E
100
AcDbEntity
  8
STEMPEL
100
AcDbLine
 10
410.0
 20
10.0
 30
0.0
 11
39.99999999999989
 21
10.0
 31
0.0
  0
LINE
  5
13A
330
1E
100
AcDbEntity
  8
STEMPEL
100
AcDbLine
 10
49.99999999999989
 20
10.0
 30
0.0
 11
410.0
 21
10.0
 31
0.0
  0
TEXT
  5
13B
330
1E
100
AcDbEntity
  8
TEXT
100
AcDbText
 10
202.4626584226295
 20
73.30961091915225
 30
0.0
 40
4.0
  1
Name
 41
0.8
  7
GREEKS
100
AcDbText
  0
TEXT
  5
13C
330
1E
100
AcDbEntity
  8
TEXT
100
AcDbText
 10
196.5498279101549
 20
102.6506227776589
 30
0.0
 40
5.0
  1
Zul. Abw.
 41
0.8
  7
GREEKS
 72
     4
 11
209.9783993387263
 21
105.1506227776589
 31
0.0
100
AcDbText
  0
LINE
  5
13D
330
1E
100
AcDbEntity
  8
HILF
100
AcDbLine
 10
146.0000000000001
 20
49.99999999999997
 30
0.0
 11
230.0
 21
49.99999999999997
 31
0.0
  0
LINE
  5
13E
330
1E
100
AcDbEntity
  8
HILF
100
AcDbLine
 10
146.0000000000001
 20
59.99999999999997
 30
0.0
 11
230.0
 21
59.99999999999997
 31
0.0
  0
LINE
  5
13F
330
1E
100
AcDbEntity
  8
HILF
100
AcDbLine
 10
146.0000000000001
 20
69.99999999999994
 30
0.0
 11
230.0
 21
69.99999999999994
 31
0.0
  0
LINE
  5
140
330
1E
100
AcDbEntity
  8
STEMPEL
100
AcDbLine
 10
410.0
 20
80.0
 30
0.0
 11
146.0000000000001
 21
79.99999999999994
 31
0.0
  0
LINE
  5
141
330
1E
100
AcDbEntity
  8
STEMPEL
100
AcDbLine
 10
410.0
 20
40.0
 30
0.0
 11
146.0000000000001
 21
39.99999999999997
 31
0.0
  0
LINE
  5
142
330
1E
100
AcDbEntity
  8
STEMPEL
100
AcDbLine
 10
410.0
 20
110.0
 30
0.0
 11
39.99999999999997
 21
110.0
 31
0.0
  0
LINE
  5
143
330
1E
100
AcDbEntity
  8
MITTEL
100
AcDbLine
 10
174.9330409332423
 20
518.3339565037506
 30
0.0
 11
174.9330409332423
 21
178.3306635994208
 31
0.0
  0
LINE
  5
144
330
1E
100
AcDbEntity
  8
HILF
100
AcDbLine
 10
0.0
 20
0.0
 30
0.0
 11
-0.0000000000001137
 21
594.0
 31
0.0
  0
LINE
  5
145
330
1E
100
AcDbEntity
  8
STEMPEL
100
AcDbLine
 10
40.0
 20
10.0
 30
0.0
 11
39.99999999999989
 21
584.0
 31
0.0
  0
LINE
  5
148
330
1E
100
AcDbEntity
  8
HILF
100
AcDbLine
 10
40.00000000000008
 20
39.99999999999997
 30
0.0
 11
146.0000000000001
 21
39.99999999999997
 31
0.0
  0
LINE
  5
149
330
1E
100
AcDbEntity
  8
HILF
100
AcDbLine
 10
40.00000000000008
 20
49.99999999999997
 30
0.0
 11
146.0000000000001
 21
49.99999999999997
 31
0.0
  0
LINE
  5
14A
330
1E
100
AcDbEntity
  8
HILF
100
AcDbLine
 10
40.00000000000008
 20
59.99999999999997
 30
0.0
 11
146.0000000000001
 21
59.99999999999997
 31
0.0
  0
LINE
  5
14B
330
1E
100
AcDbEntity
  8
HILF
100
AcDbLine
 10
40.00000000000008
 20
69.99999999999994
 30
0.0
 11
146.0000000000001
 21
69.99999999999994
 31
0.0
  0
LINE
  5
14C
330
1E
100
AcDbEntity
  8
HILF
100
AcDbLine
 10
40.00000000000008
 20
79.99999999999994
 30
0.0
 11
146.0000000000001
 21
79.99999999999994
 31
0.0
  0
LINE
  5
14D
330
1E
100
AcDbEntity
  8
HILF
100
AcDbLine
 10
40.00000000000008
 20
90.00000000000005
 30
0.0
 11
146.0000000000001
 21
90.00000000000005
 31
0.0
  0
LINE
  5
14E
330
1E
100
AcDbEntity
  8
HILF
100
AcDbLine
 10
40.00000000000008
 20
100.0
 30
0.0
 11
146.0000000000001
 21
100.0
 31
0.0
  0
LINE
  5
14F
330
1E
100
AcDbEntity
  8
STEMPEL
100
AcDbLine
 10
145.9999999999999
 20
29.99999999999997
 30
0.0
 11
39.99999999999997
 21
29.99999999999997
 31
0.0
  0
TEXT
  5
150
330
1E
100
AcDbEntity
  8
TEXT
100
AcDbText
 10
48.26641107045756
 20
13.65465846027192
 30
0.0
 40
4.0
  1
Index
 50
90.0
 41
0.8
  7
GREEKS
100
AcDbText
  0
LINE
  5
151
330
1E
100
AcDbEntity
  8
VOLL
100
AcDbLine
 10
54.00000000000009
 20
110.0
 30
0.0
 11
53.99999999999997
 21
9.999999999999971
 31
0.0
  0
LINE
  5
152
330
1E
100
AcDbEntity
  8
HILF
100
AcDbLine
 10
31.08767135713856
 20
297.0
 30
0.0
 11
0.0000000000001137
 21
297.0
 31
0.0
  0
LINE
  5
154
330
1E
100
AcDbEntity
  8
VOLL
100
AcDbLine
 10
124.0000000000001
 20
109.9999999999999
 30
0.0
 11
124.0
 21
9.999999999999971
 31
0.0
  0
LINE
  5
155
330
1E
100
AcDbEntity
  8
VOLL
100
AcDbLine
 10
104.0000000000001
 20
109.9999999999999
 30
0.0
 11
104.0
 21
9.999999999999971
 31
0.0
  0
LINE
  5
157
330
1E
100
AcDbEntity
  8
STEMPEL
100
AcDbLine
 10
146.0000000000001
 20
109.9999999999999
 30
0.0
 11
146.0
 21
9.999999999999971
 31
0.0
  0
TEXT
  5
159
330
1E
100
AcDbEntity
  8
TEXT
100
AcDbText
 10
172.331167315365
 20
73.31880501229926
 30
0.0
 40
4.0
  1
Tag
 41
0.8
  7
GREEKS
100
AcDbText
  0
TEXT
  5
15A
330
1E
100
AcDbEntity
  8
TEXT
100
AcDbText
 10
147.5836127167615
 20
63.62990369617964
 30
0.0
 40
4.0
  1
Gez.
 41
0.8
  7
GREEKS
100
AcDbText
  0
LINE
  5
15B
330
1E
100
AcDbEntity
  8
VOLL
100
AcDbLine
 10
164.0000000000001
 20
79.99999999999994
 30
0.0
 11
164.0000000000001
 21
39.99999999999997
 31
0.0
  0
TEXT
  5
15C
330
1E
100
AcDbEntity
  8
TEXT
100
AcDbText
 10
147.6006777387303
 20
43.52946389649807
 30
0.0
 40
4.0
  1
Norm.
 41
0.8
  7
GREEKS
100
AcDbText
  0
TEXT
  5
15D
330
1E
100
AcDbEntity
  8
TEXT
100
AcDbText
 10
147.5515086571672
 20
53.68926291428377
 30
0.0
 40
4.0
  1
Gepr.
 41
0.8
  7
GREEKS
100
AcDbText
  0
TEXT
  5
15E
330
1E
100
AcDbEntity
  8
TEXT
 62
     1
100
AcDbText
 10
160.5006306481887
 20
88.14901428913959
 30
0.0
 40
7.0
  1
1:2
 41
0.8
  7
GREEKS
100
AcDbText
  0
TEXT
  5
160
330
1E
100
AcDbEntity
  8
TEXT
100
AcDbText
 10
148.622109822104
 20
73.14025471151666
 30
0.0
 40
4.0
  1
2011
 41
0.8
  7
GREEKS
100
AcDbText
  0
LINE
  5
161
330
1E
100
AcDbEntity
  8
VOLL
100
AcDbLine
 10
190.0000000000001
 20
109.9999999999998
 30
0.0
 11
190.0
 21
39.99999999999997
 31
0.0
  0
LINE
  5
186
330
1E
100
AcDbEntity
  8
HILF
100
AcDbLine
 10
420.0
 20
-0.0000000000001137
 30
0.0
 11
419.9999999999999
 21
594.0
 31
0.0
  0
LINE
  5
187
330
1E
100
AcDbEntity
  8
STEMPEL
100
AcDbLine
 10
410.0
 20
10.0
 30
0.0
 11
410.0
 21
584.0
 31
0.0
  0
TEXT
  5
188
330
1E
100
AcDbEntity
  8
TEXT
100
AcDbText
 10
337.2400861497006
 20
52.07416177878602
 30
0.0
 40
5.0
  1
ersetzt durch:
 41
0.8
  7
GREEKS
100
AcDbText
  0
TEXT
  5
18A
330
1E
100
AcDbEntity
  8
TEXT
100
AcDbText
 10
336.178754957634
 20
102.3132034537136
 30
0.0
 40
5.0
  1
Zeichnungs Nr.
 41
0.8
  7
GREEKS
100
AcDbText
  0
LINE
  5
18B
330
1E
100
AcDbEntity
  8
HILF
100
AcDbLine
 10
233.4909699289885
 20
14.89398258028314
 30
0.0
 11
404.8588839326728
 21
14.89398258028314
 31
0.0
  0
LINE
  5
18C
330
1E
100
AcDbEntity
  8
HILF
100
AcDbLine
 10
336.7238616296993
 20
83.77983636955827
 30
0.0
 11
404.8588839326728
 21
83.77983636955827
 31
0.0
  0
LINE
  5
18D
330
1E
100
AcDbEntity
  8
VOLL
100
AcDbLine
 10
332.0
 20
60.0
 30
0.0
 11
410.0
 21
60.0
 31
0.0
  0
TEXT
  5
18E
330
1E
100
AcDbEntity
  8
TEXT
 62
     1
100
AcDbText
 10
234.9283864320014
 20
87.41748789253779
 30
0.0
 40
7.0
  1
Red.-Abzweig DN125/70
 41
0.6800000000000001
  7
GREEKS
100
AcDbText
  0
LINE
  5
18F
330
1E
100
AcDbEntity
  8
HILF
100
AcDbLine
 10
234.7736801096947
 20
49.99999999999997
 30
0.0
 11
324.835391655631
 21
49.99999999999997
 31
0.0
  0
LINE
  5
190
330
1E
100
AcDbEntity
  8
HILF
100
AcDbLine
 10
234.7736801096947
 20
59.99999999999997
 30
0.0
 11
324.835391655631
 21
59.99999999999997
 31
0.0
  0
LINE
  5
191
330
1E
100
AcDbEntity
  8
HILF
100
AcDbLine
 10
234.7736801096947
 20
69.99999999999994
 30
0.0
 11
324.835391655631
 21
69.99999999999994
 31
0.0
  0
LINE
  5
192
330
1E
100
AcDbEntity
  8
HILF
100
AcDbLine
 10
234.7736801096947
 20
84.03758247564139
 30
0.0
 11
324.8353916556311
 21
84.03758247564139
 31
0.0
  0
LINE
  5
193
330
1E
100
AcDbEntity
  8
STEMPEL
100
AcDbLine
 10
230.0
 20
110.0
 30
0.0
 11
230.0
 21
9.999999999999971
 31
0.0
  0
TEXT
  5
194
330
1E
100
AcDbEntity
  8
TEXT
100
AcDbText
 10
235.1296391125315
 20
71.50334417585288
 30
0.0
 40
5.0
  1
dünnwandig 45°
 41
0.8
  7
GREEKS
100
AcDbText
  0
TEXT
  5
195
330
1E
100
AcDbEntity
  8
TEXT
100
AcDbText
 10
234.9837501577827
 20
42.62974153022632
 30
0.0
 40
4.0
  1
5250EC0W.DWG
 41
0.8
  7
GREEKS
100
AcDbText
  0
TEXT
  5
196
330
1E
100
AcDbEntity
  8
TEXT
100
AcDbText
 10
234.742238391136
 20
30.84560570193057
 30
0.0
 40
5.0
  1
Bauvorhaben
 41
0.8
  7
GREEKS
100
AcDbText
  0
TEXT
  5
197
330
1E
100
AcDbEntity
  8
TEXT
100
AcDbText
 10
234.877940380901
 20
102.5489328011779
 30
0.0
 40
5.0
  1
Benennung
 41
0.8
  7
GREEKS
100
AcDbText
  0
LINE
  5
198
330
1E
100
AcDbEntity
  8
STEMPEL
100
AcDbLine
 10
332.0
 20
109.9999999999997
 30
0.0
 11
332.0
 21
40.0
 31
0.0
  0
TEXT
  5
19A
330
1E
100
AcDbEntity
  8
TEXT
 62
     1
100
AcDbText
 10
348.9157830867938
 20
88.14901428913959
 30
0.0
 40
7.0
  1
5250EC0W
 41
0.8
  7
GREEKS
 72
     1
 11
370.2491164201271
 21
88.14901428913959
 31
0.0
100
AcDbText
  0
LINE
  5
1D4
330
1E
100
AcDbEntity
  8
STEMPEL
100
AcDbLine
 10
240.5581542979833
 20
183.3306635994208
 30
0.0
 11
109.3079275685016
 21
183.3306635994205
 31
0.0
  0
LINE
  5
1D6
330
1E
100
AcDbEntity
  8
HILF
100
AcDbLine
 10
239.9330409332424
 20
193.3306635994208
 30
0.0
 11
109.9330409332423
 21
193.3306635994208
 31
0.0
  0
LINE
  5
1D7
330
1E
100
AcDbEntity
  8
STEMPEL
100
AcDbLine
 10
108.4330409332423
 20
193.3306635994205
 30
0.0
 11
109.3079275685016
 21
183.3306635994205
 31
0.0
  0
LINE
  5
1D8
330
1E
100
AcDbEntity
  8
STEMPEL
100
AcDbLine
 10
241.4330409332424
 20
193.3306635994213
 30
0.0
 11
240.5581542979833
 21
183.3306635994208
 31
0.0
  0
DIMENSION
  5
1DB
330
1E
100
AcDbEntity
  8
BEM
100
AcDbDimension
  2
*D1
 10
68.57438015850634
 20
513.3339565037506
 30
0.0
 11
62.07438015850625
 21
348.3323100515856
 31
0.0
 70
    32
 71
     5
 42
330.0032929043301
  3
Standard
100
AcDbAlignedDimension
 13
109.3079275685016
 23
183.3306635994205
 33
0.0
 14
103.2779740547986
 24
513.3339565037506
 34
0.0
 50
90.0
100
AcDbRotatedDimension
1001
ACAD
1000
DSTYLE
1002
{
1070
    40
1040
2.0
1070
    41
1040
3.5
1070
    42
1040
1.0
1070
    43
1040
7.0
1070
    44
1040
1.0
1070
    73
1070
     0
1070
    74
1070
     0
1070
    77
1070
     1
1070
    78
1070
     8
1070
    79
1070
     2
1070
   140
1040
3.5
1070
   141
1040
1.5
1070
   146
1040
0.5142857142857144
1070
   147
1040
1.5
1070
   172
1070
     1
1070
   178
1070
     1
1070
   179
1070
     2
1070
   271
1070
     2
1070
   272
1070
     2
1070
   284
1070
     8
1070
   285
1070
     8
1070
   286
1070
     8
1002
}
  0
DIMENSION
  5
1E8
330
1E
100
AcDbEntity
  8
BEM
100
AcDbDimension
  2
*D2
 10
241.4330409332428
 20
157.206720616752
 30
0.0
 11
174.9330409332426
 21
163.706720616752
 31
0.0
 70
    32
  1
%%c<>
 71
     5
 42
133.0000000000005
  3
Standard
100
AcDbAlignedDimension
 13
108.4330409332423
 23
193.3306635994205
 33
0.0
 14
241.4330409332428
 24
193.3306635994208
 34
0.0
100
AcDbRotatedDimension
1001
ACAD
1000
DSTYLE
1002
{
1070
    40
1040
2.0
1070
    41
1040
3.5
1070
    42
1040
1.0
1070
    43
1040
7.0
1070
    44
1040
1.0
1070
    73
1070
     0
1070
    74
1070
     0
1070
    77
1070
     1
1070
    78
1070
     8
1070
    79
1070
     2
1070
   140
1040
3.5
1070
   141
1040
1.5
1070
   146
1040
0.5142857142857144
1070
   147
1040
1.5
1070
   172
1070
     1
1070
   178
1070
     1
1070
   179
1070
     2
1070
   271
1070
     2
1070
   272
1070
     2
1070
   284
1070
     8
1070
   285
1070
     8
1070
   286
1070
     8
1002
}
  0
TEXT
  5
212
330
1E
100
AcDbEntity
  8
TEXT
100
AcDbText
 10
235.1296391125315
 20
51.50334417585291
 30
0.0
 40
5.0
  1
EDV-Art.Nr. 5.250.EC0C
 41
0.8
  7
GREEKS
100
AcDbText
  0
TEXT
  5
255
330
1E
100
AcDbEntity
  8
TEXT
 62
     1
100
AcDbText
 10
297.9974873842989
 20
131.2276367653921
 30
0.0
 40
7.0
  1
Werkstoff: 1.4404
 41
0.8
  7
GREEKS
100
AcDbText
  0
TEXT
  5
25D
330
1E
100
AcDbEntity
  8
TEXT
 62
     1
100
AcDbText
 10
142.1318516608385
 20
487.8778603616506
 30
0.0
 40
7.0
  1
DN125
 41
0.8
  7
GREEKS
100
AcDbText
  0
LINE
  5
7B6
330
1E
100
AcDbEntity
  8
STEMPEL
100
AcDbLine
 10
246.5881078116861
 20
513.3339565037506
 30
0.0
 11
247.2159667573052
 21
511.9875086497667
 31
0.0
  0
ARC
  5
7B7
330
1E
100
AcDbEntity
  8
STEMPEL
100
AcDbCircle
 10
220.9330409332423
 20
499.7315790592863
 30
0.0
 40
29.0
100
AcDbArc
 50
0.0
 51
24.99999999999304
  0
LINE
  5
7B8
330
1E
100
AcDbEntity
  8
STEMPEL
100
AcDbLine
 10
249.9330409332424
 20
499.7315790592863
 30
0.0
 11
249.9330409332424
 21
480.6249565037505
 31
0.0
  0
ARC
  5
7B9
330
1E
100
AcDbEntity
  8
STEMPEL
100
AcDbCircle
 10
220.9330409332423
 20
480.6249565037505
 30
0.0
 40
29.0
100
AcDbArc
 50
334.8288522569422
 51
0.0
  0
ARC
  5
7BA
330
1E
100
AcDbEntity
  8
STEMPEL
100
AcDbCircle
 10
264.4330409332424
 20
460.3339565037506
 30
0.0
 40
19.0
100
AcDbArc
 50
154.772855634092
 51
180.0
  0
LINE
  5
7BB
330
1E
100
AcDbEntity
  8
STEMPEL
100
AcDbLine
 10
245.4330409332424
 20
460.3339565037506
 30
0.0
 11
245.4330409332424
 21
446.7971837816812
 31
0.0
  0
ARC
  5
7C0
330
1E
100
AcDbEntity
  8
STEMPEL
100
AcDbCircle
 10
228.4330409332425
 20
446.7971837816812
 30
0.0
 40
17.0
100
AcDbArc
 50
328.4136619034719
 51
0.0
  0
ARC
  5
7C1
330
1E
100
AcDbEntity
  8
STEMPEL
100
AcDbCircle
 10
251.4330409332425
 20
432.6550481579505
 30
0.0
 40
10.00000000000005
100
AcDbArc
 50
148.4136619034724
 51
180.0000000000003
  0
ARC
  5
7F3
330
1E
100
AcDbEntity
  8
STEMPEL
100
AcDbCircle
 10
128.9330409332423
 20
480.6249565037505
 30
0.0
 40
29.0
100
AcDbArc
 50
180.0
 51
205.1711477430577
  0
ARC
  5
7F7
330
1E
100
AcDbEntity
  8
STEMPEL
100
AcDbCircle
 10
85.43304093324236
 20
460.3339565037506
 30
0.0
 40
19.0
100
AcDbArc
 50
0.0
 51
25.22714436590793
  0
LINE
  5
7F8
330
1E
100
AcDbEntity
  8
STEMPEL
100
AcDbLine
 10
104.4330409332423
 20
460.3339565037506
 30
0.0
 11
104.4330409332423
 21
446.7971837816812
 31
0.0
  0
ARC
  5
7FB
330
1E
100
AcDbEntity
  8
STEMPEL
100
AcDbCircle
 10
121.4330409332423
 20
446.7971837816812
 30
0.0
 40
17.0
100
AcDbArc
 50
180.0
 51
211.5863380965281
  0
ARC
  5
7FC
330
1E
100
AcDbEntity
  8
STEMPEL
100
AcDbCircle
 10
98.43304093324251
 20
432.6550481579504
 30
0.0
 40
9.999999999999843
100
AcDbArc
 50
359.9999999999997
 51
31.58633809652798
  0
LINE
  5
7FF
330
1E
100
AcDbEntity
  8
STEMPEL
100
AcDbLine
 10
103.2779740547987
 20
513.3339565037506
 30
0.0
 11
102.6501151091797
 21
511.9875086497667
 31
0.0
  0
POINT
  5
802
330
1E
100
AcDbEntity
  8
STEMPEL
100
AcDbPoint
 10
104.9330409332423
 20
513.3339565037506
 30
0.0
  0
ARC
  5
803
330
1E
100
AcDbEntity
  8
STEMPEL
100
AcDbCircle
 10
128.9330409332423
 20
499.7315790592863
 30
0.0
 40
29.0
100
AcDbArc
 50
155.0000000000069
 51
180.0
  0
LINE
  5
804
330
1E
100
AcDbEntity
  8
STEMPEL
100
AcDbLine
 10
99.93304093324258
 20
499.7315790592863
 30
0.0
 11
99.93304093324258
 21
480.6249565037505
 31
0.0
  0
LINE
  5
806
330
1E
100
AcDbEntity
  8
HILF
100
AcDbLine
 10
243.3479228873078
 20
442.5786181135547
 30
0.0
 11
106.518158979177
 21
442.5786181135547
 31
0.0
  0
LINE
  5
807
330
1E
100
AcDbEntity
  8
HILF
100
AcDbLine
 10
240.3671607737745
 20
435.7849517181732
 30
0.0
 11
109.4989210927102
 21
435.7849517181731
 31
0.0
  0
LINE
  5
808
330
1E
100
AcDbEntity
  8
HILF
100
AcDbLine
 10
244.4278071838653
 20
464.810631903284
 30
0.0
 11
105.4382746826193
 21
464.810631903284
 31
0.0
  0
LINE
  5
952
330
1E
100
AcDbEntity
  8
STEMPEL
100
AcDbLine
 10
108.4330409332423
 20
432.6550481579503
 30
0.0
 11
108.4330409332423
 21
193.3306635994206
 31
0.0
  0
DIMENSION
  5
A32
330
1E
100
AcDbEntity
  8
BEM
100
AcDbDimension
  2
*D4
 10
85.66587194090017
 20
183.3306635994205
 30
0.0
 11
79.16587194090013
 21
228.3306635994207
 31
0.0
 70
    32
 71
     5
 42
90.00000000000028
  3
Standard
100
AcDbAlignedDimension
 13
174.9330409332423
 23
273.3306635994207
 33
0.0
 14
109.3079275685016
 24
183.3306635994205
 34
0.0
 50
90.0
100
AcDbRotatedDimension
1001
ACAD
1000
DSTYLE
1002
{
1070
    40
1040
2.0
1070
    41
1040
3.5
1070
    42
1040
1.0
1070
    43
1040
7.0
1070
    44
1040
1.0
1070
    73
1070
     0
1070
    74
1070
     0
1070
    77
1070
     1
1070
    78
1070
     8
1070
    79
1070
     2
1070
   140
1040
3.5
1070
   141
1040
1.5
1070
   146
1040
0.5142857142857144
1070
   147
1040
1.5
1070
   172
1070
     1
1070
   178
1070
     1
1070
   179
1070
     2
1070
   271
1070
     2
1070
   272
1070
     2
1070
   284
1070
     8
1070
   285
1070
     8
1070
   286
1070
     8
1002
}
  0
LINE
  5
DAA
102
{ACAD_REACTORS
330
1281
102
}
330
1E
100
AcDbEntity
  8
STEMPEL
100
AcDbLine
 10
241.4330409332422
 20
432.6550481579505
 30
0.0
 11
241.4330409332422
 21
391.4494586260386
 31
0.0
  0
LINE
  5
FC7
330
1E
100
AcDbEntity
  8
MITTEL
100
AcDbLine
 10
328.3752124507231
 20
426.7728351169014
 30
0.0
 11
213.5279268842142
 21
311.9255495503925
 31
0.0
  0
LINE
  5
FF8
102
{ACAD_REACTORS
330
1277
102
}
330
1E
100
AcDbEntity
  8
STEMPEL
100
AcDbLine
 10
308.4747217086982
 20
355.2535493482587
 30
0.0
 11
241.4330409332425
 21
288.211868572803
 31
0.0
  0
LINE
  5
FFC
330
1E
100
AcDbEntity
  8
STEMPEL
100
AcDbLine
 10
352.6223550329506
 20
395.4546247228084
 30
0.0
 11
297.0570020566301
 21
451.0199776991289
 31
0.0
  0
LINE
  5
FFD
330
1E
100
AcDbEntity
  8
HILF
100
AcDbLine
 10
261.2473070230905
 20
412.7887964701344
 30
0.0
 11
314.3911738039561
 21
359.6449296892688
 31
0.0
  0
LINE
  5
FFE
330
1E
100
AcDbEntity
  8
HILF
100
AcDbLine
 10
276.3111400067336
 20
428.6351464113671
 30
0.0
 11
330.2375237451889
 21
374.708762672912
 31
0.0
  0
LINE
  5
1002
330
1E
100
AcDbEntity
  8
HILF
100
AcDbLine
 10
259.3968871087304
 20
408.2445359147006
 30
0.0
 11
309.8469132485221
 21
357.7945097749088
 31
0.0
  0
ARC
  5
101B
330
1E
100
AcDbEntity
  8
STEMPEL
100
AcDbCircle
 10
329.4190463967335
 20
403.7750194449627
 30
0.0
 40
24.65
100
AcDbArc
 50
314.9385097298968
 51
340.2728484678362
  0
LINE
  5
101C
330
1E
100
AcDbEntity
  8
STEMPEL
100
AcDbLine
 10
346.8669766354433
 20
386.3626044287822
 30
0.0
 11
340.4584511516135
 21
379.9540789449526
 31
0.0
  0
ARC
  5
101D
330
1E
100
AcDbEntity
  8
STEMPEL
100
AcDbCircle
 10
322.9815582526081
 20
397.337550358444
 30
0.0
 40
24.65009324312573
100
AcDbArc
 50
293.8168456069657
 51
315.1617474312556
  0
ARC
  5
101E
330
1E
100
AcDbEntity
  8
STEMPEL
100
AcDbCircle
 10
337.9227245390799
 20
363.4883487430439
 30
0.0
 40
12.35
100
AcDbArc
 50
113.8168456069656
 51
135.0
  0
LINE
  5
101F
330
1E
100
AcDbEntity
  8
STEMPEL
100
AcDbLine
 10
329.1899557914261
 20
372.2211174906979
 30
0.0
 11
317.3171449236481
 21
360.3483066229198
 31
0.0
  0
ARC
  5
1026
330
1E
100
AcDbEntity
  8
STEMPEL
100
AcDbCircle
 10
309.0793509228247
 20
368.5861006237431
 30
0.0
 40
11.65
100
AcDbArc
 50
284.8986894531991
 51
315.0
  0
ARC
  5
1027
330
1E
100
AcDbEntity
  8
STEMPEL
100
AcDbCircle
 10
314.1315759581905
 20
349.5966950987662
 30
0.0
 40
8.0
100
AcDbArc
 50
104.8986894531976
 51
135.0
  0
ARC
  5
1037
330
1E
100
AcDbEntity
  8
STEMPEL
100
AcDbCircle
 10
251.1990724325879
 20
412.529198624369
 30
0.0
 40
8.0
100
AcDbArc
 50
315.0
 51
345.1013105468023
  0
LINE
  5
1039
102
{ACAD_REACTORS
330
1281
102
}
330
1E
100
AcDbEntity
  8
STEMPEL
100
AcDbLine
 10
256.8559266820803
 20
406.8723443748766
 30
0.0
 11
241.4330409332423
 21
391.4494586260387
 31
0.0
  0
LINE
  5
103A
330
1E
100
AcDbEntity
  8
STEMPEL
100
AcDbLine
 10
287.9649817626039
 20
445.2645993016216
 30
0.0
 11
281.5564562787741
 21
438.8560738177919
 31
0.0
  0
LINE
  5
103C
330
1E
100
AcDbEntity
  8
STEMPEL
100
AcDbLine
 10
273.8234948245196
 20
427.5875784576045
 30
0.0
 11
261.9506839567415
 21
415.7147675898264
 31
0.0
  0
ARC
  5
103F
330
1E
100
AcDbEntity
  8
STEMPEL
100
AcDbCircle
 10
270.1884779575647
 20
407.476973589003
 30
0.0
 40
11.65
100
AcDbArc
 50
135.0
 51
165.1013105468009
  0
ARC
  5
1040
330
1E
100
AcDbEntity
  8
STEMPEL
100
AcDbCircle
 10
298.9399276922656
 20
421.3791809187865
 30
0.0
 40
24.65009324312573
100
AcDbArc
 50
134.8382525687443
 51
156.1831543930343
  0
ARC
  5
1042
330
1E
100
AcDbEntity
  8
STEMPEL
100
AcDbCircle
 10
265.0907260768656
 20
436.3203472052584
 30
0.0
 40
12.35
100
AcDbArc
 50
315.0
 51
336.1831543930343
  0
ARC
  5
1044
330
1E
100
AcDbEntity
  8
STEMPEL
100
AcDbCircle
 10
305.3773967787844
 20
427.8166690629118
 30
0.0
 40
24.65
100
AcDbArc
 50
109.7271515321637
 51
135.0614902701031
  0
LINE
  5
118D
102
{ACAD_REACTORS
330
1277
102
}
330
1E
100
AcDbEntity
  8
STEMPEL
100
AcDbLine
 10
241.4330409332425
 20
288.211868572803
 30
0.0
 11
241.4330409332424
 21
193.3306635994209
 31
0.0
  0
ELLIPSE
  5
11F8
330
1E
100
AcDbEntity
  8
STEMPEL
100
AcDbEllipse
 10
241.4330409332424
 20
328.9184320381699
 30
0.0
 11
0.0
 21
-40.70656346536691
 31
0.0
210
0.0
220
0.0
230
1.0
 40
0.2680705673063008
 41
4.712388980384689
 42
6.283185307179586
  0
ARC
  5
11FA
330
1E
100
AcDbEntity
  8
STEMPEL
100
AcDbCircle
 10
413.6562191321503
 20
329.1772962277641
 30
0.0
 40
183.1355927139504
100
AcDbArc
 50
160.1211095905269
 51
180.0809882461954
  0
DIMENSION
  5
121F
330
1E
100
AcDbEntity
  8
BEM
100
AcDbDimension
  2
*D6
 10
230.4424473868094
 20
277.2212750263697
 30
0.0
 11
209.229243951213
 21
307.6268666173913
 31
0.0
 70
    32
  1
%%c<>
 71
     5
 42
72.99999999999989
 51
44.99999999999995
  3
Standard
100
AcDbAlignedDimension
 13
241.4330409332424
 23
391.4494586260386
 33
0.0
 14
241.4330409332425
 24
288.2118685728029
 34
0.0
 50
315.0000000000001
100
AcDbRotatedDimension
1001
ACAD
1000
DSTYLE
1002
{
1070
    40
1040
2.0
1070
    41
1040
3.5
1070
    42
1040
1.0
1070
    43
1040
7.0
1070
    44
1040
1.0
1070
    73
1070
     0
1070
    74
1070
     0
1070
    77
1070
     1
1070
    78
1070
     8
1070
    79
1070
     2
1070
   140
1040
3.5
1070
   141
1040
1.5
1070
   146
1040
0.5142857142857144
1070
   147
1040
1.5
1070
   172
1070
     1
1070
   178
1070
     1
1070
   179
1070
     2
1070
   271
1070
     2
1070
   272
1070
     2
1070
   284
1070
     8
1070
   285
1070
     8
1070
   286
1070
     8
1002
}
  0
ARC
  5
1236
330
1E
100
AcDbEntity
  8
SCHRAFF
100
AcDbCircle
 10
230.534339518931
 20
331.4183954249265
 30
0.0
 40
5.0
100
AcDbArc
 50
233.0397962448298
 51
306.7852292392138
  0
ARC
  5
1237
330
1E
100
AcDbEntity
  8
SCHRAFF
100
AcDbCircle
 10
230.6637710265252
 20
336.4167198926699
 30
0.0
 40
5.0
100
AcDbArc
 50
231.4877770619895
 51
305.2326982952248
  0
ARC
  5
1238
330
1E
100
AcDbEntity
  8
SCHRAFF
100
AcDbCircle
 10
230.929606707847
 20
341.4096480306002
 30
0.0
 40
5.0
100
AcDbArc
 50
229.9234290740983
 51
303.6683503073341
  0
ARC
  5
1239
330
1E
100
AcDbEntity
  8
SCHRAFF
100
AcDbCircle
 10
231.331648406651
 20
346.3934580663482
 30
0.0
 40
5.0
100
AcDbArc
 50
228.3590810862079
 51
302.1040023194432
  0
ARC
  5
123A
330
1E
100
AcDbEntity
  8
SCHRAFF
100
AcDbCircle
 10
231.8695964375333
 20
351.364435024258
 30
0.0
 40
5.0
100
AcDbArc
 50
226.7947330983166
 51
300.5396543315523
  0
ARC
  5
123B
330
1E
100
AcDbEntity
  8
SCHRAFF
100
AcDbCircle
 10
232.5430498093196
 20
356.3188734945621
 30
0.0
 40
5.0
100
AcDbArc
 50
225.2303851104254
 51
298.9753063436609
  0
ARC
  5
123C
330
1E
100
AcDbEntity
  8
SCHRAFF
100
AcDbCircle
 10
233.3515065239674
 20
361.2530803954268
 30
0.0
 40
5.0
100
AcDbArc
 50
223.6660371225343
 51
297.4109583557701
  0
ARC
  5
123D
330
1E
100
AcDbEntity
  8
SCHRAFF
100
AcDbCircle
 10
234.2943639507601
 20
366.1633777258073
 30
0.0
 40
5.0
100
AcDbArc
 50
222.1016891346436
 51
295.8466103678792
  0
ARC
  5
123E
330
1E
100
AcDbEntity
  8
SCHRAFF
100
AcDbCircle
 10
235.3709192755127
 20
371.0461053070622
 30
0.0
 40
5.0
100
AcDbArc
 50
220.5373411467526
 51
294.282262379988
  0
ARC
  5
123F
330
1E
100
AcDbEntity
  8
SCHRAFF
100
AcDbCircle
 10
236.5803700244562
 20
375.8976235112824
 30
0.0
 40
5.0
100
AcDbArc
 50
218.9729931588618
 51
292.7179143920973
  0
ARC
  5
1240
330
1E
100
AcDbEntity
  8
SCHRAFF
100
AcDbCircle
 10
237.9218146624083
 20
380.714315974302
 30
0.0
 40
5.0
100
AcDbArc
 50
217.4086451709709
 51
291.1535664042064
  0
ARC
  5
1242
330
1E
100
AcDbEntity
  8
SCHRAFF
100
AcDbCircle
 10
240.996588262956
 20
390.2288906934574
 30
0.0
 40
5.0
100
AcDbArc
 50
214.2799491951887
 51
288.0248704284243
  0
ARC
  5
1243
330
1E
100
AcDbEntity
  8
SCHRAFF
100
AcDbCircle
 10
230.5414088308038
 20
326.418400422446
 30
0.0
 40
5.0
100
AcDbArc
 50
234.8359167692703
 51
308.5835581288212
  0
ARC
  5
1244
330
1E
100
AcDbEntity
  8
SCHRAFF
100
AcDbCircle
 10
230.7074869102459
 20
321.4211593764759
 30
0.0
 40
5.0
100
AcDbArc
 50
236.8119909519911
 51
310.5623380880417
  0
ARC
  5
1245
330
1E
100
AcDbEntity
  8
SCHRAFF
100
AcDbCircle
 10
231.0468009846214
 20
316.4326860670424
 30
0.0
 40
5.0
100
AcDbArc
 50
238.9584023757734
 51
312.7096016451872
  0
ARC
  5
1246
330
1E
100
AcDbEntity
  8
SCHRAFF
100
AcDbCircle
 10
231.5752886035968
 20
311.4606944302242
 30
0.0
 40
5.0
100
AcDbArc
 50
241.4273812222267
 51
315.1881896865539
  0
ARC
  5
1247
330
1E
100
AcDbEntity
  8
SCHRAFF
100
AcDbCircle
 10
232.3218408431064
 20
306.5167425945281
 30
0.0
 40
5.0
100
AcDbArc
 50
244.473051349325
 51
318.2435051292596
  0
ARC
  5
1248
330
1E
100
AcDbEntity
  8
SCHRAFF
100
AcDbCircle
 10
233.3380215663385
 20
301.6210938389767
 30
0.0
 40
5.0
100
AcDbArc
 50
248.6244562492422
 51
322.4316121458357
  0
ARC
  5
1249
330
1E
100
AcDbEntity
  8
SCHRAFF
100
AcDbCircle
 10
234.7231908145121
 20
296.8167930413669
 30
0.0
 40
5.0
100
AcDbArc
 50
255.3169838394843
 51
329.2855835163299
  0
ARC
  5
124A
330
1E
100
AcDbEntity
  8
SCHRAFF
100
AcDbCircle
 10
236.7072114263908
 20
292.2272764860378
 30
0.0
 40
5.0
100
AcDbArc
 50
270.4477516617116
 51
347.7904939589243
  0
ARC
  5
124F
330
1E
100
AcDbEntity
  8
SCHRAFF
100
AcDbCircle
 10
239.3942532647855
 20
385.4925922913675
 30
0.0
 40
5.0
100
AcDbArc
 50
215.8442971830798
 51
289.5892184163152
  0
ARC
  5
1251
330
1E
100
AcDbEntity
  8
SCHRAFF
100
AcDbCircle
 10
242.7276252623764
 20
394.9196807022552
 30
0.0
 40
5.0
100
AcDbArc
 50
212.7156012072977
 51
286.4605224405331
  0
ARC
  5
1253
102
{ACAD_REACTORS
330
1277
102
}
330
1E
100
AcDbEntity
  8
SCHRAFF
100
AcDbCircle
 10
239.3538312186381
 20
289.07310543561
 30
0.0
 40
4.38546042599918
100
AcDbArc
 50
298.3017010279541
 51
16.69829897204676
  0
HATCH
  5
1277
330
1E
100
AcDbEntity
  8
SCHRAFF
100
AcDbHatch
 10
0.0
 20
0.0
 30
0.0
210
0.0
220
0.0
230
1.0
  2
_USER
 70
     0
 71
     1
 91
        1
 92
        7
 72
     1
 73
     1
 93
        3
 10
241.4330409332424
 20
288.211868572803
 42
0.0
 10
241.4330409332424
 20
285.2118685728029
 42
0.3560672563595035
 10
243.5543612768021
 20
290.3331889163626
 42
0.0
 97
        3
330
FF8
330
118D
330
1253
 75
     0
 76
     0
 52
0.0
 41
0.1
 77
     0
 78
     1
 53
0.0
 43
2.377497867869351
 44
-19.00648754756298
 45
0.0
 46
0.1
 79
     0
 47
0.1071933925478318
 98
        1
 10
241.9479087307302
 20
287.8408766496704
  0
ARC
  5
127A
102
{ACAD_REACTORS
330
1281
102
}
330
1E
100
AcDbEntity
  8
SCHRAFF
100
AcDbCircle
 10
239.9406131988253
 20
391.4261781824738
 30
0.0
 40
8.492319628016186
100
AcDbArc
 50
37.97355315173888
 51
79.87836138311803
  0
HATCH
  5
1281
330
1E
100
AcDbEntity
  8
SCHRAFF
100
AcDbHatch
 10
0.0
 20
0.0
 30
0.0
210
0.0
220
0.0
230
1.0
  2
_USER
 70
     0
 71
     1
 91
        1
 92
        7
 72
     1
 73
     1
 93
        3
 10
241.4330409332423
 20
391.4494586260386
 42
0.0
 10
246.6350650218352
 20
396.6514827146315
 42
0.1849094579413063
 10
241.4330409332422
 20
399.7863308199518
 42
0.0
 97
        3
330
DAA
330
1039
330
127A
 75
     0
 76
     0
 52
0.0
 41
0.1
 77
     0
 78
     1
 53
0.0
 43
2.377497867869351
 44
-19.00648754756298
 45
0.0
 46
0.1
 79
     0
 47
0.1173819625839369
 98
        1
 10
242.6013304991654
 20
397.0188236413574
  0
DIMENSION
  5
1282
330
1E
100
AcDbEntity
  8
BEM
100
AcDbDimension
  2
*D7
 10
174.9330409332423
 20
273.3306635994207
 30
0.0
 11
281.9581025587951
 21
531.7120188896465
 31
0.0
 70
    34
 71
     5
 42
0.7853981633974483
  3
Standard
100
AcDb2LineAngularDimension
 13
174.9330409332423
 23
518.3339565037506
 33
0.0
 14
174.9330409332423
 24
178.3306635994208
 34
0.0
 15
328.3752124507231
 25
426.7728351169014
 35
0.0
 16
311.5180227668016
 26
509.9027916860173
 36
0.0
1001
ACAD
1000
DSTYLE
1002
{
1070
    40
1040
2.0
1070
    41
1040
3.5
1070
    42
1040
1.0
1070
    43
1040
7.0
1070
    44
1040
1.0
1070
    73
1070
     0
1070
    74
1070
     0
1070
    77
1070
     1
1070
    78
1070
     8
1070
    79
1070
     2
1070
   140
1040
3.5
1070
   141
1040
1.5
1070
   146
1040
0.5142857142857144
1070
   147
1040
1.5
1070
   172
1070
     1
1070
   178
1070
     1
1070
   179
1070
     2
1070
   271
1070
     2
1070
   272
1070
     2
1070
   284
1070
     8
1070
   285
1070
     8
1070
   286
1070
     8
1002
}
  0
TEXT
  5
1291
330
1E
100
AcDbEntity
  8
TEXT
 62
     1
100
AcDbText
 10
303.6043772075974
 20
408.2246902590185
 30
0.0
 40
7.0
  1
DN70
 50
45.0
 41
0.8
  7
GREEKS
100
AcDbText
  0
LINE
  5
1293
330
1E
100
AcDbEntity
  8
MITTEL
100
AcDbLine
 10
202.8080781878037
 20
301.2057008539821
 30
0.0
 11
174.9330409332423
 21
273.3306635994207
 31
0.0
  0
DIMENSION
  5
12FD
330
1E
100
AcDbEntity
  8
BEM
100
AcDbDimension
  2
*D8
 10
370.1703130144948
 20
377.9066667412643
 30
0.0
 11
290.6208001310082
 21
307.5495420132028
 31
0.0
 70
    32
 71
     5
 42
212.0
 51
44.99999999999995
  3
Standard
100
AcDbAlignedDimension
 13
174.9330409332421
 23
273.3306635994207
 33
0.0
 14
352.6223550329506
 24
395.4546247228084
 34
0.0
 50
44.99999999999942
100
AcDbRotatedDimension
1001
ACAD
1000
DSTYLE
1002
{
1070
    40
1040
2.0
1070
    41
1040
3.5
1070
    42
1040
1.0
1070
    43
1040
7.0
1070
    44
1040
1.0
1070
    73
1070
     0
1070
    74
1070
     0
1070
    77
1070
     1
1070
    78
1070
     8
1070
    79
1070
     2
1070
   140
1040
3.5
1070
   141
1040
1.5
1070
   146
1040
0.5142857142857144
1070
   147
1040
1.5
1070
   172
1070
     1
1070
   178
1070
     1
1070
   179
1070
     2
1070
   271
1070
     2
1070
   272
1070
     2
1070
   284
1070
     8
1070
   285
1070
     8
1070
   286
1070
     8
1002
}
  0
TEXT
  5
1373
330
1E
100
AcDbEntity
  8
TEXT
100
AcDbText
 10
41.85509950977674
 20
111.6719999999999
 30
0.0
 40
5.0
  1
Erstellt mit AUTOCAD 2004
 41
0.8
  7
GREEKS
100
AcDbText
  0
TEXT
  5
1374
330
1E
100
AcDbEntity
  8
TEXT
100
AcDbText
 10
153.5163572150377
 20
102.4620895087088
 30
0.0
 40
5.0
  1
Maßstab
 41
0.8
  7
GREEKS
100
AcDbText
  0
TEXT
  5
1375
330
1E
100
AcDbEntity
  8
TEXT
100
AcDbText
 10
192.6882715247924
 20
89.7791437153694
 30
0.0
 40
4.0
  1
DIN EN1124-3
 41
0.8
  7
GREEKS
 72
     1
 11
209.6787477152686
 21
89.7791437153694
 31
0.0
100
AcDbText
  0
TEXT
  5
1376
330
1E
100
AcDbEntity
  8
TEXT
100
AcDbText
 10
67.65811831396264
 20
18.34829198486668
 30
0.0
 40
4.0
  1
Änderung
 41
0.8
  7
GREEKS
 72
     1
 11
78.40097545681979
 21
18.34829198486668
 31
0.0
100
AcDbText
  0
TEXT
  5
1377
330
1E
100
AcDbEntity
  8
TEXT
100
AcDbText
 10
110.462610504336
 20
18.6715626933981
 30
0.0
 40
4.0
  1
Tag
 41
0.8
  7
GREEKS
 72
     1
 11
114.1959438376693
 21
18.6715626933981
 31
0.0
100
AcDbText
  0
TEXT
  5
1378
330
1E
100
AcDbEntity
  8
TEXT
100
AcDbText
 10
128.9002860979178
 20
18.59324216966408
 30
0.0
 40
4.0
  1
Name
 41
0.8
  7
GREEKS
 72
     1
 11
135.2240956217273
 21
18.59324216966408
 31
0.0
100
AcDbText
  0
TEXT
  5
1379
330
1E
100
AcDbEntity
  8
BEM
100
AcDbText
 10
416.5811541437436
 20
12.14804815338303
 30
0.0
 40
4.0
  1
Diese Zeichnung ist urheberrechtlich geschützt und bleibt unser Eigentum. Sie darf weder ganz noch teilweise vervielfältigt und nicht an Dritte weitergegeben werden.
 50
90.0
 41
0.8
  7
GREEKS
100
AcDbText
  0
TEXT
  5
137A
330
1E
100
AcDbEntity
  8
TEXT
100
AcDbText
 10
336.7238616296993
 20
73.1811823709997
 30
0.0
 40
5.0
  1
Ersatz für:
 41
0.8
  7
GREEKS
100
AcDbText
  0
TEXT
  5
13C8
330
1E
100
AcDbEntity
  8
TEXT
100
AcDbText
 10
170.398997108236
 20
63.10765040825732
 30
0.0
 40
4.0
  1
08.04.
 41
0.8
  7
GREEKS
 72
     1
 11
177.4085209177598
 21
63.10765040825732
 31
0.0
100
AcDbText
  0
ENDSEC
  0
SECTION
  2
OBJECTS
  0
DICTIONARY
  5
C
330
0
100
AcDbDictionary
281
     1
  3
ACAD_COLOR
350
12F1
  3
ACAD_GROUP
350
D
  3
ACAD_LAYOUT
350
19
  3
ACAD_MATERIAL
350
12F0
  3
ACAD_MLINESTYLE
350
16
  3
ACAD_PLOTSETTINGS
350
18
  3
ACAD_PLOTSTYLENAME
350
E
  3
AcDbVariableDictionary
350
246
  0
DICTIONARY
  5
12F1
102
{ACAD_REACTORS
330
C
102
}
330
C
100
AcDbDictionary
281
     1
  0
DICTIONARY
  5
D
102
{ACAD_REACTORS
330
C
102
}
330
C
100
AcDbDictionary
281
     1
  0
DICTIONARY
  5
19
102
{ACAD_REACTORS
330
C
102
}
330
C
100
AcDbDictionary
281
     1
  3
Layout1
350
1D
  3
Model
350
21
  0
DICTIONARY
  5
12F0
102
{ACAD_REACTORS
330
C
102
}
330
C
100
AcDbDictionary
281
     1
  0
DICTIONARY
  5
16
102
{ACAD_REACTORS
330
C
102
}
330
C
100
AcDbDictionary
281
     1
  3
Standard
350
17
  0
DICTIONARY
  5
18
102
{ACAD_REACTORS
330
C
102
}
330
C
100
AcDbDictionary
281
     1
  0
ACDBDICTIONARYWDFLT
  5
E
102
{ACAD_REACTORS
330
C
102
}
330
C
100
AcDbDictionary
281
     1
  3
Normal
350
F
100
AcDbDictionaryWithDefault
340
F
  0
DICTIONARY
  5
246
102
{ACAD_REACTORS
330
C
102
}
330
C
100
AcDbDictionary
281
     1
  3
DIMASSOC
350
1397
  3
PROJECTNAME
350
1398
  3
SORTENTS
350
247
  0
LAYOUT
  5
1D
102
{ACAD_REACTORS
330
19
102
}
330
19
100
AcDbPlotSettings
  1

  2
Tektronix Phaser 740
  4

  6

 40
0.0
 41
0.0
 42
0.0
 43
0.0
 44
0.0
 45
0.0
 46
0.0
 47
0.0
 48
0.0
 49
0.0
140
0.0
141
0.0
142
1.0
143
1.0
 70
   688
 72
     0
 73
     0
 74
     5
  7
monochrome.ctb
 75
    16
147
1.0
 76
     0
 77
     2
 78
   300
148
0.0
149
0.0
100
AcDbLayout
  1
Layout1
 70
     0
 71
     1
 10
0.0
 20
0.0
 11
12.0
 21
9.0
 12
0.0
 22
0.0
 32
0.0
 14
1.000000000000000E+20
 24
1.000000000000000E+20
 34
1.000000000000000E+20
 15
-1.000000000000000E+20
 25
-1.000000000000000E+20
 35
-1.000000000000000E+20
146
0.0
 13
0.0
 23
0.0
 33
0.0
 16
1.0
 26
0.0
 36
0.0
 17
0.0
 27
1.0
 37
0.0
 76
     0
330
1A
  0
LAYOUT
  5
21
102
{ACAD_REACTORS
330
19
102
}
330
19
100
AcDbPlotSettings
  1

  2
Tektronix Phaser 740
  4
A4
  6

 40
5.873749732971191
 41
6.085414409637451
 42
5.577407836914062
 43
5.662078857421875
 44
209.9733276367187
 45
296.9683227539062
 46
0.0
 47
0.0
 48
0.0
 49
0.0
140
0.0
141
0.0
142
1.0
143
1.0
 70
 11952
 72
     0
 73
     1
 74
     0
  7
monochrome.ctb
 75
     0
147
1.0
 76
     0
 77
     2
 78
   300
148
1150.120678237584
149
45.30495740799864
100
AcDbLayout
  1
Model
 70
     1
 71
     0
 10
0.0
 20
0.0
 11
12.0
 21
9.0
 12
0.0
 22
0.0
 32
0.0
 14
0.0
 24
0.0
 34
0.0
 15
0.0
 25
0.0
 35
0.0
146
0.0
 13
0.0
 23
0.0
 33
0.0
 16
1.0
 26
0.0
 36
0.0
 17
0.0
 27
1.0
 37
0.0
 76
     0
330
1E
  0
MLINESTYLE
  5
17
102
{ACAD_REACTORS
330
16
102
}
330
16
100
AcDbMlineStyle
  2
STANDARD
 70
     0
  3

 62
   256
 51
90.0
 52
90.0
 71
     2
 49
0.5
 62
   256
  6
BYLAYER
 49
-0.5
 62
   256
  6
BYLAYER
  0
ACDBPLACEHOLDER
  5
F
102
{ACAD_REACTORS
330
E
102
}
330
E
  0
DICTIONARYVAR
  5
1397
102
{ACAD_REACTORS
330
246
102
}
330
246
100
DictionaryVariables
280
     0
  1
1
  0
DICTIONARYVAR
  5
1398
102
{ACAD_REACTORS
330
246
102
}
330
246
100
DictionaryVariables
280
     0
  1

  0
DICTIONARYVAR
  5
247
102
{ACAD_REACTORS
330
246
102
}
330
246
100
DictionaryVariables
280
     0
  1
96
  0
ENDSEC
  0
EOF
