  0
SECTION
  2
HEADER
  9
$ACADVER
  1
AC1018
  9
$ACADMAINTVER
 70
     2
  9
$DWGCODEPAGE
  3
ANSI_1252
  9
$INSBASE
 10
0.0
 20
0.0
 30
0.0
  9
$EXTMIN
 10
-0.000255071078243
 20
-0.0002232455062767
 30
-0.0000000000000021
  9
$EXTMAX
 10
210.0084129282381
 20
298.0668841016944
 30
0.0000000000000132
  9
$LIMMIN
 10
0.0
 20
0.0
  9
$LIMMAX
 10
210.0
 20
297.0
  9
$ORTHOMODE
 70
     1
  9
$REGENMODE
 70
     1
  9
$FILLMODE
 70
     1
  9
$QTEXTMODE
 70
     0
  9
$MIRRTEXT
 70
     1
  9
$LTSCALE
 40
20.0
  9
$ATTMODE
 70
     1
  9
$TEXTSIZE
 40
3.5
  9
$TRACEWID
 40
0.5
  9
$TEXTSTYLE
  7
STANDARD
  9
$CLAYER
  8
SCHRAFF
  9
$CELTYPE
  6
ByLayer
  9
$CECOLOR
 62
   256
  9
$CELTSCALE
 40
1.0
  9
$DISPSILH
 70
     0
  9
$DIMSCALE
 40
1.0
  9
$DIMASZ
 40
3.5
  9
$DIMEXO
 40
1.0
  9
$DIMDLI
 40
7.0
  9
$DIMRND
 40
0.0
  9
$DIMDLE
 40
0.0
  9
$DIMEXE
 40
1.0
  9
$DIMTP
 40
0.0
  9
$DIMTM
 40
0.0
  9
$DIMTXT
 40
3.5
  9
$DIMCEN
 40
1.5
  9
$DIMTSZ
 40
0.0
  9
$DIMTOL
 70
     0
  9
$DIMLIM
 70
     0
  9
$DIMTIH
 70
     0
  9
$DIMTOH
 70
     0
  9
$DIMSE1
 70
     0
  9
$DIMSE2
 70
     0
  9
$DIMTAD
 70
     1
  9
$DIMZIN
 70
     8
  9
$DIMBLK
  1

  9
$DIMASO
 70
     1
  9
$DIMSHO
 70
     0
  9
$DIMPOST
  1

  9
$DIMAPOST
  1

  9
$DIMALT
 70
     0
  9
$DIMALTD
 70
     2
  9
$DIMALTF
 40
25.4
  9
$DIMLFAC
 40
1.0
  9
$DIMTOFL
 70
     1
  9
$DIMTVP
 40
0.0
  9
$DIMTIX
 70
     0
  9
$DIMSOXD
 70
     0
  9
$DIMSAH
 70
     0
  9
$DIMBLK1
  1

  9
$DIMBLK2
  1

  9
$DIMSTYLE
  2
Standard
  9
$DIMCLRD
 70
     0
  9
$DIMCLRE
 70
     0
  9
$DIMCLRT
 70
     1
  9
$DIMTFAC
 40
0.5142857142857144
  9
$DIMGAP
 40
1.5
  9
$DIMJUST
 70
     0
  9
$DIMSD1
 70
     0
  9
$DIMSD2
 70
     0
  9
$DIMTOLJ
 70
     1
  9
$DIMTZIN
 70
     8
  9
$DIMALTZ
 70
     8
  9
$DIMALTTZ
 70
     8
  9
$DIMUPT
 70
     0
  9
$DIMDEC
 70
     2
  9
$DIMTDEC
 70
     2
  9
$DIMALTU
 70
     2
  9
$DIMALTTD
 70
     2
  9
$DIMTXSTY
  7
STANDARD
  9
$DIMAUNIT
 70
     0
  9
$DIMADEC
 70
     2
  9
$DIMALTRND
 40
0.0
  9
$DIMAZIN
 70
     2
  9
$DIMDSEP
 70
    46
  9
$DIMATFIT
 70
     3
  9
$DIMFRAC
 70
     0
  9
$DIMLDRBLK
  1

  9
$DIMLUNIT
 70
     2
  9
$DIMLWD
 70
    -2
  9
$DIMLWE
 70
    -2
  9
$DIMTMOVE
 70
     0
  9
$LUNITS
 70
     2
  9
$LUPREC
 70
     2
  9
$SKETCHINC
 40
1.0
  9
$FILLETRAD
 40
0.0
  9
$AUNITS
 70
     1
  9
$AUPREC
 70
     3
  9
$MENU
  1
ACAD
  9
$ELEVATION
 40
0.0
  9
$PELEVATION
 40
0.0
  9
$THICKNESS
 40
0.0
  9
$LIMCHECK
 70
     0
  9
$CHAMFERA
 40
0.0
  9
$CHAMFERB
 40
0.0
  9
$CHAMFERC
 40
0.0
  9
$CHAMFERD
 40
0.0
  9
$SKPOLY
 70
     0
  9
$TDCREATE
 40
2452040.637099653
  9
$TDUCREATE
 40
2452040.553766320
  9
$TDUPDATE
 40
2455660.364046829
  9
$TDUUPDATE
 40
2455660.280713495
  9
$TDINDWG
 40
0.4822093750
  9
$TDUSRTIMER
 40
0.4822093750
  9
$USRTIMER
 70
     1
  9
$ANGBASE
 50
0.0
  9
$ANGDIR
 70
     0
  9
$PDMODE
 70
     0
  9
$PDSIZE
 40
0.0
  9
$PLINEWID
 40
0.0
  9
$SPLFRAME
 70
     0
  9
$SPLINETYPE
 70
     6
  9
$SPLINESEGS
 70
     8
  9
$HANDSEED
  5
1EF6
  9
$SURFTAB1
 70
     6
  9
$SURFTAB2
 70
     6
  9
$SURFTYPE
 70
     6
  9
$SURFU
 70
     6
  9
$SURFV
 70
     6
  9
$UCSBASE
  2

  9
$UCSNAME
  2

  9
$UCSORG
 10
0.0
 20
0.0
 30
0.0
  9
$UCSXDIR
 10
1.0
 20
0.0
 30
0.0
  9
$UCSYDIR
 10
0.0
 20
1.0
 30
0.0
  9
$UCSORTHOREF
  2

  9
$UCSORTHOVIEW
 70
     0
  9
$UCSORGTOP
 10
0.0
 20
0.0
 30
0.0
  9
$UCSORGBOTTOM
 10
0.0
 20
0.0
 30
0.0
  9
$UCSORGLEFT
 10
0.0
 20
0.0
 30
0.0
  9
$UCSORGRIGHT
 10
0.0
 20
0.0
 30
0.0
  9
$UCSORGFRONT
 10
0.0
 20
0.0
 30
0.0
  9
$UCSORGBACK
 10
0.0
 20
0.0
 30
0.0
  9
$PUCSBASE
  2

  9
$PUCSNAME
  2

  9
$PUCSORG
 10
0.0
 20
0.0
 30
0.0
  9
$PUCSXDIR
 10
1.0
 20
0.0
 30
0.0
  9
$PUCSYDIR
 10
0.0
 20
1.0
 30
0.0
  9
$PUCSORTHOREF
  2

  9
$PUCSORTHOVIEW
 70
     0
  9
$PUCSORGTOP
 10
0.0
 20
0.0
 30
0.0
  9
$PUCSORGBOTTOM
 10
0.0
 20
0.0
 30
0.0
  9
$PUCSORGLEFT
 10
0.0
 20
0.0
 30
0.0
  9
$PUCSORGRIGHT
 10
0.0
 20
0.0
 30
0.0
  9
$PUCSORGFRONT
 10
0.0
 20
0.0
 30
0.0
  9
$PUCSORGBACK
 10
0.0
 20
0.0
 30
0.0
  9
$USERI1
 70
     0
  9
$USERI2
 70
     0
  9
$USERI3
 70
     0
  9
$USERI4
 70
     0
  9
$USERI5
 70
     0
  9
$USERR1
 40
0.0
  9
$USERR2
 40
0.0
  9
$USERR3
 40
0.0
  9
$USERR4
 40
0.0
  9
$USERR5
 40
0.0
  9
$WORLDVIEW
 70
     1
  9
$SHADEDGE
 70
     3
  9
$SHADEDIF
 70
    70
  9
$TILEMODE
 70
     1
  9
$MAXACTVP
 70
    16
  9
$PINSBASE
 10
0.0
 20
0.0
 30
0.0
  9
$PLIMCHECK
 70
     0
  9
$PEXTMIN
 10
1.000000000000000E+20
 20
1.000000000000000E+20
 30
1.000000000000000E+20
  9
$PEXTMAX
 10
-1.000000000000000E+20
 20
-1.000000000000000E+20
 30
-1.000000000000000E+20
  9
$PLIMMIN
 10
0.0
 20
0.0
  9
$PLIMMAX
 10
12.0
 20
9.0
  9
$UNITMODE
 70
     0
  9
$VISRETAIN
 70
     0
  9
$PLINEGEN
 70
     0
  9
$PSLTSCALE
 70
     0
  9
$TREEDEPTH
 70
  3020
  9
$CMLSTYLE
  2
Standard
  9
$CMLJUST
 70
     0
  9
$CMLSCALE
 40
1.0
  9
$PROXYGRAPHICS
 70
     1
  9
$MEASUREMENT
 70
     0
  9
$CELWEIGHT
370
    -1
  9
$ENDCAPS
280
     0
  9
$JOINSTYLE
280
     0
  9
$LWDISPLAY
290
     0
  9
$INSUNITS
 70
     0
  9
$HYPERLINKBASE
  1

  9
$STYLESHEET
  1
monochrome 1.ctb
  9
$XEDIT
290
     1
  9
$CEPSNTYPE
380
     0
  9
$PSTYLEMODE
290
     1
  9
$FINGERPRINTGUID
  2
{7AADB5C8-6110-11D8-B72B-000102183313}
  9
$VERSIONGUID
  2
{82F6F546-5037-4A9F-A9B8-2D456FF6EA0D}
  9
$EXTNAMES
290
     1
  9
$PSVPSCALE
 40
0.0
  9
$OLESTARTUP
290
     0
  9
$SORTENTS
280
    96
  9
$INDEXCTL
280
     0
  9
$HIDETEXT
280
     0
  9
$XCLIPFRAME
290
     0
  9
$HALOGAP
280
     0
  9
$OBSCOLOR
 70
   257
  9
$OBSLTYPE
280
     0
  9
$INTERSECTIONDISPLAY
280
     0
  9
$INTERSECTIONCOLOR
 70
   257
  9
$DIMASSOC
280
     1
  9
$PROJECTNAME
  1

  0
ENDSEC
  0
SECTION
  2
CLASSES
  0
CLASS
  1
ACDBDICTIONARYWDFLT
  2
AcDbDictionaryWithDefault
  3
ObjectDBX Classes
 90
        0
 91
        1
280
     0
281
     0
  0
CLASS
  1
DICTIONARYVAR
  2
AcDbDictionaryVar
  3
ObjectDBX Classes
 90
        0
 91
        3
280
     0
281
     0
  0
ENDSEC
  0
SECTION
  2
TABLES
  0
TABLE
  2
VPORT
  5
8
330
0
100
AcDbSymbolTable
 70
     3
  0
VPORT
  5
1EF5
330
8
100
AcDbSymbolTableRecord
100
AcDbViewportTableRecord
  2
*Active
 70
     0
 10
0.0
 20
0.0
 11
1.0
 21
1.0
 12
105.0
 22
148.5
 13
0.0
 23
0.0
 14
1.0
 24
1.0
 15
10.0
 25
10.0
 16
0.0
 26
0.0
 36
1.0
 17
0.0
 27
0.0
 37
0.0
 40
297.0
 41
1.334231805929919
 42
50.0
 43
0.0
 44
0.0
 50
0.0
 51
0.0
 71
     0
 72
  1500
 73
     1
 74
     0
 75
     0
 76
     0
 77
     0
 78
     0
281
     0
 65
     1
110
0.0
120
0.0
130
0.0
111
1.0
121
0.0
131
0.0
112
0.0
122
1.0
132
0.0
 79
     0
146
0.0
  0
ENDTAB
  0
TABLE
  2
LTYPE
  5
5
330
0
100
AcDbSymbolTable
 70
     2
  0
LTYPE
  5
13
330
5
100
AcDbSymbolTableRecord
100
AcDbLinetypeTableRecord
  2
ByBlock
 70
     0
  3

 72
    65
 73
     0
 40
0.0
  0
LTYPE
  5
14
330
5
100
AcDbSymbolTableRecord
100
AcDbLinetypeTableRecord
  2
ByLayer
 70
     0
  3

 72
    65
 73
     0
 40
0.0
  0
LTYPE
  5
15
330
5
100
AcDbSymbolTableRecord
100
AcDbLinetypeTableRecord
  2
Continuous
 70
     0
  3
Solid line
 72
    65
 73
     0
 40
0.0
  0
LTYPE
  5
35
330
5
100
AcDbSymbolTableRecord
100
AcDbLinetypeTableRecord
  2
STRICHPUNKT
 70
     0
  3
__ . __ . __ . __ . __ . __ . __ . __ . __ . __
 72
    65
 73
     4
 40
1.0
 49
0.5
 74
     0
 49
-0.25
 74
     0
 49
0.0
 74
     0
 49
-0.25
 74
     0
  0
ENDTAB
  0
TABLE
  2
LAYER
  5
2
330
0
100
AcDbSymbolTable
 70
     9
  0
LAYER
  5
10
330
2
100
AcDbSymbolTableRecord
100
AcDbLayerTableRecord
  2
0
 70
     0
 62
     7
  6
Continuous
370
    -3
390
F
  0
LAYER
  5
38
330
2
100
AcDbSymbolTableRecord
100
AcDbLayerTableRecord
  2
VOLL
 70
     0
 62
     1
  6
Continuous
370
    -3
390
F
  0
LAYER
  5
39
330
2
100
AcDbSymbolTableRecord
100
AcDbLayerTableRecord
  2
HILF
 70
     0
 62
     2
  6
Continuous
370
    -3
390
F
  0
LAYER
  5
3A
330
2
100
AcDbSymbolTableRecord
100
AcDbLayerTableRecord
  2
MITTEL
 70
     0
 62
     2
  6
STRICHPUNKT
370
    -3
390
F
  0
LAYER
  5
3B
330
2
100
AcDbSymbolTableRecord
100
AcDbLayerTableRecord
  2
BEM
 70
     0
 62
     7
  6
Continuous
370
    -3
390
F
  0
LAYER
  5
3C
330
2
100
AcDbSymbolTableRecord
100
AcDbLayerTableRecord
  2
STEMPEL
 70
     0
 62
     3
  6
Continuous
370
    -3
390
F
  0
LAYER
  5
3D
330
2
100
AcDbSymbolTableRecord
100
AcDbLayerTableRecord
  2
TEXT
 70
     0
 62
     7
  6
Continuous
370
    -3
390
F
  0
LAYER
  5
3E
330
2
100
AcDbSymbolTableRecord
100
AcDbLayerTableRecord
  2
DEFPOINTS
 70
     0
 62
     7
  6
Continuous
290
     0
370
    -3
390
F
  0
LAYER
  5
3F
330
2
100
AcDbSymbolTableRecord
100
AcDbLayerTableRecord
  2
SCHRAFF
 70
     0
 62
     7
  6
Continuous
370
    -3
390
F
  0
ENDTAB
  0
TABLE
  2
STYLE
  5
3
330
0
100
AcDbSymbolTable
 70
     2
  0
STYLE
  5
11
330
3
100
AcDbSymbolTableRecord
100
AcDbTextStyleTableRecord
  2
STANDARD
 70
     0
 40
0.0
 41
0.8
 50
0.0
 71
     0
 42
3.5
  3
simplex.shx
  4

  0
STYLE
  5
34
330
3
100
AcDbSymbolTableRecord
100
AcDbTextStyleTableRecord
  2
GREEKS
 70
     0
 40
0.0
 41
0.8
 50
0.0
 71
     0
 42
2.5
  3
SIMPLEX.shx
  4

  0
ENDTAB
  0
TABLE
  2
VIEW
  5
6
330
0
100
AcDbSymbolTable
 70
     0
  0
ENDTAB
  0
TABLE
  2
UCS
  5
7
330
0
100
AcDbSymbolTable
 70
     0
  0
ENDTAB
  0
TABLE
  2
APPID
  5
9
330
0
100
AcDbSymbolTable
 70
     1
  0
APPID
  5
12
330
9
100
AcDbSymbolTableRecord
100
AcDbRegAppTableRecord
  2
ACAD
 70
     0
  0
ENDTAB
  0
TABLE
  2
DIMSTYLE
  5
A
330
0
100
AcDbSymbolTable
 70
     1
100
AcDbDimStyleTable
 71
     1
340
1CB
  0
DIMSTYLE
105
1CB
102
{ACAD_REACTORS
330
D41
330
1DB
330
E1B
330
1AFF
330
1B28
330
1ED0
102
}
330
A
100
AcDbSymbolTableRecord
100
AcDbDimStyleTableRecord
  2
Standard
 70
     0
340
11
  0
ENDTAB
  0
TABLE
  2
BLOCK_RECORD
  5
1
330
0
100
AcDbSymbolTable
 70
    10
  0
BLOCK_RECORD
  5
1E
330
1
100
AcDbSymbolTableRecord
100
AcDbBlockTableRecord
  2
*Model_Space
340
21
  0
BLOCK_RECORD
  5
1A
330
1
100
AcDbSymbolTableRecord
100
AcDbBlockTableRecord
  2
*Paper_Space
340
1D
  0
BLOCK_RECORD
  5
22
330
1
100
AcDbSymbolTableRecord
100
AcDbBlockTableRecord
  2
LOGO
340
0
102
{BLKREFS
331
135
102
}
  0
BLOCK_RECORD
  5
1DC
330
1
100
AcDbSymbolTableRecord
100
AcDbBlockTableRecord
  2
*D1
340
0
  0
BLOCK_RECORD
  5
D42
330
1
100
AcDbSymbolTableRecord
100
AcDbBlockTableRecord
  2
*D3
340
0
  0
BLOCK_RECORD
  5
E1C
330
1
100
AcDbSymbolTableRecord
100
AcDbBlockTableRecord
  2
*D4
340
0
  0
BLOCK_RECORD
  5
1B00
330
1
100
AcDbSymbolTableRecord
100
AcDbBlockTableRecord
  2
*D6
340
0
  0
BLOCK_RECORD
  5
1B29
330
1
100
AcDbSymbolTableRecord
100
AcDbBlockTableRecord
  2
*D7
340
0
  0
BLOCK_RECORD
  5
1ED1
330
1
100
AcDbSymbolTableRecord
100
AcDbBlockTableRecord
  2
*D9
340
0
  0
ENDTAB
  0
ENDSEC
  0
SECTION
  2
BLOCKS
  0
BLOCK
  5
43
330
1E
100
AcDbEntity
  8
0
100
AcDbBlockBegin
  2
*Model_Space
 70
     0
 10
0.0
 20
0.0
 30
0.0
  3
*Model_Space
  1

  0
ENDBLK
  5
44
330
1E
100
AcDbEntity
  8
0
100
AcDbBlockEnd
  0
BLOCK
  5
41
330
1A
100
AcDbEntity
 67
     1
  8
0
100
AcDbBlockBegin
  2
*Paper_Space
 70
     0
 10
0.0
 20
0.0
 30
0.0
  3
*Paper_Space
  1

  0
ENDBLK
  5
42
330
1A
100
AcDbEntity
 67
     1
  8
0
100
AcDbBlockEnd
  0
BLOCK
  5
45
330
22
100
AcDbEntity
  8
0
100
AcDbBlockBegin
  2
LOGO
 70
     0
 10
0.0
 20
0.0
 30
0.0
  3
LOGO
  1

  0
ARC
  5
46
330
22
100
AcDbEntity
  8
0
100
AcDbCircle
 10
11.59973089678112
 20
-9.271599258481501
 30
0.0
 40
4.5
100
AcDbArc
 50
270.0
 51
231.0575587310159
  0
LINE
  5
47
330
22
100
AcDbEntity
  8
0
100
AcDbLine
 10
3.599730896781125
 20
-4.771599258481529
 30
0.0
 11
3.599730896781153
 21
-11.77159925848133
 31
0.0
  0
LINE
  5
48
330
22
100
AcDbEntity
  8
0
100
AcDbLine
 10
2.599730896781125
 20
-4.771599258481529
 30
0.0
 11
2.599730896781153
 21
-11.77159925848133
 31
0.0
  0
CIRCLE
  5
49
330
22
100
AcDbEntity
  8
0
100
AcDbCircle
 10
11.59973089678112
 20
-9.271599258481501
 30
0.0
 40
3.5
  0
ARC
  5
4A
330
22
100
AcDbEntity
  8
0
100
AcDbCircle
 10
31.59973089678115
 20
-9.271599258481472
 30
0.0
 40
4.5
100
AcDbArc
 50
270.0
 51
231.0575587310182
  0
LINE
  5
4B
330
22
100
AcDbEntity
  8
0
100
AcDbLine
 10
17.59973089678112
 20
-4.771599258481472
 30
0.0
 11
17.59973089678115
 21
-13.77159925848147
 31
0.0
  0
ARC
  5
4C
330
22
100
AcDbEntity
  8
0
100
AcDbCircle
 10
22.59973089678116
 20
-7.271599258481472
 30
0.0
 40
2.5
100
AcDbArc
 50
293.1161887722295
 51
90.0
  0
CIRCLE
  5
4D
330
22
100
AcDbEntity
  8
0
100
AcDbCircle
 10
31.59973089678115
 20
-9.271599258481472
 30
0.0
 40
3.5
  0
ARC
  5
4E
330
22
100
AcDbEntity
  8
0
100
AcDbCircle
 10
4.599730896781153
 20
-11.77159925848133
 30
0.0
 40
1.0
100
AcDbArc
 50
180.0
 51
270.0
  0
ARC
  5
4F
330
22
100
AcDbEntity
  8
0
100
AcDbCircle
 10
4.599730896781153
 20
-11.77159925848133
 30
0.0
 40
2.0
100
AcDbArc
 50
179.9999999999992
 51
270.0
  0
LINE
  5
50
330
22
100
AcDbEntity
  8
0
100
AcDbLine
 10
11.59973089678115
 20
-13.77159925848144
 30
0.0
 11
4.599730896781153
 21
-13.77159925848147
 31
0.0
  0
LINE
  5
51
330
22
100
AcDbEntity
  8
0
100
AcDbLine
 10
8.771303772034769
 20
-12.77159925848136
 30
0.0
 11
4.599730896781153
 21
-12.77159925848133
 31
0.0
  0
LINE
  5
52
330
22
100
AcDbEntity
  8
0
100
AcDbLine
 10
31.59973089678115
 20
-13.77159925848147
 30
0.0
 11
23.6715276665056
 21
-13.77159925848144
 31
0.0
  0
LINE
  5
53
330
22
100
AcDbEntity
  8
0
100
AcDbLine
 10
23.56565672307022
 20
-9.51278021337896
 30
0.0
 11
24.4388546544846
 21
-12.77159925848144
 31
0.0
  0
LINE
  5
54
330
22
100
AcDbEntity
  8
0
100
AcDbLine
 10
22.59973089678116
 20
-9.771599258481472
 30
0.0
 11
18.59973089678112
 21
-9.771599258481472
 31
0.0
  0
LINE
  5
55
330
22
100
AcDbEntity
  8
0
100
AcDbLine
 10
18.59973089678115
 20
-13.77159925848144
 30
0.0
 11
17.59973089678115
 21
-13.77159925848144
 31
0.0
  0
LINE
  5
56
330
22
100
AcDbEntity
  8
0
100
AcDbLine
 10
18.59973089678115
 20
-9.771599258481472
 30
0.0
 11
18.59973089678115
 21
-13.77159925848144
 31
0.0
  0
LINE
  5
57
330
22
100
AcDbEntity
  8
0
100
AcDbLine
 10
22.59973089678116
 20
-9.771599258481472
 30
0.0
 11
23.67152766650562
 21
-13.77159925848147
 31
0.0
  0
ARC
  5
58
330
22
100
AcDbEntity
  8
0
100
AcDbCircle
 10
22.59973089678116
 20
-7.271599258481472
 30
0.0
 40
2.5
100
AcDbArc
 50
270.0
 51
270.0000000000007
  0
LINE
  5
59
330
22
100
AcDbEntity
  8
0
100
AcDbLine
 10
28.77130377203494
 20
-12.77159925848147
 30
0.0
 11
24.43885465448463
 21
-12.77159925848144
 31
0.0
  0
LINE
  5
5A
330
22
100
AcDbEntity
  8
0
100
AcDbLine
 10
3.599730896781125
 20
-4.771599258481472
 30
0.0
 11
2.599730896781125
 21
-4.771599258481472
 31
0.0
  0
LINE
  5
5B
330
22
100
AcDbEntity
  8
0
100
AcDbLine
 10
22.59973089678116
 20
-8.771599258481472
 30
0.0
 11
18.59973089678115
 21
-8.771599258481472
 31
0.0
  0
LINE
  5
5C
330
22
100
AcDbEntity
  8
0
100
AcDbLine
 10
22.59973089678116
 20
-5.771599258481472
 30
0.0
 11
18.59973089678115
 21
-5.771599258481472
 31
0.0
  0
LINE
  5
5D
330
22
100
AcDbEntity
  8
0
100
AcDbLine
 10
22.59973089678116
 20
-4.771599258481472
 30
0.0
 11
17.59973089678115
 21
-4.771599258481472
 31
0.0
  0
LINE
  5
5E
330
22
100
AcDbEntity
  8
0
100
AcDbLine
 10
18.59973089678115
 20
-5.771599258481472
 30
0.0
 11
18.59973089678115
 21
-8.771599258481472
 31
0.0
  0
ARC
  5
5F
330
22
100
AcDbEntity
  8
0
100
AcDbCircle
 10
22.59973089678116
 20
-7.271599258481472
 30
0.0
 40
1.5
100
AcDbArc
 50
270.0
 51
90.0
  0
ENDBLK
  5
60
330
22
100
AcDbEntity
  8
0
100
AcDbBlockEnd
  0
BLOCK
  5
1E6
330
1DC
100
AcDbEntity
  8
0
100
AcDbBlockBegin
  2
*D1
 70
     1
 10
0.0
 20
0.0
 30
0.0
  3
*D1
  1

  0
LINE
  5
1EC7
330
1DC
100
AcDbEntity
  8
BEM
 62
     0
370
    -2
100
AcDbLine
 10
44.66702276218398
 20
72.07467469021698
 30
0.0
 11
28.55669585066996
 21
72.07467469021699
 31
0.0
  0
LINE
  5
1EC8
330
1DC
100
AcDbEntity
  8
BEM
 62
     0
370
    -2
100
AcDbLine
 10
41.43894155597405
 20
277.0779675945471
 30
0.0
 11
28.55669585067001
 21
277.0779675945471
 31
0.0
  0
LINE
  5
1EC9
330
1DC
100
AcDbEntity
  8
BEM
 62
     0
370
    -2
100
AcDbLine
 10
29.55669585066996
 20
75.57467469021699
 30
0.0
 11
29.55669585067001
 21
273.5779675945471
 31
0.0
  0
SOLID
  5
1ECA
330
1DC
100
AcDbEntity
  8
BEM
 62
     0
100
AcDbTrace
 10
28.97336251733663
 20
75.57467469021699
 30
0.0
 11
30.1400291840033
 21
75.57467469021699
 31
0.0
 12
29.55669585066996
 22
72.07467469021699
 32
0.0
 13
29.55669585066996
 23
72.07467469021699
 33
0.0
  0
SOLID
  5
1ECB
330
1DC
100
AcDbEntity
  8
BEM
 62
     0
100
AcDbTrace
 10
28.97336251733668
 20
273.5779675945471
 30
0.0
 11
30.14002918400334
 21
273.5779675945471
 31
0.0
 12
29.55669585067001
 22
277.0779675945471
 32
0.0
 13
29.55669585067001
 23
277.0779675945471
 33
0.0
  0
MTEXT
  5
1ECC
330
1DC
100
AcDbEntity
  8
BEM
 62
     1
100
AcDbMText
 10
26.30669585066996
 20
174.576321142382
 30
0.0
 40
3.5
 41
0.0
 71
     5
 72
     1
  1
\A1;205
 11
0.0000000000000001
 21
1.0
 31
0.0
 73
     1
 44
1.0
  0
POINT
  5
1ECD
330
1DC
100
AcDbEntity
  8
DEFPOINTS
 62
     0
100
AcDbPoint
 10
45.66702276218399
 20
72.07467469021698
 30
0.0
  0
POINT
  5
1ECE
330
1DC
100
AcDbEntity
  8
DEFPOINTS
 62
     0
100
AcDbPoint
 10
42.43894155597405
 20
277.0779675945471
 30
0.0
  0
POINT
  5
1ECF
330
1DC
100
AcDbEntity
  8
DEFPOINTS
 62
     0
100
AcDbPoint
 10
29.55669585067001
 20
277.0779675945471
 30
0.0
  0
ENDBLK
  5
1E7
330
1DC
100
AcDbEntity
  8
0
100
AcDbBlockEnd
  0
BLOCK
  5
D4C
330
D42
100
AcDbEntity
  8
0
100
AcDbBlockBegin
  2
*D3
 70
     1
 10
0.0
 20
0.0
 30
0.0
  3
*D3
  1

  0
LINE
  5
1E71
330
D42
100
AcDbEntity
  8
BEM
 62
     0
370
    -2
100
AcDbLine
 10
45.22957944455441
 20
76.07467469021718
 30
0.0
 11
45.22957944455441
 21
59.3748909577922
 31
0.0
  0
LINE
  5
1E72
330
D42
100
AcDbEntity
  8
BEM
 62
     0
370
    -2
100
AcDbLine
 10
118.2295794445544
 20
76.07467469021752
 30
0.0
 11
118.2295794445544
 21
59.3748909577922
 31
0.0
  0
LINE
  5
1E73
330
D42
100
AcDbEntity
  8
BEM
 62
     0
370
    -2
100
AcDbLine
 10
48.72957944455442
 20
60.3748909577922
 30
0.0
 11
114.7295794445544
 21
60.3748909577922
 31
0.0
  0
SOLID
  5
1E74
330
D42
100
AcDbEntity
  8
BEM
 62
     0
100
AcDbTrace
 10
48.72957944455442
 20
60.95822429112554
 30
0.0
 11
48.72957944455442
 21
59.79155762445887
 31
0.0
 12
45.22957944455441
 22
60.3748909577922
 32
0.0
 13
45.22957944455441
 23
60.3748909577922
 33
0.0
  0
SOLID
  5
1E75
330
D42
100
AcDbEntity
  8
BEM
 62
     0
100
AcDbTrace
 10
114.7295794445544
 20
60.95822429112554
 30
0.0
 11
114.7295794445544
 21
59.79155762445887
 31
0.0
 12
118.2295794445544
 22
60.3748909577922
 32
0.0
 13
118.2295794445544
 23
60.3748909577922
 33
0.0
  0
MTEXT
  5
1E76
330
D42
100
AcDbEntity
  8
BEM
 62
     1
100
AcDbMText
 10
81.72957944455442
 20
63.62489095779221
 30
0.0
 40
3.5
 41
0.0
 71
     5
 72
     1
  1
\A1;%%c73
 73
     1
 44
1.0
  0
POINT
  5
1E77
330
D42
100
AcDbEntity
  8
DEFPOINTS
 62
     0
100
AcDbPoint
 10
45.22957944455441
 20
77.07467469021718
 30
0.0
  0
POINT
  5
1E78
330
D42
100
AcDbEntity
  8
DEFPOINTS
 62
     0
100
AcDbPoint
 10
118.2295794445544
 20
77.07467469021752
 30
0.0
  0
POINT
  5
1E79
330
D42
100
AcDbEntity
  8
DEFPOINTS
 62
     0
100
AcDbPoint
 10
118.2295794445544
 20
60.3748909577922
 30
0.0
  0
ENDBLK
  5
D4D
330
D42
100
AcDbEntity
  8
0
100
AcDbBlockEnd
  0
BLOCK
  5
E26
330
E1C
100
AcDbEntity
  8
0
100
AcDbBlockBegin
  2
*D4
 70
     1
 10
0.0
 20
0.0
 30
0.0
  3
*D4
  1

  0
LINE
  5
1E97
330
E1C
100
AcDbEntity
  8
BEM
 62
     0
370
    -2
100
AcDbLine
 10
44.66702276218398
 20
72.07467469021695
 30
0.0
 11
37.15094026873571
 21
72.07467469021695
 31
0.0
  0
LINE
  5
1E98
330
E1C
100
AcDbEntity
  8
BEM
 62
     0
370
    -2
100
AcDbLine
 10
80.72957944455453
 20
132.074674690217
 30
0.0
 11
37.15094026873572
 21
132.074674690217
 31
0.0
  0
LINE
  5
1E99
330
E1C
100
AcDbEntity
  8
BEM
 62
     0
370
    -2
100
AcDbLine
 10
38.15094026873571
 20
75.57467469021695
 30
0.0
 11
38.15094026873572
 21
128.574674690217
 31
0.0
  0
SOLID
  5
1E9A
330
E1C
100
AcDbEntity
  8
BEM
 62
     0
100
AcDbTrace
 10
37.56760693540238
 20
75.57467469021695
 30
0.0
 11
38.73427360206905
 21
75.57467469021695
 31
0.0
 12
38.15094026873571
 22
72.07467469021695
 32
0.0
 13
38.15094026873571
 23
72.07467469021695
 33
0.0
  0
SOLID
  5
1E9B
330
E1C
100
AcDbEntity
  8
BEM
 62
     0
100
AcDbTrace
 10
37.56760693540239
 20
128.574674690217
 30
0.0
 11
38.73427360206906
 21
128.574674690217
 31
0.0
 12
38.15094026873572
 22
132.074674690217
 32
0.0
 13
38.15094026873572
 23
132.074674690217
 33
0.0
  0
MTEXT
  5
1E9C
330
E1C
100
AcDbEntity
  8
BEM
 62
     1
100
AcDbMText
 10
34.9009402687357
 20
102.074674690217
 30
0.0
 40
3.5
 41
0.0
 71
     5
 72
     1
  1
\A1;60
 11
0.0000000000000001
 21
1.0
 31
0.0
 73
     1
 44
1.0
  0
POINT
  5
1E9D
330
E1C
100
AcDbEntity
  8
DEFPOINTS
 62
     0
100
AcDbPoint
 10
45.66702276218399
 20
72.07467469021695
 30
0.0
  0
POINT
  5
1E9E
330
E1C
100
AcDbEntity
  8
DEFPOINTS
 62
     0
100
AcDbPoint
 10
81.72957944455452
 20
132.074674690217
 30
0.0
  0
POINT
  5
1E9F
330
E1C
100
AcDbEntity
  8
DEFPOINTS
 62
     0
100
AcDbPoint
 10
38.15094026873572
 20
132.074674690217
 30
0.0
  0
ENDBLK
  5
E27
330
E1C
100
AcDbEntity
  8
0
100
AcDbBlockEnd
  0
BLOCK
  5
1B0A
330
1B00
100
AcDbEntity
  8
0
100
AcDbBlockBegin
  2
*D6
 70
     1
 10
0.0
 20
0.0
 30
0.0
  3
*D6
  1

  0
LINE
  5
1EB2
330
1B00
100
AcDbEntity
  8
BEM
 62
     0
370
    -2
100
AcDbLine
 10
82.436686225741
 20
131.3675679090306
 30
0.0
 11
111.0690318579876
 21
102.7352222767842
 31
0.0
  0
LINE
  5
1EB3
330
1B00
100
AcDbEntity
  8
BEM
 62
     0
370
    -2
100
AcDbLine
 10
187.4442224406515
 20
203.136726990757
 30
0.0
 11
199.4573795063056
 21
191.123569925103
 31
0.0
  0
LINE
  5
1EB4
330
1B00
100
AcDbEntity
  8
BEM
 62
     0
370
    -2
100
AcDbLine
 10
112.836798810954
 20
105.9172027921236
 30
0.0
 11
196.2753989909661
 21
189.3558029721367
 31
0.0
  0
SOLID
  5
1EB5
330
1B00
100
AcDbEntity
  8
BEM
 62
     0
100
AcDbTrace
 10
112.4243198552618
 20
106.3296817478158
 30
0.0
 11
113.2492777666461
 21
105.5047238364315
 31
0.0
 12
110.3619250768011
 22
103.4423290579707
 32
0.0
 13
110.3619250768011
 23
103.4423290579707
 33
0.0
  0
SOLID
  5
1EB6
330
1B00
100
AcDbEntity
  8
BEM
 62
     0
100
AcDbTrace
 10
195.862920035274
 20
189.7682819278288
 30
0.0
 11
196.6878779466583
 21
188.9433240164445
 31
0.0
 12
198.7502727251191
 22
191.8306767062896
 32
0.0
 13
198.7502727251191
 23
191.8306767062896
 33
0.0
  0
MTEXT
  5
1EB7
330
1B00
100
AcDbEntity
  8
BEM
 62
     1
100
AcDbMText
 10
152.2580018621038
 20
149.9345999209864
 30
0.0
 40
3.5
 41
0.0
 71
     5
 72
     1
  1
\A1;125
 11
0.7071067811865443
 21
0.7071067811865508
 31
0.0
 73
     1
 44
1.0
  0
POINT
  5
1EB8
330
1B00
100
AcDbEntity
  8
DEFPOINTS
 62
     0
100
AcDbPoint
 10
81.72957944455447
 20
132.0746746902171
 30
0.0
  0
POINT
  5
1EB9
330
1B00
100
AcDbEntity
  8
DEFPOINTS
 62
     0
100
AcDbPoint
 10
186.737115659465
 20
203.8438337719435
 30
0.0
  0
POINT
  5
1EBA
330
1B00
100
AcDbEntity
  8
DEFPOINTS
 62
     0
100
AcDbPoint
 10
198.7502727251191
 20
191.8306767062896
 30
0.0
  0
ENDBLK
  5
1B0B
330
1B00
100
AcDbEntity
  8
0
100
AcDbBlockEnd
  0
BLOCK
  5
1B33
330
1B29
100
AcDbEntity
  8
0
100
AcDbBlockBegin
  2
*D7
 70
     1
 10
0.0
 20
0.0
 30
0.0
  3
*D7
  1

  0
LINE
  5
1E85
330
1B29
100
AcDbEntity
  8
BEM
 62
     0
370
    -2
100
AcDbLine
 10
117.522472663368
 20
197.5660527188655
 30
0.0
 11
83.1290226503879
 21
163.1726027058844
 31
0.0
  0
LINE
  5
1E86
330
1B29
100
AcDbEntity
  8
BEM
 62
     0
370
    -2
100
AcDbLine
 10
117.5224726633679
 20
138.1690830991952
 30
0.0
 11
112.827507460223
 21
133.4741178960502
 31
0.0
  0
LINE
  5
1E87
330
1B29
100
AcDbEntity
  8
BEM
 62
     0
370
    -2
100
AcDbLine
 10
86.31100316572739
 20
161.4048357529181
 30
0.0
 11
111.0597405072565
 21
136.6560984113896
 31
0.0
  0
SOLID
  5
1E88
330
1B29
100
AcDbEntity
  8
BEM
 62
     0
100
AcDbTrace
 10
86.72348212141953
 20
161.8173147086102
 30
0.0
 11
85.89852421003524
 21
160.9923567972259
 31
0.0
 12
83.83612943157443
 22
163.8797094870709
 32
0.0
 13
83.83612943157443
 23
163.8797094870709
 33
0.0
  0
SOLID
  5
1E89
330
1B29
100
AcDbEntity
  8
BEM
 62
     0
100
AcDbTrace
 10
111.4722194629487
 20
137.0685773670818
 30
0.0
 11
110.6472615515644
 21
136.2436194556974
 31
0.0
 12
113.5346142414095
 22
134.1812246772367
 32
0.0
 13
113.5346142414095
 23
134.1812246772367
 33
0.0
  0
MTEXT
  5
1E8A
330
1B29
100
AcDbEntity
  8
BEM
 62
     1
100
AcDbMText
 10
100.9834688753482
 20
151.3285641210101
 30
0.0
 40
3.5
 41
0.0
 71
     5
 72
     1
  1
\A1;%%c42
 11
0.7071067811865576
 21
-0.7071067811865375
 31
0.0
 73
     1
 44
1.0
  0
POINT
  5
1E8B
330
1B29
100
AcDbEntity
  8
DEFPOINTS
 62
     0
100
AcDbPoint
 10
118.2295794445545
 20
198.273159500052
 30
0.0
  0
POINT
  5
1E8C
330
1B29
100
AcDbEntity
  8
DEFPOINTS
 62
     0
100
AcDbPoint
 10
118.2295794445544
 20
138.8761898803818
 30
0.0
  0
POINT
  5
1E8D
330
1B29
100
AcDbEntity
  8
DEFPOINTS
 62
     0
100
AcDbPoint
 10
113.5346142414095
 20
134.1812246772367
 30
0.0
  0
ENDBLK
  5
1B34
330
1B29
100
AcDbEntity
  8
0
100
AcDbBlockEnd
  0
BLOCK
  5
1EDD
330
1ED1
100
AcDbEntity
  8
0
100
AcDbBlockBegin
  2
*D9
 70
     1
 10
0.0
 20
0.0
 30
0.0
  3
*D9
  1

  0
LINE
  5
1EDF
330
1ED1
100
AcDbEntity
  8
BEM
 62
     0
370
    -2
100
AcDbLine
 10
174.3605677799922
 20
224.7056630256548
 30
0.0
 11
192.915132830621
 21
243.2602280762835
 31
0.0
  0
LINE
  5
1EE0
330
1ED1
100
AcDbEntity
  8
BEM
 62
     0
370
    -2
100
AcDbLine
 10
81.72957944455445
 20
283.0779675945471
 30
0.0
 11
81.72957944455465
 21
289.31479222875
 31
0.0
  0
ARC
  5
1EE1
330
1ED1
100
AcDbEntity
  8
BEM
 62
     0
370
    -2
100
AcDbCircle
 10
81.7295794445545
 20
132.0746746902171
 30
0.0
 40
156.2401175385329
100
AcDbArc
 50
46.28353347875984
 51
88.7164665212401
  0
SOLID
  5
1EE2
330
1ED1
100
AcDbEntity
  8
BEM
 62
     0
100
AcDbTrace
 10
190.1134202492125
 20
245.4171925790308
 30
0.0
 11
189.2977542003811
 21
244.5830463041515
 31
0.0
 12
192.2080260494345
 22
242.5531212950969
 32
0.0
 13
192.2080260494345
 23
242.5531212950969
 33
0.0
  0
SOLID
  5
1EE3
330
1ED1
100
AcDbEntity
  8
BEM
 62
     0
100
AcDbTrace
 10
85.22282614331924
 20
287.6922930083908
 30
0.0
 11
85.2358936364755
 21
288.8588864901718
 31
0.0
 12
81.72957944455461
 22
288.31479222875
 32
0.0
 13
81.72957944455461
 23
288.31479222875
 33
0.0
  0
MTEXT
  5
1EE4
330
1ED1
100
AcDbEntity
  8
BEM
 62
     1
100
AcDbMText
 10
142.763805052512
 20
279.4243299218871
 30
0.0
 40
3.5
 41
0.0
 71
     5
 72
     1
  1
\A1;45°
 11
0.9238795325112864
 21
-0.3826834323650904
 31
0.0
 73
     1
 44
1.0
  0
POINT
  5
1EE5
330
1ED1
100
AcDbEntity
  8
DEFPOINTS
 62
     0
100
AcDbPoint
 10
159.849638213821
 20
267.3825855688532
 30
0.0
  0
POINT
  5
1EE6
330
1ED1
100
AcDbEntity
  8
DEFPOINTS
 62
     0
100
AcDbPoint
 10
81.72957944455443
 20
282.0779675945471
 30
0.0
  0
POINT
  5
1EE7
330
1ED1
100
AcDbEntity
  8
DEFPOINTS
 62
     0
100
AcDbPoint
 10
173.6534609988057
 20
223.9985562444682
 30
0.0
  0
POINT
  5
1EE8
330
1ED1
100
AcDbEntity
  8
DEFPOINTS
 62
     0
100
AcDbPoint
 10
103.4962002098282
 20
153.8412954554908
 30
0.0
  0
POINT
  5
1EE9
330
1ED1
100
AcDbEntity
  8
DEFPOINTS
 62
     0
100
AcDbPoint
 10
81.72957944455452
 20
67.07467469021725
 30
0.0
  0
ENDBLK
  5
1EDE
330
1ED1
100
AcDbEntity
  8
0
100
AcDbBlockEnd
  0
ENDSEC
  0
SECTION
  2
ENTITIES
  0
LINE
  5
12A
330
1E
100
AcDbEntity
  8
STEMPEL
100
AcDbLine
 10
121.0202173331348
 20
277.0779675945471
 30
0.0
 11
42.43894155597405
 21
277.0779675945471
 31
0.0
  0
TEXT
  5
134
330
1E
100
AcDbEntity
  8
TEXT
100
AcDbText
 10
102.2108024290628
 20
31.54481959861755
 30
0.0
 40
2.0
  1
Koeh
 41
0.8
  7
GREEKS
 72
     1
 11
104.8393738576343
 21
31.54481959861755
 31
0.0
100
AcDbText
  0
INSERT
  5
135
330
1E
100
AcDbEntity
  8
STEMPEL
100
AcDbBlockReference
  2
LOGO
 10
75.4977742728897
 20
22.51052638224161
 30
0.0
  0
LINE
  5
136
330
1E
100
AcDbEntity
  8
HILF
100
AcDbLine
 10
210.0
 20
0.0
 30
0.0
 11
0.0
 21
0.0
 31
0.0
  0
LINE
  5
137
330
1E
100
AcDbEntity
  8
HILF
100
AcDbLine
 10
210.0
 20
297.0000000000001
 30
0.0
 11
0.0
 21
297.0
 31
0.0
  0
LINE
  5
138
330
1E
100
AcDbEntity
  8
STEMPEL
100
AcDbLine
 10
205.0
 20
292.0
 30
0.0
 11
19.99999999999994
 21
292.0
 31
0.0
  0
LINE
  5
139
330
1E
100
AcDbEntity
  8
STEMPEL
100
AcDbLine
 10
205.0
 20
5.0
 30
0.0
 11
19.99999999999994
 21
5.0
 31
0.0
  0
LINE
  5
13A
330
1E
100
AcDbEntity
  8
STEMPEL
100
AcDbLine
 10
24.99999999999995
 20
5.0
 30
0.0
 11
205.0
 21
5.0
 31
0.0
  0
TEXT
  5
13B
330
1E
100
AcDbEntity
  8
TEXT
100
AcDbText
 10
101.2313292113147
 20
36.65480545957612
 30
0.0
 40
2.0
  1
Name
 41
0.8
  7
GREEKS
100
AcDbText
  0
TEXT
  5
13C
330
1E
100
AcDbEntity
  8
TEXT
100
AcDbText
 10
98.27491395507747
 20
51.32531138882947
 30
0.0
 40
2.5
  1
Zul. Abw.
 41
0.8
  7
GREEKS
 72
     4
 11
104.9891996693631
 21
52.57531138882947
 31
0.0
100
AcDbText
  0
LINE
  5
13D
330
1E
100
AcDbEntity
  8
HILF
100
AcDbLine
 10
73.00000000000006
 20
24.99999999999999
 30
0.0
 11
115.0
 21
24.99999999999999
 31
0.0
  0
LINE
  5
13E
330
1E
100
AcDbEntity
  8
HILF
100
AcDbLine
 10
73.00000000000006
 20
29.99999999999999
 30
0.0
 11
115.0
 21
29.99999999999999
 31
0.0
  0
LINE
  5
13F
330
1E
100
AcDbEntity
  8
HILF
100
AcDbLine
 10
73.00000000000006
 20
34.99999999999997
 30
0.0
 11
115.0
 21
34.99999999999997
 31
0.0
  0
LINE
  5
140
330
1E
100
AcDbEntity
  8
STEMPEL
100
AcDbLine
 10
205.0
 20
40.0
 30
0.0
 11
73.00000000000006
 21
39.99999999999997
 31
0.0
  0
LINE
  5
141
330
1E
100
AcDbEntity
  8
STEMPEL
100
AcDbLine
 10
205.0
 20
20.0
 30
0.0
 11
73.00000000000006
 21
19.99999999999998
 31
0.0
  0
LINE
  5
142
330
1E
100
AcDbEntity
  8
STEMPEL
100
AcDbLine
 10
205.0
 20
55.00000000000003
 30
0.0
 11
19.99999999999998
 21
55.0
 31
0.0
  0
LINE
  5
143
330
1E
100
AcDbEntity
  8
MITTEL
100
AcDbLine
 10
81.72957944455442
 20
282.0779675945471
 30
0.0
 11
81.72957944455452
 21
67.07467469021723
 31
0.0
  0
LINE
  5
144
330
1E
100
AcDbEntity
  8
HILF
100
AcDbLine
 10
0.0
 20
0.0
 30
0.0
 11
-0.0000000000000568
 21
297.0
 31
0.0
  0
LINE
  5
145
330
1E
100
AcDbEntity
  8
STEMPEL
100
AcDbLine
 10
20.0
 20
5.0
 30
0.0
 11
19.99999999999994
 21
292.0
 31
0.0
  0
LINE
  5
148
330
1E
100
AcDbEntity
  8
HILF
100
AcDbLine
 10
20.00000000000004
 20
19.99999999999998
 30
0.0
 11
73.00000000000006
 21
19.99999999999998
 31
0.0
  0
LINE
  5
149
330
1E
100
AcDbEntity
  8
HILF
100
AcDbLine
 10
20.00000000000004
 20
24.99999999999999
 30
0.0
 11
73.00000000000006
 21
24.99999999999999
 31
0.0
  0
LINE
  5
14A
330
1E
100
AcDbEntity
  8
HILF
100
AcDbLine
 10
20.00000000000004
 20
29.99999999999999
 30
0.0
 11
73.00000000000006
 21
29.99999999999999
 31
0.0
  0
LINE
  5
14B
330
1E
100
AcDbEntity
  8
HILF
100
AcDbLine
 10
20.00000000000004
 20
34.99999999999997
 30
0.0
 11
73.00000000000006
 21
34.99999999999997
 31
0.0
  0
LINE
  5
14C
330
1E
100
AcDbEntity
  8
HILF
100
AcDbLine
 10
20.00000000000004
 20
39.99999999999997
 30
0.0
 11
73.00000000000006
 21
39.99999999999997
 31
0.0
  0
LINE
  5
14D
330
1E
100
AcDbEntity
  8
HILF
100
AcDbLine
 10
20.00000000000004
 20
45.00000000000002
 30
0.0
 11
73.00000000000006
 21
45.00000000000002
 31
0.0
  0
LINE
  5
14E
330
1E
100
AcDbEntity
  8
HILF
100
AcDbLine
 10
20.00000000000004
 20
50.00000000000003
 30
0.0
 11
73.00000000000006
 21
50.00000000000003
 31
0.0
  0
LINE
  5
14F
330
1E
100
AcDbEntity
  8
STEMPEL
100
AcDbLine
 10
72.99999999999994
 20
14.99999999999998
 30
0.0
 11
19.99999999999998
 21
14.99999999999998
 31
0.0
  0
TEXT
  5
150
330
1E
100
AcDbEntity
  8
TEXT
100
AcDbText
 10
24.13320553522878
 20
6.827329230135958
 30
0.0
 40
2.0
  1
Index
 50
90.0
 41
0.8
  7
GREEKS
100
AcDbText
  0
LINE
  5
151
330
1E
100
AcDbEntity
  8
VOLL
100
AcDbLine
 10
27.00000000000005
 20
55.00000000000003
 30
0.0
 11
26.99999999999999
 21
4.999999999999985
 31
0.0
  0
LINE
  5
152
330
1E
100
AcDbEntity
  8
HILF
100
AcDbLine
 10
15.54383567856928
 20
148.5
 30
0.0
 11
0.0000000000000568
 21
148.5
 31
0.0
  0
LINE
  5
154
330
1E
100
AcDbEntity
  8
VOLL
100
AcDbLine
 10
62.00000000000006
 20
54.99999999999997
 30
0.0
 11
62.0
 21
4.999999999999985
 31
0.0
  0
LINE
  5
155
330
1E
100
AcDbEntity
  8
VOLL
100
AcDbLine
 10
52.00000000000006
 20
54.99999999999997
 30
0.0
 11
52.0
 21
4.999999999999985
 31
0.0
  0
LINE
  5
157
330
1E
100
AcDbEntity
  8
STEMPEL
100
AcDbLine
 10
73.00000000000006
 20
54.99999999999997
 30
0.0
 11
73.0
 21
4.999999999999985
 31
0.0
  0
TEXT
  5
159
330
1E
100
AcDbEntity
  8
TEXT
100
AcDbText
 10
86.16558365768254
 20
36.65940250614963
 30
0.0
 40
2.0
  1
Tag
 41
0.8
  7
GREEKS
100
AcDbText
  0
TEXT
  5
15A
330
1E
100
AcDbEntity
  8
TEXT
100
AcDbText
 10
73.79180635838077
 20
31.81495184808982
 30
0.0
 40
2.0
  1
Gez.
 41
0.8
  7
GREEKS
100
AcDbText
  0
LINE
  5
15B
330
1E
100
AcDbEntity
  8
VOLL
100
AcDbLine
 10
82.00000000000006
 20
39.99999999999997
 30
0.0
 11
82.00000000000006
 21
19.99999999999998
 31
0.0
  0
TEXT
  5
15C
330
1E
100
AcDbEntity
  8
TEXT
100
AcDbText
 10
73.80033886936519
 20
21.76473194824904
 30
0.0
 40
2.0
  1
Norm.
 41
0.8
  7
GREEKS
100
AcDbText
  0
TEXT
  5
15D
330
1E
100
AcDbEntity
  8
TEXT
100
AcDbText
 10
73.77575432858361
 20
26.84463145714189
 30
0.0
 40
2.0
  1
Gepr.
 41
0.8
  7
GREEKS
100
AcDbText
  0
TEXT
  5
15E
330
1E
100
AcDbEntity
  8
TEXT
 62
     1
100
AcDbText
 10
80.25031532409434
 20
44.07450714456979
 30
0.0
 40
3.5
  1
1:1
 41
0.8
  7
GREEKS
100
AcDbText
  0
TEXT
  5
15F
330
1E
100
AcDbEntity
  8
TEXT
100
AcDbText
 10
76.75817860751886
 20
51.23104475435443
 30
0.0
 40
2.5
  1
Maßstab
 41
0.8
  7
GREEKS
100
AcDbText
  0
TEXT
  5
160
330
1E
100
AcDbEntity
  8
TEXT
100
AcDbText
 10
74.31105491105199
 20
36.57012735575833
 30
0.0
 40
2.0
  1
2011
 41
0.8
  7
GREEKS
100
AcDbText
  0
LINE
  5
161
330
1E
100
AcDbEntity
  8
VOLL
100
AcDbLine
 10
95.00000000000005
 20
54.99999999999992
 30
0.0
 11
95.0
 21
19.99999999999998
 31
0.0
  0
LINE
  5
186
330
1E
100
AcDbEntity
  8
HILF
100
AcDbLine
 10
210.0
 20
-0.0000000000000568
 30
0.0
 11
210.0
 21
297.0
 31
0.0
  0
LINE
  5
187
330
1E
100
AcDbEntity
  8
STEMPEL
100
AcDbLine
 10
205.0
 20
5.0
 30
0.0
 11
205.0
 21
292.0
 31
0.0
  0
TEXT
  5
188
330
1E
100
AcDbEntity
  8
TEXT
100
AcDbText
 10
168.6200430748503
 20
26.03708088939301
 30
0.0
 40
2.5
  1
ersetzt durch:
 41
0.8
  7
GREEKS
100
AcDbText
  0
TEXT
  5
189
330
1E
100
AcDbEntity
  8
TEXT
100
AcDbText
 10
168.3619308148496
 20
36.59059118549985
 30
0.0
 40
2.5
  1
Ersatz für:
 41
0.8
  7
GREEKS
100
AcDbText
  0
TEXT
  5
18A
330
1E
100
AcDbEntity
  8
TEXT
100
AcDbText
 10
168.089377478817
 20
51.15660172685682
 30
0.0
 40
2.5
  1
Zeichnungs Nr.
 41
0.8
  7
GREEKS
100
AcDbText
  0
LINE
  5
18B
330
1E
100
AcDbEntity
  8
HILF
100
AcDbLine
 10
116.7454849644942
 20
7.446991290141568
 30
0.0
 11
202.4294419663364
 21
7.446991290141568
 31
0.0
  0
LINE
  5
18C
330
1E
100
AcDbEntity
  8
HILF
100
AcDbLine
 10
168.3619308148496
 20
41.88991818477913
 30
0.0
 11
202.4294419663364
 21
41.88991818477913
 31
0.0
  0
LINE
  5
18D
330
1E
100
AcDbEntity
  8
VOLL
100
AcDbLine
 10
166.0
 20
30.0
 30
0.0
 11
205.0
 21
30.0
 31
0.0
  0
TEXT
  5
18E
330
1E
100
AcDbEntity
  8
TEXT
 62
     1
100
AcDbText
 10
117.4641932160007
 20
43.70874394626889
 30
0.0
 40
3.5
  1
Red.-Abzweig DN70/40
 41
0.7
  7
GREEKS
100
AcDbText
  0
LINE
  5
18F
330
1E
100
AcDbEntity
  8
HILF
100
AcDbLine
 10
117.3868400548473
 20
24.99999999999999
 30
0.0
 11
162.4176958278155
 21
24.99999999999999
 31
0.0
  0
LINE
  5
190
330
1E
100
AcDbEntity
  8
HILF
100
AcDbLine
 10
117.3868400548473
 20
29.99999999999999
 30
0.0
 11
162.4176958278155
 21
29.99999999999999
 31
0.0
  0
LINE
  5
191
330
1E
100
AcDbEntity
  8
HILF
100
AcDbLine
 10
117.3868400548473
 20
34.99999999999997
 30
0.0
 11
162.4176958278155
 21
34.99999999999997
 31
0.0
  0
LINE
  5
192
330
1E
100
AcDbEntity
  8
HILF
100
AcDbLine
 10
117.3868400548473
 20
42.01879123782069
 30
0.0
 11
162.4176958278155
 21
42.01879123782069
 31
0.0
  0
LINE
  5
193
330
1E
100
AcDbEntity
  8
STEMPEL
100
AcDbLine
 10
115.0
 20
55.00000000000003
 30
0.0
 11
115.0
 21
4.999999999999985
 31
0.0
  0
TEXT
  5
194
330
1E
100
AcDbEntity
  8
TEXT
100
AcDbText
 10
117.5648195562657
 20
35.75167208792644
 30
0.0
 40
2.5
  1
dünnwandig 45° 
 41
0.8
  7
GREEKS
100
AcDbText
  0
TEXT
  5
195
330
1E
100
AcDbEntity
  8
TEXT
100
AcDbText
 10
117.4918750788913
 20
21.31487076511316
 30
0.0
 40
2.0
  1
5250CA0W.DWG
 41
0.8
  7
GREEKS
100
AcDbText
  0
TEXT
  5
196
330
1E
100
AcDbEntity
  8
TEXT
100
AcDbText
 10
117.371119195568
 20
15.42280285096528
 30
0.0
 40
2.5
  1
Bauvorhaben
 41
0.8
  7
GREEKS
100
AcDbText
  0
TEXT
  5
197
330
1E
100
AcDbEntity
  8
TEXT
100
AcDbText
 10
117.4389701904505
 20
51.27446640058898
 30
0.0
 40
2.5
  1
Benennung
 41
0.8
  7
GREEKS
100
AcDbText
  0
LINE
  5
198
330
1E
100
AcDbEntity
  8
STEMPEL
100
AcDbLine
 10
166.0
 20
54.99999999999989
 30
0.0
 11
166.0
 21
20.0
 31
0.0
  0
TEXT
  5
19A
330
1E
100
AcDbEntity
  8
TEXT
 62
     1
100
AcDbText
 10
174.0416189043421
 20
44.07450714456979
 30
0.0
 40
3.5
  1
5250CA0W
 41
0.8
  7
GREEKS
 72
     1
 11
184.9082855710087
 21
44.07450714456979
 31
0.0
100
AcDbText
  0
LINE
  5
1D4
330
1E
100
AcDbEntity
  8
STEMPEL
100
AcDbLine
 10
117.7921361269248
 20
72.07467469021718
 30
0.0
 11
45.66702276218399
 21
72.07467469021695
 31
0.0
  0
LINE
  5
1D7
330
1E
100
AcDbEntity
  8
STEMPEL
100
AcDbLine
 10
45.22957944455441
 20
77.07467469021695
 30
0.0
 11
45.66702276218399
 21
72.07467469021695
 31
0.0
  0
LINE
  5
1D8
330
1E
100
AcDbEntity
  8
STEMPEL
100
AcDbLine
 10
118.2295794445544
 20
77.07467469021763
 30
0.0
 11
117.7921361269248
 21
72.07467469021718
 31
0.0
  0
DIMENSION
  5
1DB
330
1E
100
AcDbEntity
  8
BEM
100
AcDbDimension
  2
*D1
 10
29.55669585067001
 20
277.0779675945471
 30
0.0
 11
26.30669585066996
 21
174.576321142382
 31
0.0
 70
    32
 71
     5
 42
205.0032929043301
  3
Standard
100
AcDbAlignedDimension
 13
45.66702276218399
 23
72.07467469021698
 33
0.0
 14
42.43894155597405
 24
277.0779675945471
 34
0.0
 50
90.0
100
AcDbRotatedDimension
1001
ACAD
1000
DSTYLE
1002
{
1070
    41
1040
3.5
1070
    42
1040
1.0
1070
    43
1040
7.0
1070
    44
1040
1.0
1070
    73
1070
     0
1070
    74
1070
     0
1070
    77
1070
     1
1070
    78
1070
     8
1070
    79
1070
     2
1070
   140
1040
3.5
1070
   141
1040
1.5
1070
   146
1040
0.5142857142857144
1070
   147
1040
1.5
1070
   172
1070
     1
1070
   178
1070
     1
1070
   179
1070
     2
1070
   271
1070
     2
1070
   272
1070
     2
1070
   284
1070
     8
1070
   285
1070
     8
1070
   286
1070
     8
1002
}
  0
TEXT
  5
212
330
1E
100
AcDbEntity
  8
TEXT
100
AcDbText
 10
117.5648195562657
 20
25.75167208792646
 30
0.0
 40
2.5
  1
EDV-Art.Nr. 5.250.CA0C
 41
0.8
  7
GREEKS
100
AcDbText
  0
TEXT
  5
255
330
1E
100
AcDbEntity
  8
TEXT
 62
     1
100
AcDbText
 10
148.5286824677853
 20
69.24439951233058
 30
0.0
 40
3.5
  1
Werkstoff: 1.4404
 41
0.8
  7
GREEKS
100
AcDbText
  0
TEXT
  5
25D
330
1E
100
AcDbEntity
  8
TEXT
 62
     1
100
AcDbText
 10
58.96505944565621
 20
257.7514630561162
 30
0.0
 40
3.5
  1
DN70
 41
0.8
  7
GREEKS
100
AcDbText
  0
LINE
  5
B5C
330
1E
100
AcDbEntity
  8
HILF
  6
Continuous
100
AcDbLine
 10
44.15119086532985
 20
224.7231619043151
 30
0.0
 11
119.3079680237791
 21
224.7231619043151
 31
0.0
  0
LINE
  5
B5D
330
1E
100
AcDbEntity
  8
HILF
  6
Continuous
100
AcDbLine
 10
43.59786781822475
 20
246.5799618582114
 30
0.0
 11
119.8612910708841
 21
246.5799618582114
 31
0.0
  0
LINE
  5
B61
330
1E
100
AcDbEntity
  8
HILF
  6
Continuous
100
AcDbLine
 10
46.05602385006903
 20
220.2014399806026
 30
0.0
 11
117.4031350390398
 21
220.2014399806026
 31
0.0
  0
ARC
  5
B7A
330
1E
100
AcDbEntity
  8
STEMPEL
100
AcDbCircle
 10
98.72959292031721
 20
266.5541582420976
 30
0.0
 40
24.65
100
AcDbArc
 50
359.9385097298969
 51
25.27284846783625
  0
LINE
  5
B7B
330
1E
100
AcDbEntity
  8
STEMPEL
100
AcDbLine
 10
123.3795794445544
 20
266.5792712967834
 30
0.0
 11
123.3795794445544
 21
257.5162476427379
 31
0.0
  0
ARC
  5
B7C
330
1E
100
AcDbEntity
  8
STEMPEL
100
AcDbCircle
 10
98.72957944455443
 20
257.4501886768224
 30
0.0
 40
24.65009324312573
100
AcDbArc
 50
338.8168456069657
 51
0.1617474312555988
  0
ARC
  5
B7D
330
1E
100
AcDbEntity
  8
STEMPEL
100
AcDbCircle
 10
133.2295794445544
 20
244.0801886768225
 30
0.0
 40
12.35
100
AcDbArc
 50
158.8168456069657
 51
180.0
  0
LINE
  5
B7E
330
1E
100
AcDbEntity
  8
STEMPEL
100
AcDbLine
 10
120.8795794445544
 20
244.0801886768225
 30
0.0
 11
120.8795794445544
 21
227.2894985241201
 31
0.0
  0
ARC
  5
B85
330
1E
100
AcDbEntity
  8
STEMPEL
100
AcDbCircle
 10
109.2295794445543
 20
227.2894985241201
 30
0.0
 40
11.65
100
AcDbArc
 50
329.8986894531991
 51
0.0
  0
ARC
  5
B86
330
1E
100
AcDbEntity
  8
STEMPEL
100
AcDbCircle
 10
126.2295794445543
 20
217.4344236892953
 30
0.0
 40
7.999999999999973
100
AcDbArc
 50
149.8986894531976
 51
180.0
  0
LINE
  5
B99
330
1E
100
AcDbEntity
  8
STEMPEL
100
AcDbLine
 10
40.07957944455443
 20
266.5792712967834
 30
0.0
 11
40.07957944455443
 21
257.5162476427379
 31
0.0
  0
LINE
  5
B9B
330
1E
100
AcDbEntity
  8
STEMPEL
100
AcDbLine
 10
42.57957944455443
 20
244.0801886768225
 30
0.0
 11
42.57957944455443
 21
227.2894985241201
 31
0.0
  0
ARC
  5
B9F
330
1E
100
AcDbEntity
  8
STEMPEL
100
AcDbCircle
 10
64.72957944455441
 20
257.4501886768224
 30
0.0
 40
24.65009324312573
100
AcDbArc
 50
179.8382525687444
 51
201.1831543930343
  0
ARC
  5
BA1
330
1E
100
AcDbEntity
  8
STEMPEL
100
AcDbCircle
 10
30.22957944455442
 20
244.0801886768225
 30
0.0
 40
12.35
100
AcDbArc
 50
0.0
 51
21.1831543930343
  0
ARC
  5
BA3
330
1E
100
AcDbEntity
  8
STEMPEL
100
AcDbCircle
 10
64.72956596879163
 20
266.5541582420976
 30
0.0
 40
24.65
100
AcDbArc
 50
154.7271515321637
 51
180.0614902701031
  0
LINE
  5
CE5
330
1E
100
AcDbEntity
  8
HILF
100
AcDbLine
 10
116.9795794445544
 20
77.07467469021723
 30
0.0
 11
46.47957944455441
 21
77.07467469021723
 31
0.0
  0
DIMENSION
  5
D41
330
1E
100
AcDbEntity
  8
BEM
100
AcDbDimension
  2
*D3
 10
118.2295794445544
 20
60.3748909577922
 30
0.0
 11
81.72957944455442
 21
63.62489095779221
 31
0.0
 70
    32
  1
%%c<>
 71
     5
 42
73.0
  3
Standard
100
AcDbAlignedDimension
 13
45.22957944455441
 23
77.07467469021718
 33
0.0
 14
118.2295794445544
 24
77.07467469021752
 34
0.0
100
AcDbRotatedDimension
1001
ACAD
1000
DSTYLE
1002
{
1070
    41
1040
3.5
1070
    42
1040
1.0
1070
    43
1040
7.0
1070
    44
1040
1.0
1070
    73
1070
     0
1070
    74
1070
     0
1070
    77
1070
     1
1070
    78
1070
     8
1070
    79
1070
     2
1070
   140
1040
3.5
1070
   141
1040
1.5
1070
   146
1040
0.5142857142857144
1070
   147
1040
1.5
1070
   172
1070
     1
1070
   178
1070
     1
1070
   179
1070
     2
1070
   271
1070
     2
1070
   272
1070
     2
1070
   284
1070
     8
1070
   285
1070
     8
1070
   286
1070
     8
1002
}
  0
LINE
  5
D69
330
1E
100
AcDbEntity
  8
STEMPEL
100
AcDbLine
 10
45.22957944455441
 20
217.4344236892952
 30
0.0
 11
45.22957944455441
 21
77.07467469021718
 31
0.0
  0
LINE
  5
E0F
102
{ACAD_REACTORS
330
1D43
102
}
330
1E
100
AcDbEntity
  8
STEMPEL
100
AcDbLine
 10
118.2295794445545
 20
217.4344236892953
 30
0.0
 11
118.2295794445545
 21
198.273159500052
 31
0.0
  0
DIMENSION
  5
E1B
330
1E
100
AcDbEntity
  8
BEM
100
AcDbDimension
  2
*D4
 10
38.15094026873572
 20
132.074674690217
 30
0.0
 11
34.9009402687357
 21
102.074674690217
 31
0.0
 70
    32
 71
     5
 42
60.00000000000008
  3
Standard
100
AcDbAlignedDimension
 13
45.66702276218399
 23
72.07467469021695
 33
0.0
 14
81.72957944455452
 24
132.074674690217
 34
0.0
 50
90.0
100
AcDbRotatedDimension
1001
ACAD
1000
DSTYLE
1002
{
1070
    41
1040
3.5
1070
    42
1040
1.0
1070
    43
1040
7.0
1070
    44
1040
1.0
1070
    73
1070
     0
1070
    74
1070
     0
1070
    77
1070
     1
1070
    78
1070
     8
1070
    79
1070
     2
1070
   140
1040
3.5
1070
   141
1040
1.5
1070
   146
1040
0.5142857142857144
1070
   147
1040
1.5
1070
   172
1070
     1
1070
   178
1070
     1
1070
   179
1070
     2
1070
   271
1070
     2
1070
   272
1070
     2
1070
   284
1070
     8
1070
   285
1070
     8
1070
   286
1070
     8
1002
}
  0
LINE
  5
15F6
102
{ACAD_REACTORS
330
1D4F
102
}
330
1E
100
AcDbEntity
  8
STEMPEL
100
AcDbLine
 10
118.2295794445544
 20
138.8761898803821
 30
0.0
 11
118.2295794445544
 21
77.07467469021752
 31
0.0
  0
TEXT
  5
16F9
330
1E
100
AcDbEntity
  8
TEXT
 62
     1
100
AcDbText
 10
154.5385807614183
 20
213.1361800398255
 30
0.0
 40
3.5
  1
DN40
 50
45.0
 41
0.8
  7
GREEKS
100
AcDbText
  0
LINE
  5
18DD
330
1E
100
AcDbEntity
  8
STEMPEL
100
AcDbLine
 10
186.7371156594649
 20
203.8438337719435
 30
0.0
 11
153.498738526281
 21
237.0822109051275
 31
0.0
  0
LINE
  5
18DE
330
1E
100
AcDbEntity
  8
HILF
100
AcDbLine
 10
140.6128888503639
 20
222.84092757524
 30
0.0
 11
172.4958323295775
 21
190.9579840960263
 31
0.0
  0
LINE
  5
18DF
330
1E
100
AcDbEntity
  8
HILF
100
AcDbLine
 10
134.9393408169407
 20
216.4881252798854
 30
0.0
 11
166.1430300342228
 21
185.2844360626033
 31
0.0
  0
LINE
  5
18E0
330
1E
100
AcDbEntity
  8
HILF
100
AcDbLine
 10
133.3948500578293
 20
212.4151414990862
 30
0.0
 11
162.0700462534236
 21
183.7399453034918
 31
0.0
  0
LINE
  5
18F6
330
1E
100
AcDbEntity
  8
MITTEL
100
AcDbLine
 10
173.6534609988057
 20
223.9985562444682
 30
0.0
 11
103.4962002098282
 21
153.8412954554908
 31
0.0
  0
ARC
  5
1916
330
1E
100
AcDbEntity
  8
STEMPEL
100
AcDbCircle
 10
127.2633308084434
 20
215.7921922381794
 30
0.0
 40
6.0
100
AcDbArc
 50
315.0
 51
347.3107790801093
  0
ARC
  5
191C
330
1E
100
AcDbEntity
  8
STEMPEL
100
AcDbCircle
 10
159.2013662380861
 20
222.1329621888689
 30
0.0
 40
16.0
100
AcDbArc
 50
110.8801443097407
 51
135.0
  0
LINE
  5
191F
330
1E
100
AcDbEntity
  8
STEMPEL
100
AcDbLine
 10
138.7223860081904
 20
222.1600786133833
 30
0.0
 11
135.6672426270656
 21
219.1049352322586
 31
0.0
  0
LINE
  5
1921
102
{ACAD_REACTORS
330
1D43
102
}
330
1E
100
AcDbEntity
  8
STEMPEL
100
AcDbLine
 10
131.5059714955626
 20
211.5495515510602
 30
0.0
 11
118.2295794445545
 21
198.273159500052
 31
0.0
  0
ARC
  5
1923
330
1E
100
AcDbEntity
  8
STEMPEL
100
AcDbCircle
 10
142.3847570483379
 20
212.3874208109863
 30
0.0
 40
9.5
100
AcDbArc
 50
135.0
 51
167.3107790801091
  0
ARC
  5
1925
330
1E
100
AcDbEntity
  8
STEMPEL
100
AcDbCircle
 10
158.0737772889226
 20
216.0556257713996
 30
0.0
 40
19.49984481626527
100
AcDbArc
 50
135.0
 51
153.1939705983845
  0
ARC
  5
1927
330
1E
100
AcDbEntity
  8
STEMPEL
100
AcDbCircle
 10
131.2977648057317
 20
229.584699815842
 30
0.0
 40
10.5
100
AcDbArc
 50
315.0
 51
333.1939705983844
  0
LINE
  5
1928
330
1E
100
AcDbEntity
  8
STEMPEL
100
AcDbLine
 10
147.8876577391012
 20
233.4466706878538
 30
0.0
 11
144.2851950557848
 21
229.8442080045374
 31
0.0
  0
ARC
  5
1952
330
1E
100
AcDbEntity
  8
STEMPEL
100
AcDbCircle
 10
171.7878669432066
 20
209.5464614837484
 30
0.0
 40
16.0
100
AcDbArc
 50
315.0
 51
339.1198556902604
  0
LINE
  5
1955
330
1E
100
AcDbEntity
  8
STEMPEL
100
AcDbLine
 10
171.8149833677208
 20
189.0674812538528
 30
0.0
 11
168.7598399865961
 21
186.0123378727281
 31
0.0
  0
LINE
  5
195F
102
{ACAD_REACTORS
330
1D4F
102
}
330
1E
100
AcDbEntity
  8
STEMPEL
100
AcDbLine
 10
161.2044563053976
 20
181.8510667412252
 30
0.0
 11
118.2295794445544
 21
138.8761898803821
 31
0.0
  0
ARC
  5
1960
330
1E
100
AcDbEntity
  8
STEMPEL
100
AcDbCircle
 10
162.042325565324
 20
192.7298522940002
 30
0.0
 40
9.5
100
AcDbArc
 50
282.6892209198907
 51
315.0
  0
ARC
  5
1962
330
1E
100
AcDbEntity
  8
STEMPEL
100
AcDbCircle
 10
165.447096992517
 20
177.6084260541058
 30
0.0
 40
6.0
100
AcDbArc
 50
102.6892209198907
 51
135.0
  0
ARC
  5
1965
330
1E
100
AcDbEntity
  8
STEMPEL
100
AcDbCircle
 10
165.7105305257373
 20
208.418872534585
 30
0.0
 40
19.49984481626527
100
AcDbArc
 50
296.8060294016155
 51
314.9999999999998
  0
ARC
  5
1967
330
1E
100
AcDbEntity
  8
STEMPEL
100
AcDbCircle
 10
179.2396045701796
 20
181.642860051394
 30
0.0
 40
10.5
100
AcDbArc
 50
116.8060294016155
 51
135.0
  0
LINE
  5
1969
330
1E
100
AcDbEntity
  8
STEMPEL
100
AcDbLine
 10
183.1015754421913
 20
198.2327529847637
 30
0.0
 11
179.4991127588749
 21
194.6302903014473
 31
0.0
  0
POINT
  5
196D
330
1E
100
AcDbEntity
  8
STEMPEL
100
AcDbPoint
 10
186.7371156594649
 20
203.8438337719435
 30
0.0
  0
DIMENSION
  5
1AFF
330
1E
100
AcDbEntity
  8
BEM
100
AcDbDimension
  2
*D6
 10
198.7502727251191
 20
191.8306767062896
 30
0.0
 11
152.2580018621038
 21
149.9345999209864
 31
0.0
 70
    32
 71
     5
 42
125.0
 51
357.0000000000001
  3
Standard
100
AcDbAlignedDimension
 13
81.72957944455445
 23
132.074674690217
 33
0.0
 14
186.737115659465
 24
203.8438337719435
 34
0.0
 50
45.00000000000024
100
AcDbRotatedDimension
1001
ACAD
1000
DSTYLE
1002
{
1070
    41
1040
3.5
1070
    42
1040
1.0
1070
    43
1040
7.0
1070
    44
1040
1.0
1070
    73
1070
     0
1070
    74
1070
     0
1070
    77
1070
     1
1070
    78
1070
     8
1070
    79
1070
     2
1070
   140
1040
3.5
1070
   141
1040
1.5
1070
   146
1040
0.5142857142857144
1070
   147
1040
1.5
1070
   172
1070
     1
1070
   178
1070
     1
1070
   179
1070
     2
1070
   271
1070
     2
1070
   272
1070
     2
1070
   284
1070
     8
1070
   285
1070
     8
1070
   286
1070
     8
1002
}
  0
DIMENSION
  5
1B28
330
1E
100
AcDbEntity
  8
BEM
100
AcDbDimension
  2
*D7
 10
113.5346142414095
 20
134.1812246772367
 30
0.0
 11
100.9834688753482
 21
151.3285641210101
 31
0.0
 70
    32
  1
%%c<>
 71
     5
 42
41.99999999999953
 51
86.99999999999999
  3
Standard
100
AcDbAlignedDimension
 13
118.2295794445545
 23
198.273159500052
 33
0.0
 14
118.2295794445544
 24
138.8761898803818
 34
0.0
 50
315.0000000000008
100
AcDbRotatedDimension
1001
ACAD
1000
DSTYLE
1002
{
1070
    41
1040
3.5
1070
    42
1040
1.0
1070
    43
1040
7.0
1070
    44
1040
1.0
1070
    73
1070
     0
1070
    74
1070
     0
1070
    77
1070
     1
1070
    78
1070
     8
1070
    79
1070
     2
1070
   140
1040
3.5
1070
   141
1040
1.5
1070
   146
1040
0.5142857142857144
1070
   147
1040
1.5
1070
   172
1070
     1
1070
   178
1070
     1
1070
   179
1070
     2
1070
   271
1070
     2
1070
   272
1070
     2
1070
   284
1070
     8
1070
   285
1070
     8
1070
   286
1070
     8
1002
}
  0
ELLIPSE
  5
1D33
330
1E
100
AcDbEntity
  8
STEMPEL
100
AcDbEllipse
 10
118.2295794445545
 20
161.9284851672734
 30
0.0
 11
0.0
 21
23.05229528689137
 31
0.0
210
0.0
220
0.0
230
1.0
 40
0.2883092308262676
 41
1.570796326794896
 42
3.141592653589793
  0
ARC
  5
1D39
102
{ACAD_REACTORS
330
1D43
102
}
330
1E
100
AcDbEntity
  8
SCHRAFF
100
AcDbCircle
 10
118.2295794445545
 20
198.273159500052
 30
0.0
 40
2.500000000000028
100
AcDbArc
 50
44.99999999999977
 51
89.99999999999902
  0
HATCH
  5
1D43
330
1E
100
AcDbEntity
  8
SCHRAFF
100
AcDbHatch
 10
0.0
 20
0.0
 30
0.0
210
0.0
220
0.0
230
1.0
  2
_USER
 70
     0
 71
     1
 91
        1
 92
        7
 72
     1
 73
     1
 93
        3
 10
119.9973463975209
 20
200.0409264530184
 42
0.1989123673796575
 10
118.2295794445545
 20
200.7731595000521
 42
0.0
 10
118.2295794445545
 20
198.273159500052
 42
0.0
 97
        3
330
1D39
330
E0F
330
1921
 75
     0
 76
     0
 52
0.0
 41
0.1
 77
     0
 78
     1
 53
0.0
 43
-4.794313224324696
 44
-6.785926227167237
 45
0.0
 46
0.1
 79
     0
 47
0.063027154107311
 98
        1
 10
118.9525366404368
 20
199.7171108688113
  0
ARC
  5
1D46
102
{ACAD_REACTORS
330
1D4F
102
}
330
1E
100
AcDbEntity
  8
SCHRAFF
100
AcDbCircle
 10
114.7143267378869
 20
140.313230671752
 30
0.0
 40
5.278000737461531
100
AcDbArc
 50
311.7606050993833
 51
3.43487029568639
  0
HATCH
  5
1D4F
330
1E
100
AcDbEntity
  8
SCHRAFF
100
AcDbHatch
 10
0.0
 20
0.0
 30
0.0
210
0.0
220
0.0
230
1.0
  2
_USER
 70
     0
 71
     1
 91
        1
 92
        7
 72
     1
 73
     1
 93
        3
 10
119.9828458062152
 20
140.6294562420427
 42
0.0
 10
118.2295794445544
 20
138.8761898803821
 42
0.0
 10
118.2295794445544
 20
136.376189880382
 42
0.2293716402499851
 97
        3
330
195F
330
15F6
330
1D46
 75
     0
 76
     0
 52
0.0
 41
0.1
 77
     0
 78
     1
 53
0.0
 43
-4.794313224324696
 44
-6.785926227167237
 45
0.0
 46
0.1
 79
     0
 47
0.0443734525965538
 98
        1
 10
119.136319790779
 20
138.517070432012
  0
ARC
  5
1D5A
330
1E
100
AcDbEntity
  8
SCHRAFF
100
AcDbCircle
 10
111.6014505698419
 20
164.6060552223642
 30
0.0
 40
5.0
100
AcDbArc
 50
239.9803408115585
 51
299.9949440228598
  0
ARC
  5
1D5D
330
1E
100
AcDbEntity
  8
SCHRAFF
100
AcDbCircle
 10
112.6025194475452
 20
149.6615540551946
 30
0.0
 40
5.0
100
AcDbArc
 50
253.0424001857323
 51
313.1613817866083
  0
ARC
  5
1D66
330
1E
100
AcDbEntity
  8
SCHRAFF
100
AcDbCircle
 10
111.6172039205626
 20
159.6060800392317
 30
0.0
 40
5.0
100
AcDbArc
 50
243.2754709299843
 51
303.3062310174665
  0
ARC
  5
1D67
330
1E
100
AcDbEntity
  8
SCHRAFF
100
AcDbCircle
 10
111.9266688654266
 20
154.6156660836665
 30
0.0
 40
5.0
100
AcDbArc
 50
247.4169012521938
 51
307.461206614666
  0
ARC
  5
1D69
330
1E
100
AcDbEntity
  8
SCHRAFF
100
AcDbCircle
 10
113.7807855640644
 20
144.8023680164991
 30
0.0
 40
5.0
100
AcDbArc
 50
263.6236648269806
 51
324.5330314426798
  0
LINE
  5
1D75
330
1E
100
AcDbEntity
  8
MITTEL
100
AcDbLine
 10
97.00574244613475
 20
147.3508376917973
 30
0.0
 11
81.72957944455447
 21
132.074674690217
 31
0.0
  0
ARC
  5
1D7A
330
1E
100
AcDbEntity
  8
STEMPEL
100
AcDbCircle
 10
212.5909506143683
 20
162.2376969667274
 30
0.0
 40
101.0080339826392
100
AcDbArc
 50
159.0987500480855
 51
180.1753975209408
  0
ARC
  5
1D7D
330
1E
100
AcDbEntity
  8
SCHRAFF
100
AcDbCircle
 10
111.851606393397
 20
169.6002681865305
 30
0.0
 40
5.0
100
AcDbArc
 50
237.0406445781309
 51
297.0558509059369
  0
ARC
  5
1D7E
330
1E
100
AcDbEntity
  8
SCHRAFF
100
AcDbCircle
 10
112.3393728199037
 20
174.5764197028303
 30
0.0
 40
5.0
100
AcDbArc
 50
234.2041558035598
 51
294.2193621313659
  0
ARC
  5
1D7F
330
1E
100
AcDbEntity
  8
SCHRAFF
100
AcDbCircle
 10
113.0727907286119
 20
179.5223370263595
 30
0.0
 40
5.0
100
AcDbArc
 50
231.3676670289888
 51
291.3828733567947
  0
ARC
  5
1D80
330
1E
100
AcDbEntity
  8
SCHRAFF
100
AcDbCircle
 10
114.0500629887402
 20
184.4259009271957
 30
0.0
 40
5.0
100
AcDbArc
 50
228.5311782544178
 51
288.5463845822239
  0
ARC
  5
1D81
330
1E
100
AcDbEntity
  8
SCHRAFF
100
AcDbCircle
 10
115.2687949409276
 20
189.2750959561379
 30
0.0
 40
5.0
100
AcDbArc
 50
225.6946894798468
 51
285.7098958076528
  0
ARC
  5
1D82
330
1E
100
AcDbEntity
  8
SCHRAFF
100
AcDbCircle
 10
116.7260002649879
 20
194.0580398867658
 30
0.0
 40
5.0
100
AcDbArc
 50
222.8582007052758
 51
282.8734070330818
  0
ARC
  5
1D83
330
1E
100
AcDbEntity
  8
SCHRAFF
100
AcDbCircle
 10
118.6354845740534
 20
198.6790646295509
 30
0.0
 40
5.0
100
AcDbArc
 50
216.8488128219226
 51
277.0367662684342
  0
TEXT
  5
1E16
330
1E
100
AcDbEntity
  8
TEXT
100
AcDbText
 10
20.92754975488837
 20
55.83599999999997
 30
0.0
 40
2.5
  1
Erstellt mit AUTOCAD 2004
 41
0.8
  7
GREEKS
100
AcDbText
  0
TEXT
  5
1E17
330
1E
100
AcDbEntity
  8
TEXT
100
AcDbText
 10
33.49933939241158
 20
9.336909474920659
 30
0.0
 40
2.0
  1
Änderung
 41
0.8
  7
GREEKS
 72
     1
 11
38.87076796384015
 21
9.336909474920659
 31
0.0
100
AcDbText
  0
TEXT
  5
1E18
330
1E
100
AcDbEntity
  8
TEXT
100
AcDbText
 10
55.17481598333814
 20
9.33578134669905
 30
0.0
 40
2.0
  1
Tag
 41
0.8
  7
GREEKS
 72
     1
 11
57.04148265000481
 21
9.33578134669905
 31
0.0
100
AcDbText
  0
TEXT
  5
1E19
330
1E
100
AcDbEntity
  8
TEXT
100
AcDbText
 10
64.61958341495059
 20
9.29662108483204
 30
0.0
 40
2.0
  1
Name
 41
0.8
  7
GREEKS
 72
     1
 11
67.78148817685536
 21
9.29662108483204
 31
0.0
100
AcDbText
  0
TEXT
  5
1E1A
330
1E
100
AcDbEntity
  8
TEXT
100
AcDbText
 10
96.34413576239619
 20
44.50323185339641
 30
0.0
 40
2.0
  1
DIN EN1124-3
 41
0.8
  7
GREEKS
 72
     1
 11
104.8393738576343
 21
44.50323185339641
 31
0.0
100
AcDbText
  0
TEXT
  5
1E1B
330
1E
100
AcDbEntity
  8
BEM
100
AcDbText
 10
208.2905770718718
 20
6.074024076691515
 30
0.0
 40
2.0
  1
Diese Zeichnung ist urheberrechtlich geschützt und bleibt unser Eigentum. Sie darf weder ganz noch teilweise vervielfältigt und nicht an Dritte weitergegeben werden.
 50
90.0
 41
0.8
  7
GREEKS
100
AcDbText
  0
TEXT
  5
1E5C
330
1E
100
AcDbEntity
  8
TEXT
100
AcDbText
 10
85.19949855411802
 20
31.55382520412866
 30
0.0
 40
2.0
  1
08.04.
 41
0.8
  7
GREEKS
 72
     1
 11
88.70426045887993
 21
31.55382520412866
 31
0.0
100
AcDbText
  0
ARC
  5
1EBB
330
1E
100
AcDbEntity
  8
STEMPEL
100
AcDbCircle
 10
54.2295794445546
 20
227.2894985241201
 30
0.0
 40
11.65
100
AcDbArc
 50
180.0
 51
210.101310546801
  0
ARC
  5
1EBC
330
1E
100
AcDbEntity
  8
STEMPEL
100
AcDbCircle
 10
37.22957944455455
 20
217.4344236892952
 30
0.0
 40
7.999999999999973
100
AcDbArc
 50
0.0000000000000643
 51
30.10131054680243
  0
DIMENSION
  5
1ED0
330
1E
100
AcDbEntity
  8
BEM
100
AcDbDimension
  2
*D9
 10
81.72957944455452
 20
67.07467469021723
 30
0.0
 11
142.763805052512
 21
279.4243299218871
 31
0.0
 70
    34
 71
     5
 42
0.7853981633974483
  3
Standard
100
AcDb2LineAngularDimension
 13
173.6534609988057
 23
223.9985562444682
 33
0.0
 14
103.4962002098282
 24
153.8412954554908
 34
0.0
 15
81.72957944455442
 25
282.0779675945471
 35
0.0
 16
159.849638213821
 26
267.3825855688532
 36
0.0
1001
ACAD
1000
DSTYLE
1002
{
1070
    41
1040
3.5
1070
    42
1040
1.0
1070
    43
1040
7.0
1070
    44
1040
1.0
1070
    73
1070
     0
1070
    74
1070
     0
1070
    77
1070
     1
1070
    78
1070
     8
1070
    79
1070
     2
1070
   140
1040
3.5
1070
   141
1040
1.5
1070
   146
1040
0.5142857142857144
1070
   147
1040
1.5
1070
   172
1070
     1
1070
   178
1070
     1
1070
   179
1070
     2
1070
   271
1070
     2
1070
   272
1070
     2
1070
   284
1070
     8
1070
   285
1070
     8
1070
   286
1070
     8
1002
}
  0
ENDSEC
  0
SECTION
  2
OBJECTS
  0
DICTIONARY
  5
C
330
0
100
AcDbDictionary
281
     1
  3
ACAD_COLOR
350
1D93
  3
ACAD_GROUP
350
D
  3
ACAD_LAYOUT
350
19
  3
ACAD_MATERIAL
350
1D92
  3
ACAD_MLINESTYLE
350
16
  3
ACAD_PLOTSETTINGS
350
18
  3
ACAD_PLOTSTYLENAME
350
E
  3
AcDbVariableDictionary
350
246
  0
DICTIONARY
  5
1D93
102
{ACAD_REACTORS
330
C
102
}
330
C
100
AcDbDictionary
281
     1
  0
DICTIONARY
  5
D
102
{ACAD_REACTORS
330
C
102
}
330
C
100
AcDbDictionary
281
     1
  0
DICTIONARY
  5
19
102
{ACAD_REACTORS
330
C
102
}
330
C
100
AcDbDictionary
281
     1
  3
Layout1
350
1D
  3
Model
350
21
  0
DICTIONARY
  5
1D92
102
{ACAD_REACTORS
330
C
102
}
330
C
100
AcDbDictionary
281
     1
  0
DICTIONARY
  5
16
102
{ACAD_REACTORS
330
C
102
}
330
C
100
AcDbDictionary
281
     1
  3
Standard
350
17
  0
DICTIONARY
  5
18
102
{ACAD_REACTORS
330
C
102
}
330
C
100
AcDbDictionary
281
     1
  0
ACDBDICTIONARYWDFLT
  5
E
102
{ACAD_REACTORS
330
C
102
}
330
C
100
AcDbDictionary
281
     1
  3
Normal
350
F
100
AcDbDictionaryWithDefault
340
F
  0
DICTIONARY
  5
246
102
{ACAD_REACTORS
330
C
102
}
330
C
100
AcDbDictionary
281
     1
  3
DIMASSOC
350
1E2D
  3
PROJECTNAME
350
1E2E
  3
SORTENTS
350
247
  0
LAYOUT
  5
1D
102
{ACAD_REACTORS
330
19
102
}
330
19
100
AcDbPlotSettings
  1

  2
Tektronix Phaser 740
  4

  6

 40
0.0
 41
0.0
 42
0.0
 43
0.0
 44
0.0
 45
0.0
 46
0.0
 47
0.0
 48
0.0
 49
0.0
140
0.0
141
0.0
142
1.0
143
1.0
 70
   688
 72
     0
 73
     0
 74
     5
  7
monochrome.ctb
 75
    16
147
1.0
 76
     0
 77
     2
 78
   300
148
0.0
149
0.0
100
AcDbLayout
  1
Layout1
 70
     0
 71
     1
 10
0.0
 20
0.0
 11
12.0
 21
9.0
 12
0.0
 22
0.0
 32
0.0
 14
1.000000000000000E+20
 24
1.000000000000000E+20
 34
1.000000000000000E+20
 15
-1.000000000000000E+20
 25
-1.000000000000000E+20
 35
-1.000000000000000E+20
146
0.0
 13
0.0
 23
0.0
 33
0.0
 16
1.0
 26
0.0
 36
0.0
 17
0.0
 27
1.0
 37
0.0
 76
     0
330
1A
  0
LAYOUT
  5
21
102
{ACAD_REACTORS
330
19
102
}
330
19
100
AcDbPlotSettings
  1

  2
Tektronix Phaser 740
  4
A4
  6

 40
5.873749732971191
 41
6.085414409637451
 42
5.577407836914062
 43
5.662078857421875
 44
209.9733276367187
 45
296.9683227539062
 46
0.0
 47
0.0
 48
0.0
 49
0.0
140
0.0
141
0.0
142
1.0
143
1.0
 70
 11952
 72
     0
 73
     1
 74
     0
  7
monochrome.ctb
 75
     0
147
1.0
 76
     0
 77
     2
 78
   300
148
1150.120678237584
149
45.30495740799864
100
AcDbLayout
  1
Model
 70
     1
 71
     0
 10
0.0
 20
0.0
 11
12.0
 21
9.0
 12
0.0
 22
0.0
 32
0.0
 14
0.0
 24
0.0
 34
0.0
 15
0.0
 25
0.0
 35
0.0
146
0.0
 13
0.0
 23
0.0
 33
0.0
 16
1.0
 26
0.0
 36
0.0
 17
0.0
 27
1.0
 37
0.0
 76
     0
330
1E
  0
MLINESTYLE
  5
17
102
{ACAD_REACTORS
330
16
102
}
330
16
100
AcDbMlineStyle
  2
STANDARD
 70
     0
  3

 62
   256
 51
90.0
 52
90.0
 71
     2
 49
0.5
 62
   256
  6
BYLAYER
 49
-0.5
 62
   256
  6
BYLAYER
  0
ACDBPLACEHOLDER
  5
F
102
{ACAD_REACTORS
330
E
102
}
330
E
  0
DICTIONARYVAR
  5
1E2D
102
{ACAD_REACTORS
330
246
102
}
330
246
100
DictionaryVariables
280
     0
  1
1
  0
DICTIONARYVAR
  5
1E2E
102
{ACAD_REACTORS
330
246
102
}
330
246
100
DictionaryVariables
280
     0
  1

  0
DICTIONARYVAR
  5
247
102
{ACAD_REACTORS
330
246
102
}
330
246
100
DictionaryVariables
280
     0
  1
96
  0
ENDSEC
  0
EOF
