  0
SECTION
  2
HEADER
  9
$ACADVER
  1
AC1018
  9
$ACADMAINTVER
 70
     2
  9
$DWGCODEPAGE
  3
ANSI_1252
  9
$INSBASE
 10
0.0
 20
0.0
 30
0.0
  9
$EXTMIN
 10
-0.0160161050886245
 20
-0.0226513486255726
 30
-0.0000000000000096
  9
$EXTMAX
 10
210.0000024450054
 20
297.000003457936
 30
0.0000000000000056
  9
$LIMMIN
 10
0.0
 20
0.0
  9
$LIMMAX
 10
210.0
 20
297.0
  9
$ORTHOMODE
 70
     1
  9
$REGENMODE
 70
     1
  9
$FILLMODE
 70
     1
  9
$QTEXTMODE
 70
     0
  9
$MIRRTEXT
 70
     1
  9
$LTSCALE
 40
10.0
  9
$ATTMODE
 70
     1
  9
$TEXTSIZE
 40
3.5
  9
$TRACEWID
 40
0.5
  9
$TEXTSTYLE
  7
STANDARD
  9
$CLAYER
  8
VOLL
  9
$CELTYPE
  6
ByLayer
  9
$CECOLOR
 62
   256
  9
$CELTSCALE
 40
1.0
  9
$DISPSILH
 70
     0
  9
$DIMSCALE
 40
1.0
  9
$DIMASZ
 40
3.5
  9
$DIMEXO
 40
1.0
  9
$DIMDLI
 40
7.0
  9
$DIMRND
 40
0.0
  9
$DIMDLE
 40
0.0
  9
$DIMEXE
 40
1.0
  9
$DIMTP
 40
0.0
  9
$DIMTM
 40
0.0
  9
$DIMTXT
 40
3.5
  9
$DIMCEN
 40
1.5
  9
$DIMTSZ
 40
0.0
  9
$DIMTOL
 70
     0
  9
$DIMLIM
 70
     0
  9
$DIMTIH
 70
     0
  9
$DIMTOH
 70
     0
  9
$DIMSE1
 70
     0
  9
$DIMSE2
 70
     0
  9
$DIMTAD
 70
     1
  9
$DIMZIN
 70
     8
  9
$DIMBLK
  1

  9
$DIMASO
 70
     1
  9
$DIMSHO
 70
     0
  9
$DIMPOST
  1

  9
$DIMAPOST
  1

  9
$DIMALT
 70
     0
  9
$DIMALTD
 70
     2
  9
$DIMALTF
 40
25.4
  9
$DIMLFAC
 40
1.0
  9
$DIMTOFL
 70
     1
  9
$DIMTVP
 40
0.0
  9
$DIMTIX
 70
     0
  9
$DIMSOXD
 70
     0
  9
$DIMSAH
 70
     0
  9
$DIMBLK1
  1

  9
$DIMBLK2
  1

  9
$DIMSTYLE
  2
Standard
  9
$DIMCLRD
 70
     0
  9
$DIMCLRE
 70
     0
  9
$DIMCLRT
 70
     1
  9
$DIMTFAC
 40
0.5142857142857144
  9
$DIMGAP
 40
1.5
  9
$DIMJUST
 70
     0
  9
$DIMSD1
 70
     0
  9
$DIMSD2
 70
     0
  9
$DIMTOLJ
 70
     1
  9
$DIMTZIN
 70
     8
  9
$DIMALTZ
 70
     8
  9
$DIMALTTZ
 70
     8
  9
$DIMUPT
 70
     0
  9
$DIMDEC
 70
     2
  9
$DIMTDEC
 70
     2
  9
$DIMALTU
 70
     2
  9
$DIMALTTD
 70
     2
  9
$DIMTXSTY
  7
STANDARD
  9
$DIMAUNIT
 70
     0
  9
$DIMADEC
 70
     2
  9
$DIMALTRND
 40
0.0
  9
$DIMAZIN
 70
     2
  9
$DIMDSEP
 70
    46
  9
$DIMATFIT
 70
     3
  9
$DIMFRAC
 70
     0
  9
$DIMLDRBLK
  1

  9
$DIMLUNIT
 70
     2
  9
$DIMLWD
 70
    -2
  9
$DIMLWE
 70
    -2
  9
$DIMTMOVE
 70
     0
  9
$LUNITS
 70
     2
  9
$LUPREC
 70
     2
  9
$SKETCHINC
 40
1.0
  9
$FILLETRAD
 40
0.0
  9
$AUNITS
 70
     1
  9
$AUPREC
 70
     3
  9
$MENU
  1
ACAD
  9
$ELEVATION
 40
0.0
  9
$PELEVATION
 40
0.0
  9
$THICKNESS
 40
0.0
  9
$LIMCHECK
 70
     0
  9
$CHAMFERA
 40
0.0
  9
$CHAMFERB
 40
0.0
  9
$CHAMFERC
 40
0.0
  9
$CHAMFERD
 40
0.0
  9
$SKPOLY
 70
     0
  9
$TDCREATE
 40
2452040.637099653
  9
$TDUCREATE
 40
2452040.553766320
  9
$TDUPDATE
 40
2455660.362507095
  9
$TDUUPDATE
 40
2455660.279173762
  9
$TDINDWG
 40
0.4256798958
  9
$TDUSRTIMER
 40
0.4256798958
  9
$USRTIMER
 70
     1
  9
$ANGBASE
 50
0.0
  9
$ANGDIR
 70
     0
  9
$PDMODE
 70
     0
  9
$PDSIZE
 40
0.0
  9
$PLINEWID
 40
0.0
  9
$SPLFRAME
 70
     0
  9
$SPLINETYPE
 70
     6
  9
$SPLINESEGS
 70
     8
  9
$HANDSEED
  5
1057
  9
$SURFTAB1
 70
     6
  9
$SURFTAB2
 70
     6
  9
$SURFTYPE
 70
     6
  9
$SURFU
 70
     6
  9
$SURFV
 70
     6
  9
$UCSBASE
  2

  9
$UCSNAME
  2

  9
$UCSORG
 10
0.0
 20
0.0
 30
0.0
  9
$UCSXDIR
 10
1.0
 20
0.0
 30
0.0
  9
$UCSYDIR
 10
0.0
 20
1.0
 30
0.0
  9
$UCSORTHOREF
  2

  9
$UCSORTHOVIEW
 70
     0
  9
$UCSORGTOP
 10
0.0
 20
0.0
 30
0.0
  9
$UCSORGBOTTOM
 10
0.0
 20
0.0
 30
0.0
  9
$UCSORGLEFT
 10
0.0
 20
0.0
 30
0.0
  9
$UCSORGRIGHT
 10
0.0
 20
0.0
 30
0.0
  9
$UCSORGFRONT
 10
0.0
 20
0.0
 30
0.0
  9
$UCSORGBACK
 10
0.0
 20
0.0
 30
0.0
  9
$PUCSBASE
  2

  9
$PUCSNAME
  2

  9
$PUCSORG
 10
0.0
 20
0.0
 30
0.0
  9
$PUCSXDIR
 10
1.0
 20
0.0
 30
0.0
  9
$PUCSYDIR
 10
0.0
 20
1.0
 30
0.0
  9
$PUCSORTHOREF
  2

  9
$PUCSORTHOVIEW
 70
     0
  9
$PUCSORGTOP
 10
0.0
 20
0.0
 30
0.0
  9
$PUCSORGBOTTOM
 10
0.0
 20
0.0
 30
0.0
  9
$PUCSORGLEFT
 10
0.0
 20
0.0
 30
0.0
  9
$PUCSORGRIGHT
 10
0.0
 20
0.0
 30
0.0
  9
$PUCSORGFRONT
 10
0.0
 20
0.0
 30
0.0
  9
$PUCSORGBACK
 10
0.0
 20
0.0
 30
0.0
  9
$USERI1
 70
     0
  9
$USERI2
 70
     0
  9
$USERI3
 70
     0
  9
$USERI4
 70
     0
  9
$USERI5
 70
     0
  9
$USERR1
 40
0.0
  9
$USERR2
 40
0.0
  9
$USERR3
 40
0.0
  9
$USERR4
 40
0.0
  9
$USERR5
 40
0.0
  9
$WORLDVIEW
 70
     1
  9
$SHADEDGE
 70
     3
  9
$SHADEDIF
 70
    70
  9
$TILEMODE
 70
     1
  9
$MAXACTVP
 70
    16
  9
$PINSBASE
 10
0.0
 20
0.0
 30
0.0
  9
$PLIMCHECK
 70
     0
  9
$PEXTMIN
 10
1.000000000000000E+20
 20
1.000000000000000E+20
 30
1.000000000000000E+20
  9
$PEXTMAX
 10
-1.000000000000000E+20
 20
-1.000000000000000E+20
 30
-1.000000000000000E+20
  9
$PLIMMIN
 10
0.0
 20
0.0
  9
$PLIMMAX
 10
12.0
 20
9.0
  9
$UNITMODE
 70
     0
  9
$VISRETAIN
 70
     0
  9
$PLINEGEN
 70
     0
  9
$PSLTSCALE
 70
     0
  9
$TREEDEPTH
 70
  3020
  9
$CMLSTYLE
  2
Standard
  9
$CMLJUST
 70
     0
  9
$CMLSCALE
 40
1.0
  9
$PROXYGRAPHICS
 70
     1
  9
$MEASUREMENT
 70
     0
  9
$CELWEIGHT
370
    -1
  9
$ENDCAPS
280
     0
  9
$JOINSTYLE
280
     0
  9
$LWDISPLAY
290
     0
  9
$INSUNITS
 70
     0
  9
$HYPERLINKBASE
  1

  9
$STYLESHEET
  1
monochrome 1.ctb
  9
$XEDIT
290
     1
  9
$CEPSNTYPE
380
     0
  9
$PSTYLEMODE
290
     1
  9
$FINGERPRINTGUID
  2
{7AADB5C8-6110-11D8-B72B-000102183313}
  9
$VERSIONGUID
  2
{D1167A3D-CC2B-4728-A088-7EDA1B1C93CA}
  9
$EXTNAMES
290
     1
  9
$PSVPSCALE
 40
0.0
  9
$OLESTARTUP
290
     0
  9
$SORTENTS
280
    96
  9
$INDEXCTL
280
     0
  9
$HIDETEXT
280
     0
  9
$XCLIPFRAME
290
     0
  9
$HALOGAP
280
     0
  9
$OBSCOLOR
 70
   257
  9
$OBSLTYPE
280
     0
  9
$INTERSECTIONDISPLAY
280
     0
  9
$INTERSECTIONCOLOR
 70
   257
  9
$DIMASSOC
280
     1
  9
$PROJECTNAME
  1

  0
ENDSEC
  0
SECTION
  2
CLASSES
  0
CLASS
  1
ACDBDICTIONARYWDFLT
  2
AcDbDictionaryWithDefault
  3
ObjectDBX Classes
 90
        0
 91
        1
280
     0
281
     0
  0
CLASS
  1
DICTIONARYVAR
  2
AcDbDictionaryVar
  3
ObjectDBX Classes
 90
        0
 91
        3
280
     0
281
     0
  0
ENDSEC
  0
SECTION
  2
TABLES
  0
TABLE
  2
VPORT
  5
8
330
0
100
AcDbSymbolTable
 70
     3
  0
VPORT
  5
1056
330
8
100
AcDbSymbolTableRecord
100
AcDbViewportTableRecord
  2
*Active
 70
     0
 10
0.0
 20
0.0
 11
1.0
 21
1.0
 12
105.0
 22
148.5
 13
0.0
 23
0.0
 14
1.0
 24
1.0
 15
10.0
 25
10.0
 16
0.0
 26
0.0
 36
1.0
 17
0.0
 27
0.0
 37
0.0
 40
297.0
 41
1.334231805929919
 42
50.0
 43
0.0
 44
0.0
 50
0.0
 51
0.0
 71
     0
 72
  1500
 73
     1
 74
     0
 75
     0
 76
     0
 77
     0
 78
     0
281
     0
 65
     1
110
0.0
120
0.0
130
0.0
111
1.0
121
0.0
131
0.0
112
0.0
122
1.0
132
0.0
 79
     0
146
0.0
  0
ENDTAB
  0
TABLE
  2
LTYPE
  5
5
330
0
100
AcDbSymbolTable
 70
     2
  0
LTYPE
  5
13
330
5
100
AcDbSymbolTableRecord
100
AcDbLinetypeTableRecord
  2
ByBlock
 70
     0
  3

 72
    65
 73
     0
 40
0.0
  0
LTYPE
  5
14
330
5
100
AcDbSymbolTableRecord
100
AcDbLinetypeTableRecord
  2
ByLayer
 70
     0
  3

 72
    65
 73
     0
 40
0.0
  0
LTYPE
  5
15
330
5
100
AcDbSymbolTableRecord
100
AcDbLinetypeTableRecord
  2
Continuous
 70
     0
  3
Solid line
 72
    65
 73
     0
 40
0.0
  0
LTYPE
  5
35
330
5
100
AcDbSymbolTableRecord
100
AcDbLinetypeTableRecord
  2
STRICHPUNKT
 70
     0
  3
__ . __ . __ . __ . __ . __ . __ . __ . __ . __
 72
    65
 73
     4
 40
1.0
 49
0.5
 74
     0
 49
-0.25
 74
     0
 49
0.0
 74
     0
 49
-0.25
 74
     0
  0
ENDTAB
  0
TABLE
  2
LAYER
  5
2
330
0
100
AcDbSymbolTable
 70
     9
  0
LAYER
  5
10
330
2
100
AcDbSymbolTableRecord
100
AcDbLayerTableRecord
  2
0
 70
     0
 62
     7
  6
Continuous
370
    -3
390
F
  0
LAYER
  5
38
330
2
100
AcDbSymbolTableRecord
100
AcDbLayerTableRecord
  2
VOLL
 70
     0
 62
     1
  6
Continuous
370
    -3
390
F
  0
LAYER
  5
39
330
2
100
AcDbSymbolTableRecord
100
AcDbLayerTableRecord
  2
HILF
 70
     0
 62
     2
  6
Continuous
370
    -3
390
F
  0
LAYER
  5
3A
330
2
100
AcDbSymbolTableRecord
100
AcDbLayerTableRecord
  2
MITTEL
 70
     0
 62
     2
  6
STRICHPUNKT
370
    -3
390
F
  0
LAYER
  5
3B
330
2
100
AcDbSymbolTableRecord
100
AcDbLayerTableRecord
  2
BEM
 70
     0
 62
     7
  6
Continuous
370
    -3
390
F
  0
LAYER
  5
3C
330
2
100
AcDbSymbolTableRecord
100
AcDbLayerTableRecord
  2
STEMPEL
 70
     0
 62
     3
  6
Continuous
370
    -3
390
F
  0
LAYER
  5
3D
330
2
100
AcDbSymbolTableRecord
100
AcDbLayerTableRecord
  2
TEXT
 70
     0
 62
     7
  6
Continuous
370
    -3
390
F
  0
LAYER
  5
3E
330
2
100
AcDbSymbolTableRecord
100
AcDbLayerTableRecord
  2
DEFPOINTS
 70
     0
 62
     7
  6
Continuous
290
     0
370
    -3
390
F
  0
LAYER
  5
3F
330
2
100
AcDbSymbolTableRecord
100
AcDbLayerTableRecord
  2
SCHRAFF
 70
     0
 62
     7
  6
Continuous
370
    -3
390
F
  0
ENDTAB
  0
TABLE
  2
STYLE
  5
3
330
0
100
AcDbSymbolTable
 70
     2
  0
STYLE
  5
11
330
3
100
AcDbSymbolTableRecord
100
AcDbTextStyleTableRecord
  2
STANDARD
 70
     0
 40
0.0
 41
0.8
 50
0.0
 71
     0
 42
3.5
  3
simplex.shx
  4

  0
STYLE
  5
34
330
3
100
AcDbSymbolTableRecord
100
AcDbTextStyleTableRecord
  2
GREEKS
 70
     0
 40
0.0
 41
0.8
 50
0.0
 71
     0
 42
2.5
  3
SIMPLEX.shx
  4

  0
ENDTAB
  0
TABLE
  2
VIEW
  5
6
330
0
100
AcDbSymbolTable
 70
     0
  0
ENDTAB
  0
TABLE
  2
UCS
  5
7
330
0
100
AcDbSymbolTable
 70
     0
  0
ENDTAB
  0
TABLE
  2
APPID
  5
9
330
0
100
AcDbSymbolTable
 70
     1
  0
APPID
  5
12
330
9
100
AcDbSymbolTableRecord
100
AcDbRegAppTableRecord
  2
ACAD
 70
     0
  0
ENDTAB
  0
TABLE
  2
DIMSTYLE
  5
A
330
0
100
AcDbSymbolTable
 70
     1
100
AcDbDimStyleTable
 71
     1
340
1CB
  0
DIMSTYLE
105
1CB
102
{ACAD_REACTORS
330
8EE
330
995
330
9A3
330
D47
330
F24
330
F45
102
}
330
A
100
AcDbSymbolTableRecord
100
AcDbDimStyleTableRecord
  2
Standard
 70
     0
340
11
  0
ENDTAB
  0
TABLE
  2
BLOCK_RECORD
  5
1
330
0
100
AcDbSymbolTable
 70
    10
  0
BLOCK_RECORD
  5
1E
330
1
100
AcDbSymbolTableRecord
100
AcDbBlockTableRecord
  2
*Model_Space
340
21
  0
BLOCK_RECORD
  5
1A
330
1
100
AcDbSymbolTableRecord
100
AcDbBlockTableRecord
  2
*Paper_Space
340
1D
  0
BLOCK_RECORD
  5
22
330
1
100
AcDbSymbolTableRecord
100
AcDbBlockTableRecord
  2
LOGO
340
0
102
{BLKREFS
331
135
102
}
  0
BLOCK_RECORD
  5
8F6
330
1
100
AcDbSymbolTableRecord
100
AcDbBlockTableRecord
  2
*D1
340
0
  0
BLOCK_RECORD
  5
996
330
1
100
AcDbSymbolTableRecord
100
AcDbBlockTableRecord
  2
*D3
340
0
  0
BLOCK_RECORD
  5
9A4
330
1
100
AcDbSymbolTableRecord
100
AcDbBlockTableRecord
  2
*D4
340
0
  0
BLOCK_RECORD
  5
D48
330
1
100
AcDbSymbolTableRecord
100
AcDbBlockTableRecord
  2
*D5
340
0
  0
BLOCK_RECORD
  5
F25
330
1
100
AcDbSymbolTableRecord
100
AcDbBlockTableRecord
  2
*D8
340
0
  0
BLOCK_RECORD
  5
F46
330
1
100
AcDbSymbolTableRecord
100
AcDbBlockTableRecord
  2
*D9
340
0
  0
ENDTAB
  0
ENDSEC
  0
SECTION
  2
BLOCKS
  0
BLOCK
  5
43
330
1E
100
AcDbEntity
  8
0
100
AcDbBlockBegin
  2
*Model_Space
 70
     0
 10
0.0
 20
0.0
 30
0.0
  3
*Model_Space
  1

  0
ENDBLK
  5
44
330
1E
100
AcDbEntity
  8
0
100
AcDbBlockEnd
  0
BLOCK
  5
41
330
1A
100
AcDbEntity
 67
     1
  8
0
100
AcDbBlockBegin
  2
*Paper_Space
 70
     0
 10
0.0
 20
0.0
 30
0.0
  3
*Paper_Space
  1

  0
ENDBLK
  5
42
330
1A
100
AcDbEntity
 67
     1
  8
0
100
AcDbBlockEnd
  0
BLOCK
  5
45
330
22
100
AcDbEntity
  8
0
100
AcDbBlockBegin
  2
LOGO
 70
     0
 10
0.0
 20
0.0
 30
0.0
  3
LOGO
  1

  0
ARC
  5
46
330
22
100
AcDbEntity
  8
0
100
AcDbCircle
 10
11.59973089678112
 20
-9.271599258481501
 30
0.0
 40
4.5
100
AcDbArc
 50
270.0
 51
231.0575587310159
  0
LINE
  5
47
330
22
100
AcDbEntity
  8
0
100
AcDbLine
 10
3.599730896781125
 20
-4.771599258481529
 30
0.0
 11
3.599730896781153
 21
-11.77159925848133
 31
0.0
  0
LINE
  5
48
330
22
100
AcDbEntity
  8
0
100
AcDbLine
 10
2.599730896781125
 20
-4.771599258481529
 30
0.0
 11
2.599730896781153
 21
-11.77159925848133
 31
0.0
  0
CIRCLE
  5
49
330
22
100
AcDbEntity
  8
0
100
AcDbCircle
 10
11.59973089678112
 20
-9.271599258481501
 30
0.0
 40
3.5
  0
ARC
  5
4A
330
22
100
AcDbEntity
  8
0
100
AcDbCircle
 10
31.59973089678115
 20
-9.271599258481472
 30
0.0
 40
4.5
100
AcDbArc
 50
270.0
 51
231.0575587310182
  0
LINE
  5
4B
330
22
100
AcDbEntity
  8
0
100
AcDbLine
 10
17.59973089678112
 20
-4.771599258481472
 30
0.0
 11
17.59973089678115
 21
-13.77159925848147
 31
0.0
  0
ARC
  5
4C
330
22
100
AcDbEntity
  8
0
100
AcDbCircle
 10
22.59973089678116
 20
-7.271599258481472
 30
0.0
 40
2.5
100
AcDbArc
 50
293.1161887722295
 51
90.0
  0
CIRCLE
  5
4D
330
22
100
AcDbEntity
  8
0
100
AcDbCircle
 10
31.59973089678115
 20
-9.271599258481472
 30
0.0
 40
3.5
  0
ARC
  5
4E
330
22
100
AcDbEntity
  8
0
100
AcDbCircle
 10
4.599730896781153
 20
-11.77159925848133
 30
0.0
 40
1.0
100
AcDbArc
 50
180.0
 51
270.0
  0
ARC
  5
4F
330
22
100
AcDbEntity
  8
0
100
AcDbCircle
 10
4.599730896781153
 20
-11.77159925848133
 30
0.0
 40
2.0
100
AcDbArc
 50
179.9999999999992
 51
270.0
  0
LINE
  5
50
330
22
100
AcDbEntity
  8
0
100
AcDbLine
 10
11.59973089678115
 20
-13.77159925848144
 30
0.0
 11
4.599730896781153
 21
-13.77159925848147
 31
0.0
  0
LINE
  5
51
330
22
100
AcDbEntity
  8
0
100
AcDbLine
 10
8.771303772034769
 20
-12.77159925848136
 30
0.0
 11
4.599730896781153
 21
-12.77159925848133
 31
0.0
  0
LINE
  5
52
330
22
100
AcDbEntity
  8
0
100
AcDbLine
 10
31.59973089678115
 20
-13.77159925848147
 30
0.0
 11
23.6715276665056
 21
-13.77159925848144
 31
0.0
  0
LINE
  5
53
330
22
100
AcDbEntity
  8
0
100
AcDbLine
 10
23.56565672307022
 20
-9.51278021337896
 30
0.0
 11
24.4388546544846
 21
-12.77159925848144
 31
0.0
  0
LINE
  5
54
330
22
100
AcDbEntity
  8
0
100
AcDbLine
 10
22.59973089678116
 20
-9.771599258481472
 30
0.0
 11
18.59973089678112
 21
-9.771599258481472
 31
0.0
  0
LINE
  5
55
330
22
100
AcDbEntity
  8
0
100
AcDbLine
 10
18.59973089678115
 20
-13.77159925848144
 30
0.0
 11
17.59973089678115
 21
-13.77159925848144
 31
0.0
  0
LINE
  5
56
330
22
100
AcDbEntity
  8
0
100
AcDbLine
 10
18.59973089678115
 20
-9.771599258481472
 30
0.0
 11
18.59973089678115
 21
-13.77159925848144
 31
0.0
  0
LINE
  5
57
330
22
100
AcDbEntity
  8
0
100
AcDbLine
 10
22.59973089678116
 20
-9.771599258481472
 30
0.0
 11
23.67152766650562
 21
-13.77159925848147
 31
0.0
  0
ARC
  5
58
330
22
100
AcDbEntity
  8
0
100
AcDbCircle
 10
22.59973089678116
 20
-7.271599258481472
 30
0.0
 40
2.5
100
AcDbArc
 50
270.0
 51
270.0000000000007
  0
LINE
  5
59
330
22
100
AcDbEntity
  8
0
100
AcDbLine
 10
28.77130377203494
 20
-12.77159925848147
 30
0.0
 11
24.43885465448463
 21
-12.77159925848144
 31
0.0
  0
LINE
  5
5A
330
22
100
AcDbEntity
  8
0
100
AcDbLine
 10
3.599730896781125
 20
-4.771599258481472
 30
0.0
 11
2.599730896781125
 21
-4.771599258481472
 31
0.0
  0
LINE
  5
5B
330
22
100
AcDbEntity
  8
0
100
AcDbLine
 10
22.59973089678116
 20
-8.771599258481472
 30
0.0
 11
18.59973089678115
 21
-8.771599258481472
 31
0.0
  0
LINE
  5
5C
330
22
100
AcDbEntity
  8
0
100
AcDbLine
 10
22.59973089678116
 20
-5.771599258481472
 30
0.0
 11
18.59973089678115
 21
-5.771599258481472
 31
0.0
  0
LINE
  5
5D
330
22
100
AcDbEntity
  8
0
100
AcDbLine
 10
22.59973089678116
 20
-4.771599258481472
 30
0.0
 11
17.59973089678115
 21
-4.771599258481472
 31
0.0
  0
LINE
  5
5E
330
22
100
AcDbEntity
  8
0
100
AcDbLine
 10
18.59973089678115
 20
-5.771599258481472
 30
0.0
 11
18.59973089678115
 21
-8.771599258481472
 31
0.0
  0
ARC
  5
5F
330
22
100
AcDbEntity
  8
0
100
AcDbCircle
 10
22.59973089678116
 20
-7.271599258481472
 30
0.0
 40
1.5
100
AcDbArc
 50
270.0
 51
90.0
  0
ENDBLK
  5
60
330
22
100
AcDbEntity
  8
0
100
AcDbBlockEnd
  0
BLOCK
  5
900
330
8F6
100
AcDbEntity
  8
0
100
AcDbBlockBegin
  2
*D1
 70
     1
 10
0.0
 20
0.0
 30
0.0
  3
*D1
  1

  0
LINE
  5
F83
330
8F6
100
AcDbEntity
  8
BEM
 62
     0
370
    -2
100
AcDbLine
 10
65.8639864114475
 20
99.78094087732294
 30
0.0
 11
65.8639864114475
 21
81.71896938598871
 31
0.0
  0
LINE
  5
F84
330
8F6
100
AcDbEntity
  8
BEM
 62
     0
370
    -2
100
AcDbLine
 10
118.8639864114484
 20
99.78094087732294
 30
0.0
 11
118.8639864114484
 21
81.71896938598871
 31
0.0
  0
LINE
  5
F85
330
8F6
100
AcDbEntity
  8
BEM
 62
     0
370
    -2
100
AcDbLine
 10
69.3639864114475
 20
82.71896938598871
 30
0.0
 11
115.3639864114484
 21
82.71896938598871
 31
0.0
  0
SOLID
  5
F86
330
8F6
100
AcDbEntity
  8
BEM
 62
     0
100
AcDbTrace
 10
69.3639864114475
 20
83.30230271932204
 30
0.0
 11
69.3639864114475
 21
82.13563605265539
 31
0.0
 12
65.8639864114475
 22
82.71896938598871
 32
0.0
 13
65.8639864114475
 23
82.71896938598871
 33
0.0
  0
SOLID
  5
F87
330
8F6
100
AcDbEntity
  8
BEM
 62
     0
100
AcDbTrace
 10
115.3639864114484
 20
83.30230271932204
 30
0.0
 11
115.3639864114484
 21
82.13563605265539
 31
0.0
 12
118.8639864114484
 22
82.71896938598871
 32
0.0
 13
118.8639864114484
 23
82.71896938598871
 33
0.0
  0
MTEXT
  5
F88
330
8F6
100
AcDbEntity
  8
BEM
 62
     1
100
AcDbMText
 10
92.36398641144795
 20
85.96896938598872
 30
0.0
 40
3.5
 41
0.0
 71
     5
 72
     1
  1
\A1;%%c53
 73
     1
 44
1.0
  0
POINT
  5
F89
330
8F6
100
AcDbEntity
  8
DEFPOINTS
 62
     0
100
AcDbPoint
 10
65.8639864114475
 20
100.7809408773229
 30
0.0
  0
POINT
  5
F8A
330
8F6
100
AcDbEntity
  8
DEFPOINTS
 62
     0
100
AcDbPoint
 10
118.8639864114484
 20
100.7809408773229
 30
0.0
  0
POINT
  5
F8B
330
8F6
100
AcDbEntity
  8
DEFPOINTS
 62
     0
100
AcDbPoint
 10
118.8639864114484
 20
82.71896938598871
 30
0.0
  0
ENDBLK
  5
901
330
8F6
100
AcDbEntity
  8
0
100
AcDbBlockEnd
  0
BLOCK
  5
9A0
330
996
100
AcDbEntity
  8
0
100
AcDbBlockBegin
  2
*D3
 70
     1
 10
0.0
 20
0.0
 30
0.0
  3
*D3
  1

  0
LINE
  5
F95
330
996
100
AcDbEntity
  8
BEM
 62
     0
370
    -2
100
AcDbLine
 10
65.30142972907707
 20
95.78094087732294
 30
0.0
 11
55.80630674803817
 21
95.78094087732294
 31
0.0
  0
LINE
  5
F96
330
996
100
AcDbEntity
  8
BEM
 62
     0
370
    -2
100
AcDbLine
 10
91.36398641144747
 20
145.7809408773229
 30
0.0
 11
55.80630674803818
 21
145.780940877323
 31
0.0
  0
LINE
  5
F97
330
996
100
AcDbEntity
  8
BEM
 62
     0
370
    -2
100
AcDbLine
 10
56.80630674803817
 20
99.28094087732294
 30
0.0
 11
56.80630674803818
 21
142.280940877323
 31
0.0
  0
SOLID
  5
F98
330
996
100
AcDbEntity
  8
BEM
 62
     0
100
AcDbTrace
 10
56.22297341470483
 20
99.28094087732294
 30
0.0
 11
57.3896400813715
 21
99.28094087732294
 31
0.0
 12
56.80630674803817
 22
95.78094087732294
 32
0.0
 13
56.80630674803817
 23
95.78094087732294
 33
0.0
  0
SOLID
  5
F99
330
996
100
AcDbEntity
  8
BEM
 62
     0
100
AcDbTrace
 10
56.22297341470484
 20
142.280940877323
 30
0.0
 11
57.38964008137151
 21
142.280940877323
 31
0.0
 12
56.80630674803818
 22
145.780940877323
 32
0.0
 13
56.80630674803818
 23
145.780940877323
 33
0.0
  0
MTEXT
  5
F9A
330
996
100
AcDbEntity
  8
BEM
 62
     1
100
AcDbMText
 10
53.55630674803816
 20
120.7809408773229
 30
0.0
 40
3.5
 41
0.0
 71
     5
 72
     1
  1
\A1;50
 11
0.0000000000000001
 21
1.0
 31
0.0
 73
     1
 44
1.0
  0
POINT
  5
F9B
330
996
100
AcDbEntity
  8
DEFPOINTS
 62
     0
100
AcDbPoint
 10
66.30142972907707
 20
95.78094087732294
 30
0.0
  0
POINT
  5
F9C
330
996
100
AcDbEntity
  8
DEFPOINTS
 62
     0
100
AcDbPoint
 10
92.36398641144747
 20
145.7809408773229
 30
0.0
  0
POINT
  5
F9D
330
996
100
AcDbEntity
  8
DEFPOINTS
 62
     0
100
AcDbPoint
 10
56.80630674803818
 20
145.780940877323
 30
0.0
  0
ENDBLK
  5
9A1
330
996
100
AcDbEntity
  8
0
100
AcDbBlockEnd
  0
BLOCK
  5
9AE
330
9A4
100
AcDbEntity
  8
0
100
AcDbBlockBegin
  2
*D4
 70
     1
 10
0.0
 20
0.0
 30
0.0
  3
*D4
  1

  0
LINE
  5
101B
330
9A4
100
AcDbEntity
  8
BEM
 62
     0
370
    -2
100
AcDbLine
 10
65.30142972907707
 20
95.78094087732294
 30
0.0
 11
48.65149332104053
 21
95.78094087732294
 31
0.0
  0
LINE
  5
101C
330
9A4
100
AcDbEntity
  8
BEM
 62
     0
370
    -2
100
AcDbLine
 10
62.34674364282374
 20
263.780940877323
 30
0.0
 11
48.65149332104056
 21
263.780940877323
 31
0.0
  0
LINE
  5
101D
330
9A4
100
AcDbEntity
  8
BEM
 62
     0
370
    -2
100
AcDbLine
 10
49.65149332104053
 20
99.28094087732294
 30
0.0
 11
49.65149332104057
 21
260.280940877323
 31
0.0
  0
SOLID
  5
101E
330
9A4
100
AcDbEntity
  8
BEM
 62
     0
100
AcDbTrace
 10
49.0681599877072
 20
99.28094087732294
 30
0.0
 11
50.23482665437387
 21
99.28094087732294
 31
0.0
 12
49.65149332104053
 22
95.78094087732294
 32
0.0
 13
49.65149332104053
 23
95.78094087732294
 33
0.0
  0
SOLID
  5
101F
330
9A4
100
AcDbEntity
  8
BEM
 62
     0
100
AcDbTrace
 10
49.06815998770723
 20
260.280940877323
 30
0.0
 11
50.2348266543739
 21
260.280940877323
 31
0.0
 12
49.65149332104057
 22
263.780940877323
 32
0.0
 13
49.65149332104057
 23
263.780940877323
 33
0.0
  0
MTEXT
  5
1020
330
9A4
100
AcDbEntity
  8
BEM
 62
     1
100
AcDbMText
 10
46.40149332104052
 20
179.7809408773229
 30
0.0
 40
3.5
 41
0.0
 71
     5
 72
     1
  1
\A1;168
 11
0.0000000000000001
 21
1.0
 31
0.0
 73
     1
 44
1.0
  0
POINT
  5
1021
330
9A4
100
AcDbEntity
  8
DEFPOINTS
 62
     0
100
AcDbPoint
 10
66.30142972907707
 20
95.78094087732294
 30
0.0
  0
POINT
  5
1022
330
9A4
100
AcDbEntity
  8
DEFPOINTS
 62
     0
100
AcDbPoint
 10
63.34674364282374
 20
263.780940877323
 30
0.0
  0
POINT
  5
1023
330
9A4
100
AcDbEntity
  8
DEFPOINTS
 62
     0
100
AcDbPoint
 10
49.65149332104057
 20
263.780940877323
 30
0.0
  0
ENDBLK
  5
9AF
330
9A4
100
AcDbEntity
  8
0
100
AcDbBlockEnd
  0
BLOCK
  5
D52
330
D48
100
AcDbEntity
  8
0
100
AcDbBlockBegin
  2
*D5
 70
     1
 10
0.0
 20
0.0
 30
0.0
  3
*D5
  1

  0
LINE
  5
104C
330
D48
100
AcDbEntity
  8
BEM
 62
     0
370
    -2
100
AcDbLine
 10
93.07109319263398
 20
145.0738340961364
 30
0.0
 11
116.9549778612621
 21
121.1899494275086
 31
0.0
  0
LINE
  5
104D
330
D48
100
AcDbEntity
  8
BEM
 62
     0
370
    -2
100
AcDbLine
 10
186.7649209085596
 20
205.5292846788782
 30
0.0
 11
194.0296170105953
 21
198.2645885768426
 31
0.0
  0
LINE
  5
104E
330
D48
100
AcDbEntity
  8
BEM
 62
     0
370
    -2
100
AcDbLine
 10
118.7227448142284
 20
124.371929942848
 30
0.0
 11
190.8476364952558
 21
196.4968216238762
 31
0.0
  0
SOLID
  5
104F
330
D48
100
AcDbEntity
  8
BEM
 62
     0
100
AcDbTrace
 10
118.3102658585363
 20
124.7844088985402
 30
0.0
 11
119.1352237699206
 21
123.9594509871559
 31
0.0
 12
116.2478710800755
 22
121.8970562086951
 32
0.0
 13
116.2478710800755
 23
121.8970562086951
 33
0.0
  0
SOLID
  5
1050
330
D48
100
AcDbEntity
  8
BEM
 62
     0
100
AcDbTrace
 10
190.4351575395637
 20
196.9093005795684
 30
0.0
 11
191.260115450948
 21
196.0843426681841
 31
0.0
 12
193.3225102294087
 22
198.9716953580292
 32
0.0
 13
193.3225102294087
 23
198.9716953580292
 33
0.0
  0
MTEXT
  5
1051
330
D48
100
AcDbEntity
  8
BEM
 62
     1
100
AcDbMText
 10
152.4870936158858
 20
162.7324728222184
 30
0.0
 40
3.5
 41
0.0
 71
     5
 72
     1
  1
\A1;109
 11
0.7071067811865436
 21
0.7071067811865515
 31
0.0
 73
     1
 44
1.0
  0
POINT
  5
1052
330
D48
100
AcDbEntity
  8
DEFPOINTS
 62
     0
100
AcDbPoint
 10
92.36398641144743
 20
145.7809408773229
 30
0.0
  0
POINT
  5
1053
330
D48
100
AcDbEntity
  8
DEFPOINTS
 62
     0
100
AcDbPoint
 10
186.0578141273731
 20
206.2363914600647
 30
0.0
  0
POINT
  5
1054
330
D48
100
AcDbEntity
  8
DEFPOINTS
 62
     0
100
AcDbPoint
 10
193.3225102294087
 20
198.9716953580291
 30
0.0
  0
ENDBLK
  5
D53
330
D48
100
AcDbEntity
  8
0
100
AcDbBlockEnd
  0
BLOCK
  5
F2F
330
F25
100
AcDbEntity
  8
0
100
AcDbBlockBegin
  2
*D8
 70
     1
 10
0.0
 20
0.0
 30
0.0
  3
*D8
  1

  0
LINE
  5
F5F
330
F25
100
AcDbEntity
  8
BEM
 62
     0
370
    -2
100
AcDbLine
 10
118.1568796302611
 20
201.2723189059715
 30
0.0
 11
82.47064232335899
 21
165.58608159907
 31
0.0
  0
LINE
  5
F60
330
F25
100
AcDbEntity
  8
BEM
 62
     0
370
    -2
100
AcDbLine
 10
118.1568796302612
 20
141.8753492863018
 30
0.0
 11
112.1691271331939
 21
135.8875967892346
 31
0.0
  0
LINE
  5
F61
330
F25
100
AcDbEntity
  8
BEM
 62
     0
370
    -2
100
AcDbLine
 10
85.65262283869843
 20
163.8183146461035
 30
0.0
 11
110.4013601802275
 21
139.069577304574
 31
0.0
  0
SOLID
  5
F62
330
F25
100
AcDbEntity
  8
BEM
 62
     0
100
AcDbTrace
 10
86.06510179439059
 20
164.2307936017957
 30
0.0
 11
85.24014388300626
 21
163.4058356904114
 31
0.0
 12
83.17774910454554
 22
166.2931883802565
 32
0.0
 13
83.17774910454554
 23
166.2931883802565
 33
0.0
  0
SOLID
  5
F63
330
F25
100
AcDbEntity
  8
BEM
 62
     0
100
AcDbTrace
 10
110.8138391359197
 20
139.4820562602662
 30
0.0
 11
109.9888812245354
 21
138.6570983488819
 31
0.0
 12
112.8762339143804
 22
136.5947035704211
 32
0.0
 13
112.8762339143804
 23
136.5947035704211
 33
0.0
  0
MTEXT
  5
F64
330
F25
100
AcDbEntity
  8
BEM
 62
     1
100
AcDbMText
 10
100.3250885483193
 20
153.7420430141951
 30
0.0
 40
3.5
 41
0.0
 71
     5
 72
     1
  1
\A1;%%c42
 11
0.7071067811865419
 21
-0.7071067811865532
 31
0.0
 73
     1
 44
1.0
  0
POINT
  5
F65
330
F25
100
AcDbEntity
  8
DEFPOINTS
 62
     0
100
AcDbPoint
 10
118.8639864114476
 20
201.979425687158
 30
0.0
  0
POINT
  5
F66
330
F25
100
AcDbEntity
  8
DEFPOINTS
 62
     0
100
AcDbPoint
 10
118.8639864114477
 20
142.5824560674884
 30
0.0
  0
POINT
  5
F67
330
F25
100
AcDbEntity
  8
DEFPOINTS
 62
     0
100
AcDbPoint
 10
112.8762339143804
 20
136.5947035704211
 30
0.0
  0
ENDBLK
  5
F30
330
F25
100
AcDbEntity
  8
0
100
AcDbBlockEnd
  0
BLOCK
  5
F52
330
F46
100
AcDbEntity
  8
0
100
AcDbBlockBegin
  2
*D9
 70
     1
 10
0.0
 20
0.0
 30
0.0
  3
*D9
  1

  0
LINE
  5
F54
330
F46
100
AcDbEntity
  8
BEM
 62
     0
370
    -2
100
AcDbLine
 10
173.6812662479003
 20
227.0982207137759
 30
0.0
 11
185.6502551016697
 21
239.0672095675455
 31
0.0
  0
LINE
  5
F55
330
F46
100
AcDbEntity
  8
BEM
 62
     0
370
    -2
100
AcDbLine
 10
92.36398641144736
 20
269.7809408773228
 30
0.0
 11
92.36398641144726
 21
277.707647242216
 31
0.0
  0
ARC
  5
F56
330
F46
100
AcDbEntity
  8
BEM
 62
     0
370
    -2
100
AcDbCircle
 10
92.36398641144749
 20
145.7809408773228
 30
0.0
 40
130.926706364893
100
AcDbArc
 50
46.53170583380852
 51
88.46829416619168
  0
SOLID
  5
F57
330
F46
100
AcDbEntity
  8
BEM
 62
     0
100
AcDbTrace
 10
182.8423446827209
 20
241.219631043492
 30
0.0
 11
182.0284870662325
 21
240.3837202281565
 31
0.0
 12
184.9431483204831
 22
238.3601027863588
 32
0.0
 13
184.9431483204831
 23
238.3601027863588
 33
0.0
  0
SOLID
  5
F58
330
F46
100
AcDbEntity
  8
BEM
 62
     0
100
AcDbTrace
 10
95.85587676481212
 20
276.0775841200961
 30
0.0
 11
95.87147073126365
 21
277.2441465656264
 31
0.0
 12
92.36398641144727
 22
276.7076472422159
 32
0.0
 13
92.36398641144727
 23
276.7076472422159
 33
0.0
  0
MTEXT
  5
F59
330
F46
100
AcDbEntity
  8
BEM
 62
     1
100
AcDbMText
 10
143.7111889466073
 20
269.7440536276246
 30
0.0
 40
3.5
 41
0.0
 71
     5
 72
     1
  1
\A1;45°
 11
0.9238795325112876
 21
-0.3826834323650882
 31
0.0
 73
     1
 44
1.0
  0
POINT
  5
F5A
330
F46
100
AcDbEntity
  8
DEFPOINTS
 62
     0
100
AcDbPoint
 10
157.8273395938938
 20
259.1667946231461
 30
0.0
  0
POINT
  5
F5B
330
F46
100
AcDbEntity
  8
DEFPOINTS
 62
     0
100
AcDbPoint
 10
92.36398641144733
 20
268.7809408773229
 30
0.0
  0
POINT
  5
F5C
330
F46
100
AcDbEntity
  8
DEFPOINTS
 62
     0
100
AcDbPoint
 10
172.9741594667137
 20
226.3911139325893
 30
0.0
  0
POINT
  5
F5D
330
F46
100
AcDbEntity
  8
DEFPOINTS
 62
     0
100
AcDbPoint
 10
104.5407845497539
 20
157.9577390156293
 30
0.0
  0
POINT
  5
F5E
330
F46
100
AcDbEntity
  8
DEFPOINTS
 62
     0
100
AcDbPoint
 10
92.3639864114475
 20
90.78094087732289
 30
0.0
  0
ENDBLK
  5
F53
330
F46
100
AcDbEntity
  8
0
100
AcDbBlockEnd
  0
ENDSEC
  0
SECTION
  2
ENTITIES
  0
TEXT
  5
134
330
1E
100
AcDbEntity
  8
TEXT
100
AcDbText
 10
102.2108024290628
 20
31.54481959861755
 30
0.0
 40
2.0
  1
Koeh
 41
0.8
  7
GREEKS
 72
     1
 11
104.8393738576343
 21
31.54481959861755
 31
0.0
100
AcDbText
  0
INSERT
  5
135
330
1E
100
AcDbEntity
  8
STEMPEL
100
AcDbBlockReference
  2
LOGO
 10
75.4977742728897
 20
22.51052638224161
 30
0.0
  0
LINE
  5
136
330
1E
100
AcDbEntity
  8
HILF
100
AcDbLine
 10
210.0
 20
0.0
 30
0.0
 11
0.0
 21
0.0
 31
0.0
  0
LINE
  5
137
330
1E
100
AcDbEntity
  8
HILF
100
AcDbLine
 10
210.0
 20
297.0000000000001
 30
0.0
 11
0.0
 21
297.0
 31
0.0
  0
LINE
  5
138
330
1E
100
AcDbEntity
  8
STEMPEL
100
AcDbLine
 10
205.0
 20
292.0
 30
0.0
 11
19.99999999999994
 21
292.0
 31
0.0
  0
LINE
  5
139
330
1E
100
AcDbEntity
  8
STEMPEL
100
AcDbLine
 10
205.0
 20
5.0
 30
0.0
 11
19.99999999999994
 21
5.0
 31
0.0
  0
LINE
  5
13A
330
1E
100
AcDbEntity
  8
STEMPEL
100
AcDbLine
 10
24.99999999999995
 20
5.0
 30
0.0
 11
205.0
 21
5.0
 31
0.0
  0
TEXT
  5
13B
330
1E
100
AcDbEntity
  8
TEXT
100
AcDbText
 10
101.2313292113147
 20
36.65480545957612
 30
0.0
 40
2.0
  1
Name
 41
0.8
  7
GREEKS
100
AcDbText
  0
TEXT
  5
13C
330
1E
100
AcDbEntity
  8
TEXT
100
AcDbText
 10
98.27491395507747
 20
51.32531138882947
 30
0.0
 40
2.5
  1
Zul. Abw.
 41
0.8
  7
GREEKS
 72
     4
 11
104.9891996693631
 21
52.57531138882947
 31
0.0
100
AcDbText
  0
LINE
  5
13D
330
1E
100
AcDbEntity
  8
HILF
100
AcDbLine
 10
73.00000000000006
 20
24.99999999999999
 30
0.0
 11
115.0
 21
24.99999999999999
 31
0.0
  0
LINE
  5
13E
330
1E
100
AcDbEntity
  8
HILF
100
AcDbLine
 10
73.00000000000006
 20
29.99999999999999
 30
0.0
 11
115.0
 21
29.99999999999999
 31
0.0
  0
LINE
  5
13F
330
1E
100
AcDbEntity
  8
HILF
100
AcDbLine
 10
73.00000000000006
 20
34.99999999999997
 30
0.0
 11
115.0
 21
34.99999999999997
 31
0.0
  0
LINE
  5
140
330
1E
100
AcDbEntity
  8
STEMPEL
100
AcDbLine
 10
205.0
 20
40.0
 30
0.0
 11
73.00000000000006
 21
39.99999999999997
 31
0.0
  0
LINE
  5
141
330
1E
100
AcDbEntity
  8
STEMPEL
100
AcDbLine
 10
205.0
 20
20.0
 30
0.0
 11
73.00000000000006
 21
19.99999999999998
 31
0.0
  0
LINE
  5
142
330
1E
100
AcDbEntity
  8
STEMPEL
100
AcDbLine
 10
205.0
 20
55.00000000000003
 30
0.0
 11
19.99999999999998
 21
55.0
 31
0.0
  0
LINE
  5
144
330
1E
100
AcDbEntity
  8
HILF
100
AcDbLine
 10
0.0
 20
0.0
 30
0.0
 11
-0.0000000000000568
 21
297.0
 31
0.0
  0
LINE
  5
145
330
1E
100
AcDbEntity
  8
STEMPEL
100
AcDbLine
 10
20.0
 20
5.0
 30
0.0
 11
19.99999999999994
 21
292.0
 31
0.0
  0
TEXT
  5
146
330
1E
100
AcDbEntity
  8
TEXT
100
AcDbText
 10
20.92754975488837
 20
55.83599999999997
 30
0.0
 40
2.5
  1
Erstellt mit AUTOCAD 2004
 41
0.8
  7
GREEKS
100
AcDbText
  0
LINE
  5
148
330
1E
100
AcDbEntity
  8
HILF
100
AcDbLine
 10
20.00000000000004
 20
19.99999999999998
 30
0.0
 11
73.00000000000006
 21
19.99999999999998
 31
0.0
  0
LINE
  5
149
330
1E
100
AcDbEntity
  8
HILF
100
AcDbLine
 10
20.00000000000004
 20
24.99999999999999
 30
0.0
 11
73.00000000000006
 21
24.99999999999999
 31
0.0
  0
LINE
  5
14A
330
1E
100
AcDbEntity
  8
HILF
100
AcDbLine
 10
20.00000000000004
 20
29.99999999999999
 30
0.0
 11
73.00000000000006
 21
29.99999999999999
 31
0.0
  0
LINE
  5
14B
330
1E
100
AcDbEntity
  8
HILF
100
AcDbLine
 10
20.00000000000004
 20
34.99999999999997
 30
0.0
 11
73.00000000000006
 21
34.99999999999997
 31
0.0
  0
LINE
  5
14C
330
1E
100
AcDbEntity
  8
HILF
100
AcDbLine
 10
20.00000000000004
 20
39.99999999999997
 30
0.0
 11
73.00000000000006
 21
39.99999999999997
 31
0.0
  0
LINE
  5
14D
330
1E
100
AcDbEntity
  8
HILF
100
AcDbLine
 10
20.00000000000004
 20
45.00000000000002
 30
0.0
 11
73.00000000000006
 21
45.00000000000002
 31
0.0
  0
LINE
  5
14E
330
1E
100
AcDbEntity
  8
HILF
100
AcDbLine
 10
20.00000000000004
 20
50.00000000000003
 30
0.0
 11
73.00000000000006
 21
50.00000000000003
 31
0.0
  0
LINE
  5
14F
330
1E
100
AcDbEntity
  8
STEMPEL
100
AcDbLine
 10
72.99999999999994
 20
14.99999999999998
 30
0.0
 11
19.99999999999998
 21
14.99999999999998
 31
0.0
  0
TEXT
  5
150
330
1E
100
AcDbEntity
  8
TEXT
100
AcDbText
 10
24.13320553522878
 20
6.827329230135958
 30
0.0
 40
2.0
  1
Index
 50
90.0
 41
0.8
  7
GREEKS
100
AcDbText
  0
LINE
  5
151
330
1E
100
AcDbEntity
  8
VOLL
100
AcDbLine
 10
27.00000000000005
 20
55.00000000000003
 30
0.0
 11
26.99999999999999
 21
4.999999999999985
 31
0.0
  0
LINE
  5
152
330
1E
100
AcDbEntity
  8
HILF
100
AcDbLine
 10
15.54383567856928
 20
148.5
 30
0.0
 11
0.0000000000000568
 21
148.5
 31
0.0
  0
LINE
  5
154
330
1E
100
AcDbEntity
  8
VOLL
100
AcDbLine
 10
62.00000000000006
 20
54.99999999999997
 30
0.0
 11
62.0
 21
4.999999999999985
 31
0.0
  0
LINE
  5
155
330
1E
100
AcDbEntity
  8
VOLL
100
AcDbLine
 10
52.00000000000006
 20
54.99999999999997
 30
0.0
 11
52.0
 21
4.999999999999985
 31
0.0
  0
LINE
  5
157
330
1E
100
AcDbEntity
  8
STEMPEL
100
AcDbLine
 10
73.00000000000006
 20
54.99999999999997
 30
0.0
 11
73.0
 21
4.999999999999985
 31
0.0
  0
TEXT
  5
158
330
1E
100
AcDbEntity
  8
TEXT
100
AcDbText
 10
85.19949855411802
 20
31.55382520412866
 30
0.0
 40
2.0
  1
08.04.
 41
0.8
  7
GREEKS
 72
     1
 11
88.70426045887993
 21
31.55382520412866
 31
0.0
100
AcDbText
  0
TEXT
  5
159
330
1E
100
AcDbEntity
  8
TEXT
100
AcDbText
 10
86.16558365768254
 20
36.65940250614963
 30
0.0
 40
2.0
  1
Tag
 41
0.8
  7
GREEKS
100
AcDbText
  0
TEXT
  5
15A
330
1E
100
AcDbEntity
  8
TEXT
100
AcDbText
 10
73.79180635838077
 20
31.81495184808982
 30
0.0
 40
2.0
  1
Gez.
 41
0.8
  7
GREEKS
100
AcDbText
  0
LINE
  5
15B
330
1E
100
AcDbEntity
  8
VOLL
100
AcDbLine
 10
82.00000000000006
 20
39.99999999999997
 30
0.0
 11
82.00000000000006
 21
19.99999999999998
 31
0.0
  0
TEXT
  5
15C
330
1E
100
AcDbEntity
  8
TEXT
100
AcDbText
 10
73.80033886936519
 20
21.76473194824904
 30
0.0
 40
2.0
  1
Norm.
 41
0.8
  7
GREEKS
100
AcDbText
  0
TEXT
  5
15D
330
1E
100
AcDbEntity
  8
TEXT
100
AcDbText
 10
73.77575432858361
 20
26.84463145714189
 30
0.0
 40
2.0
  1
Gepr.
 41
0.8
  7
GREEKS
100
AcDbText
  0
TEXT
  5
15E
330
1E
100
AcDbEntity
  8
TEXT
 62
     1
100
AcDbText
 10
80.25031532409434
 20
44.07450714456979
 30
0.0
 40
3.5
  1
1:1
 41
0.8
  7
GREEKS
100
AcDbText
  0
TEXT
  5
15F
330
1E
100
AcDbEntity
  8
TEXT
100
AcDbText
 10
76.75817860751886
 20
51.23104475435443
 30
0.0
 40
2.5
  1
Maßstab
 41
0.8
  7
GREEKS
100
AcDbText
  0
TEXT
  5
160
330
1E
100
AcDbEntity
  8
TEXT
100
AcDbText
 10
74.31105491105199
 20
36.57012735575833
 30
0.0
 40
2.0
  1
2011
 41
0.8
  7
GREEKS
100
AcDbText
  0
LINE
  5
161
330
1E
100
AcDbEntity
  8
VOLL
100
AcDbLine
 10
95.00000000000005
 20
54.99999999999992
 30
0.0
 11
95.0
 21
19.99999999999998
 31
0.0
  0
LINE
  5
186
330
1E
100
AcDbEntity
  8
HILF
100
AcDbLine
 10
210.0
 20
-0.0000000000000568
 30
0.0
 11
210.0
 21
297.0
 31
0.0
  0
LINE
  5
187
330
1E
100
AcDbEntity
  8
STEMPEL
100
AcDbLine
 10
205.0
 20
5.0
 30
0.0
 11
205.0
 21
292.0
 31
0.0
  0
TEXT
  5
188
330
1E
100
AcDbEntity
  8
TEXT
100
AcDbText
 10
168.6200430748503
 20
26.03708088939301
 30
0.0
 40
2.5
  1
ersetzt durch:
 41
0.8
  7
GREEKS
100
AcDbText
  0
TEXT
  5
189
330
1E
100
AcDbEntity
  8
TEXT
100
AcDbText
 10
168.3619308148496
 20
36.59059118549985
 30
0.0
 40
2.5
  1
Ersatz für:
 41
0.8
  7
GREEKS
100
AcDbText
  0
TEXT
  5
18A
330
1E
100
AcDbEntity
  8
TEXT
100
AcDbText
 10
168.089377478817
 20
51.15660172685682
 30
0.0
 40
2.5
  1
Zeichnungs Nr.
 41
0.8
  7
GREEKS
100
AcDbText
  0
LINE
  5
18B
330
1E
100
AcDbEntity
  8
HILF
100
AcDbLine
 10
116.7454849644942
 20
7.446991290141568
 30
0.0
 11
202.4294419663364
 21
7.446991290141568
 31
0.0
  0
LINE
  5
18C
330
1E
100
AcDbEntity
  8
HILF
100
AcDbLine
 10
168.3619308148496
 20
41.88991818477913
 30
0.0
 11
202.4294419663364
 21
41.88991818477913
 31
0.0
  0
LINE
  5
18D
330
1E
100
AcDbEntity
  8
VOLL
100
AcDbLine
 10
166.0
 20
30.0
 30
0.0
 11
205.0
 21
30.0
 31
0.0
  0
TEXT
  5
18E
330
1E
100
AcDbEntity
  8
TEXT
 62
     1
100
AcDbText
 10
117.4641932160007
 20
43.70874394626889
 30
0.0
 40
3.5
  1
Red.-Abzweig DN50/40
 41
0.7
  7
GREEKS
100
AcDbText
  0
LINE
  5
18F
330
1E
100
AcDbEntity
  8
HILF
100
AcDbLine
 10
117.3868400548473
 20
24.99999999999999
 30
0.0
 11
162.4176958278155
 21
24.99999999999999
 31
0.0
  0
LINE
  5
190
330
1E
100
AcDbEntity
  8
HILF
100
AcDbLine
 10
117.3868400548473
 20
29.99999999999999
 30
0.0
 11
162.4176958278155
 21
29.99999999999999
 31
0.0
  0
LINE
  5
191
330
1E
100
AcDbEntity
  8
HILF
100
AcDbLine
 10
117.3868400548473
 20
34.99999999999997
 30
0.0
 11
162.4176958278155
 21
34.99999999999997
 31
0.0
  0
LINE
  5
192
330
1E
100
AcDbEntity
  8
HILF
100
AcDbLine
 10
117.3868400548473
 20
42.01879123782069
 30
0.0
 11
162.4176958278155
 21
42.01879123782069
 31
0.0
  0
LINE
  5
193
330
1E
100
AcDbEntity
  8
STEMPEL
100
AcDbLine
 10
115.0
 20
55.00000000000003
 30
0.0
 11
115.0
 21
4.999999999999985
 31
0.0
  0
TEXT
  5
194
330
1E
100
AcDbEntity
  8
TEXT
100
AcDbText
 10
117.5648195562657
 20
35.75167208792644
 30
0.0
 40
2.5
  1
dünnwandig 45°
 41
0.8
  7
GREEKS
100
AcDbText
  0
TEXT
  5
195
330
1E
100
AcDbEntity
  8
TEXT
100
AcDbText
 10
117.4918750788913
 20
21.31487076511316
 30
0.0
 40
2.0
  1
5250BA0W.DWG
 41
0.8
  7
GREEKS
100
AcDbText
  0
TEXT
  5
196
330
1E
100
AcDbEntity
  8
TEXT
100
AcDbText
 10
117.371119195568
 20
15.42280285096528
 30
0.0
 40
2.5
  1
Bauvorhaben
 41
0.8
  7
GREEKS
100
AcDbText
  0
TEXT
  5
197
330
1E
100
AcDbEntity
  8
TEXT
100
AcDbText
 10
117.4389701904505
 20
51.27446640058898
 30
0.0
 40
2.5
  1
Benennung
 41
0.8
  7
GREEKS
100
AcDbText
  0
LINE
  5
198
330
1E
100
AcDbEntity
  8
STEMPEL
100
AcDbLine
 10
166.0
 20
54.99999999999989
 30
0.0
 11
166.0
 21
20.0
 31
0.0
  0
TEXT
  5
19A
330
1E
100
AcDbEntity
  8
TEXT
 62
     1
100
AcDbText
 10
173.7406316455162
 20
44.07450714456979
 30
0.0
 40
3.5
  1
5250BA0W
 41
0.8
  7
GREEKS
 72
     1
 11
184.6072983121828
 21
44.07450714456979
 31
0.0
100
AcDbText
  0
TEXT
  5
212
330
1E
100
AcDbEntity
  8
TEXT
100
AcDbText
 10
117.5648195562657
 20
25.75167208792646
 30
0.0
 40
2.5
  1
EDV-Art.Nr. 5.250.BA0C
 41
0.8
  7
GREEKS
100
AcDbText
  0
TEXT
  5
255
330
1E
100
AcDbEntity
  8
TEXT
 62
     1
100
AcDbText
 10
148.9987436921494
 20
65.61381838269608
 30
0.0
 40
3.5
  1
Werkstoff: 1.4404
 41
0.8
  7
GREEKS
100
AcDbText
  0
LINE
  5
56D
330
1E
100
AcDbEntity
  8
HILF
100
AcDbLine
 10
64.29850763941589
 20
241.2248103515243
 30
0.0
 11
120.4294651834789
 21
241.2248103515243
 31
0.0
  0
LINE
  5
56E
330
1E
100
AcDbEntity
  8
HILF
100
AcDbLine
 10
64.79219283236879
 20
228.4254054364199
 30
0.0
 11
119.935779990526
 21
228.4254054364199
 31
0.0
  0
LINE
  5
56F
330
1E
100
AcDbEntity
  8
HILF
100
AcDbLine
 10
66.58266662208619
 20
223.890460474311
 30
0.0
 11
118.1453062008087
 21
223.890460474311
 31
0.0
  0
LINE
  5
570
330
1E
100
AcDbEntity
  8
STEMPEL
100
AcDbLine
 10
121.381229180071
 20
263.7809408773229
 30
0.0
 11
63.34674364282374
 21
263.780940877323
 31
0.0
  0
LINE
  5
585
330
1E
100
AcDbEntity
  8
MITTEL
100
AcDbLine
 10
92.36398641144738
 20
268.7809408773229
 30
0.0
 11
92.36398641144754
 21
90.78094087732294
 31
0.0
  0
ARC
  5
5A4
330
1E
100
AcDbEntity
  8
STEMPEL
100
AcDbCircle
 10
74.9639864114474
 20
231.0301348627932
 30
0.0
 40
11.5
100
AcDbArc
 50
180.0
 51
208.7266053481407
  0
ARC
  5
5A7
330
1E
100
AcDbEntity
  8
STEMPEL
100
AcDbCircle
 10
52.9639864114474
 20
239.2809408773228
 30
0.0
 40
10.5
100
AcDbArc
 50
0.0
 51
19.46309944468912
  0
LINE
  5
5AD
330
1E
100
AcDbEntity
  8
STEMPEL
100
AcDbLine
 10
61.46398641144741
 20
255.5347296260875
 30
0.0
 11
61.46398641144741
 21
250.9033075541022
 31
0.0
  0
LINE
  5
5AF
330
1E
100
AcDbEntity
  8
STEMPEL
100
AcDbLine
 10
63.46398641144741
 20
239.2809408773228
 30
0.0
 11
63.46398641144741
 21
231.0301348627931
 31
0.0
  0
ARC
  5
5B0
330
1E
100
AcDbEntity
  8
STEMPEL
100
AcDbCircle
 10
85.96398641144741
 20
250.9429408773229
 30
0.0
 40
24.5000320571282
100
AcDbArc
 50
179.9053619552033
 51
199.4630994446891
  0
ARC
  5
5B1
330
1E
100
AcDbEntity
  8
STEMPEL
100
AcDbCircle
 10
80.4639864114474
 20
255.5347296260875
 30
0.0
 40
19.0
100
AcDbArc
 50
154.277613507817
 51
180.0
  0
ARC
  5
5B8
330
1E
100
AcDbEntity
  8
STEMPEL
100
AcDbCircle
 10
57.86398641144739
 20
221.6578352517052
 30
0.0
 40
8.0
100
AcDbArc
 50
359.9999999999996
 51
28.7266053481407
  0
LINE
  5
5E2
330
1E
100
AcDbEntity
  8
STEMPEL
100
AcDbLine
 10
123.2639864114473
 20
255.5347296260876
 30
0.0
 11
123.2639864114473
 21
250.9033075541023
 31
0.0
  0
ARC
  5
5ED
330
1E
100
AcDbEntity
  8
STEMPEL
100
AcDbCircle
 10
109.7639864114474
 20
231.0301348627932
 30
0.0
 40
11.5
100
AcDbArc
 50
331.2733946518593
 51
0.0
  0
ARC
  5
5F2
330
1E
100
AcDbEntity
  8
STEMPEL
100
AcDbCircle
 10
126.8639864114475
 20
221.6578352517053
 30
0.0
 40
8.0
100
AcDbArc
 50
151.2733946518593
 51
180.0000000000004
  0
ARC
  5
5F9
330
1E
100
AcDbEntity
  8
STEMPEL
100
AcDbCircle
 10
131.7639864114474
 20
239.2809408773229
 30
0.0
 40
10.5
100
AcDbArc
 50
160.5369005553108
 51
180.0
  0
LINE
  5
5FA
330
1E
100
AcDbEntity
  8
STEMPEL
100
AcDbLine
 10
121.2639864114474
 20
239.2809408773229
 30
0.0
 11
121.2639864114474
 21
231.0301348627932
 31
0.0
  0
ARC
  5
5FB
330
1E
100
AcDbEntity
  8
STEMPEL
100
AcDbCircle
 10
98.76398641144737
 20
250.9429408773229
 30
0.0
 40
24.5000320571282
100
AcDbArc
 50
340.5369005553109
 51
0.0946380447966296
  0
ARC
  5
5FF
330
1E
100
AcDbEntity
  8
STEMPEL
100
AcDbCircle
 10
104.2639864114473
 20
255.5347296260876
 30
0.0
 40
19.0
100
AcDbArc
 50
0.0
 51
25.72238649218916
  0
TEXT
  5
88F
330
1E
100
AcDbEntity
  8
TEXT
 62
     1
100
AcDbText
 10
153.4804831464556
 20
219.2789090442178
 30
0.0
 40
3.5
  1
DN40
 50
44.99999999999999
 41
0.8
  7
GREEKS
100
AcDbText
  0
TEXT
  5
8E9
330
1E
100
AcDbEntity
  8
TEXT
 62
     1
100
AcDbText
 10
75.96339177524543
 20
251.0528928062729
 30
0.0
 40
3.5
  1
DN50
 41
0.8
  7
GREEKS
100
AcDbText
  0
LINE
  5
8EA
102
{ACAD_REACTORS
330
FCD
102
}
330
1E
100
AcDbEntity
  8
STEMPEL
100
AcDbLine
 10
118.8639864114476
 20
221.6578352517053
 30
0.0
 11
118.8639864114477
 21
201.9794256871581
 31
0.0
  0
DIMENSION
  5
8EE
330
1E
100
AcDbEntity
  8
BEM
100
AcDbDimension
  2
*D1
 10
118.8639864114484
 20
82.71896938598871
 30
0.0
 11
92.36398641144795
 21
85.96896938598872
 31
0.0
 70
    32
  1
%%c<>
 71
     5
 42
53.00000000000091
  3
Standard
100
AcDbAlignedDimension
 13
65.8639864114475
 23
100.7809408773229
 33
0.0
 14
118.8639864114484
 24
100.7809408773229
 34
0.0
100
AcDbRotatedDimension
1001
ACAD
1000
DSTYLE
1002
{
1070
    41
1040
3.5
1070
    42
1040
1.0
1070
    43
1040
7.0
1070
    44
1040
1.0
1070
    73
1070
     0
1070
    74
1070
     0
1070
    77
1070
     1
1070
    78
1070
     8
1070
    79
1070
     2
1070
   140
1040
3.5
1070
   141
1040
1.5
1070
   146
1040
0.5142857142857144
1070
   147
1040
1.5
1070
   172
1070
     1
1070
   178
1070
     1
1070
   179
1070
     3
1070
   271
1070
     2
1070
   272
1070
     2
1070
   275
1070
     1
1070
   284
1070
     8
1070
   285
1070
     8
1070
   286
1070
     8
1002
}
  0
LINE
  5
8EF
330
1E
100
AcDbEntity
  8
HILF
100
AcDbLine
 10
117.863986411448
 20
100.7809408773229
 30
0.0
 11
66.86398641144744
 21
100.7809408773229
 31
0.0
  0
LINE
  5
8F0
330
1E
100
AcDbEntity
  8
STEMPEL
100
AcDbLine
 10
118.4265430938186
 20
95.78094087732294
 30
0.0
 11
66.30142972907707
 21
95.78094087732294
 31
0.0
  0
LINE
  5
8F1
330
1E
100
AcDbEntity
  8
STEMPEL
100
AcDbLine
 10
118.8639864114481
 20
100.7809408773232
 30
0.0
 11
118.4265430938186
 21
95.78094087732294
 31
0.0
  0
LINE
  5
8F4
330
1E
100
AcDbEntity
  8
STEMPEL
100
AcDbLine
 10
65.8639864114475
 20
100.7809408773229
 30
0.0
 11
66.30142972907707
 21
95.78094087732294
 31
0.0
  0
LINE
  5
8F5
330
1E
100
AcDbEntity
  8
STEMPEL
100
AcDbLine
 10
65.86398641144751
 20
221.6578352517052
 30
0.0
 11
65.86398641144744
 21
100.7809408773229
 31
0.0
  0
LINE
  5
92E
102
{ACAD_REACTORS
330
FDC
102
}
330
1E
100
AcDbEntity
  8
STEMPEL
100
AcDbLine
 10
118.8639864114477
 20
142.5824560674884
 30
0.0
 11
118.863986411448
 21
100.7809408773229
 31
0.0
  0
DIMENSION
  5
995
330
1E
100
AcDbEntity
  8
BEM
100
AcDbDimension
  2
*D3
 10
56.80630674803818
 20
145.780940877323
 30
0.0
 11
53.55630674803816
 21
120.7809408773229
 31
0.0
 70
    32
 71
     5
 42
50.00000000000004
  3
Standard
100
AcDbAlignedDimension
 13
66.30142972907707
 23
95.78094087732294
 33
0.0
 14
92.36398641144747
 24
145.7809408773229
 34
0.0
 50
90.0
100
AcDbRotatedDimension
1001
ACAD
1000
DSTYLE
1002
{
1070
    41
1040
3.5
1070
    42
1040
1.0
1070
    43
1040
7.0
1070
    44
1040
1.0
1070
    73
1070
     0
1070
    74
1070
     0
1070
    77
1070
     1
1070
    78
1070
     8
1070
    79
1070
     2
1070
   140
1040
3.5
1070
   141
1040
1.5
1070
   146
1040
0.5142857142857144
1070
   147
1040
1.5
1070
   172
1070
     1
1070
   178
1070
     1
1070
   179
1070
     2
1070
   271
1070
     2
1070
   272
1070
     2
1070
   284
1070
     8
1070
   285
1070
     8
1070
   286
1070
     8
1002
}
  0
DIMENSION
  5
9A3
330
1E
100
AcDbEntity
  8
BEM
100
AcDbDimension
  2
*D4
 10
49.65149332104057
 20
263.780940877323
 30
0.0
 11
46.40149332104052
 21
179.7809408773229
 31
0.0
 70
    32
 71
     5
 42
168.0
  3
Standard
100
AcDbAlignedDimension
 13
66.30142972907707
 23
95.78094087732294
 33
0.0
 14
63.34674364282374
 24
263.780940877323
 34
0.0
 50
90.0
100
AcDbRotatedDimension
1001
ACAD
1000
DSTYLE
1002
{
1070
    41
1040
3.5
1070
    42
1040
1.0
1070
    43
1040
7.0
1070
    44
1040
1.0
1070
    73
1070
     0
1070
    74
1070
     0
1070
    77
1070
     1
1070
    78
1070
     8
1070
    79
1070
     2
1070
   140
1040
3.5
1070
   141
1040
1.5
1070
   146
1040
0.5142857142857144
1070
   147
1040
1.5
1070
   172
1070
     1
1070
   178
1070
     1
1070
   179
1070
     2
1070
   271
1070
     2
1070
   272
1070
     2
1070
   284
1070
     8
1070
   285
1070
     8
1070
   286
1070
     8
1002
}
  0
LINE
  5
B7E
330
1E
100
AcDbEntity
  8
STEMPEL
100
AcDbLine
 10
186.0578141273731
 20
206.2363914600647
 30
0.0
 11
152.8194369941892
 21
239.4747685932486
 31
0.0
  0
LINE
  5
B7F
330
1E
100
AcDbEntity
  8
HILF
100
AcDbLine
 10
139.9335873182719
 20
225.2334852633611
 30
0.0
 11
171.8165307974856
 21
193.3505417841474
 31
0.0
  0
LINE
  5
B80
330
1E
100
AcDbEntity
  8
HILF
100
AcDbLine
 10
134.2600392848488
 20
218.8806829680065
 30
0.0
 11
165.463728502131
 21
187.6769937507243
 31
0.0
  0
LINE
  5
B81
330
1E
100
AcDbEntity
  8
HILF
100
AcDbLine
 10
132.7155485257374
 20
214.8076991872073
 30
0.0
 11
161.3907447213317
 21
186.1325029916129
 31
0.0
  0
LINE
  5
B97
330
1E
100
AcDbEntity
  8
MITTEL
100
AcDbLine
 10
172.9741594667138
 20
226.3911139325894
 30
0.0
 11
102.4466722502197
 21
155.8636267160953
 31
0.0
  0
ARC
  5
BBD
330
1E
100
AcDbEntity
  8
STEMPEL
100
AcDbCircle
 10
158.5220647059942
 20
224.5255198769902
 30
0.0
 40
16.0
100
AcDbArc
 50
110.8801443097408
 51
134.9999999999999
  0
LINE
  5
BC0
330
1E
100
AcDbEntity
  8
STEMPEL
100
AcDbLine
 10
138.0430844760985
 20
224.5526363015045
 30
0.0
 11
134.9879410949738
 21
221.4974929203798
 31
0.0
  0
ARC
  5
BC4
330
1E
100
AcDbEntity
  8
STEMPEL
100
AcDbCircle
 10
141.705455516246
 20
214.7799784991076
 30
0.0
 40
9.5
100
AcDbArc
 50
134.9999999999999
 51
167.3107790801092
  0
ARC
  5
BC6
330
1E
100
AcDbEntity
  8
STEMPEL
100
AcDbCircle
 10
157.3944757568307
 20
218.4481834595209
 30
0.0
 40
19.49984481626527
100
AcDbArc
 50
135.0
 51
153.1939705983844
  0
ARC
  5
BC8
330
1E
100
AcDbEntity
  8
STEMPEL
100
AcDbCircle
 10
130.6184632736398
 20
231.9772575039632
 30
0.0
 40
10.5
100
AcDbArc
 50
315.0
 51
333.1939705983844
  0
LINE
  5
BC9
330
1E
100
AcDbEntity
  8
STEMPEL
100
AcDbLine
 10
147.2083562070093
 20
235.839228375975
 30
0.0
 11
143.6058935236929
 21
232.2367656926586
 31
0.0
  0
ARC
  5
BF3
330
1E
100
AcDbEntity
  8
STEMPEL
100
AcDbCircle
 10
171.1085654111147
 20
211.9390191718696
 30
0.0
 40
16.0
100
AcDbArc
 50
315.0
 51
339.1198556902604
  0
LINE
  5
BF6
330
1E
100
AcDbEntity
  8
STEMPEL
100
AcDbLine
 10
171.1356818356289
 20
191.460038941974
 30
0.0
 11
168.0805384545042
 21
188.4048955608493
 31
0.0
  0
LINE
  5
C00
102
{ACAD_REACTORS
330
FDC
102
}
330
1E
100
AcDbEntity
  8
STEMPEL
100
AcDbLine
 10
160.5251547733058
 20
184.2436244293464
 30
0.0
 11
118.8639864114477
 21
142.5824560674884
 31
0.0
  0
ARC
  5
C01
330
1E
100
AcDbEntity
  8
STEMPEL
100
AcDbCircle
 10
161.3630240332321
 20
195.1224099821215
 30
0.0
 40
9.5
100
AcDbArc
 50
282.6892209198908
 51
315.0
  0
ARC
  5
C03
330
1E
100
AcDbEntity
  8
STEMPEL
100
AcDbCircle
 10
164.7677954604251
 20
180.0009837422271
 30
0.0
 40
6.0
100
AcDbArc
 50
102.6892209198907
 51
134.9999999999999
  0
ARC
  5
C06
330
1E
100
AcDbEntity
  8
STEMPEL
100
AcDbCircle
 10
165.0312289936454
 20
210.8114302227062
 30
0.0
 40
19.49984481626527
100
AcDbArc
 50
296.8060294016155
 51
314.9999999999999
  0
ARC
  5
C08
330
1E
100
AcDbEntity
  8
STEMPEL
100
AcDbCircle
 10
178.5603030380878
 20
184.0354177395153
 30
0.0
 40
10.5
100
AcDbArc
 50
116.8060294016155
 51
135.0
  0
LINE
  5
C0A
330
1E
100
AcDbEntity
  8
STEMPEL
100
AcDbLine
 10
182.4222739100994
 20
200.6253106728848
 30
0.0
 11
178.819811226783
 21
197.0228479895684
 31
0.0
  0
POINT
  5
C0E
330
1E
100
AcDbEntity
  8
STEMPEL
100
AcDbPoint
 10
186.0578141273731
 20
206.2363914600647
 30
0.0
  0
DIMENSION
  5
D47
330
1E
100
AcDbEntity
  8
BEM
100
AcDbDimension
  2
*D5
 10
193.3225102294087
 20
198.9716953580291
 30
0.0
 11
152.4870936158858
 21
162.7324728222184
 31
0.0
 70
    32
 71
     5
 42
108.9999999999999
 51
357.0
  3
Standard
100
AcDbAlignedDimension
 13
92.36398641144743
 23
145.7809408773229
 33
0.0
 14
186.0578141273731
 24
206.2363914600648
 34
0.0
 50
45.00000000000029
100
AcDbRotatedDimension
1001
ACAD
1000
DSTYLE
1002
{
1070
    41
1040
3.5
1070
    42
1040
1.0
1070
    43
1040
7.0
1070
    44
1040
1.0
1070
    73
1070
     0
1070
    74
1070
     0
1070
    77
1070
     1
1070
    78
1070
     8
1070
    79
1070
     2
1070
   140
1040
3.5
1070
   141
1040
1.5
1070
   146
1040
0.5142857142857144
1070
   147
1040
1.5
1070
   172
1070
     1
1070
   178
1070
     1
1070
   179
1070
     2
1070
   271
1070
     2
1070
   272
1070
     2
1070
   284
1070
     8
1070
   285
1070
     8
1070
   286
1070
     8
1002
}
  0
LINE
  5
E2A
330
1E
100
AcDbEntity
  8
MITTEL
100
AcDbLine
 10
96.85799988013732
 20
150.2749543460128
 30
0.0
 11
92.36398641144743
 21
145.7809408773229
 31
0.0
  0
LINE
  5
F1F
102
{ACAD_REACTORS
330
FCD
102
}
330
1E
100
AcDbEntity
  8
STEMPEL
100
AcDbLine
 10
130.8266699634708
 20
213.9421092391813
 30
0.0
 11
118.8639864114477
 21
201.9794256871581
 31
0.0
  0
ARC
  5
F20
330
1E
100
AcDbEntity
  8
STEMPEL
100
AcDbCircle
 10
126.5840292763515
 20
218.1847499263006
 30
0.0
 40
6.0
100
AcDbArc
 50
315.0000000000002
 51
347.3107790801094
  0
DIMENSION
  5
F24
330
1E
100
AcDbEntity
  8
BEM
100
AcDbDimension
  2
*D8
 10
112.8762339143804
 20
136.5947035704211
 30
0.0
 11
100.3250885483193
 21
153.7420430141951
 31
0.0
 70
    32
  1
%%c<>
 71
     5
 42
42.00000000000021
 51
45.00000000000045
  3
Standard
100
AcDbAlignedDimension
 13
118.8639864114476
 23
201.979425687158
 33
0.0
 14
118.8639864114477
 24
142.5824560674883
 34
0.0
 50
314.9999999999995
100
AcDbRotatedDimension
1001
ACAD
1000
DSTYLE
1002
{
1070
    41
1040
3.5
1070
    42
1040
1.0
1070
    43
1040
7.0
1070
    44
1040
1.0
1070
    73
1070
     0
1070
    74
1070
     0
1070
    77
1070
     1
1070
    78
1070
     8
1070
    79
1070
     2
1070
   140
1040
3.5
1070
   141
1040
1.5
1070
   146
1040
0.5142857142857144
1070
   147
1040
1.5
1070
   172
1070
     1
1070
   178
1070
     1
1070
   179
1070
     2
1070
   271
1070
     2
1070
   272
1070
     2
1070
   284
1070
     8
1070
   285
1070
     8
1070
   286
1070
     8
1002
}
  0
DIMENSION
  5
F45
330
1E
100
AcDbEntity
  8
BEM
100
AcDbDimension
  2
*D9
 10
92.36398641144752
 20
90.7809408773229
 30
0.0
 11
143.7111889466073
 21
269.7440536276245
 31
0.0
 70
    34
 71
     5
 42
0.7853981633974483
 51
45.00000000000045
  3
Standard
100
AcDb2LineAngularDimension
 13
172.9741594667138
 23
226.3911139325894
 33
0.0
 14
104.5407845497539
 24
157.9577390156294
 34
0.0
 15
92.36398641144736
 25
268.7809408773229
 35
0.0
 16
157.8273395938938
 26
259.1667946231461
 36
0.0
1001
ACAD
1000
DSTYLE
1002
{
1070
    41
1040
3.5
1070
    42
1040
1.0
1070
    43
1040
7.0
1070
    44
1040
1.0
1070
    73
1070
     0
1070
    74
1070
     0
1070
    77
1070
     1
1070
    78
1070
     8
1070
    79
1070
     2
1070
   140
1040
3.5
1070
   141
1040
1.5
1070
   146
1040
0.5142857142857144
1070
   147
1040
1.5
1070
   172
1070
     1
1070
   178
1070
     1
1070
   179
1070
     2
1070
   271
1070
     2
1070
   272
1070
     2
1070
   284
1070
     8
1070
   285
1070
     8
1070
   286
1070
     8
1002
}
  0
ELLIPSE
  5
FAC
330
1E
100
AcDbEntity
  8
STEMPEL
100
AcDbEllipse
 10
118.8639864114477
 20
161.9441707525676
 30
0.0
 11
0.0000000000000532
 21
-19.36171468507919
 31
0.0
210
0.0
220
0.0
230
1.0
 40
0.5338767920550707
 41
4.712388980384689
 42
6.283185307179586
  0
ARC
  5
FB9
330
1E
100
AcDbEntity
  8
SCHRAFF
100
AcDbCircle
 10
108.7280257023631
 20
169.7972081300751
 30
0.0
 40
5.0
100
AcDbArc
 50
244.3419978698738
 51
291.5041662336067
  0
ARC
  5
FBA
330
1E
100
AcDbEntity
  8
SCHRAFF
100
AcDbCircle
 10
108.5535531919781
 20
164.8002531229604
 30
0.0
 40
5.0
100
AcDbArc
 50
246.5837301841301
 51
293.7899642917658
  0
ARC
  5
FBB
330
1E
100
AcDbEntity
  8
SCHRAFF
100
AcDbCircle
 10
108.5907734508743
 20
159.8003916596469
 30
0.0
 40
5.0
100
AcDbArc
 50
253.5533936197611
 51
300.8298537440525
  0
ARC
  5
FBC
330
1E
100
AcDbEntity
  8
SCHRAFF
100
AcDbCircle
 10
109.2473961852962
 20
154.8436945149103
 30
0.0
 40
5.0
100
AcDbArc
 50
262.7928274840532
 51
310.1521004029282
  0
ARC
  5
FBD
330
1E
100
AcDbEntity
  8
SCHRAFF
100
AcDbCircle
 10
110.7033319893988
 20
150.0603639875099
 30
0.0
 40
5.0
100
AcDbArc
 50
275.5341083379172
 51
323.2012519337059
  0
ARC
  5
FBE
330
1E
100
AcDbEntity
  8
SCHRAFF
100
AcDbCircle
 10
113.2108189921956
 20
145.7345682305648
 30
0.0
 40
5.0
100
AcDbArc
 50
298.0873590195336
 51
347.6612169541703
  0
ARC
  5
FC2
102
{ACAD_REACTORS
330
FCD
102
}
330
1E
100
AcDbEntity
  8
SCHRAFF
100
AcDbCircle
 10
118.8639864114477
 20
201.9794256871581
 30
0.0
 40
2.0
100
AcDbArc
 50
45.00000000000057
 51
90.0
  0
HATCH
  5
FCD
330
1E
100
AcDbEntity
  8
SCHRAFF
100
AcDbHatch
 10
0.0
 20
0.0
 30
0.0
210
0.0
220
0.0
230
1.0
  2
_USER
 70
     0
 71
     1
 91
        1
 92
        7
 72
     1
 73
     1
 93
        3
 10
120.2781999738208
 20
203.3936392495312
 42
0.1989123673796572
 10
118.8639864114477
 20
203.9794256871581
 42
0.0
 10
118.8639864114477
 20
201.9794256871581
 42
0.0
 97
        3
330
FC2
330
8EA
330
F1F
 75
     0
 76
     0
 52
0.0
 41
0.1
 77
     0
 78
     1
 53
0.0
 43
0.0
 44
0.0
 45
0.0
 46
0.1
 79
     0
 47
0.0730208049878942
 98
        1
 10
119.1478478065989
 20
203.1165514413124
  0
ARC
  5
FCF
102
{ACAD_REACTORS
330
FDC
102
}
330
1E
100
AcDbEntity
  8
SCHRAFF
100
AcDbCircle
 10
116.4103881741338
 20
143.5987697339986
 30
0.0
 40
3.888224844955079
100
AcDbArc
 50
309.1263775136989
 51
5.873622486300691
  0
HATCH
  5
FDC
330
1E
100
AcDbEntity
  8
SCHRAFF
100
AcDbHatch
 10
0.0
 20
0.0
 30
0.0
210
0.0
220
0.0
230
1.0
  2
_USER
 70
     0
 71
     1
 91
        1
 92
        7
 72
     1
 73
     1
 93
        3
 10
120.2781999738209
 20
143.9966696298615
 42
0.0
 10
118.8639864114478
 20
142.5824560674884
 42
0.0
 10
118.8639864114478
 20
140.5824560674884
 42
0.2527939894043616
 97
        3
330
C00
330
92E
330
FCF
 75
     0
 76
     0
 52
0.0
 41
0.1
 77
     0
 78
     1
 53
0.0
 43
0.0
 44
0.0
 45
0.0
 46
0.1
 79
     0
 47
0.0399098671145347
 98
        1
 10
119.5668759760235
 20
142.0862506311066
  0
ARC
  5
FEB
330
1E
100
AcDbEntity
  8
STEMPEL
100
AcDbCircle
 10
186.434996598673
 20
163.1810908423946
 30
0.0
 40
77.91759881084948
100
AcDbArc
 50
150.1361564300445
 51
180.9095926824439
  0
ARC
  5
FF1
330
1E
100
AcDbEntity
  8
SCHRAFF
100
AcDbCircle
 10
109.3825031888911
 20
174.7597550047238
 30
0.0
 40
5.0
100
AcDbArc
 50
239.5503693043857
 51
286.7283685154283
  0
ARC
  5
FF2
330
1E
100
AcDbEntity
  8
SCHRAFF
100
AcDbCircle
 10
110.2837723439794
 20
179.6778556452238
 30
0.0
 40
5.0
100
AcDbArc
 50
235.8730476498251
 51
283.0510468608677
  0
ARC
  5
FF3
330
1E
100
AcDbEntity
  8
SCHRAFF
100
AcDbCircle
 10
111.498619637493
 20
184.5280253384863
 30
0.0
 40
5.0
100
AcDbArc
 50
232.1957259952646
 51
279.3737252063073
  0
ARC
  5
FF4
330
1E
100
AcDbEntity
  8
SCHRAFF
100
AcDbCircle
 10
113.0220425293349
 20
189.2902918884194
 30
0.0
 40
5.0
100
AcDbArc
 50
228.5184043407043
 51
275.6964035517469
  0
ARC
  5
FF5
330
1E
100
AcDbEntity
  8
SCHRAFF
100
AcDbCircle
 10
114.8477678161634
 20
193.9450450695274
 30
0.0
 40
5.0
100
AcDbArc
 50
224.841082686144
 51
272.0190818971866
  0
ARC
  5
FF6
330
1E
100
AcDbEntity
  8
SCHRAFF
100
AcDbCircle
 10
116.9682774634057
 20
198.4731173785738
 30
0.0
 40
5.0
100
AcDbArc
 50
221.1637610315835
 51
268.3417602426263
  0
ARC
  5
FF7
330
1E
100
AcDbEntity
  8
SCHRAFF
100
AcDbCircle
 10
119.5845607242896
 20
202.7
 30
0.0
 40
5.0
100
AcDbArc
 50
214.1739108396569
 51
261.5164118498586
  0
TEXT
  5
100A
330
1E
100
AcDbEntity
  8
BEM
100
AcDbText
 10
208.2905770718718
 20
6.074024076691515
 30
0.0
 40
2.0
  1
Diese Zeichnung ist urheberrechtlich geschützt und bleibt unser Eigentum. Sie darf weder ganz noch teilweise vervielfältigt und nicht an Dritte weitergegeben werden.
 50
90.0
 41
0.8
  7
GREEKS
100
AcDbText
  0
TEXT
  5
100B
330
1E
100
AcDbEntity
  8
TEXT
100
AcDbText
 10
96.34413576239619
 20
44.50323185339641
 30
0.0
 40
2.0
  1
DIN EN1124-3
 41
0.8
  7
GREEKS
 72
     1
 11
104.8393738576343
 21
44.50323185339641
 31
0.0
100
AcDbText
  0
TEXT
  5
100C
330
1E
100
AcDbEntity
  8
TEXT
100
AcDbText
 10
33.49933939241158
 20
9.336909474920659
 30
0.0
 40
2.0
  1
Änderung
 41
0.8
  7
GREEKS
 72
     1
 11
38.87076796384015
 21
9.336909474920659
 31
0.0
100
AcDbText
  0
TEXT
  5
100D
330
1E
100
AcDbEntity
  8
TEXT
100
AcDbText
 10
55.17481598333814
 20
9.33578134669905
 30
0.0
 40
2.0
  1
Tag
 41
0.8
  7
GREEKS
 72
     1
 11
57.04148265000481
 21
9.33578134669905
 31
0.0
100
AcDbText
  0
TEXT
  5
100E
330
1E
100
AcDbEntity
  8
TEXT
100
AcDbText
 10
64.61958341495059
 20
9.29662108483204
 30
0.0
 40
2.0
  1
Name
 41
0.8
  7
GREEKS
 72
     1
 11
67.78148817685536
 21
9.29662108483204
 31
0.0
100
AcDbText
  0
ENDSEC
  0
SECTION
  2
OBJECTS
  0
DICTIONARY
  5
C
330
0
100
AcDbDictionary
281
     1
  3
ACAD_COLOR
350
FFF
  3
ACAD_GROUP
350
D
  3
ACAD_LAYOUT
350
19
  3
ACAD_MATERIAL
350
FFE
  3
ACAD_MLINESTYLE
350
16
  3
ACAD_PLOTSETTINGS
350
18
  3
ACAD_PLOTSTYLENAME
350
E
  3
AcDbVariableDictionary
350
246
  0
DICTIONARY
  5
FFF
102
{ACAD_REACTORS
330
C
102
}
330
C
100
AcDbDictionary
281
     1
  0
DICTIONARY
  5
D
102
{ACAD_REACTORS
330
C
102
}
330
C
100
AcDbDictionary
281
     1
  0
DICTIONARY
  5
19
102
{ACAD_REACTORS
330
C
102
}
330
C
100
AcDbDictionary
281
     1
  3
Layout1
350
1D
  3
Model
350
21
  0
DICTIONARY
  5
FFE
102
{ACAD_REACTORS
330
C
102
}
330
C
100
AcDbDictionary
281
     1
  0
DICTIONARY
  5
16
102
{ACAD_REACTORS
330
C
102
}
330
C
100
AcDbDictionary
281
     1
  3
Standard
350
17
  0
DICTIONARY
  5
18
102
{ACAD_REACTORS
330
C
102
}
330
C
100
AcDbDictionary
281
     1
  0
ACDBDICTIONARYWDFLT
  5
E
102
{ACAD_REACTORS
330
C
102
}
330
C
100
AcDbDictionary
281
     1
  3
Normal
350
F
100
AcDbDictionaryWithDefault
340
F
  0
DICTIONARY
  5
246
102
{ACAD_REACTORS
330
C
102
}
330
C
100
AcDbDictionary
281
     1
  3
DIMASSOC
350
1017
  3
PROJECTNAME
350
1018
  3
SORTENTS
350
247
  0
LAYOUT
  5
1D
102
{ACAD_REACTORS
330
19
102
}
330
19
100
AcDbPlotSettings
  1

  2
Tektronix Phaser 740
  4

  6

 40
0.0
 41
0.0
 42
0.0
 43
0.0
 44
0.0
 45
0.0
 46
0.0
 47
0.0
 48
0.0
 49
0.0
140
0.0
141
0.0
142
1.0
143
1.0
 70
   688
 72
     0
 73
     0
 74
     5
  7
monochrome.ctb
 75
    16
147
1.0
 76
     0
 77
     2
 78
   300
148
0.0
149
0.0
100
AcDbLayout
  1
Layout1
 70
     0
 71
     1
 10
0.0
 20
0.0
 11
12.0
 21
9.0
 12
0.0
 22
0.0
 32
0.0
 14
1.000000000000000E+20
 24
1.000000000000000E+20
 34
1.000000000000000E+20
 15
-1.000000000000000E+20
 25
-1.000000000000000E+20
 35
-1.000000000000000E+20
146
0.0
 13
0.0
 23
0.0
 33
0.0
 16
1.0
 26
0.0
 36
0.0
 17
0.0
 27
1.0
 37
0.0
 76
     0
330
1A
  0
LAYOUT
  5
21
102
{ACAD_REACTORS
330
19
102
}
330
19
100
AcDbPlotSettings
  1

  2
Tektronix Phaser 740
  4
A4
  6

 40
5.873749732971191
 41
6.085414409637451
 42
5.577407836914062
 43
5.662078857421875
 44
209.9733276367187
 45
296.9683227539062
 46
0.0
 47
0.0
 48
0.0
 49
0.0
140
0.0
141
0.0
142
1.0
143
1.0
 70
 11952
 72
     0
 73
     1
 74
     0
  7
monochrome.ctb
 75
     0
147
1.0
 76
     0
 77
     2
 78
   300
148
1150.120678237584
149
45.30495740799864
100
AcDbLayout
  1
Model
 70
     1
 71
     0
 10
0.0
 20
0.0
 11
12.0
 21
9.0
 12
0.0
 22
0.0
 32
0.0
 14
0.0
 24
0.0
 34
0.0
 15
0.0
 25
0.0
 35
0.0
146
0.0
 13
0.0
 23
0.0
 33
0.0
 16
1.0
 26
0.0
 36
0.0
 17
0.0
 27
1.0
 37
0.0
 76
     0
330
1E
  0
MLINESTYLE
  5
17
102
{ACAD_REACTORS
330
16
102
}
330
16
100
AcDbMlineStyle
  2
STANDARD
 70
     0
  3

 62
   256
 51
90.0
 52
90.0
 71
     2
 49
0.5
 62
   256
  6
BYLAYER
 49
-0.5
 62
   256
  6
BYLAYER
  0
ACDBPLACEHOLDER
  5
F
102
{ACAD_REACTORS
330
E
102
}
330
E
  0
DICTIONARYVAR
  5
1017
102
{ACAD_REACTORS
330
246
102
}
330
246
100
DictionaryVariables
280
     0
  1
1
  0
DICTIONARYVAR
  5
1018
102
{ACAD_REACTORS
330
246
102
}
330
246
100
DictionaryVariables
280
     0
  1

  0
DICTIONARYVAR
  5
247
102
{ACAD_REACTORS
330
246
102
}
330
246
100
DictionaryVariables
280
     0
  1
96
  0
ENDSEC
  0
EOF
