  0
SECTION
  2
HEADER
  9
$ACADVER
  1
AC1018
  9
$ACADMAINTVER
 70
     2
  9
$DWGCODEPAGE
  3
ANSI_1252
  9
$INSBASE
 10
0.0
 20
0.0
 30
0.0
  9
$EXTMIN
 10
-0.006327692134164
 20
-0.0092606821199297
 30
-0.0000000000000021
  9
$EXTMAX
 10
441.7513547857846
 20
611.392862501928
 30
0.0000000000000132
  9
$LIMMIN
 10
0.0
 20
0.0
  9
$LIMMAX
 10
419.9999999999999
 20
594.0
  9
$ORTHOMODE
 70
     1
  9
$REGENMODE
 70
     1
  9
$FILLMODE
 70
     1
  9
$QTEXTMODE
 70
     0
  9
$MIRRTEXT
 70
     1
  9
$LTSCALE
 40
20.0
  9
$ATTMODE
 70
     1
  9
$TEXTSIZE
 40
3.5
  9
$TRACEWID
 40
0.5
  9
$TEXTSTYLE
  7
STANDARD
  9
$CLAYER
  8
SCHRAFF
  9
$CELTYPE
  6
ByLayer
  9
$CECOLOR
 62
   256
  9
$CELTSCALE
 40
1.0
  9
$DISPSILH
 70
     0
  9
$DIMSCALE
 40
2.0
  9
$DIMASZ
 40
3.5
  9
$DIMEXO
 40
1.0
  9
$DIMDLI
 40
7.0
  9
$DIMRND
 40
0.0
  9
$DIMDLE
 40
0.0
  9
$DIMEXE
 40
1.0
  9
$DIMTP
 40
0.0
  9
$DIMTM
 40
0.0
  9
$DIMTXT
 40
3.5
  9
$DIMCEN
 40
1.5
  9
$DIMTSZ
 40
0.0
  9
$DIMTOL
 70
     0
  9
$DIMLIM
 70
     0
  9
$DIMTIH
 70
     0
  9
$DIMTOH
 70
     0
  9
$DIMSE1
 70
     0
  9
$DIMSE2
 70
     0
  9
$DIMTAD
 70
     1
  9
$DIMZIN
 70
     8
  9
$DIMBLK
  1

  9
$DIMASO
 70
     1
  9
$DIMSHO
 70
     0
  9
$DIMPOST
  1

  9
$DIMAPOST
  1

  9
$DIMALT
 70
     0
  9
$DIMALTD
 70
     2
  9
$DIMALTF
 40
25.4
  9
$DIMLFAC
 40
1.0
  9
$DIMTOFL
 70
     1
  9
$DIMTVP
 40
0.0
  9
$DIMTIX
 70
     0
  9
$DIMSOXD
 70
     0
  9
$DIMSAH
 70
     0
  9
$DIMBLK1
  1

  9
$DIMBLK2
  1

  9
$DIMSTYLE
  2
Standard
  9
$DIMCLRD
 70
     0
  9
$DIMCLRE
 70
     0
  9
$DIMCLRT
 70
     1
  9
$DIMTFAC
 40
0.5142857142857144
  9
$DIMGAP
 40
1.5
  9
$DIMJUST
 70
     0
  9
$DIMSD1
 70
     0
  9
$DIMSD2
 70
     0
  9
$DIMTOLJ
 70
     1
  9
$DIMTZIN
 70
     8
  9
$DIMALTZ
 70
     8
  9
$DIMALTTZ
 70
     8
  9
$DIMUPT
 70
     0
  9
$DIMDEC
 70
     2
  9
$DIMTDEC
 70
     2
  9
$DIMALTU
 70
     2
  9
$DIMALTTD
 70
     2
  9
$DIMTXSTY
  7
STANDARD
  9
$DIMAUNIT
 70
     0
  9
$DIMADEC
 70
     2
  9
$DIMALTRND
 40
0.0
  9
$DIMAZIN
 70
     2
  9
$DIMDSEP
 70
    46
  9
$DIMATFIT
 70
     3
  9
$DIMFRAC
 70
     0
  9
$DIMLDRBLK
  1

  9
$DIMLUNIT
 70
     2
  9
$DIMLWD
 70
    -2
  9
$DIMLWE
 70
    -2
  9
$DIMTMOVE
 70
     0
  9
$LUNITS
 70
     2
  9
$LUPREC
 70
     2
  9
$SKETCHINC
 40
1.0
  9
$FILLETRAD
 40
0.0
  9
$AUNITS
 70
     1
  9
$AUPREC
 70
     3
  9
$MENU
  1
ACAD
  9
$ELEVATION
 40
0.0
  9
$PELEVATION
 40
0.0
  9
$THICKNESS
 40
0.0
  9
$LIMCHECK
 70
     0
  9
$CHAMFERA
 40
0.0
  9
$CHAMFERB
 40
0.0
  9
$CHAMFERC
 40
0.0
  9
$CHAMFERD
 40
0.0
  9
$SKPOLY
 70
     0
  9
$TDCREATE
 40
2452040.637099653
  9
$TDUCREATE
 40
2452040.553766320
  9
$TDUPDATE
 40
2455660.355253160
  9
$TDUUPDATE
 40
2455660.271919827
  9
$TDINDWG
 40
0.2801898495
  9
$TDUSRTIMER
 40
0.2801898495
  9
$USRTIMER
 70
     1
  9
$ANGBASE
 50
0.0
  9
$ANGDIR
 70
     0
  9
$PDMODE
 70
     0
  9
$PDSIZE
 40
0.0
  9
$PLINEWID
 40
0.0
  9
$SPLFRAME
 70
     0
  9
$SPLINETYPE
 70
     6
  9
$SPLINESEGS
 70
     8
  9
$HANDSEED
  5
1C1F
  9
$SURFTAB1
 70
     6
  9
$SURFTAB2
 70
     6
  9
$SURFTYPE
 70
     6
  9
$SURFU
 70
     6
  9
$SURFV
 70
     6
  9
$UCSBASE
  2

  9
$UCSNAME
  2

  9
$UCSORG
 10
0.0
 20
0.0
 30
0.0
  9
$UCSXDIR
 10
1.0
 20
0.0
 30
0.0
  9
$UCSYDIR
 10
0.0
 20
1.0
 30
0.0
  9
$UCSORTHOREF
  2

  9
$UCSORTHOVIEW
 70
     0
  9
$UCSORGTOP
 10
0.0
 20
0.0
 30
0.0
  9
$UCSORGBOTTOM
 10
0.0
 20
0.0
 30
0.0
  9
$UCSORGLEFT
 10
0.0
 20
0.0
 30
0.0
  9
$UCSORGRIGHT
 10
0.0
 20
0.0
 30
0.0
  9
$UCSORGFRONT
 10
0.0
 20
0.0
 30
0.0
  9
$UCSORGBACK
 10
0.0
 20
0.0
 30
0.0
  9
$PUCSBASE
  2

  9
$PUCSNAME
  2

  9
$PUCSORG
 10
0.0
 20
0.0
 30
0.0
  9
$PUCSXDIR
 10
1.0
 20
0.0
 30
0.0
  9
$PUCSYDIR
 10
0.0
 20
1.0
 30
0.0
  9
$PUCSORTHOREF
  2

  9
$PUCSORTHOVIEW
 70
     0
  9
$PUCSORGTOP
 10
0.0
 20
0.0
 30
0.0
  9
$PUCSORGBOTTOM
 10
0.0
 20
0.0
 30
0.0
  9
$PUCSORGLEFT
 10
0.0
 20
0.0
 30
0.0
  9
$PUCSORGRIGHT
 10
0.0
 20
0.0
 30
0.0
  9
$PUCSORGFRONT
 10
0.0
 20
0.0
 30
0.0
  9
$PUCSORGBACK
 10
0.0
 20
0.0
 30
0.0
  9
$USERI1
 70
     0
  9
$USERI2
 70
     0
  9
$USERI3
 70
     0
  9
$USERI4
 70
     0
  9
$USERI5
 70
     0
  9
$USERR1
 40
0.0
  9
$USERR2
 40
0.0
  9
$USERR3
 40
0.0
  9
$USERR4
 40
0.0
  9
$USERR5
 40
0.0
  9
$WORLDVIEW
 70
     1
  9
$SHADEDGE
 70
     3
  9
$SHADEDIF
 70
    70
  9
$TILEMODE
 70
     1
  9
$MAXACTVP
 70
    16
  9
$PINSBASE
 10
0.0
 20
0.0
 30
0.0
  9
$PLIMCHECK
 70
     0
  9
$PEXTMIN
 10
1.000000000000000E+20
 20
1.000000000000000E+20
 30
1.000000000000000E+20
  9
$PEXTMAX
 10
-1.000000000000000E+20
 20
-1.000000000000000E+20
 30
-1.000000000000000E+20
  9
$PLIMMIN
 10
0.0
 20
0.0
  9
$PLIMMAX
 10
12.0
 20
9.0
  9
$UNITMODE
 70
     0
  9
$VISRETAIN
 70
     0
  9
$PLINEGEN
 70
     0
  9
$PSLTSCALE
 70
     0
  9
$TREEDEPTH
 70
  3020
  9
$CMLSTYLE
  2
Standard
  9
$CMLJUST
 70
     0
  9
$CMLSCALE
 40
1.0
  9
$PROXYGRAPHICS
 70
     1
  9
$MEASUREMENT
 70
     0
  9
$CELWEIGHT
370
    -1
  9
$ENDCAPS
280
     0
  9
$JOINSTYLE
280
     0
  9
$LWDISPLAY
290
     0
  9
$INSUNITS
 70
     0
  9
$HYPERLINKBASE
  1

  9
$STYLESHEET
  1
monochrome 1.ctb
  9
$XEDIT
290
     1
  9
$CEPSNTYPE
380
     0
  9
$PSTYLEMODE
290
     1
  9
$FINGERPRINTGUID
  2
{7AADB5C8-6110-11D8-B72B-000102183313}
  9
$VERSIONGUID
  2
{B8DE532D-2C2A-4784-8AF4-67E517C7096E}
  9
$EXTNAMES
290
     1
  9
$PSVPSCALE
 40
0.0
  9
$OLESTARTUP
290
     0
  9
$SORTENTS
280
    96
  9
$INDEXCTL
280
     0
  9
$HIDETEXT
280
     0
  9
$XCLIPFRAME
290
     0
  9
$HALOGAP
280
     0
  9
$OBSCOLOR
 70
   257
  9
$OBSLTYPE
280
     0
  9
$INTERSECTIONDISPLAY
280
     0
  9
$INTERSECTIONCOLOR
 70
   257
  9
$DIMASSOC
280
     1
  9
$PROJECTNAME
  1

  0
ENDSEC
  0
SECTION
  2
CLASSES
  0
CLASS
  1
ACDBDICTIONARYWDFLT
  2
AcDbDictionaryWithDefault
  3
ObjectDBX Classes
 90
        0
 91
        1
280
     0
281
     0
  0
CLASS
  1
DICTIONARYVAR
  2
AcDbDictionaryVar
  3
ObjectDBX Classes
 90
        0
 91
        3
280
     0
281
     0
  0
ENDSEC
  0
SECTION
  2
TABLES
  0
TABLE
  2
VPORT
  5
8
330
0
100
AcDbSymbolTable
 70
     3
  0
VPORT
  5
1C1E
330
8
100
AcDbSymbolTableRecord
100
AcDbViewportTableRecord
  2
*Active
 70
     0
 10
0.0
 20
0.0
 11
1.0
 21
1.0
 12
210.0
 22
297.0
 13
0.0
 23
0.0
 14
1.0
 24
1.0
 15
10.0
 25
10.0
 16
0.0
 26
0.0
 36
1.0
 17
0.0
 27
0.0
 37
0.0
 40
594.0
 41
1.334231805929919
 42
50.0
 43
0.0
 44
0.0
 50
0.0
 51
0.0
 71
     0
 72
  1500
 73
     1
 74
     0
 75
     0
 76
     0
 77
     0
 78
     0
281
     0
 65
     1
110
0.0
120
0.0
130
0.0
111
1.0
121
0.0
131
0.0
112
0.0
122
1.0
132
0.0
 79
     0
146
0.0
  0
ENDTAB
  0
TABLE
  2
LTYPE
  5
5
330
0
100
AcDbSymbolTable
 70
     2
  0
LTYPE
  5
13
330
5
100
AcDbSymbolTableRecord
100
AcDbLinetypeTableRecord
  2
ByBlock
 70
     0
  3

 72
    65
 73
     0
 40
0.0
  0
LTYPE
  5
14
330
5
100
AcDbSymbolTableRecord
100
AcDbLinetypeTableRecord
  2
ByLayer
 70
     0
  3

 72
    65
 73
     0
 40
0.0
  0
LTYPE
  5
15
330
5
100
AcDbSymbolTableRecord
100
AcDbLinetypeTableRecord
  2
Continuous
 70
     0
  3
Solid line
 72
    65
 73
     0
 40
0.0
  0
LTYPE
  5
35
330
5
100
AcDbSymbolTableRecord
100
AcDbLinetypeTableRecord
  2
STRICHPUNKT
 70
     0
  3
__ . __ . __ . __ . __ . __ . __ . __ . __ . __
 72
    65
 73
     4
 40
1.0
 49
0.5
 74
     0
 49
-0.25
 74
     0
 49
0.0
 74
     0
 49
-0.25
 74
     0
  0
ENDTAB
  0
TABLE
  2
LAYER
  5
2
330
0
100
AcDbSymbolTable
 70
     9
  0
LAYER
  5
10
330
2
100
AcDbSymbolTableRecord
100
AcDbLayerTableRecord
  2
0
 70
     0
 62
     7
  6
Continuous
370
    -3
390
F
  0
LAYER
  5
38
330
2
100
AcDbSymbolTableRecord
100
AcDbLayerTableRecord
  2
VOLL
 70
     0
 62
     1
  6
Continuous
370
    -3
390
F
  0
LAYER
  5
39
330
2
100
AcDbSymbolTableRecord
100
AcDbLayerTableRecord
  2
HILF
 70
     0
 62
     2
  6
Continuous
370
    -3
390
F
  0
LAYER
  5
3A
330
2
100
AcDbSymbolTableRecord
100
AcDbLayerTableRecord
  2
MITTEL
 70
     0
 62
     2
  6
STRICHPUNKT
370
    -3
390
F
  0
LAYER
  5
3B
330
2
100
AcDbSymbolTableRecord
100
AcDbLayerTableRecord
  2
BEM
 70
     0
 62
     7
  6
Continuous
370
    -3
390
F
  0
LAYER
  5
3C
330
2
100
AcDbSymbolTableRecord
100
AcDbLayerTableRecord
  2
STEMPEL
 70
     0
 62
     3
  6
Continuous
370
    -3
390
F
  0
LAYER
  5
3D
330
2
100
AcDbSymbolTableRecord
100
AcDbLayerTableRecord
  2
TEXT
 70
     0
 62
     7
  6
Continuous
370
    -3
390
F
  0
LAYER
  5
3E
330
2
100
AcDbSymbolTableRecord
100
AcDbLayerTableRecord
  2
DEFPOINTS
 70
     0
 62
     7
  6
Continuous
290
     0
370
    -3
390
F
  0
LAYER
  5
3F
330
2
100
AcDbSymbolTableRecord
100
AcDbLayerTableRecord
  2
SCHRAFF
 70
     0
 62
     7
  6
Continuous
370
    -3
390
F
  0
ENDTAB
  0
TABLE
  2
STYLE
  5
3
330
0
100
AcDbSymbolTable
 70
     2
  0
STYLE
  5
11
330
3
100
AcDbSymbolTableRecord
100
AcDbTextStyleTableRecord
  2
STANDARD
 70
     0
 40
0.0
 41
0.8
 50
0.0
 71
     0
 42
3.5
  3
simplex.shx
  4

  0
STYLE
  5
34
330
3
100
AcDbSymbolTableRecord
100
AcDbTextStyleTableRecord
  2
GREEKS
 70
     0
 40
0.0
 41
0.8
 50
0.0
 71
     0
 42
2.5
  3
SIMPLEX.shx
  4

  0
ENDTAB
  0
TABLE
  2
VIEW
  5
6
330
0
100
AcDbSymbolTable
 70
     0
  0
ENDTAB
  0
TABLE
  2
UCS
  5
7
330
0
100
AcDbSymbolTable
 70
     0
  0
ENDTAB
  0
TABLE
  2
APPID
  5
9
330
0
100
AcDbSymbolTable
 70
     1
  0
APPID
  5
12
330
9
100
AcDbSymbolTableRecord
100
AcDbRegAppTableRecord
  2
ACAD
 70
     0
  0
ENDTAB
  0
TABLE
  2
DIMSTYLE
  5
A
330
0
100
AcDbSymbolTable
 70
     1
100
AcDbDimStyleTable
 71
     1
340
1CB
  0
DIMSTYLE
105
1CB
102
{ACAD_REACTORS
330
1085
330
107C
330
11E1
330
1A8B
330
1AA3
330
1B95
102
}
330
A
100
AcDbSymbolTableRecord
100
AcDbDimStyleTableRecord
  2
Standard
 70
     0
340
11
  0
ENDTAB
  0
TABLE
  2
BLOCK_RECORD
  5
1
330
0
100
AcDbSymbolTable
 70
     9
  0
BLOCK_RECORD
  5
1E
330
1
100
AcDbSymbolTableRecord
100
AcDbBlockTableRecord
  2
*Model_Space
340
21
  0
BLOCK_RECORD
  5
1A
330
1
100
AcDbSymbolTableRecord
100
AcDbBlockTableRecord
  2
*Paper_Space
340
1D
  0
BLOCK_RECORD
  5
22
330
1
100
AcDbSymbolTableRecord
100
AcDbBlockTableRecord
  2
LOGO
340
0
102
{BLKREFS
331
135
102
}
  0
BLOCK_RECORD
  5
1087
330
1
100
AcDbSymbolTableRecord
100
AcDbBlockTableRecord
  2
*D1
340
0
  0
BLOCK_RECORD
  5
1093
330
1
100
AcDbSymbolTableRecord
100
AcDbBlockTableRecord
  2
*D2
340
0
  0
BLOCK_RECORD
  5
11E2
330
1
100
AcDbSymbolTableRecord
100
AcDbBlockTableRecord
  2
*D4
340
0
  0
BLOCK_RECORD
  5
1A8C
330
1
100
AcDbSymbolTableRecord
100
AcDbBlockTableRecord
  2
*D6
340
0
  0
BLOCK_RECORD
  5
1AA4
330
1
100
AcDbSymbolTableRecord
100
AcDbBlockTableRecord
  2
*D7
340
0
  0
BLOCK_RECORD
  5
1B96
330
1
100
AcDbSymbolTableRecord
100
AcDbBlockTableRecord
  2
*D8
340
0
  0
ENDTAB
  0
ENDSEC
  0
SECTION
  2
BLOCKS
  0
BLOCK
  5
43
330
1E
100
AcDbEntity
  8
0
100
AcDbBlockBegin
  2
*Model_Space
 70
     0
 10
0.0
 20
0.0
 30
0.0
  3
*Model_Space
  1

  0
ENDBLK
  5
44
330
1E
100
AcDbEntity
  8
0
100
AcDbBlockEnd
  0
BLOCK
  5
41
330
1A
100
AcDbEntity
 67
     1
  8
0
100
AcDbBlockBegin
  2
*Paper_Space
 70
     0
 10
0.0
 20
0.0
 30
0.0
  3
*Paper_Space
  1

  0
ENDBLK
  5
42
330
1A
100
AcDbEntity
 67
     1
  8
0
100
AcDbBlockEnd
  0
BLOCK
  5
45
330
22
100
AcDbEntity
  8
0
100
AcDbBlockBegin
  2
LOGO
 70
     0
 10
0.0
 20
0.0
 30
0.0
  3
LOGO
  1

  0
ARC
  5
46
330
22
100
AcDbEntity
  8
0
100
AcDbCircle
 10
11.59973089678112
 20
-9.271599258481501
 30
0.0
 40
4.5
100
AcDbArc
 50
270.0
 51
231.0575587310159
  0
LINE
  5
47
330
22
100
AcDbEntity
  8
0
100
AcDbLine
 10
3.599730896781125
 20
-4.771599258481529
 30
0.0
 11
3.599730896781153
 21
-11.77159925848133
 31
0.0
  0
LINE
  5
48
330
22
100
AcDbEntity
  8
0
100
AcDbLine
 10
2.599730896781125
 20
-4.771599258481529
 30
0.0
 11
2.599730896781153
 21
-11.77159925848133
 31
0.0
  0
CIRCLE
  5
49
330
22
100
AcDbEntity
  8
0
100
AcDbCircle
 10
11.59973089678112
 20
-9.271599258481501
 30
0.0
 40
3.5
  0
ARC
  5
4A
330
22
100
AcDbEntity
  8
0
100
AcDbCircle
 10
31.59973089678115
 20
-9.271599258481472
 30
0.0
 40
4.5
100
AcDbArc
 50
270.0
 51
231.0575587310182
  0
LINE
  5
4B
330
22
100
AcDbEntity
  8
0
100
AcDbLine
 10
17.59973089678112
 20
-4.771599258481472
 30
0.0
 11
17.59973089678115
 21
-13.77159925848147
 31
0.0
  0
ARC
  5
4C
330
22
100
AcDbEntity
  8
0
100
AcDbCircle
 10
22.59973089678116
 20
-7.271599258481472
 30
0.0
 40
2.5
100
AcDbArc
 50
293.1161887722295
 51
90.0
  0
CIRCLE
  5
4D
330
22
100
AcDbEntity
  8
0
100
AcDbCircle
 10
31.59973089678115
 20
-9.271599258481472
 30
0.0
 40
3.5
  0
ARC
  5
4E
330
22
100
AcDbEntity
  8
0
100
AcDbCircle
 10
4.599730896781153
 20
-11.77159925848133
 30
0.0
 40
1.0
100
AcDbArc
 50
180.0
 51
270.0
  0
ARC
  5
4F
330
22
100
AcDbEntity
  8
0
100
AcDbCircle
 10
4.599730896781153
 20
-11.77159925848133
 30
0.0
 40
2.0
100
AcDbArc
 50
179.9999999999992
 51
270.0
  0
LINE
  5
50
330
22
100
AcDbEntity
  8
0
100
AcDbLine
 10
11.59973089678115
 20
-13.77159925848144
 30
0.0
 11
4.599730896781153
 21
-13.77159925848147
 31
0.0
  0
LINE
  5
51
330
22
100
AcDbEntity
  8
0
100
AcDbLine
 10
8.771303772034769
 20
-12.77159925848136
 30
0.0
 11
4.599730896781153
 21
-12.77159925848133
 31
0.0
  0
LINE
  5
52
330
22
100
AcDbEntity
  8
0
100
AcDbLine
 10
31.59973089678115
 20
-13.77159925848147
 30
0.0
 11
23.6715276665056
 21
-13.77159925848144
 31
0.0
  0
LINE
  5
53
330
22
100
AcDbEntity
  8
0
100
AcDbLine
 10
23.56565672307022
 20
-9.51278021337896
 30
0.0
 11
24.4388546544846
 21
-12.77159925848144
 31
0.0
  0
LINE
  5
54
330
22
100
AcDbEntity
  8
0
100
AcDbLine
 10
22.59973089678116
 20
-9.771599258481472
 30
0.0
 11
18.59973089678112
 21
-9.771599258481472
 31
0.0
  0
LINE
  5
55
330
22
100
AcDbEntity
  8
0
100
AcDbLine
 10
18.59973089678115
 20
-13.77159925848144
 30
0.0
 11
17.59973089678115
 21
-13.77159925848144
 31
0.0
  0
LINE
  5
56
330
22
100
AcDbEntity
  8
0
100
AcDbLine
 10
18.59973089678115
 20
-9.771599258481472
 30
0.0
 11
18.59973089678115
 21
-13.77159925848144
 31
0.0
  0
LINE
  5
57
330
22
100
AcDbEntity
  8
0
100
AcDbLine
 10
22.59973089678116
 20
-9.771599258481472
 30
0.0
 11
23.67152766650562
 21
-13.77159925848147
 31
0.0
  0
ARC
  5
58
330
22
100
AcDbEntity
  8
0
100
AcDbCircle
 10
22.59973089678116
 20
-7.271599258481472
 30
0.0
 40
2.5
100
AcDbArc
 50
270.0
 51
270.0000000000007
  0
LINE
  5
59
330
22
100
AcDbEntity
  8
0
100
AcDbLine
 10
28.77130377203494
 20
-12.77159925848147
 30
0.0
 11
24.43885465448463
 21
-12.77159925848144
 31
0.0
  0
LINE
  5
5A
330
22
100
AcDbEntity
  8
0
100
AcDbLine
 10
3.599730896781125
 20
-4.771599258481472
 30
0.0
 11
2.599730896781125
 21
-4.771599258481472
 31
0.0
  0
LINE
  5
5B
330
22
100
AcDbEntity
  8
0
100
AcDbLine
 10
22.59973089678116
 20
-8.771599258481472
 30
0.0
 11
18.59973089678115
 21
-8.771599258481472
 31
0.0
  0
LINE
  5
5C
330
22
100
AcDbEntity
  8
0
100
AcDbLine
 10
22.59973089678116
 20
-5.771599258481472
 30
0.0
 11
18.59973089678115
 21
-5.771599258481472
 31
0.0
  0
LINE
  5
5D
330
22
100
AcDbEntity
  8
0
100
AcDbLine
 10
22.59973089678116
 20
-4.771599258481472
 30
0.0
 11
17.59973089678115
 21
-4.771599258481472
 31
0.0
  0
LINE
  5
5E
330
22
100
AcDbEntity
  8
0
100
AcDbLine
 10
18.59973089678115
 20
-5.771599258481472
 30
0.0
 11
18.59973089678115
 21
-8.771599258481472
 31
0.0
  0
ARC
  5
5F
330
22
100
AcDbEntity
  8
0
100
AcDbCircle
 10
22.59973089678116
 20
-7.271599258481472
 30
0.0
 40
1.5
100
AcDbArc
 50
270.0
 51
90.0
  0
ENDBLK
  5
60
330
22
100
AcDbEntity
  8
0
100
AcDbBlockEnd
  0
BLOCK
  5
1091
330
1087
100
AcDbEntity
  8
0
100
AcDbBlockBegin
  2
*D1
 70
     1
 10
0.0
 20
0.0
 30
0.0
  3
*D1
  1

  0
LINE
  5
1B83
330
1087
100
AcDbEntity
  8
BEM
 62
     0
370
    -2
100
AcDbLine
 10
89.42300040616817
 20
161.8183895892224
 30
0.0
 11
55.46760448367018
 21
161.8183895892224
 31
0.0
  0
LINE
  5
1B84
330
1087
100
AcDbEntity
  8
BEM
 62
     0
370
    -2
100
AcDbLine
 10
82.39304689246512
 20
531.8183895892224
 30
0.0
 11
55.46760448367027
 21
531.8183895892224
 31
0.0
  0
LINE
  5
1B85
330
1087
100
AcDbEntity
  8
BEM
 62
     0
370
    -2
100
AcDbLine
 10
57.46760448367019
 20
168.8183895892224
 30
0.0
 11
57.46760448367027
 21
524.8183895892224
 31
0.0
  0
SOLID
  5
1B86
330
1087
100
AcDbEntity
  8
BEM
 62
     0
100
AcDbTrace
 10
56.30093781700352
 20
168.8183895892224
 30
0.0
 11
58.63427115033685
 21
168.8183895892224
 31
0.0
 12
57.46760448367019
 22
161.8183895892224
 32
0.0
 13
57.46760448367019
 23
161.8183895892224
 33
0.0
  0
SOLID
  5
1B87
330
1087
100
AcDbEntity
  8
BEM
 62
     0
100
AcDbTrace
 10
56.3009378170036
 20
524.8183895892224
 30
0.0
 11
58.63427115033693
 21
524.8183895892224
 31
0.0
 12
57.46760448367027
 22
531.8183895892224
 32
0.0
 13
57.46760448367027
 23
531.8183895892224
 33
0.0
  0
MTEXT
  5
1B88
330
1087
100
AcDbEntity
  8
BEM
 62
     1
100
AcDbMText
 10
50.96760448367017
 20
346.8183895892224
 30
0.0
 40
7.0
 41
0.0
 71
     5
 72
     1
  1
\A1;370
 11
0.0000000000000001
 21
1.0
 31
0.0
 73
     1
 44
1.0
  0
POINT
  5
1B89
330
1087
100
AcDbEntity
  8
DEFPOINTS
 62
     0
100
AcDbPoint
 10
91.42300040616817
 20
161.8183895892224
 30
0.0
  0
POINT
  5
1B8A
330
1087
100
AcDbEntity
  8
DEFPOINTS
 62
     0
100
AcDbPoint
 10
84.39304689246512
 20
531.8183895892224
 30
0.0
  0
POINT
  5
1B8B
330
1087
100
AcDbEntity
  8
DEFPOINTS
 62
     0
100
AcDbPoint
 10
57.46760448367027
 20
531.8183895892224
 30
0.0
  0
ENDBLK
  5
1092
330
1087
100
AcDbEntity
  8
0
100
AcDbBlockEnd
  0
BLOCK
  5
109D
330
1093
100
AcDbEntity
  8
0
100
AcDbBlockBegin
  2
*D2
 70
     1
 10
0.0
 20
0.0
 30
0.0
  3
*D2
  1

  0
LINE
  5
1A23
330
1093
100
AcDbEntity
  8
BEM
 62
     0
370
    -2
100
AcDbLine
 10
90.54811377090899
 20
169.818389589223
 30
0.0
 11
90.54811377090899
 21
138.7559570773069
 31
0.0
  0
LINE
  5
1A24
330
1093
100
AcDbEntity
  8
BEM
 62
     0
370
    -2
100
AcDbLine
 10
249.5481137709092
 20
169.818389589222
 30
0.0
 11
249.5481137709092
 21
138.7559570773069
 31
0.0
  0
LINE
  5
1A25
330
1093
100
AcDbEntity
  8
BEM
 62
     0
370
    -2
100
AcDbLine
 10
97.548113770909
 20
140.7559570773069
 30
0.0
 11
242.5481137709092
 21
140.7559570773069
 31
0.0
  0
SOLID
  5
1A26
330
1093
100
AcDbEntity
  8
BEM
 62
     0
100
AcDbTrace
 10
97.548113770909
 20
141.9226237439735
 30
0.0
 11
97.548113770909
 21
139.5892904106402
 31
0.0
 12
90.54811377090899
 22
140.7559570773069
 32
0.0
 13
90.54811377090899
 23
140.7559570773069
 33
0.0
  0
SOLID
  5
1A27
330
1093
100
AcDbEntity
  8
BEM
 62
     0
100
AcDbTrace
 10
242.5481137709092
 20
141.9226237439735
 30
0.0
 11
242.5481137709092
 21
139.5892904106402
 31
0.0
 12
249.5481137709092
 22
140.7559570773069
 32
0.0
 13
249.5481137709092
 23
140.7559570773069
 33
0.0
  0
MTEXT
  5
1A28
330
1093
100
AcDbEntity
  8
BEM
 62
     1
100
AcDbMText
 10
170.0481137709091
 20
147.2559570773069
 30
0.0
 40
7.0
 41
0.0
 71
     5
 72
     1
  1
\A1;%%c159
 73
     1
 44
1.0
  0
POINT
  5
1A29
330
1093
100
AcDbEntity
  8
DEFPOINTS
 62
     0
100
AcDbPoint
 10
90.54811377090899
 20
171.818389589223
 30
0.0
  0
POINT
  5
1A2A
330
1093
100
AcDbEntity
  8
DEFPOINTS
 62
     0
100
AcDbPoint
 10
249.5481137709092
 20
171.818389589222
 30
0.0
  0
POINT
  5
1A2B
330
1093
100
AcDbEntity
  8
DEFPOINTS
 62
     0
100
AcDbPoint
 10
249.5481137709092
 20
140.7559570773069
 30
0.0
  0
ENDBLK
  5
109E
330
1093
100
AcDbEntity
  8
0
100
AcDbBlockEnd
  0
BLOCK
  5
11EC
330
11E2
100
AcDbEntity
  8
0
100
AcDbBlockBegin
  2
*D4
 70
     1
 10
0.0
 20
0.0
 30
0.0
  3
*D4
  1

  0
LINE
  5
1A2C
330
11E2
100
AcDbEntity
  8
BEM
 62
     0
370
    -2
100
AcDbLine
 10
89.42300040616817
 20
161.8183895892224
 30
0.0
 11
71.84434732480664
 21
161.8183895892224
 31
0.0
  0
LINE
  5
1A2D
330
11E2
100
AcDbEntity
  8
BEM
 62
     0
370
    -2
100
AcDbLine
 10
170.2538464796089
 20
336.8183895892225
 30
0.0
 11
71.84434732480667
 21
336.8183895892225
 31
0.0
  0
LINE
  5
1A2E
330
11E2
100
AcDbEntity
  8
BEM
 62
     0
370
    -2
100
AcDbLine
 10
73.84434732480665
 20
168.8183895892224
 30
0.0
 11
73.84434732480667
 21
329.8183895892226
 31
0.0
  0
SOLID
  5
1A2F
330
11E2
100
AcDbEntity
  8
BEM
 62
     0
100
AcDbTrace
 10
72.67768065813998
 20
168.8183895892224
 30
0.0
 11
75.01101399147332
 21
168.8183895892224
 31
0.0
 12
73.84434732480665
 22
161.8183895892224
 32
0.0
 13
73.84434732480665
 23
161.8183895892224
 33
0.0
  0
SOLID
  5
1A30
330
11E2
100
AcDbEntity
  8
BEM
 62
     0
100
AcDbTrace
 10
72.67768065814
 20
329.8183895892226
 30
0.0
 11
75.01101399147334
 21
329.8183895892226
 31
0.0
 12
73.84434732480667
 22
336.8183895892225
 32
0.0
 13
73.84434732480667
 23
336.8183895892225
 33
0.0
  0
MTEXT
  5
1A31
330
11E2
100
AcDbEntity
  8
BEM
 62
     1
100
AcDbMText
 10
67.34434732480662
 20
249.3183895892225
 30
0.0
 40
7.0
 41
0.0
 71
     5
 72
     1
  1
\A1;175
 11
0.0000000000000001
 21
1.0
 31
0.0
 73
     1
 44
1.0
  0
POINT
  5
1A32
330
11E2
100
AcDbEntity
  8
DEFPOINTS
 62
     0
100
AcDbPoint
 10
91.42300040616817
 20
161.8183895892224
 30
0.0
  0
POINT
  5
1A33
330
11E2
100
AcDbEntity
  8
DEFPOINTS
 62
     0
100
AcDbPoint
 10
172.2538464796089
 20
336.8183895892225
 30
0.0
  0
POINT
  5
1A34
330
11E2
100
AcDbEntity
  8
DEFPOINTS
 62
     0
100
AcDbPoint
 10
73.84434732480667
 20
336.8183895892225
 30
0.0
  0
ENDBLK
  5
11ED
330
11E2
100
AcDbEntity
  8
0
100
AcDbBlockEnd
  0
BLOCK
  5
1A96
330
1A8C
100
AcDbEntity
  8
0
100
AcDbBlockBegin
  2
*D6
 70
     1
 10
0.0
 20
0.0
 30
0.0
  3
*D6
  1

  0
LINE
  5
1B6D
330
1A8C
100
AcDbEntity
  8
BEM
 62
     0
370
    -2
100
AcDbLine
 10
247.5508547013994
 20
407.4713971385999
 30
0.0
 11
190.0884201186249
 21
404.4599185499196
 31
0.0
  0
LINE
  5
1B6E
330
1A8C
100
AcDbEntity
  8
BEM
 62
     0
370
    -2
100
AcDbLine
 10
247.5508547013995
 20
274.2888751208765
 30
0.0
 11
197.0491022989365
 21
271.6421904275613
 31
0.0
  0
LINE
  5
1B6F
330
1A8C
100
AcDbEntity
  8
BEM
 62
     0
370
    -2
100
AcDbLine
 10
192.4520308818347
 20
397.5741837191235
 30
0.0
 11
198.6800096747451
 21
278.7372690833292
 31
0.0
  0
SOLID
  5
1B70
330
1A8C
100
AcDbEntity
  8
BEM
 62
     0
100
AcDbTrace
 10
193.6170986723817
 20
397.6352423347403
 30
0.0
 11
191.2869630912877
 21
397.5131251035067
 31
0.0
 12
192.0856791881341
 22
404.5645904624055
 32
0.0
 13
192.0856791881341
 23
404.5645904624055
 33
0.0
  0
SOLID
  5
1B71
330
1A8C
100
AcDbEntity
  8
BEM
 62
     0
100
AcDbTrace
 10
199.8450774652921
 20
278.798327698946
 30
0.0
 11
197.5149418841981
 21
278.6762104677125
 31
0.0
 12
199.0463613684457
 22
271.7468623400472
 32
0.0
 13
199.0463613684457
 23
271.7468623400472
 33
0.0
  0
MTEXT
  5
1B72
330
1A8C
100
AcDbEntity
  8
BEM
 62
     1
100
AcDbMText
 10
202.1003341652319
 20
337.6711869243991
 30
0.0
 40
7.0
 41
0.0
 71
     5
 72
     1
  1
\A1;%%c133
 11
0.0523359562429442
 21
-0.9986295347545739
 31
0.0
 73
     1
 44
1.0
  0
POINT
  5
1B73
330
1A8C
100
AcDbEntity
  8
DEFPOINTS
 62
     0
100
AcDbPoint
 10
249.5481137709086
 20
407.5760690510858
 30
0.0
  0
POINT
  5
1B74
330
1A8C
100
AcDbEntity
  8
DEFPOINTS
 62
     0
100
AcDbPoint
 10
249.5481137709086
 20
274.3935470333623
 30
0.0
  0
POINT
  5
1B75
330
1A8C
100
AcDbEntity
  8
DEFPOINTS
 62
     0
100
AcDbPoint
 10
199.0463613684457
 20
271.7468623400472
 30
0.0
  0
ENDBLK
  5
1A97
330
1A8C
100
AcDbEntity
  8
0
100
AcDbBlockEnd
  0
BLOCK
  5
1AB0
330
1AA4
100
AcDbEntity
  8
0
100
AcDbBlockBegin
  2
*D7
 70
     1
 10
0.0
 20
0.0
 30
0.0
  3
*D7
  1

  0
LINE
  5
1B3B
330
1AA4
100
AcDbEntity
  8
BEM
 62
     0
370
    -2
100
AcDbLine
 10
385.7520932778968
 20
348.1229561376983
 30
0.0
 11
403.6267965818153
 21
349.0597296431998
 31
0.0
  0
LINE
  5
1B3C
330
1AA4
100
AcDbEntity
  8
BEM
 62
     0
370
    -2
100
AcDbLine
 10
170.0481137709088
 20
538.8183895892224
 30
0.0
 11
170.0481137709092
 21
570.717623170684
 31
0.0
  0
ARC
  5
1B3D
330
1AA4
100
AcDbEntity
  8
BEM
 62
     0
370
    -2
100
AcDbCircle
 10
170.0481137709088
 20
336.8183895892224
 30
0.0
 40
231.8992335814618
100
AcDbArc
 50
4.72956882477167
 51
88.27043117522826
  0
SOLID
  5
1B3E
330
1AA4
100
AcDbEntity
  8
BEM
 62
     0
100
AcDbTrace
 10
402.321736543389
 20
356.0177747441926
 30
0.0
 11
399.9937094562564
 21
355.8605032400313
 31
0.0
 12
401.6295375123062
 22
348.9550577307139
 32
0.0
 13
401.6295375123062
 23
348.9550577307139
 33
0.0
  0
SOLID
  5
1B3F
330
1AA4
100
AcDbEntity
  8
BEM
 62
     0
100
AcDbTrace
 10
177.0297082327142
 20
567.4454400541462
 30
0.0
 11
177.0649246779803
 21
569.7785076156256
 31
0.0
 12
170.0481137709092
 22
568.7176231706841
 32
0.0
 13
170.0481137709092
 23
568.7176231706841
 33
0.0
  0
MTEXT
  5
1B40
330
1AA4
100
AcDbEntity
  8
BEM
 62
     1
100
AcDbMText
 10
334.1513170485921
 20
509.7470836981864
 30
0.0
 40
7.0
 41
0.0
 71
     5
 72
     1
  1
\A1;87°
 11
0.7253743710122878
 21
-0.6883545756937539
 31
0.0
 73
     1
 44
1.0
  0
POINT
  5
1B41
330
1AA4
100
AcDbEntity
  8
DEFPOINTS
 62
     0
100
AcDbPoint
 10
366.7098173098018
 20
459.7062608249546
 30
0.0
  0
POINT
  5
1B42
330
1AA4
100
AcDbEntity
  8
DEFPOINTS
 62
     0
100
AcDbPoint
 10
170.0481137709088
 20
536.8183895892224
 30
0.0
  0
POINT
  5
1B43
330
1AA4
100
AcDbEntity
  8
DEFPOINTS
 62
     0
100
AcDbPoint
 10
383.7548342083877
 20
348.0182842252124
 30
0.0
  0
POINT
  5
1B44
330
1AA4
100
AcDbEntity
  8
DEFPOINTS
 62
     0
100
AcDbPoint
 10
170.0481137709088
 20
336.8183895892224
 30
0.0
  0
POINT
  5
1B45
330
1AA4
100
AcDbEntity
  8
DEFPOINTS
 62
     0
100
AcDbPoint
 10
170.0481137709088
 20
156.8183895892227
 30
0.0
  0
ENDBLK
  5
1AB1
330
1AA4
100
AcDbEntity
  8
0
100
AcDbBlockEnd
  0
BLOCK
  5
1BA0
330
1B96
100
AcDbEntity
  8
0
100
AcDbBlockBegin
  2
*D8
 70
     1
 10
0.0
 20
0.0
 30
0.0
  3
*D8
  1

  0
LINE
  5
1C14
330
1B96
100
AcDbEntity
  8
BEM
 62
     0
370
    -2
100
AcDbLine
 10
170.1527856833946
 20
334.8211305197131
 30
0.0
 11
175.0017140052622
 21
242.2980664211338
 31
0.0
  0
LINE
  5
1C15
330
1B96
100
AcDbEntity
  8
BEM
 62
     0
370
    -2
100
AcDbLine
 10
382.6164948918361
 20
274.2024792748605
 30
0.0
 11
383.7152867689695
 21
253.2362812759057
 31
0.0
  0
LINE
  5
1C16
330
1B96
100
AcDbEntity
  8
BEM
 62
     0
370
    -2
100
AcDbLine
 10
181.8874488360583
 20
244.6616771843434
 30
0.0
 11
376.6202081132017
 21
254.8671886517145
 31
0.0
  0
SOLID
  5
1C17
330
1B96
100
AcDbEntity
  8
BEM
 62
     0
100
AcDbTrace
 10
181.8263902204416
 20
245.8267449748904
 30
0.0
 11
181.9485074516751
 21
243.4966093937964
 31
0.0
 12
174.8970420927763
 22
244.2953254906429
 32
0.0
 13
174.8970420927763
 23
244.2953254906429
 33
0.0
  0
SOLID
  5
1C18
330
1B96
100
AcDbEntity
  8
BEM
 62
     0
100
AcDbTrace
 10
376.5591494975849
 20
256.0322564422614
 30
0.0
 11
376.6812667288184
 21
253.7021208611674
 31
0.0
 12
383.6106148564837
 22
255.2335403454149
 32
0.0
 13
383.6106148564837
 23
255.2335403454149
 33
0.0
  0
MTEXT
  5
1C19
330
1B96
100
AcDbEntity
  8
BEM
 62
     1
100
AcDbMText
 10
282.7530364083677
 20
256.4567388840721
 30
0.0
 40
7.0
 41
0.0
 71
     5
 72
     1
  1
\A1;209
 11
0.9986295347545746
 21
0.0523359562429279
 31
0.0
 73
     1
 44
1.0
  0
POINT
  5
1C1A
330
1B96
100
AcDbEntity
  8
DEFPOINTS
 62
     0
100
AcDbPoint
 10
170.0481137709088
 20
336.8183895892223
 30
0.0
  0
POINT
  5
1C1B
330
1B96
100
AcDbEntity
  8
DEFPOINTS
 62
     0
100
AcDbPoint
 10
382.5118229793502
 20
276.1997383443696
 30
0.0
  0
POINT
  5
1C1C
330
1B96
100
AcDbEntity
  8
DEFPOINTS
 62
     0
100
AcDbPoint
 10
383.6106148564837
 20
255.2335403454149
 30
0.0
  0
ENDBLK
  5
1BA1
330
1B96
100
AcDbEntity
  8
0
100
AcDbBlockEnd
  0
ENDSEC
  0
SECTION
  2
ENTITIES
  0
TEXT
  5
134
330
1E
100
AcDbEntity
  8
TEXT
100
AcDbText
 10
204.4216048581257
 20
63.0896391972351
 30
0.0
 40
4.0
  1
Koeh
 41
0.8
  7
GREEKS
 72
     1
 11
209.6787477152686
 21
63.0896391972351
 31
0.0
100
AcDbText
  0
INSERT
  5
135
330
1E
100
AcDbEntity
  8
STEMPEL
100
AcDbBlockReference
  2
LOGO
 10
150.9955485457794
 20
45.02105276448322
 30
0.0
 41
2.0
 42
2.0
 43
2.0
  0
LINE
  5
136
330
1E
100
AcDbEntity
  8
HILF
100
AcDbLine
 10
420.0
 20
0.0
 30
0.0
 11
0.0
 21
0.0
 31
0.0
  0
LINE
  5
137
330
1E
100
AcDbEntity
  8
HILF
100
AcDbLine
 10
419.9999999999999
 20
594.0000000000002
 30
0.0
 11
0.0
 21
594.0
 31
0.0
  0
LINE
  5
138
330
1E
100
AcDbEntity
  8
STEMPEL
100
AcDbLine
 10
410.0
 20
584.0
 30
0.0
 11
39.99999999999989
 21
584.0
 31
0.0
  0
LINE
  5
139
330
1E
100
AcDbEntity
  8
STEMPEL
100
AcDbLine
 10
410.0
 20
10.0
 30
0.0
 11
39.99999999999989
 21
10.0
 31
0.0
  0
LINE
  5
13A
330
1E
100
AcDbEntity
  8
STEMPEL
100
AcDbLine
 10
49.99999999999989
 20
10.0
 30
0.0
 11
410.0
 21
10.0
 31
0.0
  0
TEXT
  5
13B
330
1E
100
AcDbEntity
  8
TEXT
100
AcDbText
 10
202.4626584226295
 20
73.30961091915225
 30
0.0
 40
4.0
  1
Name
 41
0.8
  7
GREEKS
100
AcDbText
  0
TEXT
  5
13C
330
1E
100
AcDbEntity
  8
TEXT
100
AcDbText
 10
196.5498279101549
 20
102.6506227776589
 30
0.0
 40
5.0
  1
Zul. Abw.
 41
0.8
  7
GREEKS
 72
     4
 11
209.9783993387263
 21
105.1506227776589
 31
0.0
100
AcDbText
  0
LINE
  5
13D
330
1E
100
AcDbEntity
  8
HILF
100
AcDbLine
 10
146.0000000000001
 20
49.99999999999997
 30
0.0
 11
230.0
 21
49.99999999999997
 31
0.0
  0
LINE
  5
13E
330
1E
100
AcDbEntity
  8
HILF
100
AcDbLine
 10
146.0000000000001
 20
59.99999999999997
 30
0.0
 11
230.0
 21
59.99999999999997
 31
0.0
  0
LINE
  5
13F
330
1E
100
AcDbEntity
  8
HILF
100
AcDbLine
 10
146.0000000000001
 20
69.99999999999994
 30
0.0
 11
230.0
 21
69.99999999999994
 31
0.0
  0
LINE
  5
140
330
1E
100
AcDbEntity
  8
STEMPEL
100
AcDbLine
 10
410.0
 20
80.0
 30
0.0
 11
146.0000000000001
 21
79.99999999999994
 31
0.0
  0
LINE
  5
141
330
1E
100
AcDbEntity
  8
STEMPEL
100
AcDbLine
 10
410.0
 20
40.0
 30
0.0
 11
146.0000000000001
 21
39.99999999999997
 31
0.0
  0
LINE
  5
142
330
1E
100
AcDbEntity
  8
STEMPEL
100
AcDbLine
 10
410.0
 20
110.0
 30
0.0
 11
39.99999999999997
 21
110.0
 31
0.0
  0
LINE
  5
144
330
1E
100
AcDbEntity
  8
HILF
100
AcDbLine
 10
0.0
 20
0.0
 30
0.0
 11
-0.0000000000001137
 21
594.0
 31
0.0
  0
LINE
  5
145
330
1E
100
AcDbEntity
  8
STEMPEL
100
AcDbLine
 10
40.0
 20
10.0
 30
0.0
 11
39.99999999999989
 21
584.0
 31
0.0
  0
LINE
  5
148
330
1E
100
AcDbEntity
  8
HILF
100
AcDbLine
 10
40.00000000000008
 20
39.99999999999997
 30
0.0
 11
146.0000000000001
 21
39.99999999999997
 31
0.0
  0
LINE
  5
149
330
1E
100
AcDbEntity
  8
HILF
100
AcDbLine
 10
40.00000000000008
 20
49.99999999999997
 30
0.0
 11
146.0000000000001
 21
49.99999999999997
 31
0.0
  0
LINE
  5
14A
330
1E
100
AcDbEntity
  8
HILF
100
AcDbLine
 10
40.00000000000008
 20
59.99999999999997
 30
0.0
 11
146.0000000000001
 21
59.99999999999997
 31
0.0
  0
LINE
  5
14B
330
1E
100
AcDbEntity
  8
HILF
100
AcDbLine
 10
40.00000000000008
 20
69.99999999999994
 30
0.0
 11
146.0000000000001
 21
69.99999999999994
 31
0.0
  0
LINE
  5
14C
330
1E
100
AcDbEntity
  8
HILF
100
AcDbLine
 10
40.00000000000008
 20
79.99999999999994
 30
0.0
 11
146.0000000000001
 21
79.99999999999994
 31
0.0
  0
LINE
  5
14D
330
1E
100
AcDbEntity
  8
HILF
100
AcDbLine
 10
40.00000000000008
 20
90.00000000000005
 30
0.0
 11
146.0000000000001
 21
90.00000000000005
 31
0.0
  0
LINE
  5
14E
330
1E
100
AcDbEntity
  8
HILF
100
AcDbLine
 10
40.00000000000008
 20
100.0
 30
0.0
 11
146.0000000000001
 21
100.0
 31
0.0
  0
LINE
  5
14F
330
1E
100
AcDbEntity
  8
STEMPEL
100
AcDbLine
 10
145.9999999999999
 20
29.99999999999997
 30
0.0
 11
39.99999999999997
 21
29.99999999999997
 31
0.0
  0
TEXT
  5
150
330
1E
100
AcDbEntity
  8
TEXT
100
AcDbText
 10
48.26641107045756
 20
13.65465846027192
 30
0.0
 40
4.0
  1
Index
 50
90.0
 41
0.8
  7
GREEKS
100
AcDbText
  0
LINE
  5
151
330
1E
100
AcDbEntity
  8
VOLL
100
AcDbLine
 10
54.00000000000009
 20
110.0
 30
0.0
 11
53.99999999999997
 21
9.999999999999971
 31
0.0
  0
LINE
  5
152
330
1E
100
AcDbEntity
  8
HILF
100
AcDbLine
 10
31.08767135713856
 20
297.0
 30
0.0
 11
0.0000000000001137
 21
297.0
 31
0.0
  0
LINE
  5
154
330
1E
100
AcDbEntity
  8
VOLL
100
AcDbLine
 10
124.0000000000001
 20
109.9999999999999
 30
0.0
 11
124.0
 21
9.999999999999971
 31
0.0
  0
LINE
  5
155
330
1E
100
AcDbEntity
  8
VOLL
100
AcDbLine
 10
104.0000000000001
 20
109.9999999999999
 30
0.0
 11
104.0
 21
9.999999999999971
 31
0.0
  0
LINE
  5
157
330
1E
100
AcDbEntity
  8
STEMPEL
100
AcDbLine
 10
146.0000000000001
 20
109.9999999999999
 30
0.0
 11
146.0
 21
9.999999999999971
 31
0.0
  0
TEXT
  5
159
330
1E
100
AcDbEntity
  8
TEXT
100
AcDbText
 10
172.331167315365
 20
73.31880501229926
 30
0.0
 40
4.0
  1
Tag
 41
0.8
  7
GREEKS
100
AcDbText
  0
TEXT
  5
15A
330
1E
100
AcDbEntity
  8
TEXT
100
AcDbText
 10
147.5836127167615
 20
63.62990369617964
 30
0.0
 40
4.0
  1
Gez.
 41
0.8
  7
GREEKS
100
AcDbText
  0
LINE
  5
15B
330
1E
100
AcDbEntity
  8
VOLL
100
AcDbLine
 10
164.0000000000001
 20
79.99999999999994
 30
0.0
 11
164.0000000000001
 21
39.99999999999997
 31
0.0
  0
TEXT
  5
15C
330
1E
100
AcDbEntity
  8
TEXT
100
AcDbText
 10
147.6006777387303
 20
43.52946389649807
 30
0.0
 40
4.0
  1
Norm.
 41
0.8
  7
GREEKS
100
AcDbText
  0
TEXT
  5
15D
330
1E
100
AcDbEntity
  8
TEXT
100
AcDbText
 10
147.5515086571672
 20
53.68926291428377
 30
0.0
 40
4.0
  1
Gepr.
 41
0.8
  7
GREEKS
100
AcDbText
  0
TEXT
  5
15E
330
1E
100
AcDbEntity
  8
TEXT
 62
     1
100
AcDbText
 10
160.5006306481887
 20
88.14901428913959
 30
0.0
 40
7.0
  1
1:2
 41
0.8
  7
GREEKS
100
AcDbText
  0
TEXT
  5
160
330
1E
100
AcDbEntity
  8
TEXT
100
AcDbText
 10
148.622109822104
 20
73.14025471151666
 30
0.0
 40
4.0
  1
2011
 41
0.8
  7
GREEKS
100
AcDbText
  0
LINE
  5
161
330
1E
100
AcDbEntity
  8
VOLL
100
AcDbLine
 10
190.0000000000001
 20
109.9999999999998
 30
0.0
 11
190.0
 21
39.99999999999997
 31
0.0
  0
LINE
  5
186
330
1E
100
AcDbEntity
  8
HILF
100
AcDbLine
 10
420.0
 20
-0.0000000000001137
 30
0.0
 11
419.9999999999999
 21
594.0
 31
0.0
  0
LINE
  5
187
330
1E
100
AcDbEntity
  8
STEMPEL
100
AcDbLine
 10
410.0
 20
10.0
 30
0.0
 11
410.0
 21
584.0
 31
0.0
  0
TEXT
  5
188
330
1E
100
AcDbEntity
  8
TEXT
100
AcDbText
 10
337.2400861497006
 20
52.07416177878602
 30
0.0
 40
5.0
  1
ersetzt durch:
 41
0.8
  7
GREEKS
100
AcDbText
  0
TEXT
  5
18A
330
1E
100
AcDbEntity
  8
TEXT
100
AcDbText
 10
336.178754957634
 20
102.3132034537136
 30
0.0
 40
5.0
  1
Zeichnungs Nr.
 41
0.8
  7
GREEKS
100
AcDbText
  0
LINE
  5
18B
330
1E
100
AcDbEntity
  8
HILF
100
AcDbLine
 10
233.4909699289885
 20
14.89398258028314
 30
0.0
 11
404.8588839326728
 21
14.89398258028314
 31
0.0
  0
LINE
  5
18C
330
1E
100
AcDbEntity
  8
HILF
100
AcDbLine
 10
336.7238616296993
 20
83.77983636955827
 30
0.0
 11
404.8588839326728
 21
83.77983636955827
 31
0.0
  0
LINE
  5
18D
330
1E
100
AcDbEntity
  8
VOLL
100
AcDbLine
 10
332.0
 20
60.0
 30
0.0
 11
410.0
 21
60.0
 31
0.0
  0
TEXT
  5
18E
330
1E
100
AcDbEntity
  8
TEXT
 62
     1
100
AcDbText
 10
234.9283864320014
 20
87.41748789253779
 30
0.0
 40
7.0
  1
Red.-Abzweig DN150/125
 41
0.65
  7
GREEKS
100
AcDbText
  0
LINE
  5
18F
330
1E
100
AcDbEntity
  8
HILF
100
AcDbLine
 10
234.7736801096947
 20
49.99999999999997
 30
0.0
 11
324.835391655631
 21
49.99999999999997
 31
0.0
  0
LINE
  5
190
330
1E
100
AcDbEntity
  8
HILF
100
AcDbLine
 10
234.7736801096947
 20
59.99999999999997
 30
0.0
 11
324.835391655631
 21
59.99999999999997
 31
0.0
  0
LINE
  5
191
330
1E
100
AcDbEntity
  8
HILF
100
AcDbLine
 10
234.7736801096947
 20
69.99999999999994
 30
0.0
 11
324.835391655631
 21
69.99999999999994
 31
0.0
  0
LINE
  5
192
330
1E
100
AcDbEntity
  8
HILF
100
AcDbLine
 10
234.7736801096947
 20
84.03758247564139
 30
0.0
 11
324.8353916556311
 21
84.03758247564139
 31
0.0
  0
LINE
  5
193
330
1E
100
AcDbEntity
  8
STEMPEL
100
AcDbLine
 10
230.0
 20
110.0
 30
0.0
 11
230.0
 21
9.999999999999971
 31
0.0
  0
TEXT
  5
194
330
1E
100
AcDbEntity
  8
TEXT
100
AcDbText
 10
235.1296391125315
 20
71.50334417585288
 30
0.0
 40
5.0
  1
dünnwandig 87°
 41
0.8
  7
GREEKS
100
AcDbText
  0
TEXT
  5
195
330
1E
100
AcDbEntity
  8
TEXT
100
AcDbText
 10
234.9837501577827
 20
42.62974153022632
 30
0.0
 40
4.0
  1
5230FE0W.DWG
 41
0.8
  7
GREEKS
100
AcDbText
  0
TEXT
  5
196
330
1E
100
AcDbEntity
  8
TEXT
100
AcDbText
 10
234.742238391136
 20
30.84560570193057
 30
0.0
 40
5.0
  1
Bauvorhaben
 41
0.8
  7
GREEKS
100
AcDbText
  0
TEXT
  5
197
330
1E
100
AcDbEntity
  8
TEXT
100
AcDbText
 10
234.877940380901
 20
102.5489328011779
 30
0.0
 40
5.0
  1
Benennung
 41
0.8
  7
GREEKS
100
AcDbText
  0
LINE
  5
198
330
1E
100
AcDbEntity
  8
STEMPEL
100
AcDbLine
 10
332.0
 20
109.9999999999997
 30
0.0
 11
332.0
 21
40.0
 31
0.0
  0
TEXT
  5
19A
330
1E
100
AcDbEntity
  8
TEXT
 62
     1
100
AcDbText
 10
348.727676381877
 20
88.14901428913959
 30
0.0
 40
7.0
  1
5230FE0W
 41
0.8
  7
GREEKS
 72
     1
 11
369.6610097152103
 21
88.14901428913959
 31
0.0
100
AcDbText
  0
TEXT
  5
212
330
1E
100
AcDbEntity
  8
TEXT
100
AcDbText
 10
235.1296391125315
 20
51.50334417585291
 30
0.0
 40
5.0
  1
EDV-Art.Nr. 5.230.FE0C
 41
0.8
  7
GREEKS
100
AcDbText
  0
LINE
  5
EFF
330
1E
100
AcDbEntity
  8
STEMPEL
100
AcDbLine
 10
249.5481137709087
 20
446.1394812434222
 30
0.0
 11
249.5481137709086
 21
407.5760690510858
 31
0.0
  0
LINE
  5
F01
330
1E
100
AcDbEntity
  8
STEMPEL
100
AcDbLine
 10
255.7031806493525
 20
531.8183895892225
 30
0.0
 11
84.39304689246512
 21
531.8183895892224
 31
0.0
  0
LINE
  5
F09
330
1E
100
AcDbEntity
  8
STEMPEL
100
AcDbLine
 10
255.7031806493525
 20
531.8183895892225
 30
0.0
 11
256.3625785301548
 21
530.4043062704724
 31
0.0
  0
ARC
  5
F0A
330
1E
100
AcDbEntity
  8
STEMPEL
100
AcDbCircle
 10
225.5481137709087
 20
516.0352853712886
 30
0.0
 40
34.0
100
AcDbArc
 50
0.0
 51
24.99999999999263
  0
LINE
  5
F0B
330
1E
100
AcDbEntity
  8
STEMPEL
100
AcDbLine
 10
259.5481137709087
 20
516.0352853712886
 30
0.0
 11
259.5481137709087
 21
499.7557840600686
 31
0.0
  0
ARC
  5
F0C
330
1E
100
AcDbEntity
  8
STEMPEL
100
AcDbCircle
 10
225.5500860911506
 20
499.8156911085045
 30
0.0
 40
34.0
100
AcDbArc
 50
332.2594896725498
 51
0.0
  0
ARC
  5
F0D
330
1E
100
AcDbEntity
  8
STEMPEL
100
AcDbCircle
 10
272.5481137709087
 20
475.3183895892223
 30
0.0
 40
19.0
100
AcDbArc
 50
152.8456571516186
 51
180.0
  0
LINE
  5
F0E
330
1E
100
AcDbEntity
  8
STEMPEL
100
AcDbLine
 10
253.5481137709087
 20
475.3183895892223
 30
0.0
 11
253.5481137709087
 21
460.281616867153
 31
0.0
  0
ARC
  5
F11
330
1E
100
AcDbEntity
  8
STEMPEL
100
AcDbCircle
 10
259.5481137709087
 20
446.1394812434222
 30
0.0
 40
10.0
100
AcDbArc
 50
148.413661903472
 51
180.0
  0
ARC
  5
F13
330
1E
100
AcDbEntity
  8
STEMPEL
100
AcDbCircle
 10
236.5481137709087
 20
460.281616867153
 30
0.0
 40
17.0
100
AcDbArc
 50
328.4136619034722
 51
0.0
  0
LINE
  5
F37
330
1E
100
AcDbEntity
  8
STEMPEL
100
AcDbLine
 10
80.5481137709089
 20
516.0352853712886
 30
0.0
 11
80.5481137709089
 21
499.7557840600686
 31
0.0
  0
LINE
  5
F39
330
1E
100
AcDbEntity
  8
STEMPEL
100
AcDbLine
 10
86.54811377090892
 20
475.3183895892223
 30
0.0
 11
86.54811377090892
 21
460.281616867153
 31
0.0
  0
ARC
  5
F3B
330
1E
100
AcDbEntity
  8
STEMPEL
100
AcDbCircle
 10
80.5481137709089
 20
446.1394812434222
 30
0.0
 40
10.0
100
AcDbArc
 50
0.0
 51
31.58633809652779
  0
LINE
  5
F3D
330
1E
100
AcDbEntity
  8
STEMPEL
100
AcDbLine
 10
90.5481137709089
 20
446.1394812434222
 30
0.0
 11
90.54811377090899
 21
171.8183895892229
 31
0.0
  0
ARC
  5
F40
330
1E
100
AcDbEntity
  8
STEMPEL
100
AcDbCircle
 10
103.5481137709089
 20
460.281616867153
 30
0.0
 40
17.0
100
AcDbArc
 50
180.0
 51
211.5863380965277
  0
ARC
  5
F41
330
1E
100
AcDbEntity
  8
STEMPEL
100
AcDbCircle
 10
114.546141450667
 20
499.8156911085045
 30
0.0
 40
34.0
100
AcDbArc
 50
180.0
 51
207.3202406357857
  0
ARC
  5
F44
330
1E
100
AcDbEntity
  8
STEMPEL
100
AcDbCircle
 10
67.54811377090891
 20
475.3183895892223
 30
0.0
 40
19.0
100
AcDbArc
 50
0.0
 51
27.90640811485477
  0
LINE
  5
F45
330
1E
100
AcDbEntity
  8
STEMPEL
100
AcDbLine
 10
84.39304689246512
 20
531.8183895892225
 30
0.0
 11
83.73364901166281
 21
530.4043062704724
 31
0.0
  0
ARC
  5
F47
330
1E
100
AcDbEntity
  8
STEMPEL
100
AcDbCircle
 10
114.5481137709089
 20
516.0352853712886
 30
0.0
 40
34.0
100
AcDbArc
 50
155.0000000000074
 51
180.0
  0
LINE
  5
F58
330
1E
100
AcDbEntity
  8
HILF
100
AcDbLine
 10
248.4822336114409
 20
449.2693848036451
 30
0.0
 11
91.61399393037674
 21
449.2693848036451
 31
0.0
  0
LINE
  5
F59
330
1E
100
AcDbEntity
  8
HILF
100
AcDbLine
 10
251.462995724974
 20
456.0630511990265
 30
0.0
 11
88.63323181684359
 21
456.0630511990265
 31
0.0
  0
LINE
  5
F5A
330
1E
100
AcDbEntity
  8
HILF
100
AcDbLine
 10
252.6520547409564
 20
480.2577048329227
 30
0.0
 11
87.44417280086134
 21
480.2577048329227
 31
0.0
  0
LINE
  5
107B
330
1E
100
AcDbEntity
  8
STEMPEL
100
AcDbLine
 10
248.6732271356497
 20
161.8183895892225
 30
0.0
 11
91.42300040616817
 21
161.8183895892224
 31
0.0
  0
DIMENSION
  5
107C
330
1E
100
AcDbEntity
  8
BEM
100
AcDbDimension
  2
*D2
 10
249.5481137709092
 20
140.7559570773069
 30
0.0
 11
170.0481137709091
 21
147.2559570773069
 31
0.0
 70
    32
  1
%%c<>
 71
     5
 42
159.0000000000002
  3
Standard
100
AcDbAlignedDimension
 13
90.54811377090899
 23
171.818389589223
 33
0.0
 14
249.5481137709092
 24
171.818389589222
 34
0.0
100
AcDbRotatedDimension
1001
ACAD
1000
DSTYLE
1002
{
1070
    40
1040
2.0
1070
    41
1040
3.5
1070
    42
1040
1.0
1070
    43
1040
7.0
1070
    44
1040
1.0
1070
    73
1070
     0
1070
    74
1070
     0
1070
    77
1070
     1
1070
    78
1070
     8
1070
    79
1070
     2
1070
   140
1040
3.5
1070
   141
1040
1.5
1070
   146
1040
0.5142857142857144
1070
   147
1040
1.5
1070
   172
1070
     1
1070
   178
1070
     1
1070
   179
1070
     2
1070
   271
1070
     2
1070
   272
1070
     2
1070
   284
1070
     8
1070
   285
1070
     8
1070
   286
1070
     8
1002
}
  0
LINE
  5
107D
330
1E
100
AcDbEntity
  8
HILF
100
AcDbLine
 10
248.0481137709086
 20
171.8183895892219
 30
0.0
 11
92.048113770909
 21
171.8183895892233
 31
0.0
  0
LINE
  5
107F
330
1E
100
AcDbEntity
  8
STEMPEL
100
AcDbLine
 10
90.54811377090899
 20
171.818389589223
 30
0.0
 11
91.42300040616815
 21
161.818389589223
 31
0.0
  0
LINE
  5
1084
330
1E
100
AcDbEntity
  8
STEMPEL
100
AcDbLine
 10
249.5481137709087
 20
171.8183895892225
 30
0.0
 11
248.6732271356496
 21
161.8183895892219
 31
0.0
  0
DIMENSION
  5
1085
330
1E
100
AcDbEntity
  8
BEM
100
AcDbDimension
  2
*D1
 10
57.46760448367027
 20
531.8183895892224
 30
0.0
 11
50.96760448367017
 21
346.8183895892224
 31
0.0
 70
    32
 71
     5
 42
370.0
  3
Standard
100
AcDbAlignedDimension
 13
91.42300040616817
 23
161.8183895892224
 33
0.0
 14
84.39304689246512
 24
531.8183895892224
 34
0.0
 50
90.0
100
AcDbRotatedDimension
1001
ACAD
1000
DSTYLE
1002
{
1070
    40
1040
2.0
1070
    41
1040
3.5
1070
    42
1040
1.0
1070
    43
1040
7.0
1070
    44
1040
1.0
1070
    73
1070
     0
1070
    74
1070
     0
1070
    77
1070
     1
1070
    78
1070
     8
1070
    79
1070
     2
1070
   140
1040
3.5
1070
   141
1040
1.5
1070
   146
1040
0.5142857142857144
1070
   147
1040
1.5
1070
   172
1070
     1
1070
   178
1070
     1
1070
   179
1070
     2
1070
   271
1070
     2
1070
   272
1070
     2
1070
   284
1070
     8
1070
   285
1070
     8
1070
   286
1070
     8
1002
}
  0
LINE
  5
1086
330
1E
100
AcDbEntity
  8
MITTEL
100
AcDbLine
 10
170.0481137709088
 20
536.8183895892224
 30
0.0
 11
170.0481137709088
 21
156.8183895892227
 31
0.0
  0
TEXT
  5
10C7
330
1E
100
AcDbEntity
  8
TEXT
 62
     1
100
AcDbText
 10
132.7605645817852
 20
502.7468818844954
 30
0.0
 40
7.0
  1
DN150
 41
0.8
  7
GREEKS
100
AcDbText
  0
TEXT
  5
1179
330
1E
100
AcDbEntity
  8
TEXT
 62
     1
100
AcDbText
 10
297.0573649355706
 20
132.2248663682012
 30
0.0
 40
7.0
  1
Werkstoff: 1.4404
 41
0.8
  7
GREEKS
100
AcDbText
  0
DIMENSION
  5
11E1
330
1E
100
AcDbEntity
  8
BEM
100
AcDbDimension
  2
*D4
 10
73.84434732480667
 20
336.8183895892225
 30
0.0
 11
67.34434732480662
 21
249.3183895892225
 31
0.0
 70
    32
 71
     5
 42
175.0000000000001
  3
Standard
100
AcDbAlignedDimension
 13
91.42300040616817
 23
161.8183895892224
 33
0.0
 14
172.2538464796089
 24
336.8183895892225
 34
0.0
 50
90.0
100
AcDbRotatedDimension
1001
ACAD
1000
DSTYLE
1002
{
1070
    40
1040
2.0
1070
    41
1040
3.5
1070
    42
1040
1.0
1070
    43
1040
7.0
1070
    44
1040
1.0
1070
    73
1070
     0
1070
    74
1070
     0
1070
    77
1070
     1
1070
    78
1070
     8
1070
    79
1070
     2
1070
   140
1040
3.5
1070
   141
1040
1.5
1070
   146
1040
0.5142857142857144
1070
   147
1040
1.5
1070
   172
1070
     1
1070
   178
1070
     1
1070
   179
1070
     2
1070
   271
1070
     2
1070
   272
1070
     2
1070
   284
1070
     8
1070
   285
1070
     8
1070
   286
1070
     8
1002
}
  0
LINE
  5
1533
330
1E
100
AcDbEntity
  8
STEMPEL
100
AcDbLine
 10
249.5481137709087
 20
274.3935470333624
 30
0.0
 11
249.5481137709087
 21
171.8183895892216
 31
0.0
  0
LINE
  5
182D
330
1E
100
AcDbEntity
  8
STEMPEL
100
AcDbLine
 10
382.5118229793503
 20
276.1997383443695
 30
0.0
 11
375.0115500898793
 21
419.3134705436257
 31
0.0
  0
LINE
  5
1831
330
1E
100
AcDbEntity
  8
MITTEL
100
AcDbLine
 10
383.7548342083877
 20
348.0182842252124
 30
0.0
 11
207.1795377363868
 21
338.7643650608702
 31
0.0
  0
LINE
  5
1833
330
1E
100
AcDbEntity
  8
STEMPEL
100
AcDbLine
 10
301.673686918897
 20
277.1253325659042
 30
0.0
 11
249.5481137709087
 21
274.3935470333624
 31
0.0
  0
POINT
  5
1838
330
1E
100
AcDbEntity
  8
STEMPEL
100
AcDbPoint
 10
382.4252034716209
 20
277.8525370111775
 30
0.0
  0
LINE
  5
183A
330
1E
100
AcDbEntity
  8
STEMPEL
100
AcDbLine
 10
382.5118229793503
 20
276.1997383443695
 30
0.0
 11
381.2000799836596
 21
275.5022722216449
 31
0.0
  0
ARC
  5
183B
330
1E
100
AcDbEntity
  8
STEMPEL
100
AcDbCircle
 10
367.5854046628688
 20
301.1077524145536
 30
0.0
 40
29.0
100
AcDbArc
 50
273.0
 51
297.9999999999932
  0
LINE
  5
183C
330
1E
100
AcDbEntity
  8
STEMPEL
100
AcDbLine
 10
369.1031473939141
 20
272.1474959066711
 30
0.0
 11
350.0227098005482
 21
271.1475325446542
 31
0.0
  0
ARC
  5
183D
330
1E
100
AcDbEntity
  8
STEMPEL
100
AcDbCircle
 10
348.5049670695029
 20
300.1077890525367
 30
0.0
 40
29.0
100
AcDbArc
 50
248.146580249964
 51
273.0
  0
ARC
  5
183E
330
1E
100
AcDbEntity
  8
STEMPEL
100
AcDbCircle
 10
330.5183892763659
 20
255.6054554025872
 30
0.0
 40
19.0
100
AcDbArc
 50
67.75818765699813
 51
93.0
  0
LINE
  5
183F
330
1E
100
AcDbEntity
  8
STEMPEL
100
AcDbLine
 10
329.5240061077499
 20
274.5794165629242
 30
0.0
 11
316.0057850622314
 21
273.8709566180713
 31
0.0
  0
ARC
  5
1844
330
1E
100
AcDbEntity
  8
STEMPEL
100
AcDbCircle
 10
315.1160738061014
 20
290.8476587088988
 30
0.0
 40
17.0
100
AcDbArc
 50
241.4136619034718
 51
273.0
  0
ARC
  5
1845
330
1E
100
AcDbEntity
  8
STEMPEL
100
AcDbCircle
 10
302.1970464813265
 20
267.1390372183584
 30
0.0
 40
10.0
100
AcDbArc
 50
61.41366190347183
 51
93.0
  0
ARC
  5
1877
330
1E
100
AcDbEntity
  8
STEMPEL
100
AcDbCircle
 10
343.690059095152
 20
391.9817062499575
 30
0.0
 40
29.0
100
AcDbArc
 50
93.0
 51
118.1711477430577
  0
LINE
  5
187A
330
1E
100
AcDbEntity
  8
STEMPEL
100
AcDbLine
 10
294.7130047385855
 20
409.9430606882625
 30
0.0
 11
249.5481137709086
 21
407.5760690510858
 31
0.0
  0
ARC
  5
187B
330
1E
100
AcDbEntity
  8
STEMPEL
100
AcDbCircle
 10
321.1502531088789
 20
434.3601421236559
 30
0.0
 40
19.0
100
AcDbArc
 50
273.0
 51
298.2271443659081
  0
LINE
  5
187C
330
1E
100
AcDbEntity
  8
STEMPEL
100
AcDbLine
 10
322.1446362774949
 20
415.3861809633191
 30
0.0
 11
308.6264152319762
 21
414.6777210184662
 31
0.0
  0
ARC
  5
187F
330
1E
100
AcDbEntity
  8
STEMPEL
100
AcDbCircle
 10
309.5161264881065
 20
397.7010189276384
 30
0.0
 40
17.0
100
AcDbArc
 50
93.0
 51
124.5863380965281
  0
ARC
  5
1880
330
1E
100
AcDbEntity
  8
STEMPEL
100
AcDbCircle
 10
294.1896451761561
 20
419.9293560358082
 30
0.0
 40
10.0
100
AcDbArc
 50
273.0
 51
304.5863380965282
  0
LINE
  5
1883
330
1E
100
AcDbEntity
  8
STEMPEL
100
AcDbLine
 10
375.0115500898793
 20
419.3134705436257
 30
0.0
 11
373.6340878975795
 21
419.8700013944112
 31
0.0
  0
POINT
  5
1886
330
1E
100
AcDbEntity
  8
STEMPEL
100
AcDbPoint
 10
375.0981695976087
 20
417.6606718768178
 30
0.0
  0
ARC
  5
1887
330
1E
100
AcDbEntity
  8
STEMPEL
100
AcDbCircle
 10
362.7704966885179
 20
392.9816696119745
 30
0.0
 40
29.0
100
AcDbArc
 50
68.00000000000682
 51
93.0
  0
LINE
  5
1888
330
1E
100
AcDbEntity
  8
STEMPEL
100
AcDbLine
 10
361.2527539574726
 20
421.9419261198571
 30
0.0
 11
342.1723163641067
 21
420.9419627578401
 31
0.0
  0
LINE
  5
188A
330
1E
100
AcDbEntity
  8
HILF
100
AcDbLine
 10
311.6838741449251
 20
275.7324344139763
 30
0.0
 11
304.5227576082967
 21
412.374677886131
 31
0.0
  0
LINE
  5
188B
330
1E
100
AcDbEntity
  8
HILF
100
AcDbLine
 10
304.7435171976831
 20
278.3535584694302
 30
0.0
 11
297.8944027321437
 21
409.0424477762814
 31
0.0
  0
LINE
  5
188C
330
1E
100
AcDbEntity
  8
HILF
100
AcDbLine
 10
333.9419365097118
 20
275.817563762208
 30
0.0
 11
326.6677864184993
 21
414.6166159396829
 31
0.0
  0
DIMENSION
  5
1A8B
330
1E
100
AcDbEntity
  8
BEM
100
AcDbDimension
  2
*D6
 10
199.0463613684457
 20
271.7468623400472
 30
0.0
 11
195.6092421893271
 21
337.3310032088199
 31
0.0
 70
   160
  1
%%c<>
 71
     5
 42
133.0
 51
86.99999999999999
  3
Standard
100
AcDbAlignedDimension
 13
249.5481137709086
 23
407.5760690510858
 33
0.0
 14
249.5481137709087
 24
274.3935470333624
 34
0.0
 50
273.0
100
AcDbRotatedDimension
1001
ACAD
1000
DSTYLE
1002
{
1070
    40
1040
2.0
1070
    41
1040
3.5
1070
    42
1040
1.0
1070
    43
1040
7.0
1070
    44
1040
1.0
1070
    73
1070
     0
1070
    74
1070
     0
1070
    77
1070
     1
1070
    78
1070
     8
1070
    79
1070
     2
1070
   140
1040
3.5
1070
   141
1040
1.5
1070
   146
1040
0.5142857142857144
1070
   147
1040
1.5
1070
   172
1070
     1
1070
   178
1070
     1
1070
   179
1070
     2
1070
   271
1070
     2
1070
   272
1070
     2
1070
   284
1070
     8
1070
   285
1070
     8
1070
   286
1070
     8
1002
}
  0
DIMENSION
  5
1AA3
330
1E
100
AcDbEntity
  8
BEM
100
AcDbDimension
  2
*D7
 10
170.0481137709088
 20
156.8183895892227
 30
0.0
 11
334.1513170485921
 21
509.7470836981864
 31
0.0
 70
    34
 71
     5
 42
1.518436449235065
  3
Standard
100
AcDb2LineAngularDimension
 13
383.7548342083877
 23
348.0182842252124
 33
0.0
 14
170.0481137709088
 24
336.8183895892224
 34
0.0
 15
170.0481137709088
 25
536.8183895892224
 35
0.0
 16
366.7098173098018
 26
459.7062608249546
 36
0.0
1001
ACAD
1000
DSTYLE
1002
{
1070
    40
1040
2.0
1070
    41
1040
3.5
1070
    42
1040
1.0
1070
    43
1040
7.0
1070
    44
1040
1.0
1070
    73
1070
     0
1070
    74
1070
     0
1070
    77
1070
     1
1070
    78
1070
     8
1070
    79
1070
     2
1070
   140
1040
3.5
1070
   141
1040
1.5
1070
   146
1040
0.5142857142857144
1070
   147
1040
1.5
1070
   172
1070
     1
1070
   178
1070
     1
1070
   179
1070
     2
1070
   271
1070
     2
1070
   272
1070
     2
1070
   284
1070
     8
1070
   285
1070
     8
1070
   286
1070
     8
1002
}
  0
ELLIPSE
  5
1AD1
330
1E
100
AcDbEntity
  8
STEMPEL
100
AcDbEllipse
 10
249.5481137709086
 20
339.2171866461986
 30
0.0
 11
0.0
 21
-68.35888240488724
 31
0.0
210
0.0
220
0.0
230
1.0
 40
0.4933993108597725
 41
3.141592653589793
 42
4.712388980384689
  0
ELLIPSE
  5
1AD2
330
1E
100
AcDbEntity
  8
STEMPEL
100
AcDbEllipse
 10
249.5481137709084
 20
339.2171866461987
 30
0.0
 11
-0.0000000000001092
 21
-64.8236396128363
 31
0.0
210
0.0
220
0.0
230
1.0
 40
0.5203074938581044
 41
4.712388980384689
 42
6.283185307179586
  0
ARC
  5
1AFD
330
1E
100
AcDbEntity
  8
SCHRAFF
100
AcDbCircle
 10
250.677985868939
 20
408.6217453884743
 30
0.0
 40
5.560607332145001
100
AcDbArc
 50
164.3726755043284
 51
230.061757127279
  0
ARC
  5
1AFE
330
1E
100
AcDbEntity
  8
SCHRAFF
100
AcDbCircle
 10
238.890165610786
 20
404.9638203061439
 30
0.0
 40
5.231182136774378
100
AcDbArc
 50
192.2323303230037
 51
262.640165826961
  0
ARC
  5
1AFF
330
1E
100
AcDbEntity
  8
SCHRAFF
100
AcDbCircle
 10
231.2029231324053
 20
397.2375986626137
 30
0.0
 40
5.115402636968198
100
AcDbArc
 50
204.1908273153967
 51
276.1316262393762
  0
ARC
  5
1B00
330
1E
100
AcDbEntity
  8
SCHRAFF
100
AcDbCircle
 10
225.1320317866969
 20
386.8823602946918
 30
0.0
 40
4.035563381715967
100
AcDbArc
 50
201.977490492543
 51
298.2672870434075
  0
ARC
  5
1B01
330
1E
100
AcDbEntity
  8
SCHRAFF
100
AcDbCircle
 10
221.6566603398758
 20
378.1256741192775
 30
0.0
 40
4.631152088566419
100
AcDbArc
 50
214.3242594526582
 51
295.0989533225195
  0
ARC
  5
1B02
330
1E
100
AcDbEntity
  8
SCHRAFF
100
AcDbCircle
 10
218.7054294089036
 20
367.3061299976108
 30
0.0
 40
3.97399299623428
100
AcDbArc
 50
211.0962202604264
 51
309.1749374308346
  0
ARC
  5
1B03
330
1E
100
AcDbEntity
  8
SCHRAFF
100
AcDbCircle
 10
217.0132830711417
 20
357.493866149724
 30
0.0
 40
4.123704370266668
100
AcDbArc
 50
216.8549442049377
 51
310.2113960595412
  0
ARC
  5
1B05
330
1E
100
AcDbEntity
  8
SCHRAFF
100
AcDbCircle
 10
216.0710995801363
 20
347.0953711346865
 30
0.0
 40
3.938882291267752
100
AcDbArc
 50
217.043467827592
 51
316.2875935678441
  0
ARC
  5
1B07
330
1E
100
AcDbEntity
  8
SCHRAFF
100
AcDbCircle
 10
215.7965034509728
 20
336.65148725415
 30
0.0
 40
3.855829570865498
100
AcDbArc
 50
221.8316899275214
 51
324.0035865469816
  0
ARC
  5
1B08
330
1E
100
AcDbEntity
  8
SCHRAFF
100
AcDbCircle
 10
215.9947745310615
 20
327.855135494152
 30
0.0
 40
5.072225469908181
100
AcDbArc
 50
244.7583103804483
 51
317.4728654662484
  0
ARC
  5
1B09
330
1E
100
AcDbEntity
  8
SCHRAFF
100
AcDbCircle
 10
217.7108831263509
 20
317.2841341686143
 30
0.0
 40
4.598098429936693
100
AcDbArc
 50
242.3724573626247
 51
323.8307765470353
  0
ARC
  5
1B0A
330
1E
100
AcDbEntity
  8
SCHRAFF
100
AcDbCircle
 10
220.365156776401
 20
306.3502275741967
 30
0.0
 40
3.98034999555282
100
AcDbArc
 50
241.2412062509271
 51
339.111501935407
  0
ARC
  5
1B0B
330
1E
100
AcDbEntity
  8
SCHRAFF
100
AcDbCircle
 10
224.2772584693531
 20
296.0238808937309
 30
0.0
 40
3.630713676911502
100
AcDbArc
 50
243.0546194080204
 51
354.6369251412231
  0
ARC
  5
1B0C
330
1E
100
AcDbEntity
  8
SCHRAFF
100
AcDbCircle
 10
229.5550056939442
 20
286.9268196586278
 30
0.0
 40
3.613598420208481
100
AcDbArc
 50
251.8374571219526
 51
4.084887049287369
  0
ARC
  5
1B0D
330
1E
100
AcDbEntity
  8
SCHRAFF
100
AcDbCircle
 10
236.5131773595221
 20
279.4235611073869
 30
0.0
 40
3.998888934176394
100
AcDbArc
 50
275.3183046446035
 51
12.68938624504181
  0
LINE
  5
1B17
330
1E
100
AcDbEntity
  8
MITTEL
100
AcDbLine
 10
189.5003350736426
 20
337.722239756866
 30
0.0
 11
170.0481137709088
 21
336.7027920362675
 31
0.0
  0
TEXT
  5
1B1A
330
1E
100
AcDbEntity
  8
TEXT
 62
     1
100
AcDbText
 10
341.2332228024955
 20
355.4183444689961
 30
0.0
 40
7.0
  1
DN125
 50
3.0
 41
0.8
  7
GREEKS
100
AcDbText
  0
ARC
  5
1B1F
330
1E
100
AcDbEntity
  8
SCHRAFF
100
AcDbCircle
 10
249.5481137709086
 20
407.5760690510858
 30
0.0
 40
3.0
100
AcDbArc
 50
3.000000000000173
 51
90.00000000000108
  0
HATCH
  5
1B2B
330
1E
100
AcDbEntity
  8
SCHRAFF
100
AcDbHatch
 10
0.0
 20
0.0
 30
0.0
210
0.0
220
0.0
230
1.0
  2
_USER
 70
     0
 71
     0
 91
        1
 92
        7
 72
     1
 73
     1
 93
        3
 10
249.5481137709086
 20
410.5760690510859
 42
0.0
 10
249.5481137709085
 20
407.6916666040407
 42
0.0
 10
252.5357419479474
 20
407.8482415621228
 42
0.38784798649557
 97
        0
 75
     0
 76
     0
 52
0.0
 41
0.1
 77
     0
 78
     1
 53
0.0
 43
-0.0000000000000284
 44
0.1155975529549096
 45
0.0
 46
0.1
 79
     0
 47
0.129919230866659
 98
        1
 10
251.2774038193715
 20
409.0108554408849
  0
ARC
  5
1B2C
330
1E
100
AcDbEntity
  8
SCHRAFF
100
AcDbCircle
 10
249.5481137709087
 20
274.3935470333624
 30
0.0
 40
3.0
100
AcDbArc
 50
270.0
 51
3.000000000000173
  0
HATCH
  5
1B36
330
1E
100
AcDbEntity
  8
SCHRAFF
100
AcDbHatch
 10
0.0
 20
0.0
 30
0.0
210
0.0
220
0.0
230
1.0
  2
_USER
 70
     0
 71
     0
 91
        1
 92
        7
 72
     1
 73
     1
 93
        3
 10
249.5481137709087
 20
271.3935470333624
 42
0.4410800170198627
 10
252.5357419479475
 20
274.6657195443994
 42
0.0
 10
249.5481137709087
 20
274.5091445863173
 42
0.0
 97
        0
 75
     0
 76
     0
 52
0.0
 41
0.1
 77
     0
 78
     1
 53
0.0
 43
0.0
 44
0.1155975529549664
 45
0.0
 46
0.1
 79
     0
 47
0.053158738986399
 98
        1
 10
250.6907719303044
 20
273.3040779597338
  0
DIMENSION
  5
1B95
330
1E
100
AcDbEntity
  8
BEM
100
AcDbDimension
  2
*D8
 10
383.6106148564837
 20
255.2335403454149
 30
0.0
 11
283.0932201239467
 21
249.9656469081674
 31
0.0
 70
   160
 71
     5
 42
209.0000000000012
  3
Standard
100
AcDbAlignedDimension
 13
170.0481137709088
 23
336.8183895892223
 33
0.0
 14
382.5118229793502
 24
276.1997383443696
 34
0.0
 50
2.99999999999909
100
AcDbRotatedDimension
1001
ACAD
1000
DSTYLE
1002
{
1070
    40
1040
2.0
1070
    41
1040
3.5
1070
    42
1040
1.0
1070
    43
1040
7.0
1070
    44
1040
1.0
1070
    73
1070
     0
1070
    74
1070
     0
1070
    77
1070
     1
1070
    78
1070
     8
1070
    79
1070
     2
1070
   140
1040
3.5
1070
   141
1040
1.5
1070
   146
1040
0.5142857142857144
1070
   147
1040
1.5
1070
   172
1070
     1
1070
   178
1070
     1
1070
   179
1070
     2
1070
   271
1070
     2
1070
   272
1070
     2
1070
   284
1070
     8
1070
   285
1070
     8
1070
   286
1070
     8
1002
}
  0
TEXT
  5
1BC9
330
1E
100
AcDbEntity
  8
BEM
100
AcDbText
 10
416.5811541437436
 20
12.14804815338303
 30
0.0
 40
4.0
  1
Diese Zeichnung ist urheberrechtlich geschützt und bleibt unser Eigentum. Sie darf weder ganz noch teilweise vervielfältigt und nicht an Dritte weitergegeben werden.
 50
90.0
 41
0.8
  7
GREEKS
100
AcDbText
  0
TEXT
  5
1BCA
330
1E
100
AcDbEntity
  8
TEXT
100
AcDbText
 10
336.7238616296993
 20
73.1811823709997
 30
0.0
 40
5.0
  1
Ersatz für:
 41
0.8
  7
GREEKS
100
AcDbText
  0
TEXT
  5
1BCB
330
1E
100
AcDbEntity
  8
TEXT
100
AcDbText
 10
192.6882715247924
 20
89.7791437153694
 30
0.0
 40
4.0
  1
DIN EN1124-3
 41
0.8
  7
GREEKS
 72
     1
 11
209.6787477152686
 21
89.7791437153694
 31
0.0
100
AcDbText
  0
TEXT
  5
1BCC
330
1E
100
AcDbEntity
  8
TEXT
100
AcDbText
 10
153.5163572150377
 20
102.4620895087088
 30
0.0
 40
5.0
  1
Maßstab
 41
0.8
  7
GREEKS
100
AcDbText
  0
TEXT
  5
1BCD
330
1E
100
AcDbEntity
  8
TEXT
100
AcDbText
 10
41.85509950977674
 20
111.6719999999999
 30
0.0
 40
5.0
  1
Erstellt mit AUTOCAD 2004
 41
0.8
  7
GREEKS
100
AcDbText
  0
TEXT
  5
1BCE
330
1E
100
AcDbEntity
  8
TEXT
100
AcDbText
 10
128.9002860979178
 20
18.59324216966408
 30
0.0
 40
4.0
  1
Name
 41
0.8
  7
GREEKS
 72
     1
 11
135.2240956217273
 21
18.59324216966408
 31
0.0
100
AcDbText
  0
TEXT
  5
1BCF
330
1E
100
AcDbEntity
  8
TEXT
100
AcDbText
 10
110.462610504336
 20
18.6715626933981
 30
0.0
 40
4.0
  1
Tag
 41
0.8
  7
GREEKS
 72
     1
 11
114.1959438376693
 21
18.6715626933981
 31
0.0
100
AcDbText
  0
TEXT
  5
1BD0
330
1E
100
AcDbEntity
  8
TEXT
100
AcDbText
 10
67.65811831396264
 20
18.34829198486668
 30
0.0
 40
4.0
  1
Änderung
 41
0.8
  7
GREEKS
 72
     1
 11
78.40097545681979
 21
18.34829198486668
 31
0.0
100
AcDbText
  0
TEXT
  5
1C09
330
1E
100
AcDbEntity
  8
TEXT
100
AcDbText
 10
170.398997108236
 20
63.10765040825732
 30
0.0
 40
4.0
  1
08.04.
 41
0.8
  7
GREEKS
 72
     1
 11
177.4085209177598
 21
63.10765040825732
 31
0.0
100
AcDbText
  0
ENDSEC
  0
SECTION
  2
OBJECTS
  0
DICTIONARY
  5
C
330
0
100
AcDbDictionary
281
     1
  3
ACAD_COLOR
350
1B81
  3
ACAD_GROUP
350
D
  3
ACAD_LAYOUT
350
19
  3
ACAD_MATERIAL
350
1B80
  3
ACAD_MLINESTYLE
350
16
  3
ACAD_PLOTSETTINGS
350
18
  3
ACAD_PLOTSTYLENAME
350
E
  3
AcDbVariableDictionary
350
246
  0
DICTIONARY
  5
1B81
102
{ACAD_REACTORS
330
C
102
}
330
C
100
AcDbDictionary
281
     1
  0
DICTIONARY
  5
D
102
{ACAD_REACTORS
330
C
102
}
330
C
100
AcDbDictionary
281
     1
  0
DICTIONARY
  5
19
102
{ACAD_REACTORS
330
C
102
}
330
C
100
AcDbDictionary
281
     1
  3
Layout1
350
1D
  3
Model
350
21
  0
DICTIONARY
  5
1B80
102
{ACAD_REACTORS
330
C
102
}
330
C
100
AcDbDictionary
281
     1
  0
DICTIONARY
  5
16
102
{ACAD_REACTORS
330
C
102
}
330
C
100
AcDbDictionary
281
     1
  3
Standard
350
17
  0
DICTIONARY
  5
18
102
{ACAD_REACTORS
330
C
102
}
330
C
100
AcDbDictionary
281
     1
  0
ACDBDICTIONARYWDFLT
  5
E
102
{ACAD_REACTORS
330
C
102
}
330
C
100
AcDbDictionary
281
     1
  3
Normal
350
F
100
AcDbDictionaryWithDefault
340
F
  0
DICTIONARY
  5
246
102
{ACAD_REACTORS
330
C
102
}
330
C
100
AcDbDictionary
281
     1
  3
DIMASSOC
350
1BED
  3
PROJECTNAME
350
1BEE
  3
SORTENTS
350
247
  0
LAYOUT
  5
1D
102
{ACAD_REACTORS
330
19
102
}
330
19
100
AcDbPlotSettings
  1

  2
Tektronix Phaser 740
  4

  6

 40
0.0
 41
0.0
 42
0.0
 43
0.0
 44
0.0
 45
0.0
 46
0.0
 47
0.0
 48
0.0
 49
0.0
140
0.0
141
0.0
142
1.0
143
1.0
 70
   688
 72
     0
 73
     0
 74
     5
  7
monochrome.ctb
 75
    16
147
1.0
 76
     0
 77
     2
 78
   300
148
0.0
149
0.0
100
AcDbLayout
  1
Layout1
 70
     0
 71
     1
 10
0.0
 20
0.0
 11
12.0
 21
9.0
 12
0.0
 22
0.0
 32
0.0
 14
1.000000000000000E+20
 24
1.000000000000000E+20
 34
1.000000000000000E+20
 15
-1.000000000000000E+20
 25
-1.000000000000000E+20
 35
-1.000000000000000E+20
146
0.0
 13
0.0
 23
0.0
 33
0.0
 16
1.0
 26
0.0
 36
0.0
 17
0.0
 27
1.0
 37
0.0
 76
     0
330
1A
  0
LAYOUT
  5
21
102
{ACAD_REACTORS
330
19
102
}
330
19
100
AcDbPlotSettings
  1

  2
Tektronix Phaser 740
  4
A4
  6

 40
5.873749732971191
 41
6.085414409637451
 42
5.577407836914062
 43
5.662078857421875
 44
209.9733276367187
 45
296.9683227539062
 46
0.0
 47
0.0
 48
0.0
 49
0.0
140
0.0
141
0.0
142
1.0
143
1.0
 70
 11952
 72
     0
 73
     1
 74
     0
  7
monochrome.ctb
 75
     0
147
1.0
 76
     0
 77
     2
 78
   300
148
1150.120678237584
149
45.30495740799864
100
AcDbLayout
  1
Model
 70
     1
 71
     0
 10
0.0
 20
0.0
 11
12.0
 21
9.0
 12
0.0
 22
0.0
 32
0.0
 14
0.0
 24
0.0
 34
0.0
 15
0.0
 25
0.0
 35
0.0
146
0.0
 13
0.0
 23
0.0
 33
0.0
 16
1.0
 26
0.0
 36
0.0
 17
0.0
 27
1.0
 37
0.0
 76
     0
330
1E
  0
MLINESTYLE
  5
17
102
{ACAD_REACTORS
330
16
102
}
330
16
100
AcDbMlineStyle
  2
STANDARD
 70
     0
  3

 62
   256
 51
90.0
 52
90.0
 71
     2
 49
0.5
 62
   256
  6
BYLAYER
 49
-0.5
 62
   256
  6
BYLAYER
  0
ACDBPLACEHOLDER
  5
F
102
{ACAD_REACTORS
330
E
102
}
330
E
  0
DICTIONARYVAR
  5
1BED
102
{ACAD_REACTORS
330
246
102
}
330
246
100
DictionaryVariables
280
     0
  1
1
  0
DICTIONARYVAR
  5
1BEE
102
{ACAD_REACTORS
330
246
102
}
330
246
100
DictionaryVariables
280
     0
  1

  0
DICTIONARYVAR
  5
247
102
{ACAD_REACTORS
330
246
102
}
330
246
100
DictionaryVariables
280
     0
  1
96
  0
ENDSEC
  0
EOF
