  0
SECTION
  2
HEADER
  9
$ACADVER
  1
AC1018
  9
$ACADMAINTVER
 70
     2
  9
$DWGCODEPAGE
  3
ANSI_1252
  9
$INSBASE
 10
0.0
 20
0.0
 30
0.0
  9
$EXTMIN
 10
-0.0256208784119281
 20
-0.0362352423260291
 30
-0.00000000000001
  9
$EXTMAX
 10
420.0256433713739
 20
594.0362670537999
 30
0.0000000000000053
  9
$LIMMIN
 10
0.0
 20
0.0
  9
$LIMMAX
 10
419.9999999999999
 20
594.0
  9
$ORTHOMODE
 70
     1
  9
$REGENMODE
 70
     1
  9
$FILLMODE
 70
     1
  9
$QTEXTMODE
 70
     0
  9
$MIRRTEXT
 70
     1
  9
$LTSCALE
 40
20.0
  9
$ATTMODE
 70
     1
  9
$TEXTSIZE
 40
3.5
  9
$TRACEWID
 40
0.5
  9
$TEXTSTYLE
  7
STANDARD
  9
$CLAYER
  8
BEM
  9
$CELTYPE
  6
ByLayer
  9
$CECOLOR
 62
   256
  9
$CELTSCALE
 40
1.0
  9
$DISPSILH
 70
     0
  9
$DIMSCALE
 40
2.0
  9
$DIMASZ
 40
3.5
  9
$DIMEXO
 40
1.0
  9
$DIMDLI
 40
7.0
  9
$DIMRND
 40
0.0
  9
$DIMDLE
 40
0.0
  9
$DIMEXE
 40
1.0
  9
$DIMTP
 40
0.0
  9
$DIMTM
 40
0.0
  9
$DIMTXT
 40
3.5
  9
$DIMCEN
 40
1.5
  9
$DIMTSZ
 40
0.0
  9
$DIMTOL
 70
     0
  9
$DIMLIM
 70
     0
  9
$DIMTIH
 70
     0
  9
$DIMTOH
 70
     0
  9
$DIMSE1
 70
     0
  9
$DIMSE2
 70
     0
  9
$DIMTAD
 70
     1
  9
$DIMZIN
 70
     8
  9
$DIMBLK
  1

  9
$DIMASO
 70
     1
  9
$DIMSHO
 70
     0
  9
$DIMPOST
  1

  9
$DIMAPOST
  1

  9
$DIMALT
 70
     0
  9
$DIMALTD
 70
     2
  9
$DIMALTF
 40
25.4
  9
$DIMLFAC
 40
1.0
  9
$DIMTOFL
 70
     1
  9
$DIMTVP
 40
0.0
  9
$DIMTIX
 70
     0
  9
$DIMSOXD
 70
     0
  9
$DIMSAH
 70
     0
  9
$DIMBLK1
  1

  9
$DIMBLK2
  1

  9
$DIMSTYLE
  2
Standard
  9
$DIMCLRD
 70
     0
  9
$DIMCLRE
 70
     0
  9
$DIMCLRT
 70
     1
  9
$DIMTFAC
 40
0.5142857142857144
  9
$DIMGAP
 40
1.5
  9
$DIMJUST
 70
     0
  9
$DIMSD1
 70
     0
  9
$DIMSD2
 70
     0
  9
$DIMTOLJ
 70
     1
  9
$DIMTZIN
 70
     8
  9
$DIMALTZ
 70
     8
  9
$DIMALTTZ
 70
     8
  9
$DIMUPT
 70
     0
  9
$DIMDEC
 70
     2
  9
$DIMTDEC
 70
     2
  9
$DIMALTU
 70
     2
  9
$DIMALTTD
 70
     2
  9
$DIMTXSTY
  7
STANDARD
  9
$DIMAUNIT
 70
     0
  9
$DIMADEC
 70
     2
  9
$DIMALTRND
 40
0.0
  9
$DIMAZIN
 70
     2
  9
$DIMDSEP
 70
    46
  9
$DIMATFIT
 70
     3
  9
$DIMFRAC
 70
     0
  9
$DIMLDRBLK
  1

  9
$DIMLUNIT
 70
     2
  9
$DIMLWD
 70
    -2
  9
$DIMLWE
 70
    -2
  9
$DIMTMOVE
 70
     0
  9
$LUNITS
 70
     2
  9
$LUPREC
 70
     2
  9
$SKETCHINC
 40
1.0
  9
$FILLETRAD
 40
0.0
  9
$AUNITS
 70
     1
  9
$AUPREC
 70
     3
  9
$MENU
  1
ACAD
  9
$ELEVATION
 40
0.0
  9
$PELEVATION
 40
0.0
  9
$THICKNESS
 40
0.0
  9
$LIMCHECK
 70
     0
  9
$CHAMFERA
 40
0.0
  9
$CHAMFERB
 40
0.0
  9
$CHAMFERC
 40
0.0
  9
$CHAMFERD
 40
0.0
  9
$SKPOLY
 70
     0
  9
$TDCREATE
 40
2452040.637099653
  9
$TDUCREATE
 40
2452040.553766320
  9
$TDUPDATE
 40
2455660.344383252
  9
$TDUUPDATE
 40
2455660.261049919
  9
$TDINDWG
 40
0.5232167014
  9
$TDUSRTIMER
 40
0.5232167014
  9
$USRTIMER
 70
     1
  9
$ANGBASE
 50
0.0
  9
$ANGDIR
 70
     0
  9
$PDMODE
 70
     0
  9
$PDSIZE
 40
0.0
  9
$PLINEWID
 40
0.0
  9
$SPLFRAME
 70
     0
  9
$SPLINETYPE
 70
     6
  9
$SPLINESEGS
 70
     8
  9
$HANDSEED
  5
26DA
  9
$SURFTAB1
 70
     6
  9
$SURFTAB2
 70
     6
  9
$SURFTYPE
 70
     6
  9
$SURFU
 70
     6
  9
$SURFV
 70
     6
  9
$UCSBASE
  2

  9
$UCSNAME
  2

  9
$UCSORG
 10
0.0
 20
0.0
 30
0.0
  9
$UCSXDIR
 10
1.0
 20
0.0
 30
0.0
  9
$UCSYDIR
 10
0.0
 20
1.0
 30
0.0
  9
$UCSORTHOREF
  2

  9
$UCSORTHOVIEW
 70
     0
  9
$UCSORGTOP
 10
0.0
 20
0.0
 30
0.0
  9
$UCSORGBOTTOM
 10
0.0
 20
0.0
 30
0.0
  9
$UCSORGLEFT
 10
0.0
 20
0.0
 30
0.0
  9
$UCSORGRIGHT
 10
0.0
 20
0.0
 30
0.0
  9
$UCSORGFRONT
 10
0.0
 20
0.0
 30
0.0
  9
$UCSORGBACK
 10
0.0
 20
0.0
 30
0.0
  9
$PUCSBASE
  2

  9
$PUCSNAME
  2

  9
$PUCSORG
 10
0.0
 20
0.0
 30
0.0
  9
$PUCSXDIR
 10
1.0
 20
0.0
 30
0.0
  9
$PUCSYDIR
 10
0.0
 20
1.0
 30
0.0
  9
$PUCSORTHOREF
  2

  9
$PUCSORTHOVIEW
 70
     0
  9
$PUCSORGTOP
 10
0.0
 20
0.0
 30
0.0
  9
$PUCSORGBOTTOM
 10
0.0
 20
0.0
 30
0.0
  9
$PUCSORGLEFT
 10
0.0
 20
0.0
 30
0.0
  9
$PUCSORGRIGHT
 10
0.0
 20
0.0
 30
0.0
  9
$PUCSORGFRONT
 10
0.0
 20
0.0
 30
0.0
  9
$PUCSORGBACK
 10
0.0
 20
0.0
 30
0.0
  9
$USERI1
 70
     0
  9
$USERI2
 70
     0
  9
$USERI3
 70
     0
  9
$USERI4
 70
     0
  9
$USERI5
 70
     0
  9
$USERR1
 40
0.0
  9
$USERR2
 40
0.0
  9
$USERR3
 40
0.0
  9
$USERR4
 40
0.0
  9
$USERR5
 40
0.0
  9
$WORLDVIEW
 70
     1
  9
$SHADEDGE
 70
     3
  9
$SHADEDIF
 70
    70
  9
$TILEMODE
 70
     1
  9
$MAXACTVP
 70
    16
  9
$PINSBASE
 10
0.0
 20
0.0
 30
0.0
  9
$PLIMCHECK
 70
     0
  9
$PEXTMIN
 10
1.000000000000000E+20
 20
1.000000000000000E+20
 30
1.000000000000000E+20
  9
$PEXTMAX
 10
-1.000000000000000E+20
 20
-1.000000000000000E+20
 30
-1.000000000000000E+20
  9
$PLIMMIN
 10
0.0
 20
0.0
  9
$PLIMMAX
 10
12.0
 20
9.0
  9
$UNITMODE
 70
     0
  9
$VISRETAIN
 70
     0
  9
$PLINEGEN
 70
     0
  9
$PSLTSCALE
 70
     0
  9
$TREEDEPTH
 70
  3020
  9
$CMLSTYLE
  2
Standard
  9
$CMLJUST
 70
     0
  9
$CMLSCALE
 40
1.0
  9
$PROXYGRAPHICS
 70
     1
  9
$MEASUREMENT
 70
     0
  9
$CELWEIGHT
370
    -1
  9
$ENDCAPS
280
     0
  9
$JOINSTYLE
280
     0
  9
$LWDISPLAY
290
     0
  9
$INSUNITS
 70
     0
  9
$HYPERLINKBASE
  1

  9
$STYLESHEET
  1
monochrome 1.ctb
  9
$XEDIT
290
     1
  9
$CEPSNTYPE
380
     0
  9
$PSTYLEMODE
290
     1
  9
$FINGERPRINTGUID
  2
{7AADB5C8-6110-11D8-B72B-000102183313}
  9
$VERSIONGUID
  2
{963BAE48-3F68-47DE-B127-F0AB5448067A}
  9
$EXTNAMES
290
     1
  9
$PSVPSCALE
 40
0.0
  9
$OLESTARTUP
290
     0
  9
$SORTENTS
280
    96
  9
$INDEXCTL
280
     0
  9
$HIDETEXT
280
     0
  9
$XCLIPFRAME
290
     0
  9
$HALOGAP
280
     0
  9
$OBSCOLOR
 70
   257
  9
$OBSLTYPE
280
     0
  9
$INTERSECTIONDISPLAY
280
     0
  9
$INTERSECTIONCOLOR
 70
   257
  9
$DIMASSOC
280
     1
  9
$PROJECTNAME
  1

  0
ENDSEC
  0
SECTION
  2
CLASSES
  0
CLASS
  1
ACDBDICTIONARYWDFLT
  2
AcDbDictionaryWithDefault
  3
ObjectDBX Classes
 90
        0
 91
        1
280
     0
281
     0
  0
CLASS
  1
DICTIONARYVAR
  2
AcDbDictionaryVar
  3
ObjectDBX Classes
 90
        0
 91
        3
280
     0
281
     0
  0
ENDSEC
  0
SECTION
  2
TABLES
  0
TABLE
  2
VPORT
  5
8
330
0
100
AcDbSymbolTable
 70
     3
  0
VPORT
  5
26D9
330
8
100
AcDbSymbolTableRecord
100
AcDbViewportTableRecord
  2
*Active
 70
     0
 10
0.0
 20
0.0
 11
1.0
 21
1.0
 12
210.0
 22
297.0
 13
0.0
 23
0.0
 14
1.0
 24
1.0
 15
10.0
 25
10.0
 16
0.0
 26
0.0
 36
1.0
 17
0.0
 27
0.0
 37
0.0
 40
594.0
 41
1.334231805929919
 42
50.0
 43
0.0
 44
0.0
 50
0.0
 51
0.0
 71
     0
 72
  1500
 73
     1
 74
     0
 75
     0
 76
     0
 77
     0
 78
     0
281
     0
 65
     1
110
0.0
120
0.0
130
0.0
111
1.0
121
0.0
131
0.0
112
0.0
122
1.0
132
0.0
 79
     0
146
0.0
  0
ENDTAB
  0
TABLE
  2
LTYPE
  5
5
330
0
100
AcDbSymbolTable
 70
     2
  0
LTYPE
  5
13
330
5
100
AcDbSymbolTableRecord
100
AcDbLinetypeTableRecord
  2
ByBlock
 70
     0
  3

 72
    65
 73
     0
 40
0.0
  0
LTYPE
  5
14
330
5
100
AcDbSymbolTableRecord
100
AcDbLinetypeTableRecord
  2
ByLayer
 70
     0
  3

 72
    65
 73
     0
 40
0.0
  0
LTYPE
  5
15
330
5
100
AcDbSymbolTableRecord
100
AcDbLinetypeTableRecord
  2
Continuous
 70
     0
  3
Solid line
 72
    65
 73
     0
 40
0.0
  0
LTYPE
  5
35
330
5
100
AcDbSymbolTableRecord
100
AcDbLinetypeTableRecord
  2
STRICHPUNKT
 70
     0
  3
__ . __ . __ . __ . __ . __ . __ . __ . __ . __
 72
    65
 73
     4
 40
1.0
 49
0.5
 74
     0
 49
-0.25
 74
     0
 49
0.0
 74
     0
 49
-0.25
 74
     0
  0
ENDTAB
  0
TABLE
  2
LAYER
  5
2
330
0
100
AcDbSymbolTable
 70
     9
  0
LAYER
  5
10
330
2
100
AcDbSymbolTableRecord
100
AcDbLayerTableRecord
  2
0
 70
     0
 62
     7
  6
Continuous
370
    -3
390
F
  0
LAYER
  5
38
330
2
100
AcDbSymbolTableRecord
100
AcDbLayerTableRecord
  2
VOLL
 70
     0
 62
     1
  6
Continuous
370
    -3
390
F
  0
LAYER
  5
39
330
2
100
AcDbSymbolTableRecord
100
AcDbLayerTableRecord
  2
HILF
 70
     0
 62
     2
  6
Continuous
370
    -3
390
F
  0
LAYER
  5
3A
330
2
100
AcDbSymbolTableRecord
100
AcDbLayerTableRecord
  2
MITTEL
 70
     0
 62
     2
  6
STRICHPUNKT
370
    -3
390
F
  0
LAYER
  5
3B
330
2
100
AcDbSymbolTableRecord
100
AcDbLayerTableRecord
  2
BEM
 70
     0
 62
     7
  6
Continuous
370
    -3
390
F
  0
LAYER
  5
3C
330
2
100
AcDbSymbolTableRecord
100
AcDbLayerTableRecord
  2
STEMPEL
 70
     0
 62
     3
  6
Continuous
370
    -3
390
F
  0
LAYER
  5
3D
330
2
100
AcDbSymbolTableRecord
100
AcDbLayerTableRecord
  2
TEXT
 70
     0
 62
     7
  6
Continuous
370
    -3
390
F
  0
LAYER
  5
3E
330
2
100
AcDbSymbolTableRecord
100
AcDbLayerTableRecord
  2
DEFPOINTS
 70
     0
 62
     7
  6
Continuous
290
     0
370
    -3
390
F
  0
LAYER
  5
3F
330
2
100
AcDbSymbolTableRecord
100
AcDbLayerTableRecord
  2
SCHRAFF
 70
     0
 62
     7
  6
Continuous
370
    -3
390
F
  0
ENDTAB
  0
TABLE
  2
STYLE
  5
3
330
0
100
AcDbSymbolTable
 70
     2
  0
STYLE
  5
11
330
3
100
AcDbSymbolTableRecord
100
AcDbTextStyleTableRecord
  2
STANDARD
 70
     0
 40
0.0
 41
0.8
 50
0.0
 71
     0
 42
3.5
  3
simplex.shx
  4

  0
STYLE
  5
34
330
3
100
AcDbSymbolTableRecord
100
AcDbTextStyleTableRecord
  2
GREEKS
 70
     0
 40
0.0
 41
0.8
 50
0.0
 71
     0
 42
2.5
  3
SIMPLEX.shx
  4

  0
ENDTAB
  0
TABLE
  2
VIEW
  5
6
330
0
100
AcDbSymbolTable
 70
     0
  0
ENDTAB
  0
TABLE
  2
UCS
  5
7
330
0
100
AcDbSymbolTable
 70
     0
  0
ENDTAB
  0
TABLE
  2
APPID
  5
9
330
0
100
AcDbSymbolTable
 70
     2
  0
APPID
  5
12
330
9
100
AcDbSymbolTableRecord
100
AcDbRegAppTableRecord
  2
ACAD
 70
     0
  0
APPID
  5
1555
330
9
100
AcDbSymbolTableRecord
100
AcDbRegAppTableRecord
  2
AVE_RENDER
 70
     0
  0
ENDTAB
  0
TABLE
  2
DIMSTYLE
  5
A
330
0
100
AcDbSymbolTable
 70
     1
100
AcDbDimStyleTable
 71
     1
340
1CB
  0
DIMSTYLE
105
1CB
102
{ACAD_REACTORS
330
170F
330
1AB8
330
1AE8
330
25B5
330
2590
330
25F0
102
}
330
A
100
AcDbSymbolTableRecord
100
AcDbDimStyleTableRecord
  2
Standard
 70
     0
340
11
  0
ENDTAB
  0
TABLE
  2
BLOCK_RECORD
  5
1
330
0
100
AcDbSymbolTable
 70
     9
  0
BLOCK_RECORD
  5
1E
330
1
100
AcDbSymbolTableRecord
100
AcDbBlockTableRecord
  2
*Model_Space
340
21
  0
BLOCK_RECORD
  5
1A
330
1
100
AcDbSymbolTableRecord
100
AcDbBlockTableRecord
  2
*Paper_Space
340
1D
  0
BLOCK_RECORD
  5
22
330
1
100
AcDbSymbolTableRecord
100
AcDbBlockTableRecord
  2
LOGO
340
0
102
{BLKREFS
331
135
102
}
  0
BLOCK_RECORD
  5
1710
330
1
100
AcDbSymbolTableRecord
100
AcDbBlockTableRecord
  2
*D1
340
0
  0
BLOCK_RECORD
  5
1AB9
330
1
100
AcDbSymbolTableRecord
100
AcDbBlockTableRecord
  2
*D2
340
0
  0
BLOCK_RECORD
  5
1AE9
330
1
100
AcDbSymbolTableRecord
100
AcDbBlockTableRecord
  2
*D3
340
0
  0
BLOCK_RECORD
  5
2591
330
1
100
AcDbSymbolTableRecord
100
AcDbBlockTableRecord
  2
*D6
340
0
  0
BLOCK_RECORD
  5
25B6
330
1
100
AcDbSymbolTableRecord
100
AcDbBlockTableRecord
  2
*D7
340
0
  0
BLOCK_RECORD
  5
25F1
330
1
100
AcDbSymbolTableRecord
100
AcDbBlockTableRecord
  2
*D8
340
0
  0
ENDTAB
  0
ENDSEC
  0
SECTION
  2
BLOCKS
  0
BLOCK
  5
43
330
1E
100
AcDbEntity
  8
0
100
AcDbBlockBegin
  2
*Model_Space
 70
     0
 10
0.0
 20
0.0
 30
0.0
  3
*Model_Space
  1

  0
ENDBLK
  5
44
330
1E
100
AcDbEntity
  8
0
100
AcDbBlockEnd
  0
BLOCK
  5
41
330
1A
100
AcDbEntity
 67
     1
  8
0
100
AcDbBlockBegin
  2
*Paper_Space
 70
     0
 10
0.0
 20
0.0
 30
0.0
  3
*Paper_Space
  1

  0
ENDBLK
  5
42
330
1A
100
AcDbEntity
 67
     1
  8
0
100
AcDbBlockEnd
  0
BLOCK
  5
45
330
22
100
AcDbEntity
  8
0
100
AcDbBlockBegin
  2
LOGO
 70
     0
 10
0.0
 20
0.0
 30
0.0
  3
LOGO
  1

  0
ARC
  5
46
330
22
100
AcDbEntity
  8
0
100
AcDbCircle
 10
11.59973089678112
 20
-9.271599258481501
 30
0.0
 40
4.5
100
AcDbArc
 50
270.0
 51
231.0575587310159
  0
LINE
  5
47
330
22
100
AcDbEntity
  8
0
100
AcDbLine
 10
3.599730896781125
 20
-4.771599258481529
 30
0.0
 11
3.599730896781153
 21
-11.77159925848133
 31
0.0
  0
LINE
  5
48
330
22
100
AcDbEntity
  8
0
100
AcDbLine
 10
2.599730896781125
 20
-4.771599258481529
 30
0.0
 11
2.599730896781153
 21
-11.77159925848133
 31
0.0
  0
CIRCLE
  5
49
330
22
100
AcDbEntity
  8
0
100
AcDbCircle
 10
11.59973089678112
 20
-9.271599258481501
 30
0.0
 40
3.5
  0
ARC
  5
4A
330
22
100
AcDbEntity
  8
0
100
AcDbCircle
 10
31.59973089678115
 20
-9.271599258481472
 30
0.0
 40
4.5
100
AcDbArc
 50
270.0
 51
231.0575587310182
  0
LINE
  5
4B
330
22
100
AcDbEntity
  8
0
100
AcDbLine
 10
17.59973089678112
 20
-4.771599258481472
 30
0.0
 11
17.59973089678115
 21
-13.77159925848147
 31
0.0
  0
ARC
  5
4C
330
22
100
AcDbEntity
  8
0
100
AcDbCircle
 10
22.59973089678116
 20
-7.271599258481472
 30
0.0
 40
2.5
100
AcDbArc
 50
293.1161887722295
 51
90.0
  0
CIRCLE
  5
4D
330
22
100
AcDbEntity
  8
0
100
AcDbCircle
 10
31.59973089678115
 20
-9.271599258481472
 30
0.0
 40
3.5
  0
ARC
  5
4E
330
22
100
AcDbEntity
  8
0
100
AcDbCircle
 10
4.599730896781153
 20
-11.77159925848133
 30
0.0
 40
1.0
100
AcDbArc
 50
180.0
 51
270.0
  0
ARC
  5
4F
330
22
100
AcDbEntity
  8
0
100
AcDbCircle
 10
4.599730896781153
 20
-11.77159925848133
 30
0.0
 40
2.0
100
AcDbArc
 50
179.9999999999992
 51
270.0
  0
LINE
  5
50
330
22
100
AcDbEntity
  8
0
100
AcDbLine
 10
11.59973089678115
 20
-13.77159925848144
 30
0.0
 11
4.599730896781153
 21
-13.77159925848147
 31
0.0
  0
LINE
  5
51
330
22
100
AcDbEntity
  8
0
100
AcDbLine
 10
8.771303772034769
 20
-12.77159925848136
 30
0.0
 11
4.599730896781153
 21
-12.77159925848133
 31
0.0
  0
LINE
  5
52
330
22
100
AcDbEntity
  8
0
100
AcDbLine
 10
31.59973089678115
 20
-13.77159925848147
 30
0.0
 11
23.6715276665056
 21
-13.77159925848144
 31
0.0
  0
LINE
  5
53
330
22
100
AcDbEntity
  8
0
100
AcDbLine
 10
23.56565672307022
 20
-9.51278021337896
 30
0.0
 11
24.4388546544846
 21
-12.77159925848144
 31
0.0
  0
LINE
  5
54
330
22
100
AcDbEntity
  8
0
100
AcDbLine
 10
22.59973089678116
 20
-9.771599258481472
 30
0.0
 11
18.59973089678112
 21
-9.771599258481472
 31
0.0
  0
LINE
  5
55
330
22
100
AcDbEntity
  8
0
100
AcDbLine
 10
18.59973089678115
 20
-13.77159925848144
 30
0.0
 11
17.59973089678115
 21
-13.77159925848144
 31
0.0
  0
LINE
  5
56
330
22
100
AcDbEntity
  8
0
100
AcDbLine
 10
18.59973089678115
 20
-9.771599258481472
 30
0.0
 11
18.59973089678115
 21
-13.77159925848144
 31
0.0
  0
LINE
  5
57
330
22
100
AcDbEntity
  8
0
100
AcDbLine
 10
22.59973089678116
 20
-9.771599258481472
 30
0.0
 11
23.67152766650562
 21
-13.77159925848147
 31
0.0
  0
ARC
  5
58
330
22
100
AcDbEntity
  8
0
100
AcDbCircle
 10
22.59973089678116
 20
-7.271599258481472
 30
0.0
 40
2.5
100
AcDbArc
 50
270.0
 51
270.0000000000007
  0
LINE
  5
59
330
22
100
AcDbEntity
  8
0
100
AcDbLine
 10
28.77130377203494
 20
-12.77159925848147
 30
0.0
 11
24.43885465448463
 21
-12.77159925848144
 31
0.0
  0
LINE
  5
5A
330
22
100
AcDbEntity
  8
0
100
AcDbLine
 10
3.599730896781125
 20
-4.771599258481472
 30
0.0
 11
2.599730896781125
 21
-4.771599258481472
 31
0.0
  0
LINE
  5
5B
330
22
100
AcDbEntity
  8
0
100
AcDbLine
 10
22.59973089678116
 20
-8.771599258481472
 30
0.0
 11
18.59973089678115
 21
-8.771599258481472
 31
0.0
  0
LINE
  5
5C
330
22
100
AcDbEntity
  8
0
100
AcDbLine
 10
22.59973089678116
 20
-5.771599258481472
 30
0.0
 11
18.59973089678115
 21
-5.771599258481472
 31
0.0
  0
LINE
  5
5D
330
22
100
AcDbEntity
  8
0
100
AcDbLine
 10
22.59973089678116
 20
-4.771599258481472
 30
0.0
 11
17.59973089678115
 21
-4.771599258481472
 31
0.0
  0
LINE
  5
5E
330
22
100
AcDbEntity
  8
0
100
AcDbLine
 10
18.59973089678115
 20
-5.771599258481472
 30
0.0
 11
18.59973089678115
 21
-8.771599258481472
 31
0.0
  0
ARC
  5
5F
330
22
100
AcDbEntity
  8
0
100
AcDbCircle
 10
22.59973089678116
 20
-7.271599258481472
 30
0.0
 40
1.5
100
AcDbArc
 50
270.0
 51
90.0
  0
ENDBLK
  5
60
330
22
100
AcDbEntity
  8
0
100
AcDbBlockEnd
  0
BLOCK
  5
171A
330
1710
100
AcDbEntity
  8
0
100
AcDbBlockBegin
  2
*D1
 70
     1
 10
0.0
 20
0.0
 30
0.0
  3
*D1
  1

  0
LINE
  5
26C6
330
1710
100
AcDbEntity
  8
BEM
 62
     0
370
    -2
100
AcDbLine
 10
163.1594804925781
 20
234.2308850950838
 30
0.0
 11
140.0851673862791
 21
234.2308850950838
 31
0.0
  0
LINE
  5
26C7
330
1710
100
AcDbEntity
  8
BEM
 62
     0
370
    -2
100
AcDbLine
 10
213.2595711843709
 20
359.2308850950835
 30
0.0
 11
140.0851673862791
 21
359.2308850950835
 31
0.0
  0
LINE
  5
26C8
330
1710
100
AcDbEntity
  8
BEM
 62
     0
370
    -2
100
AcDbLine
 10
142.0851673862791
 20
241.2308850950838
 30
0.0
 11
142.0851673862791
 21
352.2308850950835
 31
0.0
  0
SOLID
  5
26C9
330
1710
100
AcDbEntity
  8
BEM
 62
     0
100
AcDbTrace
 10
140.9185007196124
 20
241.2308850950838
 30
0.0
 11
143.2518340529458
 21
241.2308850950838
 31
0.0
 12
142.0851673862791
 22
234.2308850950838
 32
0.0
 13
142.0851673862791
 23
234.2308850950838
 33
0.0
  0
SOLID
  5
26CA
330
1710
100
AcDbEntity
  8
BEM
 62
     0
100
AcDbTrace
 10
140.9185007196125
 20
352.2308850950835
 30
0.0
 11
143.2518340529458
 21
352.2308850950835
 31
0.0
 12
142.0851673862791
 22
359.2308850950835
 32
0.0
 13
142.0851673862791
 23
359.2308850950835
 33
0.0
  0
MTEXT
  5
26CB
330
1710
100
AcDbEntity
  8
BEM
 62
     1
100
AcDbMText
 10
135.5851673862791
 20
296.7308850950837
 30
0.0
 40
7.0
 41
0.0
 71
     5
 72
     1
  1
\A1;125
 11
0.0000000000000001
 21
1.0
 31
0.0
 73
     1
 44
1.0
  0
POINT
  5
26CC
330
1710
100
AcDbEntity
  8
DEFPOINTS
 62
     0
100
AcDbPoint
 10
165.1594804925782
 20
234.2308850950838
 30
0.0
  0
POINT
  5
26CD
330
1710
100
AcDbEntity
  8
DEFPOINTS
 62
     0
100
AcDbPoint
 10
215.259571184371
 20
359.2308850950835
 30
0.0
  0
POINT
  5
26CE
330
1710
100
AcDbEntity
  8
DEFPOINTS
 62
     0
100
AcDbPoint
 10
142.0851673862791
 20
359.2308850950835
 30
0.0
  0
ENDBLK
  5
171B
330
1710
100
AcDbEntity
  8
0
100
AcDbBlockEnd
  0
BLOCK
  5
1AC3
330
1AB9
100
AcDbEntity
  8
0
100
AcDbBlockBegin
  2
*D2
 70
     1
 10
0.0
 20
0.0
 30
0.0
  3
*D2
  1

  0
LINE
  5
26CF
330
1AB9
100
AcDbEntity
  8
BEM
 62
     0
370
    -2
100
AcDbLine
 10
158.5997882656478
 20
504.2341779994138
 30
0.0
 11
123.3666577159014
 21
504.2341779994138
 31
0.0
  0
LINE
  5
26D0
330
1AB9
100
AcDbEntity
  8
BEM
 62
     0
370
    -2
100
AcDbLine
 10
163.1594804925781
 20
234.2308850950838
 30
0.0
 11
123.3666577159013
 21
234.2308850950838
 31
0.0
  0
LINE
  5
26D1
330
1AB9
100
AcDbEntity
  8
BEM
 62
     0
370
    -2
100
AcDbLine
 10
125.3666577159014
 20
497.2341779994137
 30
0.0
 11
125.3666577159013
 21
241.2308850950838
 31
0.0
  0
SOLID
  5
26D2
330
1AB9
100
AcDbEntity
  8
BEM
 62
     0
100
AcDbTrace
 10
124.1999910492347
 20
497.2341779994137
 30
0.0
 11
126.5333243825681
 21
497.2341779994137
 31
0.0
 12
125.3666577159014
 22
504.2341779994138
 32
0.0
 13
125.3666577159014
 23
504.2341779994138
 33
0.0
  0
SOLID
  5
26D3
330
1AB9
100
AcDbEntity
  8
BEM
 62
     0
100
AcDbTrace
 10
124.1999910492346
 20
241.2308850950838
 30
0.0
 11
126.533324382568
 21
241.2308850950838
 31
0.0
 12
125.3666577159013
 22
234.2308850950838
 32
0.0
 13
125.3666577159013
 23
234.2308850950838
 33
0.0
  0
MTEXT
  5
26D4
330
1AB9
100
AcDbEntity
  8
BEM
 62
     1
100
AcDbMText
 10
118.8666577159013
 20
369.2325315472488
 30
0.0
 40
7.0
 41
0.0
 71
     5
 72
     1
  1
\A1;270
 11
0.0000000000000001
 21
1.0
 31
0.0
 73
     1
 44
1.0
  0
POINT
  5
26D5
330
1AB9
100
AcDbEntity
  8
DEFPOINTS
 62
     0
100
AcDbPoint
 10
160.5997882656478
 20
504.2341779994138
 30
0.0
  0
POINT
  5
26D6
330
1AB9
100
AcDbEntity
  8
DEFPOINTS
 62
     0
100
AcDbPoint
 10
165.1594804925782
 20
234.2308850950838
 30
0.0
  0
POINT
  5
26D7
330
1AB9
100
AcDbEntity
  8
DEFPOINTS
 62
     0
100
AcDbPoint
 10
125.3666577159013
 20
234.2308850950838
 30
0.0
  0
ENDBLK
  5
1AC4
330
1AB9
100
AcDbEntity
  8
0
100
AcDbBlockEnd
  0
BLOCK
  5
1AF3
330
1AE9
100
AcDbEntity
  8
0
100
AcDbBlockBegin
  2
*D3
 70
     1
 10
0.0
 20
0.0
 30
0.0
  3
*D3
  1

  0
LINE
  5
219B
330
1AE9
100
AcDbEntity
  8
BEM
 62
     0
370
    -2
100
AcDbLine
 10
164.4595711843708
 20
240.2308850950838
 30
0.0
 11
164.4595711843708
 21
211.1409958420065
 31
0.0
  0
LINE
  5
219C
330
1AE9
100
AcDbEntity
  8
BEM
 62
     0
370
    -2
100
AcDbLine
 10
266.0595711843707
 20
240.2308850950832
 30
0.0
 11
266.0595711843707
 21
211.1409958420065
 31
0.0
  0
LINE
  5
219D
330
1AE9
100
AcDbEntity
  8
BEM
 62
     0
370
    -2
100
AcDbLine
 10
171.4595711843708
 20
213.1409958420065
 30
0.0
 11
259.0595711843707
 21
213.1409958420065
 31
0.0
  0
SOLID
  5
219E
330
1AE9
100
AcDbEntity
  8
BEM
 62
     0
100
AcDbTrace
 10
171.4595711843708
 20
214.3076625086731
 30
0.0
 11
171.4595711843708
 21
211.9743291753398
 31
0.0
 12
164.4595711843708
 22
213.1409958420065
 32
0.0
 13
164.4595711843708
 23
213.1409958420065
 33
0.0
  0
SOLID
  5
219F
330
1AE9
100
AcDbEntity
  8
BEM
 62
     0
100
AcDbTrace
 10
259.0595711843707
 20
214.3076625086731
 30
0.0
 11
259.0595711843707
 21
211.9743291753398
 31
0.0
 12
266.0595711843707
 22
213.1409958420065
 32
0.0
 13
266.0595711843707
 23
213.1409958420065
 33
0.0
  0
MTEXT
  5
21A0
330
1AE9
100
AcDbEntity
  8
BEM
 62
     1
100
AcDbMText
 10
215.2595711843708
 20
219.6409958420065
 30
0.0
 40
7.0
 41
0.0
 71
     5
 72
     1
  1
\A1;%%c101.6
 73
     1
 44
1.0
  0
POINT
  5
21A1
330
1AE9
100
AcDbEntity
  8
DEFPOINTS
 62
     0
100
AcDbPoint
 10
164.4595711843708
 20
242.2308850950838
 30
0.0
  0
POINT
  5
21A2
330
1AE9
100
AcDbEntity
  8
DEFPOINTS
 62
     0
100
AcDbPoint
 10
266.0595711843707
 20
242.2308850950832
 30
0.0
  0
POINT
  5
21A3
330
1AE9
100
AcDbEntity
  8
DEFPOINTS
 62
     0
100
AcDbPoint
 10
266.0595711843707
 20
213.1409958420065
 30
0.0
  0
ENDBLK
  5
1AF4
330
1AE9
100
AcDbEntity
  8
0
100
AcDbBlockEnd
  0
BLOCK
  5
259D
330
2591
100
AcDbEntity
  8
0
100
AcDbBlockBegin
  2
*D6
 70
     1
 10
0.0
 20
0.0
 30
0.0
  3
*D6
  1

  0
LINE
  5
25E5
330
2591
100
AcDbEntity
  8
BEM
 62
     0
370
    -2
100
AcDbLine
 10
357.0649651195203
 20
366.6625908815814
 30
0.0
 11
382.3213072885611
 21
367.9862196874735
 31
0.0
  0
LINE
  5
25E6
330
2591
100
AcDbEntity
  8
BEM
 62
     0
370
    -2
100
AcDbLine
 10
215.2595711843711
 20
511.2341779994133
 30
0.0
 11
215.259571184371
 21
526.5218877042218
 31
0.0
  0
ARC
  5
25E7
330
2591
100
AcDbEntity
  8
BEM
 62
     0
370
    -2
100
AcDbCircle
 10
215.259571184371
 20
359.2308850950834
 30
0.0
 40
165.2910026091384
100
AcDbArc
 50
5.426631986694151
 51
87.57336801330582
  0
SOLID
  5
25E8
330
2591
100
AcDbEntity
  8
BEM
 62
     0
100
AcDbTrace
 10
380.9732720338315
 20
374.948344754485
 30
0.0
 11
378.6462446991416
 21
374.7769148036299
 31
0.0
 12
380.324048219052
 22
367.8815477749875
 32
0.0
 13
380.324048219052
 23
367.8815477749875
 33
0.0
  0
SOLID
  5
25E9
330
2591
100
AcDbEntity
  8
BEM
 62
     0
100
AcDbTrace
 10
222.2332978037484
 20
523.2072591828141
 30
0.0
 11
222.2827056150494
 21
525.5400693578235
 31
0.0
 12
215.259571184371
 22
524.5218877042219
 32
0.0
 13
215.259571184371
 23
524.5218877042219
 33
0.0
  0
MTEXT
  5
25EA
330
2591
100
AcDbEntity
  8
BEM
 62
     1
100
AcDbMText
 10
336.8287395570501
 20
480.6108088000693
 30
0.0
 40
7.0
 41
0.0
 71
     5
 72
     1
  1
\A1;87°
 11
0.7065557675401159
 21
-0.7076573657892623
 31
0.0
 73
     1
 44
1.0
  0
POINT
  5
25EB
330
2591
100
AcDbEntity
  8
DEFPOINTS
 62
     0
100
AcDbPoint
 10
295.3942393894437
 20
503.7976533898651
 30
0.0
  0
POINT
  5
25EC
330
2591
100
AcDbEntity
  8
DEFPOINTS
 62
     0
100
AcDbPoint
 10
215.2595711843711
 20
509.2341779994134
 30
0.0
  0
POINT
  5
25ED
330
2591
100
AcDbEntity
  8
DEFPOINTS
 62
     0
100
AcDbPoint
 10
355.0677060500112
 20
366.5579189690956
 30
0.0
  0
POINT
  5
25EE
330
2591
100
AcDbEntity
  8
DEFPOINTS
 62
     0
100
AcDbPoint
 10
215.259571184371
 20
359.2308850950835
 30
0.0
  0
POINT
  5
25EF
330
2591
100
AcDbEntity
  8
DEFPOINTS
 62
     0
100
AcDbPoint
 10
215.2595711843708
 20
229.2308850950836
 30
0.0
  0
ENDBLK
  5
259E
330
2591
100
AcDbEntity
  8
0
100
AcDbBlockEnd
  0
BLOCK
  5
25C0
330
25B6
100
AcDbEntity
  8
0
100
AcDbBlockBegin
  2
*D7
 70
     1
 10
0.0
 20
0.0
 30
0.0
  3
*D7
  1

  0
LINE
  5
26BD
330
25B6
100
AcDbEntity
  8
BEM
 62
     0
370
    -2
100
AcDbLine
 10
215.3642430968568
 20
357.2336260255743
 30
0.0
 11
218.5215768327299
 21
296.9881094426066
 31
0.0
  0
LINE
  5
26BE
330
25B6
100
AcDbEntity
  8
BEM
 62
     0
370
    -2
100
AcDbLine
 10
352.2326489202222
 20
325.1174185336287
 30
0.0
 11
353.3365640245971
 21
304.0534635354041
 31
0.0
  0
LINE
  5
26BF
330
25B6
100
AcDbEntity
  8
BEM
 62
     0
370
    -2
100
AcDbLine
 10
225.407311663526
 20
299.3517202058164
 30
0.0
 11
346.2414853688293
 21
305.6843709112126
 31
0.0
  0
SOLID
  5
26C0
330
25B6
100
AcDbEntity
  8
BEM
 62
     0
100
AcDbTrace
 10
225.3462530479092
 20
300.5167879963634
 30
0.0
 11
225.4683702791427
 21
298.1866524152693
 31
0.0
 12
218.416904920244
 22
298.9853685121158
 32
0.0
 13
218.416904920244
 23
298.9853685121158
 33
0.0
  0
SOLID
  5
26C1
330
25B6
100
AcDbEntity
  8
BEM
 62
     0
100
AcDbTrace
 10
346.1804267532125
 20
306.8494387017596
 30
0.0
 11
346.302543984446
 21
304.5193031206656
 31
0.0
 12
353.2318921121113
 22
306.0507226049133
 32
0.0
 13
353.2318921121113
 23
306.0507226049133
 33
0.0
  0
MTEXT
  5
26C2
330
25B6
100
AcDbEntity
  8
BEM
 62
     1
100
AcDbMText
 10
285.4842148005985
 20
309.0091375344191
 30
0.0
 40
7.0
 41
0.0
 71
     5
 72
     1
  1
\A1;135
 11
0.9986295347545739
 21
0.0523359562429444
 31
0.0
 73
     1
 44
1.0
  0
POINT
  5
26C3
330
25B6
100
AcDbEntity
  8
DEFPOINTS
 62
     0
100
AcDbPoint
 10
215.259571184371
 20
359.2308850950834
 30
0.0
  0
POINT
  5
26C4
330
25B6
100
AcDbEntity
  8
DEFPOINTS
 62
     0
100
AcDbPoint
 10
352.1279770077364
 20
327.1146776031379
 30
0.0
  0
POINT
  5
26C5
330
25B6
100
AcDbEntity
  8
DEFPOINTS
 62
     0
100
AcDbPoint
 10
353.2318921121113
 20
306.0507226049133
 30
0.0
  0
ENDBLK
  5
25C1
330
25B6
100
AcDbEntity
  8
0
100
AcDbBlockEnd
  0
BLOCK
  5
25FB
330
25F1
100
AcDbEntity
  8
0
100
AcDbBlockBegin
  2
*D8
 70
     1
 10
0.0
 20
0.0
 30
0.0
  3
*D8
  1

  0
LINE
  5
2627
330
25F1
100
AcDbEntity
  8
BEM
 62
     0
370
    -2
100
AcDbLine
 10
264.0623121148617
 20
398.3386189991
 30
0.0
 11
224.3411955005365
 21
396.2569234867005
 31
0.0
  0
LINE
  5
2628
330
25F1
100
AcDbEntity
  8
BEM
 62
     0
370
    -2
100
AcDbLine
 10
264.0623121148614
 20
325.238437741252
 30
0.0
 11
228.1617203062714
 21
323.3569674496169
 31
0.0
  0
LINE
  5
2629
330
25F1
100
AcDbEntity
  8
BEM
 62
     0
370
    -2
100
AcDbLine
 10
226.7048062637463
 20
389.3711886559044
 30
0.0
 11
229.7926276820799
 21
330.4520461053848
 31
0.0
  0
SOLID
  5
262A
330
25F1
100
AcDbEntity
  8
BEM
 62
     0
100
AcDbTrace
 10
227.8698740542933
 20
389.4322472715211
 30
0.0
 11
225.5397384731993
 21
389.3101300402875
 31
0.0
 12
226.3384545700457
 22
396.3615953991864
 32
0.0
 13
226.3384545700457
 23
396.3615953991864
 33
0.0
  0
SOLID
  5
262B
330
25F1
100
AcDbEntity
  8
BEM
 62
     0
100
AcDbTrace
 10
230.9576954726269
 20
330.5131047210015
 30
0.0
 11
228.627559891533
 21
330.390987489768
 31
0.0
 12
230.1589793757806
 22
323.4616393621028
 32
0.0
 13
230.1589793757806
 23
323.4616393621028
 33
0.0
  0
MTEXT
  5
262C
330
25F1
100
AcDbEntity
  8
BEM
 62
     1
100
AcDbMText
 10
234.7398089488179
 20
360.2518010962237
 30
0.0
 40
7.0
 41
0.0
 71
     5
 72
     1
  1
\A1;%%c73
 11
0.0523359562429433
 21
-0.9986295347545739
 31
0.0
 73
     1
 44
1.0
  0
POINT
  5
262D
330
25F1
100
AcDbEntity
  8
DEFPOINTS
 62
     0
100
AcDbPoint
 10
266.0595711843708
 20
398.4432909115859
 30
0.0
  0
POINT
  5
262E
330
25F1
100
AcDbEntity
  8
DEFPOINTS
 62
     0
100
AcDbPoint
 10
266.0595711843706
 20
325.3431096537379
 30
0.0
  0
POINT
  5
262F
330
25F1
100
AcDbEntity
  8
DEFPOINTS
 62
     0
100
AcDbPoint
 10
230.1589793757806
 20
323.4616393621028
 30
0.0
  0
ENDBLK
  5
25FC
330
25F1
100
AcDbEntity
  8
0
100
AcDbBlockEnd
  0
ENDSEC
  0
SECTION
  2
ENTITIES
  0
TEXT
  5
134
330
1E
100
AcDbEntity
  8
TEXT
100
AcDbText
 10
204.4216048581257
 20
63.0896391972351
 30
0.0
 40
4.0
  1
Koeh
 41
0.8
  7
GREEKS
 72
     1
 11
209.6787477152686
 21
63.0896391972351
 31
0.0
100
AcDbText
  0
INSERT
  5
135
330
1E
100
AcDbEntity
  8
STEMPEL
100
AcDbBlockReference
  2
LOGO
 10
150.9955485457794
 20
45.02105276448322
 30
0.0
 41
2.0
 42
2.0
 43
2.0
  0
LINE
  5
136
330
1E
100
AcDbEntity
  8
HILF
100
AcDbLine
 10
420.0
 20
0.0
 30
0.0
 11
0.0
 21
0.0
 31
0.0
  0
LINE
  5
137
330
1E
100
AcDbEntity
  8
HILF
100
AcDbLine
 10
419.9999999999999
 20
594.0000000000002
 30
0.0
 11
0.0
 21
594.0
 31
0.0
  0
LINE
  5
138
330
1E
100
AcDbEntity
  8
STEMPEL
100
AcDbLine
 10
410.0
 20
584.0
 30
0.0
 11
39.99999999999989
 21
584.0
 31
0.0
  0
LINE
  5
139
330
1E
100
AcDbEntity
  8
STEMPEL
100
AcDbLine
 10
410.0
 20
10.0
 30
0.0
 11
39.99999999999989
 21
10.0
 31
0.0
  0
LINE
  5
13A
330
1E
100
AcDbEntity
  8
STEMPEL
100
AcDbLine
 10
49.99999999999989
 20
10.0
 30
0.0
 11
410.0
 21
10.0
 31
0.0
  0
TEXT
  5
13B
330
1E
100
AcDbEntity
  8
TEXT
100
AcDbText
 10
202.4626584226295
 20
73.30961091915225
 30
0.0
 40
4.0
  1
Name
 41
0.8
  7
GREEKS
100
AcDbText
  0
TEXT
  5
13C
330
1E
100
AcDbEntity
  8
TEXT
100
AcDbText
 10
196.5498279101549
 20
102.6506227776589
 30
0.0
 40
5.0
  1
Zul. Abw.
 41
0.8
  7
GREEKS
 72
     4
 11
209.9783993387263
 21
105.1506227776589
 31
0.0
100
AcDbText
  0
LINE
  5
13D
330
1E
100
AcDbEntity
  8
HILF
100
AcDbLine
 10
146.0000000000001
 20
49.99999999999997
 30
0.0
 11
230.0
 21
49.99999999999997
 31
0.0
  0
LINE
  5
13E
330
1E
100
AcDbEntity
  8
HILF
100
AcDbLine
 10
146.0000000000001
 20
59.99999999999997
 30
0.0
 11
230.0
 21
59.99999999999997
 31
0.0
  0
LINE
  5
13F
330
1E
100
AcDbEntity
  8
HILF
100
AcDbLine
 10
146.0000000000001
 20
69.99999999999994
 30
0.0
 11
230.0
 21
69.99999999999994
 31
0.0
  0
LINE
  5
140
330
1E
100
AcDbEntity
  8
STEMPEL
100
AcDbLine
 10
410.0
 20
80.0
 30
0.0
 11
146.0000000000001
 21
79.99999999999994
 31
0.0
  0
LINE
  5
141
330
1E
100
AcDbEntity
  8
STEMPEL
100
AcDbLine
 10
410.0
 20
40.0
 30
0.0
 11
146.0000000000001
 21
39.99999999999997
 31
0.0
  0
LINE
  5
142
330
1E
100
AcDbEntity
  8
STEMPEL
100
AcDbLine
 10
410.0
 20
110.0
 30
0.0
 11
39.99999999999997
 21
110.0
 31
0.0
  0
LINE
  5
144
330
1E
100
AcDbEntity
  8
HILF
100
AcDbLine
 10
0.0
 20
0.0
 30
0.0
 11
-0.0000000000001137
 21
594.0
 31
0.0
  0
LINE
  5
145
330
1E
100
AcDbEntity
  8
STEMPEL
100
AcDbLine
 10
40.0
 20
10.0
 30
0.0
 11
39.99999999999989
 21
584.0
 31
0.0
  0
TEXT
  5
146
330
1E
100
AcDbEntity
  8
TEXT
100
AcDbText
 10
41.85509950977674
 20
111.6719999999999
 30
0.0
 40
5.0
  1
Erstellt mit AUTOCAD 2004
 41
0.8
  7
GREEKS
100
AcDbText
  0
TEXT
  5
147
330
1E
100
AcDbEntity
  8
TEXT
100
AcDbText
 10
67.93969678957707
 20
18.67381894984132
 30
0.0
 40
4.0
  1
Änderung
 41
0.8
  7
GREEKS
 72
     1
 11
78.68255393243422
 21
18.67381894984132
 31
0.0
100
AcDbText
  0
LINE
  5
148
330
1E
100
AcDbEntity
  8
HILF
100
AcDbLine
 10
40.00000000000008
 20
39.99999999999997
 30
0.0
 11
146.0000000000001
 21
39.99999999999997
 31
0.0
  0
LINE
  5
149
330
1E
100
AcDbEntity
  8
HILF
100
AcDbLine
 10
40.00000000000008
 20
49.99999999999997
 30
0.0
 11
146.0000000000001
 21
49.99999999999997
 31
0.0
  0
LINE
  5
14A
330
1E
100
AcDbEntity
  8
HILF
100
AcDbLine
 10
40.00000000000008
 20
59.99999999999997
 30
0.0
 11
146.0000000000001
 21
59.99999999999997
 31
0.0
  0
LINE
  5
14B
330
1E
100
AcDbEntity
  8
HILF
100
AcDbLine
 10
40.00000000000008
 20
69.99999999999994
 30
0.0
 11
146.0000000000001
 21
69.99999999999994
 31
0.0
  0
LINE
  5
14C
330
1E
100
AcDbEntity
  8
HILF
100
AcDbLine
 10
40.00000000000008
 20
79.99999999999994
 30
0.0
 11
146.0000000000001
 21
79.99999999999994
 31
0.0
  0
LINE
  5
14D
330
1E
100
AcDbEntity
  8
HILF
100
AcDbLine
 10
40.00000000000008
 20
90.00000000000005
 30
0.0
 11
146.0000000000001
 21
90.00000000000005
 31
0.0
  0
LINE
  5
14E
330
1E
100
AcDbEntity
  8
HILF
100
AcDbLine
 10
40.00000000000008
 20
100.0
 30
0.0
 11
146.0000000000001
 21
100.0
 31
0.0
  0
LINE
  5
14F
330
1E
100
AcDbEntity
  8
STEMPEL
100
AcDbLine
 10
145.9999999999999
 20
29.99999999999997
 30
0.0
 11
39.99999999999997
 21
29.99999999999997
 31
0.0
  0
TEXT
  5
150
330
1E
100
AcDbEntity
  8
TEXT
100
AcDbText
 10
48.26641107045756
 20
13.65465846027192
 30
0.0
 40
4.0
  1
Index
 50
90.0
 41
0.8
  7
GREEKS
100
AcDbText
  0
LINE
  5
151
330
1E
100
AcDbEntity
  8
VOLL
100
AcDbLine
 10
54.00000000000009
 20
110.0
 30
0.0
 11
53.99999999999997
 21
9.999999999999971
 31
0.0
  0
LINE
  5
152
330
1E
100
AcDbEntity
  8
HILF
100
AcDbLine
 10
31.08767135713856
 20
297.0
 30
0.0
 11
0.0000000000001137
 21
297.0
 31
0.0
  0
TEXT
  5
153
330
1E
100
AcDbEntity
  8
TEXT
100
AcDbText
 10
110.2820548933125
 20
18.6715626933981
 30
0.0
 40
4.0
  1
Tag
 41
0.8
  7
GREEKS
 72
     1
 11
114.0153882266458
 21
18.6715626933981
 31
0.0
100
AcDbText
  0
LINE
  5
154
330
1E
100
AcDbEntity
  8
VOLL
100
AcDbLine
 10
124.0000000000001
 20
109.9999999999999
 30
0.0
 11
124.0
 21
9.999999999999971
 31
0.0
  0
LINE
  5
155
330
1E
100
AcDbEntity
  8
VOLL
100
AcDbLine
 10
104.0000000000001
 20
109.9999999999999
 30
0.0
 11
104.0
 21
9.999999999999971
 31
0.0
  0
TEXT
  5
156
330
1E
100
AcDbEntity
  8
TEXT
100
AcDbText
 10
128.9001864118674
 20
18.59324216966408
 30
0.0
 40
4.0
  1
Name
 41
0.8
  7
GREEKS
 72
     1
 11
135.2239959356769
 21
18.59324216966408
 31
0.0
100
AcDbText
  0
LINE
  5
157
330
1E
100
AcDbEntity
  8
STEMPEL
100
AcDbLine
 10
146.0000000000001
 20
109.9999999999999
 30
0.0
 11
146.0
 21
9.999999999999971
 31
0.0
  0
TEXT
  5
159
330
1E
100
AcDbEntity
  8
TEXT
100
AcDbText
 10
172.331167315365
 20
73.31880501229926
 30
0.0
 40
4.0
  1
Tag
 41
0.8
  7
GREEKS
100
AcDbText
  0
TEXT
  5
15A
330
1E
100
AcDbEntity
  8
TEXT
100
AcDbText
 10
147.5836127167615
 20
63.62990369617964
 30
0.0
 40
4.0
  1
Gez.
 41
0.8
  7
GREEKS
100
AcDbText
  0
LINE
  5
15B
330
1E
100
AcDbEntity
  8
VOLL
100
AcDbLine
 10
164.0000000000001
 20
79.99999999999994
 30
0.0
 11
164.0000000000001
 21
39.99999999999997
 31
0.0
  0
TEXT
  5
15C
330
1E
100
AcDbEntity
  8
TEXT
100
AcDbText
 10
147.6006777387303
 20
43.52946389649807
 30
0.0
 40
4.0
  1
Norm.
 41
0.8
  7
GREEKS
100
AcDbText
  0
TEXT
  5
15D
330
1E
100
AcDbEntity
  8
TEXT
100
AcDbText
 10
147.5515086571672
 20
53.68926291428377
 30
0.0
 40
4.0
  1
Gepr.
 41
0.8
  7
GREEKS
100
AcDbText
  0
TEXT
  5
15E
330
1E
100
AcDbEntity
  8
TEXT
 62
     1
100
AcDbText
 10
160.5006306481887
 20
88.14901428913959
 30
0.0
 40
7.0
  1
1:2
 41
0.8
  7
GREEKS
100
AcDbText
  0
TEXT
  5
15F
330
1E
100
AcDbEntity
  8
TEXT
100
AcDbText
 10
153.5163572150377
 20
102.4620895087088
 30
0.0
 40
5.0
  1
Maßstab
 41
0.8
  7
GREEKS
100
AcDbText
  0
TEXT
  5
160
330
1E
100
AcDbEntity
  8
TEXT
100
AcDbText
 10
148.622109822104
 20
73.14025471151666
 30
0.0
 40
4.0
  1
2011
 41
0.8
  7
GREEKS
100
AcDbText
  0
LINE
  5
161
330
1E
100
AcDbEntity
  8
VOLL
100
AcDbLine
 10
190.0000000000001
 20
109.9999999999998
 30
0.0
 11
190.0
 21
39.99999999999997
 31
0.0
  0
LINE
  5
186
330
1E
100
AcDbEntity
  8
HILF
100
AcDbLine
 10
420.0
 20
-0.0000000000001137
 30
0.0
 11
419.9999999999999
 21
594.0
 31
0.0
  0
LINE
  5
187
330
1E
100
AcDbEntity
  8
STEMPEL
100
AcDbLine
 10
410.0
 20
10.0
 30
0.0
 11
410.0
 21
584.0
 31
0.0
  0
TEXT
  5
188
330
1E
100
AcDbEntity
  8
TEXT
100
AcDbText
 10
337.2400861497006
 20
52.07416177878602
 30
0.0
 40
5.0
  1
ersetzt durch:
 41
0.8
  7
GREEKS
100
AcDbText
  0
TEXT
  5
189
330
1E
100
AcDbEntity
  8
TEXT
100
AcDbText
 10
336.7238616296993
 20
73.1811823709997
 30
0.0
 40
5.0
  1
Ersatz für:
 41
0.8
  7
GREEKS
100
AcDbText
  0
TEXT
  5
18A
330
1E
100
AcDbEntity
  8
TEXT
100
AcDbText
 10
336.178754957634
 20
102.3132034537136
 30
0.0
 40
5.0
  1
Zeichnungs Nr.
 41
0.8
  7
GREEKS
100
AcDbText
  0
LINE
  5
18B
330
1E
100
AcDbEntity
  8
HILF
100
AcDbLine
 10
233.4909699289885
 20
14.89398258028314
 30
0.0
 11
404.8588839326728
 21
14.89398258028314
 31
0.0
  0
LINE
  5
18C
330
1E
100
AcDbEntity
  8
HILF
100
AcDbLine
 10
336.7238616296993
 20
83.77983636955827
 30
0.0
 11
404.8588839326728
 21
83.77983636955827
 31
0.0
  0
LINE
  5
18D
330
1E
100
AcDbEntity
  8
VOLL
100
AcDbLine
 10
332.0
 20
60.0
 30
0.0
 11
410.0
 21
60.0
 31
0.0
  0
TEXT
  5
18E
330
1E
100
AcDbEntity
  8
TEXT
 62
     1
100
AcDbText
 10
234.9283864320014
 20
87.41748789253779
 30
0.0
 40
7.0
  1
Red.-Abzweig DN100/70
 41
0.7
  7
GREEKS
100
AcDbText
  0
LINE
  5
18F
330
1E
100
AcDbEntity
  8
HILF
100
AcDbLine
 10
234.7736801096947
 20
49.99999999999997
 30
0.0
 11
324.835391655631
 21
49.99999999999997
 31
0.0
  0
LINE
  5
190
330
1E
100
AcDbEntity
  8
HILF
100
AcDbLine
 10
234.7736801096947
 20
59.99999999999997
 30
0.0
 11
324.835391655631
 21
59.99999999999997
 31
0.0
  0
LINE
  5
191
330
1E
100
AcDbEntity
  8
HILF
100
AcDbLine
 10
234.7736801096947
 20
69.99999999999994
 30
0.0
 11
324.835391655631
 21
69.99999999999994
 31
0.0
  0
LINE
  5
192
330
1E
100
AcDbEntity
  8
HILF
100
AcDbLine
 10
234.7736801096947
 20
84.03758247564139
 30
0.0
 11
324.8353916556311
 21
84.03758247564139
 31
0.0
  0
LINE
  5
193
330
1E
100
AcDbEntity
  8
STEMPEL
100
AcDbLine
 10
230.0
 20
110.0
 30
0.0
 11
230.0
 21
9.999999999999971
 31
0.0
  0
TEXT
  5
194
330
1E
100
AcDbEntity
  8
TEXT
100
AcDbText
 10
235.1296391125315
 20
71.50334417585288
 30
0.0
 40
5.0
  1
dünnwandig 87° 
 41
0.8
  7
GREEKS
100
AcDbText
  0
TEXT
  5
195
330
1E
100
AcDbEntity
  8
TEXT
100
AcDbText
 10
234.9837501577827
 20
42.62974153022632
 30
0.0
 40
4.0
  1
5230DC0W.DWG
 41
0.8
  7
GREEKS
100
AcDbText
  0
TEXT
  5
196
330
1E
100
AcDbEntity
  8
TEXT
100
AcDbText
 10
234.742238391136
 20
30.84560570193057
 30
0.0
 40
5.0
  1
Bauvorhaben
 41
0.8
  7
GREEKS
100
AcDbText
  0
TEXT
  5
197
330
1E
100
AcDbEntity
  8
TEXT
100
AcDbText
 10
234.877940380901
 20
102.5489328011779
 30
0.0
 40
5.0
  1
Benennung
 41
0.8
  7
GREEKS
100
AcDbText
  0
LINE
  5
198
330
1E
100
AcDbEntity
  8
STEMPEL
100
AcDbLine
 10
332.0
 20
109.9999999999997
 30
0.0
 11
332.0
 21
40.0
 31
0.0
  0
TEXT
  5
19A
330
1E
100
AcDbEntity
  8
TEXT
 62
     1
100
AcDbText
 10
348.0814057152229
 20
88.14901428913959
 30
0.0
 40
7.0
  1
5230DC0W
 41
0.8
  7
GREEKS
 72
     1
 11
369.6814057152229
 21
88.14901428913959
 31
0.0
100
AcDbText
  0
TEXT
  5
212
330
1E
100
AcDbEntity
  8
TEXT
100
AcDbText
 10
235.1296391125315
 20
51.50334417585291
 30
0.0
 40
5.0
  1
EDV-Art.Nr. 5.230.DC0C
 41
0.8
  7
GREEKS
100
AcDbText
  0
TEXT
  5
255
330
1E
100
AcDbEntity
  8
TEXT
 62
     1
100
AcDbText
 10
297.0573649355706
 20
132.2248663682012
 30
0.0
 40
7.0
  1
Werkstoff: 1.4404
 41
0.8
  7
GREEKS
100
AcDbText
  0
LINE
  5
15D2
330
1E
100
AcDbEntity
  8
MITTEL
100
AcDbLine
 10
215.259571184371
 20
509.2341779994134
 30
0.0
 11
215.2595711843708
 21
229.2308850950836
 31
0.0
  0
LINE
  5
1606
330
1E
100
AcDbEntity
  8
STEMPEL
100
AcDbLine
 10
265.3596618761634
 20
234.2308850950831
 30
0.0
 11
165.1594804925782
 21
234.2308850950838
 31
0.0
  0
TEXT
  5
160F
330
1E
100
AcDbEntity
  8
TEXT
 62
     1
100
AcDbText
 10
205.3609553208938
 20
469.3713735635606
 30
0.0
 40
7.0
  1
DN100
 50
89.99999999999994
 41
0.8
  7
GREEKS
100
AcDbText
  0
TEXT
  5
16FA
330
1E
100
AcDbEntity
  8
TEXT
 62
     1
100
AcDbText
 10
323.5996466729022
 20
370.4515101239123
 30
0.0
 40
7.0
  1
DN70
 50
2.999999999999989
 41
0.8
  7
GREEKS
100
AcDbText
  0
LINE
  5
1702
330
1E
100
AcDbEntity
  8
MITTEL
100
AcDbLine
 10
355.0677060500112
 20
366.5579189690955
 30
0.0
 11
241.3166190467928
 21
360.5964771082249
 31
0.0
  0
DIMENSION
  5
170F
330
1E
100
AcDbEntity
  8
BEM
100
AcDbDimension
  2
*D1
 10
142.0851673862791
 20
359.2308850950835
 30
0.0
 11
135.5851673862791
 21
296.7308850950837
 31
0.0
 70
    32
 71
     5
 42
124.9999999999997
  3
Standard
100
AcDbAlignedDimension
 13
165.1594804925782
 23
234.2308850950838
 33
0.0
 14
215.259571184371
 24
359.2308850950835
 34
0.0
 50
90.0
100
AcDbRotatedDimension
1001
ACAD
1000
DSTYLE
1002
{
1070
    40
1040
2.0
1070
    41
1040
3.5
1070
    42
1040
1.0
1070
    43
1040
7.0
1070
    44
1040
1.0
1070
    73
1070
     0
1070
    74
1070
     0
1070
    77
1070
     1
1070
    78
1070
     8
1070
    79
1070
     2
1070
   140
1040
3.5
1070
   141
1040
1.5
1070
   146
1040
0.5142857142857144
1070
   147
1040
1.5
1070
   172
1070
     1
1070
   178
1070
     1
1070
   179
1070
     2
1070
   271
1070
     2
1070
   272
1070
     2
1070
   284
1070
     8
1070
   285
1070
     8
1070
   286
1070
     8
1002
}
  0
TEXT
  5
1905
330
1E
100
AcDbEntity
  8
VOLL
100
AcDbText
 10
525.3664702311624
 20
212.4618221180262
 30
0.0
 40
1.8
  1

  7
GREEKS
100
AcDbText
  0
LINE
  5
1A80
330
1E
100
AcDbEntity
  8
STEMPEL
100
AcDbLine
 10
269.9193541030943
 20
504.2341779994132
 30
0.0
 11
160.5997882656478
 21
504.2341779994138
 31
0.0
  0
LINE
  5
1A83
330
1E
100
AcDbEntity
  8
STEMPEL
100
AcDbLine
 10
164.459571184371
 20
429.6910513227733
 30
0.0
 11
164.4595711843708
 21
242.2308850950838
 31
0.0
  0
LINE
  5
1A8A
102
{ACAD_REACTORS
330
2574
102
}
330
1E
100
AcDbEntity
  8
STEMPEL
100
AcDbLine
 10
266.0595711843712
 20
429.6910513227734
 30
0.0
 11
266.0595711843709
 21
398.443290911586
 31
0.0
  0
LINE
  5
1AA1
330
1E
100
AcDbEntity
  8
HILF
100
AcDbLine
 10
264.8047963874414
 20
242.2308850950832
 30
0.0
 11
165.7143459813
 21
242.2308850950838
 31
0.0
  0
LINE
  5
1AA2
330
1E
100
AcDbEntity
  8
STEMPEL
100
AcDbLine
 10
164.4595711843708
 20
242.2308850950838
 30
0.0
 11
165.1594804925782
 21
234.2308850950838
 31
0.0
  0
LINE
  5
1AA5
330
1E
100
AcDbEntity
  8
STEMPEL
100
AcDbLine
 10
266.0595711843708
 20
242.2308850950844
 30
0.0
 11
265.3596618761634
 21
234.2308850950831
 31
0.0
  0
DIMENSION
  5
1AB8
330
1E
100
AcDbEntity
  8
BEM
100
AcDbDimension
  2
*D2
 10
125.3666577159013
 20
234.2308850950838
 30
0.0
 11
118.8666577159013
 21
369.2325315472488
 31
0.0
 70
    32
 71
     5
 42
270.00329290433
  3
Standard
100
AcDbAlignedDimension
 13
160.5997882656478
 23
504.2341779994138
 33
0.0
 14
165.1594804925782
 24
234.2308850950838
 34
0.0
 50
90.0
100
AcDbRotatedDimension
1001
ACAD
1000
DSTYLE
1002
{
1070
    40
1040
2.0
1070
    41
1040
3.5
1070
    42
1040
1.0
1070
    43
1040
7.0
1070
    44
1040
1.0
1070
    73
1070
     0
1070
    74
1070
     0
1070
    77
1070
     1
1070
    78
1070
     8
1070
    79
1070
     2
1070
   140
1040
3.5
1070
   141
1040
1.5
1070
   146
1040
0.5142857142857144
1070
   147
1040
1.5
1070
   172
1070
     1
1070
   178
1070
     1
1070
   179
1070
     2
1070
   271
1070
     2
1070
   272
1070
     2
1070
   284
1070
     8
1070
   285
1070
     8
1070
   286
1070
     8
1002
}
  0
LINE
  5
1ACE
102
{ACAD_REACTORS
330
2574
102
}
330
1E
100
AcDbEntity
  8
STEMPEL
100
AcDbLine
 10
266.0595711843707
 20
325.3431096537378
 30
0.0
 11
266.0595711843708
 21
242.2308850950832
 31
0.0
  0
DIMENSION
  5
1AE8
330
1E
100
AcDbEntity
  8
BEM
100
AcDbDimension
  2
*D3
 10
266.0595711843707
 20
213.1409958420065
 30
0.0
 11
215.2595711843708
 21
219.6409958420065
 31
0.0
 70
    32
  1
%%c<>
 71
     5
 42
101.5999999999999
  3
Standard
100
AcDbAlignedDimension
 13
164.4595711843708
 23
242.2308850950838
 33
0.0
 14
266.0595711843707
 24
242.2308850950832
 34
0.0
100
AcDbRotatedDimension
1001
ACAD
1000
DSTYLE
1002
{
1070
    40
1040
2.0
1070
    41
1040
3.5
1070
    42
1040
1.0
1070
    43
1040
7.0
1070
    44
1040
1.0
1070
    73
1070
     0
1070
    74
1070
     0
1070
    77
1070
     1
1070
    78
1070
     8
1070
    79
1070
     2
1070
   140
1040
3.5
1070
   141
1040
1.5
1070
   146
1040
0.5142857142857144
1070
   147
1040
1.5
1070
   172
1070
     1
1070
   178
1070
     1
1070
   179
1070
     2
1070
   271
1070
     2
1070
   272
1070
     2
1070
   284
1070
     8
1070
   285
1070
     8
1070
   286
1070
     8
1002
}
  0
TEXT
  5
1BF5
330
1E
100
AcDbEntity
  8
BEM
100
AcDbText
 10
416.5811541437437
 20
12.14804815338303
 30
0.0
 40
4.0
  1
Diese Zeichnung ist urheberrechtlich geschützt und bleibt unser Eigentum. Sie darf weder ganz noch teilweise vervielfältigt und nicht an Dritte weitergegeben werden.
 50
90.0
 41
0.8
  7
GREEKS
100
AcDbText
  0
TEXT
  5
1C10
330
1E
100
AcDbEntity
  8
TEXT
100
AcDbText
 10
192.6882715247924
 20
88.73450771838452
 30
0.0
 40
4.0
  1
DIN EN1124-3
 41
0.8
  7
GREEKS
 72
     1
 11
209.6787477152686
 21
88.73450771838452
 31
0.0
100
AcDbText
  0
TEXT
  5
1DDC
330
1E
100
AcDbEntity
  8
VOLL
100
AcDbText
 10
539.7246252213716
 20
194.5107114195854
 30
0.0
 40
1.8
  1

  7
GREEKS
100
AcDbText
  0
TEXT
  5
2359
330
1E
100
AcDbEntity
  8
VOLL
100
AcDbText
 10
531.336362752026
 20
210.077510736562
 30
0.0
 40
1.8
  1

  7
GREEKS
100
AcDbText
  0
LINE
  5
2365
330
1E
100
AcDbEntity
  8
STEMPEL
100
AcDbLine
 10
352.1279770077364
 20
327.1146776031379
 30
0.0
 11
348.0211397447403
 21
405.4778007726238
 31
0.0
  0
LINE
  5
2368
102
{ACAD_REACTORS
330
2574
102
}
330
1E
100
AcDbEntity
  8
STEMPEL
100
AcDbLine
 10
288.347405957426
 20
399.6113468370692
 30
0.0
 11
266.0595711843709
 21
398.4432909115859
 31
0.0
  0
ARC
  5
236D
330
1E
100
AcDbEntity
  8
STEMPEL
100
AcDbCircle
 10
338.6754870084736
 20
382.722169053572
 30
0.0
 40
24.6
100
AcDbArc
 50
67.67222757822131
 51
93.0
  0
LINE
  5
236E
330
1E
100
AcDbEntity
  8
STEMPEL
100
AcDbLine
 10
337.3880224848972
 20
407.2884556085345
 30
0.0
 11
328.2942848292995
 21
406.811873012622
 31
0.0
  0
ARC
  5
236F
330
1E
100
AcDbEntity
  8
STEMPEL
100
AcDbCircle
 10
329.581749352876
 20
382.2455864576596
 30
0.0
 40
24.6
100
AcDbArc
 50
93.0
 51
114.2995644254084
  0
LINE
  5
2371
330
1E
100
AcDbEntity
  8
STEMPEL
100
AcDbLine
 10
315.1486088929601
 20
403.6195064646292
 30
0.0
 11
298.3212229191473
 21
402.7376205346031
 31
0.0
  0
ARC
  5
2372
330
1E
100
AcDbEntity
  8
STEMPEL
100
AcDbCircle
 10
314.5205774180448
 20
415.603060881684
 30
0.0
 40
12.0
100
AcDbArc
 50
273.0
 51
294.2995644254084
  0
ARC
  5
2375
330
1E
100
AcDbEntity
  8
STEMPEL
100
AcDbCircle
 10
287.7963003187515
 20
409.1956391359759
 30
0.0
 40
9.600000000000001
100
AcDbArc
 50
273.0
 51
301.6746569050753
  0
ARC
  5
2377
330
1E
100
AcDbEntity
  8
STEMPEL
100
AcDbCircle
 10
298.9283200115655
 20
391.15351793145
 30
0.0
 40
11.6
100
AcDbArc
 50
93.0
 51
121.6746569050753
  0
ARC
  5
2378
330
1E
100
AcDbEntity
  8
STEMPEL
100
AcDbCircle
 10
301.8067976049274
 20
336.2288935199484
 30
0.0
 40
11.6
100
AcDbArc
 50
244.3253430949247
 51
273.0
  0
ARC
  5
237A
330
1E
100
AcDbEntity
  8
STEMPEL
100
AcDbCircle
 10
292.621675484351
 20
317.1219960316043
 30
0.0
 40
9.600000000000001
100
AcDbArc
 50
64.32534309492469
 51
93.0
  0
ARC
  5
237D
330
1E
100
AcDbEntity
  8
STEMPEL
100
AcDbCircle
 10
319.8693121460737
 20
313.5431224297668
 30
0.0
 40
12.0
100
AcDbArc
 50
71.70043557459159
 51
93.0
  0
LINE
  5
237E
330
1E
100
AcDbEntity
  8
STEMPEL
100
AcDbLine
 10
319.2412806711584
 20
325.5266768468217
 30
0.0
 11
302.4138946973456
 21
324.6447909167954
 31
0.0
  0
ARC
  5
2380
330
1E
100
AcDbEntity
  8
STEMPEL
100
AcDbCircle
 10
331.3611718651362
 20
348.2921822760041
 30
0.0
 40
24.6
100
AcDbArc
 50
251.7004355745916
 51
273.0
  0
LINE
  5
2381
330
1E
100
AcDbEntity
  8
STEMPEL
100
AcDbLine
 10
341.7423740443102
 20
324.2024783169541
 30
0.0
 11
332.6486363887125
 21
323.7258957210417
 31
0.0
  0
ARC
  5
2382
330
1E
100
AcDbEntity
  8
STEMPEL
100
AcDbCircle
 10
340.4549095207337
 20
348.7687648719165
 30
0.0
 40
24.6
100
AcDbArc
 50
273.0
 51
298.3277724217787
  0
LINE
  5
2387
102
{ACAD_REACTORS
330
2574
102
}
330
1E
100
AcDbEntity
  8
STEMPEL
100
AcDbLine
 10
292.1679307631608
 20
326.7113907999852
 30
0.0
 11
266.0595711843708
 21
325.3431096537378
 31
0.0
  0
LINE
  5
24D5
330
1E
100
AcDbEntity
  8
HILF
100
AcDbLine
 10
321.4029215102889
 20
326.653730436949
 30
0.0
 11
317.416217217194
 21
402.7245799870451
 31
0.0
  0
LINE
  5
24D6
330
1E
100
AcDbEntity
  8
HILF
100
AcDbLine
 10
299.4613435936758
 20
326.0968233720911
 30
0.0
 11
295.5366249205208
 21
400.9849168354405
 31
0.0
  0
LINE
  5
24D7
330
1E
100
AcDbEntity
  8
HILF
100
AcDbLine
 10
294.4443028212288
 20
327.7670901876401
 30
0.0
 11
290.7216584458432
 21
398.799376354175
 31
0.0
  0
ELLIPSE
  5
2542
330
1E
100
AcDbEntity
  8
STEMPEL
100
AcDbEllipse
 10
266.0595711843707
 20
361.082586252248
 30
0.0
 11
0.0
 21
-37.3607046593379
 31
0.0
210
0.0
220
0.0
230
1.0
 40
0.4140028207806286
 41
3.141592653589793
 42
4.712388980384689
  0
ELLIPSE
  5
2543
330
1E
100
AcDbEntity
  8
STEMPEL
100
AcDbEllipse
 10
266.0595711843707
 20
361.082586252248
 30
0.0
 11
0.0
 21
-35.73947659851018
 31
0.0
210
0.0
220
0.0
230
1.0
 40
0.4327829780238761
 41
4.712388980384689
 42
6.283185307179586
  0
ARC
  5
2548
330
1E
100
AcDbEntity
  8
SCHRAFF
100
AcDbCircle
 10
266.0595711843707
 20
398.4432909115859
 30
0.0
 40
5.0
100
AcDbArc
 50
158.7216469289665
 51
235.4444779063415
  0
ARC
  5
2549
330
1E
100
AcDbEntity
  8
SCHRAFF
100
AcDbCircle
 10
261.3770116129085
 20
396.6901121244373
 30
0.0
 40
5.0
100
AcDbArc
 50
188.8466076199546
 51
263.2481218453973
  0
ARC
  5
254A
330
1E
100
AcDbEntity
  8
SCHRAFF
100
AcDbCircle
 10
258.0135523544207
 20
392.9904983856136
 30
0.0
 40
5.0
100
AcDbArc
 50
203.258822924292
 51
277.2006057202963
  0
ARC
  5
254B
330
1E
100
AcDbEntity
  8
SCHRAFF
100
AcDbCircle
 10
255.6020925953963
 20
388.6104456655419
 30
0.0
 40
5.0
100
AcDbArc
 50
211.6250850130072
 51
285.457188448159
  0
ARC
  5
254C
330
1E
100
AcDbEntity
  8
SCHRAFF
100
AcDbCircle
 10
253.8238311329415
 20
383.937353951128
 30
0.0
 40
5.0
100
AcDbArc
 50
217.422951616915
 51
291.2128267970811
  0
ARC
  5
254D
330
1E
100
AcDbEntity
  8
SCHRAFF
100
AcDbCircle
 10
252.5124497282052
 20
379.1123898257368
 30
0.0
 40
5.0
100
AcDbArc
 50
221.9345865073869
 51
295.7096632334412
  0
ARC
  5
254E
330
1E
100
AcDbEntity
  8
SCHRAFF
100
AcDbCircle
 10
251.5769401654181
 20
374.2006872840581
 30
0.0
 40
5.0
100
AcDbArc
 50
225.743643863727
 51
299.507396134687
  0
ARC
  5
254F
330
1E
100
AcDbEntity
  8
SCHRAFF
100
AcDbCircle
 10
250.9651662038372
 20
369.2382551565694
 30
0.0
 40
5.0
100
AcDbArc
 50
229.1586260602303
 51
302.9169058854693
  0
ARC
  5
2550
330
1E
100
AcDbEntity
  8
SCHRAFF
100
AcDbCircle
 10
250.6477621569048
 20
364.2483398595938
 30
0.0
 40
5.0
100
AcDbArc
 50
232.3825416985232
 51
306.1450578652981
  0
ARC
  5
2551
330
1E
100
AcDbEntity
  8
SCHRAFF
100
AcDbCircle
 10
250.6125155028162
 20
359.2484640937997
 30
0.0
 40
5.0
100
AcDbArc
 50
235.7936305686965
 51
309.5597533059422
  0
ARC
  5
2552
330
1E
100
AcDbEntity
  8
SCHRAFF
100
AcDbCircle
 10
250.8769634646561
 20
354.25546226369
 30
0.0
 40
5.0
100
AcDbArc
 50
239.415887101201
 51
313.1881997443065
  0
ARC
  5
2553
330
1E
100
AcDbEntity
  8
SCHRAFF
100
AcDbCircle
 10
251.4584792337908
 20
349.2893934552412
 30
0.0
 40
5.0
100
AcDbArc
 50
243.3678038287086
 51
317.1459134763735
  0
ARC
  5
2554
330
1E
100
AcDbEntity
  8
SCHRAFF
100
AcDbCircle
 10
252.3860509126959
 20
344.3761856659763
 30
0.0
 40
5.0
100
AcDbArc
 50
247.9595107687535
 51
321.7658391258687
  0
ARC
  5
2555
330
1E
100
AcDbEntity
  8
SCHRAFF
100
AcDbCircle
 10
253.7127992723444
 20
339.5554244407918
 30
0.0
 40
5.0
100
AcDbArc
 50
253.7104934290316
 51
327.5528517703772
  0
ARC
  5
2556
330
1E
100
AcDbEntity
  8
SCHRAFF
100
AcDbCircle
 10
255.5322703753193
 20
334.898223038078
 30
0.0
 40
5.0
100
AcDbArc
 50
261.6944228774228
 51
335.6711960888913
  0
ARC
  5
2557
330
1E
100
AcDbEntity
  8
SCHRAFF
100
AcDbCircle
 10
258.0145331825855
 20
330.5579037692151
 30
0.0
 40
5.0
100
AcDbArc
 50
274.5660918584678
 51
349.0969106809976
  0
ARC
  5
2558
102
{ACAD_REACTORS
330
2574
102
}
330
1E
100
AcDbEntity
  8
SCHRAFF
100
AcDbCircle
 10
266.0595711843707
 20
325.3431096537378
 30
0.0
 40
3.0
100
AcDbArc
 50
270.0
 51
3.000000000000173
  0
ARC
  5
2559
102
{ACAD_REACTORS
330
2574
102
}
330
1E
100
AcDbEntity
  8
SCHRAFF
100
AcDbCircle
 10
266.0595711843707
 20
398.4432909115859
 30
0.0
 40
3.0
100
AcDbArc
 50
3.000000000000173
 51
89.99999999999674
  0
HATCH
  5
2574
330
1E
100
AcDbEntity
  8
SCHRAFF
100
AcDbHatch
 10
0.0
 20
0.0
 30
0.0
210
0.0
220
0.0
230
1.0
  2
_USER
 70
     0
 71
     1
 91
        2
 92
        7
 72
     1
 73
     1
 93
        3
 10
269.0554597886344
 20
398.6002987803148
 42
0.3989595459736968
 10
266.0595711843709
 20
401.4432909115859
 42
0.0
 10
266.0595711843708
 20
398.443290911586
 42
0.0
 97
        3
330
1A8A
330
2368
330
2559
 92
        7
 72
     1
 73
     1
 93
        3
 10
269.0554597886344
 20
325.5001175224667
 42
0.0
 10
266.0595711843708
 20
325.3431096537379
 42
0.0
 10
266.0595711843708
 20
322.3431096537378
 42
0.4296339059668256
 97
        3
330
2387
330
1ACE
330
2558
 75
     0
 76
     0
 52
0.0
 41
0.1
 77
     0
 78
     1
 53
0.0
 43
0.0
 44
0.0
 45
0.0
 46
0.1
 79
     0
 47
0.2075255206214436
 98
        2
 10
267.2975155885934
 20
399.0727429569749
 10
267.9205475749904
 20
324.156029410366
  0
DIMENSION
  5
2590
330
1E
100
AcDbEntity
  8
BEM
100
AcDbDimension
  2
*D6
 10
215.2595711843708
 20
229.2308850950836
 30
0.0
 11
332.2289666794199
 21
476.0181963110585
 31
0.0
 70
   162
 71
     5
 42
1.518436449235066
  3
Standard
100
AcDb2LineAngularDimension
 13
355.0677060500112
 23
366.5579189690955
 33
0.0
 14
215.259571184371
 24
359.2308850950834
 34
0.0
 15
215.259571184371
 25
509.2341779994134
 35
0.0
 16
295.3942393894437
 26
503.7976533898651
 36
0.0
1001
ACAD
1000
DSTYLE
1002
{
1070
    40
1040
2.0
1070
    41
1040
3.5
1070
    42
1040
1.0
1070
    43
1040
7.0
1070
    44
1040
1.0
1070
    73
1070
     0
1070
    74
1070
     0
1070
    77
1070
     1
1070
    78
1070
     8
1070
    79
1070
     2
1070
   140
1040
3.5
1070
   141
1040
1.5
1070
   146
1040
0.5142857142857144
1070
   147
1040
1.5
1070
   172
1070
     1
1070
   178
1070
     1
1070
   179
1070
     2
1070
   271
1070
     2
1070
   272
1070
     2
1070
   284
1070
     8
1070
   285
1070
     8
1070
   286
1070
     8
1002
}
  0
DIMENSION
  5
25B5
330
1E
100
AcDbEntity
  8
BEM
100
AcDbDimension
  2
*D7
 10
353.2318921121113
 20
306.0507226049133
 30
0.0
 11
285.4842148005985
 21
309.0091375344191
 31
0.0
 70
    32
 71
     5
 42
134.9999999999998
 51
357.0
  3
Standard
100
AcDbAlignedDimension
 13
215.259571184371
 23
359.2308850950834
 33
0.0
 14
352.1279770077364
 24
327.1146776031379
 34
0.0
 50
3.00000000000001
100
AcDbRotatedDimension
1001
ACAD
1000
DSTYLE
1002
{
1070
    40
1040
2.0
1070
    41
1040
3.5
1070
    42
1040
1.0
1070
    43
1040
7.0
1070
    44
1040
1.0
1070
    73
1070
     0
1070
    74
1070
     0
1070
    77
1070
     1
1070
    78
1070
     8
1070
    79
1070
     2
1070
   140
1040
3.5
1070
   141
1040
1.5
1070
   146
1040
0.5142857142857144
1070
   147
1040
1.5
1070
   172
1070
     1
1070
   178
1070
     1
1070
   179
1070
     2
1070
   271
1070
     2
1070
   272
1070
     2
1070
   284
1070
     8
1070
   285
1070
     8
1070
   286
1070
     8
1002
}
  0
DIMENSION
  5
25F0
330
1E
100
AcDbEntity
  8
BEM
100
AcDbDimension
  2
*D8
 10
230.1589793757806
 20
323.4616393621028
 30
0.0
 11
234.7398089488179
 21
360.2518010962237
 31
0.0
 70
    32
  1
%%c<>
 71
     5
 42
72.99999999999972
 51
87.00000000000002
  3
Standard
100
AcDbAlignedDimension
 13
266.0595711843708
 23
398.4432909115859
 33
0.0
 14
266.0595711843706
 24
325.3431096537379
 34
0.0
 50
272.9999999999999
100
AcDbRotatedDimension
1001
ACAD
1000
DSTYLE
1002
{
1070
    40
1040
2.0
1070
    41
1040
3.5
1070
    42
1040
1.0
1070
    43
1040
7.0
1070
    44
1040
1.0
1070
    73
1070
     0
1070
    74
1070
     0
1070
    77
1070
     1
1070
    78
1070
     8
1070
    79
1070
     2
1070
   140
1040
3.5
1070
   141
1040
1.5
1070
   146
1040
0.5142857142857144
1070
   147
1040
1.5
1070
   172
1070
     1
1070
   178
1070
     1
1070
   179
1070
     2
1070
   271
1070
     2
1070
   272
1070
     2
1070
   284
1070
     8
1070
   285
1070
     8
1070
   286
1070
     8
1002
}
  0
LINE
  5
2600
330
1E
100
AcDbEntity
  8
MITTEL
100
AcDbLine
 10
224.7734549255792
 20
359.7294866143172
 30
0.0
 11
215.259571184371
 21
359.2308850950834
 31
0.0
  0
LINE
  5
267C
330
1E
100
AcDbEntity
  8
HILF
100
AcDbLine
 10
268.2795206075719
 20
459.7069170205738
 30
0.0
 11
162.2396217611703
 21
459.7069170205739
 31
0.0
  0
LINE
  5
267D
330
1E
100
AcDbEntity
  8
HILF
100
AcDbLine
 10
267.4063190138859
 20
437.25395704425
 30
0.0
 11
163.1128233548563
 21
437.25395704425
 31
0.0
  0
LINE
  5
267E
330
1E
100
AcDbEntity
  8
HILF
100
AcDbLine
 10
265.1091710301127
 20
431.8195101733626
 30
0.0
 11
165.4099713386296
 21
431.8195101733626
 31
0.0
  0
ARC
  5
2681
330
1E
100
AcDbEntity
  8
STEMPEL
100
AcDbCircle
 10
181.5595711843711
 20
492.0378670817631
 30
0.0
 40
24.2
100
AcDbArc
 50
149.7363480579001
 51
180.0
  0
LINE
  5
2682
330
1E
100
AcDbEntity
  8
STEMPEL
100
AcDbLine
 10
161.3595711843712
 20
456.730977468732
 30
0.0
 11
161.3595711843711
 21
441.0060855692967
 31
0.0
  0
ARC
  5
2684
330
1E
100
AcDbEntity
  8
STEMPEL
100
AcDbCircle
 10
175.5595711843711
 20
441.0060855692967
 30
0.0
 40
14.2
100
AcDbArc
 50
180.0
 51
210.6429317629395
  0
ARC
  5
2685
330
1E
100
AcDbEntity
  8
STEMPEL
100
AcDbCircle
 10
156.4595711843712
 20
429.6910513227733
 30
0.0
 40
8.0
100
AcDbArc
 50
0.0
 51
30.85958109062227
  0
LINE
  5
2686
330
1E
100
AcDbEntity
  8
STEMPEL
100
AcDbLine
 10
157.3595711843712
 20
492.0378670817631
 30
0.0
 11
157.3595711843712
 21
473.4641779994135
 31
0.0
  0
ARC
  5
2687
330
1E
100
AcDbEntity
  8
STEMPEL
100
AcDbCircle
 10
181.5595711843711
 20
473.4641779994135
 30
0.0
 40
24.2
100
AcDbArc
 50
180.0
 51
206.8880476177246
  0
ARC
  5
2688
330
1E
100
AcDbEntity
  8
STEMPEL
100
AcDbCircle
 10
148.5595711843711
 20
456.7309774687321
 30
0.0
 40
12.8
100
AcDbArc
 50
0.0
 51
26.88804761772463
  0
ARC
  5
268A
330
1E
100
AcDbEntity
  8
STEMPEL
100
AcDbCircle
 10
248.9595711843711
 20
492.0378670817632
 30
0.0
 40
24.2
100
AcDbArc
 50
0.0
 51
30.26365194209988
  0
ARC
  5
268B
330
1E
100
AcDbEntity
  8
STEMPEL
100
AcDbCircle
 10
248.9595711843711
 20
473.4641779994135
 30
0.0
 40
24.2
100
AcDbArc
 50
333.1119523822754
 51
0.0
  0
LINE
  5
268C
330
1E
100
AcDbEntity
  8
STEMPEL
100
AcDbLine
 10
269.1595711843711
 20
456.7309774687321
 30
0.0
 11
269.1595711843711
 21
441.0060855692968
 31
0.0
  0
ARC
  5
268E
330
1E
100
AcDbEntity
  8
STEMPEL
100
AcDbCircle
 10
254.9595711843711
 20
441.0060855692967
 30
0.0
 40
14.2
100
AcDbArc
 50
329.3570682370604
 51
0.0
  0
ARC
  5
268F
330
1E
100
AcDbEntity
  8
STEMPEL
100
AcDbCircle
 10
274.0595711843711
 20
429.6910513227733
 30
0.0
 40
8.0
100
AcDbArc
 50
149.1404189093777
 51
180.0
  0
ARC
  5
2690
330
1E
100
AcDbEntity
  8
STEMPEL
100
AcDbCircle
 10
281.9595711843711
 20
456.7309774687321
 30
0.0
 40
12.8
100
AcDbArc
 50
153.1119523822753
 51
180.0
  0
LINE
  5
2691
330
1E
100
AcDbEntity
  8
STEMPEL
100
AcDbLine
 10
273.159571184371
 20
492.0378670817632
 30
0.0
 11
273.1595711843711
 21
473.4641779994136
 31
0.0
  0
TEXT
  5
26B2
330
1E
100
AcDbEntity
  8
TEXT
100
AcDbText
 10
170.398997108236
 20
63.10765040825732
 30
0.0
 40
4.0
  1
08.04.
 41
0.8
  7
GREEKS
 72
     1
 11
177.4085209177598
 21
63.10765040825732
 31
0.0
100
AcDbText
  0
ENDSEC
  0
SECTION
  2
OBJECTS
  0
DICTIONARY
  5
C
330
0
100
AcDbDictionary
281
     1
  3
ACAD_COLOR
350
1790
  3
ACAD_GROUP
350
D
  3
ACAD_LAYOUT
350
19
  3
ACAD_MATERIAL
350
178F
  3
ACAD_MLINESTYLE
350
16
  3
ACAD_PLOTSETTINGS
350
18
  3
ACAD_PLOTSTYLENAME
350
E
  3
AcDbVariableDictionary
350
246
  0
DICTIONARY
  5
1790
102
{ACAD_REACTORS
330
C
102
}
330
C
100
AcDbDictionary
281
     1
  0
DICTIONARY
  5
D
102
{ACAD_REACTORS
330
C
102
}
330
C
100
AcDbDictionary
281
     1
  0
DICTIONARY
  5
19
102
{ACAD_REACTORS
330
C
102
}
330
C
100
AcDbDictionary
281
     1
  3
Layout1
350
1D
  3
Model
350
21
  0
DICTIONARY
  5
178F
102
{ACAD_REACTORS
330
C
102
}
330
C
100
AcDbDictionary
281
     1
  0
DICTIONARY
  5
16
102
{ACAD_REACTORS
330
C
102
}
330
C
100
AcDbDictionary
281
     1
  3
Standard
350
17
  0
DICTIONARY
  5
18
102
{ACAD_REACTORS
330
C
102
}
330
C
100
AcDbDictionary
281
     1
  0
ACDBDICTIONARYWDFLT
  5
E
102
{ACAD_REACTORS
330
C
102
}
330
C
100
AcDbDictionary
281
     1
  3
Normal
350
F
100
AcDbDictionaryWithDefault
340
F
  0
DICTIONARY
  5
246
102
{ACAD_REACTORS
330
C
102
}
330
C
100
AcDbDictionary
281
     1
  3
DIMASSOC
350
1C0C
  3
PROJECTNAME
350
1C0D
  3
SORTENTS
350
247
  0
LAYOUT
  5
1D
102
{ACAD_REACTORS
330
19
102
}
330
19
100
AcDbPlotSettings
  1

  2
Tektronix Phaser 740
  4

  6

 40
0.0
 41
0.0
 42
0.0
 43
0.0
 44
0.0
 45
0.0
 46
0.0
 47
0.0
 48
0.0
 49
0.0
140
0.0
141
0.0
142
1.0
143
1.0
 70
   688
 72
     0
 73
     0
 74
     5
  7
monochrome.ctb
 75
    16
147
1.0
 76
     0
 77
     2
 78
   300
148
0.0
149
0.0
100
AcDbLayout
  1
Layout1
 70
     0
 71
     1
 10
0.0
 20
0.0
 11
12.0
 21
9.0
 12
0.0
 22
0.0
 32
0.0
 14
1.000000000000000E+20
 24
1.000000000000000E+20
 34
1.000000000000000E+20
 15
-1.000000000000000E+20
 25
-1.000000000000000E+20
 35
-1.000000000000000E+20
146
0.0
 13
0.0
 23
0.0
 33
0.0
 16
1.0
 26
0.0
 36
0.0
 17
0.0
 27
1.0
 37
0.0
 76
     0
330
1A
  0
LAYOUT
  5
21
102
{ACAD_REACTORS
330
19
102
}
330
19
100
AcDbPlotSettings
  1

  2
Tektronix Phaser 740
  4
A4
  6

 40
5.873749732971191
 41
6.085414409637451
 42
5.577407836914062
 43
5.662078857421875
 44
209.9733276367187
 45
296.9683227539062
 46
0.0
 47
0.0
 48
0.0
 49
0.0
140
0.0
141
0.0
142
1.0
143
1.0
 70
 11952
 72
     0
 73
     1
 74
     0
  7
monochrome.ctb
 75
     0
147
1.0
 76
     0
 77
     2
 78
   300
148
1150.120678237584
149
45.30495740799864
100
AcDbLayout
  1
Model
 70
     1
 71
     0
 10
0.0
 20
0.0
 11
12.0
 21
9.0
 12
0.0
 22
0.0
 32
0.0
 14
0.0
 24
0.0
 34
0.0
 15
0.0
 25
0.0
 35
0.0
146
0.0
 13
0.0
 23
0.0
 33
0.0
 16
1.0
 26
0.0
 36
0.0
 17
0.0
 27
1.0
 37
0.0
 76
     0
330
1E
  0
MLINESTYLE
  5
17
102
{ACAD_REACTORS
330
16
102
}
330
16
100
AcDbMlineStyle
  2
STANDARD
 70
     0
  3

 62
   256
 51
90.0
 52
90.0
 71
     2
 49
0.5
 62
   256
  6
BYLAYER
 49
-0.5
 62
   256
  6
BYLAYER
  0
ACDBPLACEHOLDER
  5
F
102
{ACAD_REACTORS
330
E
102
}
330
E
  0
DICTIONARYVAR
  5
1C0C
102
{ACAD_REACTORS
330
246
102
}
330
246
100
DictionaryVariables
280
     0
  1
1
  0
DICTIONARYVAR
  5
1C0D
102
{ACAD_REACTORS
330
246
102
}
330
246
100
DictionaryVariables
280
     0
  1

  0
DICTIONARYVAR
  5
247
102
{ACAD_REACTORS
330
246
102
}
330
246
100
DictionaryVariables
280
     0
  1
96
  0
ENDSEC
  0
EOF
