  0
SECTION
  2
HEADER
  9
$ACADVER
  1
AC1018
  9
$ACADMAINTVER
 70
     2
  9
$DWGCODEPAGE
  3
ANSI_1252
  9
$INSBASE
 10
0.0
 20
0.0
 30
0.0
  9
$EXTMIN
 10
-0.0192146320376878
 20
-0.0271749795965661
 30
-0.0000000000000023
  9
$EXTMAX
 10
420.0192317462092
 20
594.027199183924
 30
0.0000000000000129
  9
$LIMMIN
 10
0.0
 20
0.0
  9
$LIMMAX
 10
419.9999999999999
 20
594.0
  9
$ORTHOMODE
 70
     1
  9
$REGENMODE
 70
     1
  9
$FILLMODE
 70
     1
  9
$QTEXTMODE
 70
     0
  9
$MIRRTEXT
 70
     1
  9
$LTSCALE
 40
20.0
  9
$ATTMODE
 70
     1
  9
$TEXTSIZE
 40
3.5
  9
$TRACEWID
 40
0.5
  9
$TEXTSTYLE
  7
STANDARD
  9
$CLAYER
  8
BEM
  9
$CELTYPE
  6
ByLayer
  9
$CECOLOR
 62
   256
  9
$CELTSCALE
 40
1.0
  9
$DISPSILH
 70
     0
  9
$DIMSCALE
 40
2.0
  9
$DIMASZ
 40
3.5
  9
$DIMEXO
 40
1.0
  9
$DIMDLI
 40
7.0
  9
$DIMRND
 40
0.0
  9
$DIMDLE
 40
0.0
  9
$DIMEXE
 40
1.0
  9
$DIMTP
 40
0.0
  9
$DIMTM
 40
0.0
  9
$DIMTXT
 40
3.5
  9
$DIMCEN
 40
1.5
  9
$DIMTSZ
 40
0.0
  9
$DIMTOL
 70
     0
  9
$DIMLIM
 70
     0
  9
$DIMTIH
 70
     0
  9
$DIMTOH
 70
     0
  9
$DIMSE1
 70
     0
  9
$DIMSE2
 70
     0
  9
$DIMTAD
 70
     1
  9
$DIMZIN
 70
     8
  9
$DIMBLK
  1

  9
$DIMASO
 70
     1
  9
$DIMSHO
 70
     0
  9
$DIMPOST
  1

  9
$DIMAPOST
  1

  9
$DIMALT
 70
     0
  9
$DIMALTD
 70
     2
  9
$DIMALTF
 40
25.4
  9
$DIMLFAC
 40
1.0
  9
$DIMTOFL
 70
     1
  9
$DIMTVP
 40
0.0
  9
$DIMTIX
 70
     0
  9
$DIMSOXD
 70
     0
  9
$DIMSAH
 70
     0
  9
$DIMBLK1
  1

  9
$DIMBLK2
  1

  9
$DIMSTYLE
  2
Standard
  9
$DIMCLRD
 70
     0
  9
$DIMCLRE
 70
     0
  9
$DIMCLRT
 70
     1
  9
$DIMTFAC
 40
0.5142857142857144
  9
$DIMGAP
 40
1.5
  9
$DIMJUST
 70
     0
  9
$DIMSD1
 70
     0
  9
$DIMSD2
 70
     0
  9
$DIMTOLJ
 70
     1
  9
$DIMTZIN
 70
     8
  9
$DIMALTZ
 70
     8
  9
$DIMALTTZ
 70
     8
  9
$DIMUPT
 70
     0
  9
$DIMDEC
 70
     2
  9
$DIMTDEC
 70
     2
  9
$DIMALTU
 70
     2
  9
$DIMALTTD
 70
     2
  9
$DIMTXSTY
  7
STANDARD
  9
$DIMAUNIT
 70
     0
  9
$DIMADEC
 70
     2
  9
$DIMALTRND
 40
0.0
  9
$DIMAZIN
 70
     2
  9
$DIMDSEP
 70
    46
  9
$DIMATFIT
 70
     3
  9
$DIMFRAC
 70
     0
  9
$DIMLDRBLK
  1

  9
$DIMLUNIT
 70
     2
  9
$DIMLWD
 70
    -2
  9
$DIMLWE
 70
    -2
  9
$DIMTMOVE
 70
     0
  9
$LUNITS
 70
     2
  9
$LUPREC
 70
     2
  9
$SKETCHINC
 40
1.0
  9
$FILLETRAD
 40
0.0
  9
$AUNITS
 70
     1
  9
$AUPREC
 70
     3
  9
$MENU
  1
ACAD
  9
$ELEVATION
 40
0.0
  9
$PELEVATION
 40
0.0
  9
$THICKNESS
 40
0.0
  9
$LIMCHECK
 70
     0
  9
$CHAMFERA
 40
0.0
  9
$CHAMFERB
 40
0.0
  9
$CHAMFERC
 40
0.0
  9
$CHAMFERD
 40
0.0
  9
$SKPOLY
 70
     0
  9
$TDCREATE
 40
2452040.637099653
  9
$TDUCREATE
 40
2452040.553766320
  9
$TDUPDATE
 40
2455660.345615370
  9
$TDUUPDATE
 40
2455660.262282037
  9
$TDINDWG
 40
0.4641131366
  9
$TDUSRTIMER
 40
0.4641131366
  9
$USRTIMER
 70
     1
  9
$ANGBASE
 50
0.0
  9
$ANGDIR
 70
     0
  9
$PDMODE
 70
     0
  9
$PDSIZE
 40
0.0
  9
$PLINEWID
 40
0.0
  9
$SPLFRAME
 70
     0
  9
$SPLINETYPE
 70
     6
  9
$SPLINESEGS
 70
     8
  9
$HANDSEED
  5
21B7
  9
$SURFTAB1
 70
     6
  9
$SURFTAB2
 70
     6
  9
$SURFTYPE
 70
     6
  9
$SURFU
 70
     6
  9
$SURFV
 70
     6
  9
$UCSBASE
  2

  9
$UCSNAME
  2

  9
$UCSORG
 10
0.0
 20
0.0
 30
0.0
  9
$UCSXDIR
 10
1.0
 20
0.0
 30
0.0
  9
$UCSYDIR
 10
0.0
 20
1.0
 30
0.0
  9
$UCSORTHOREF
  2

  9
$UCSORTHOVIEW
 70
     0
  9
$UCSORGTOP
 10
0.0
 20
0.0
 30
0.0
  9
$UCSORGBOTTOM
 10
0.0
 20
0.0
 30
0.0
  9
$UCSORGLEFT
 10
0.0
 20
0.0
 30
0.0
  9
$UCSORGRIGHT
 10
0.0
 20
0.0
 30
0.0
  9
$UCSORGFRONT
 10
0.0
 20
0.0
 30
0.0
  9
$UCSORGBACK
 10
0.0
 20
0.0
 30
0.0
  9
$PUCSBASE
  2

  9
$PUCSNAME
  2

  9
$PUCSORG
 10
0.0
 20
0.0
 30
0.0
  9
$PUCSXDIR
 10
1.0
 20
0.0
 30
0.0
  9
$PUCSYDIR
 10
0.0
 20
1.0
 30
0.0
  9
$PUCSORTHOREF
  2

  9
$PUCSORTHOVIEW
 70
     0
  9
$PUCSORGTOP
 10
0.0
 20
0.0
 30
0.0
  9
$PUCSORGBOTTOM
 10
0.0
 20
0.0
 30
0.0
  9
$PUCSORGLEFT
 10
0.0
 20
0.0
 30
0.0
  9
$PUCSORGRIGHT
 10
0.0
 20
0.0
 30
0.0
  9
$PUCSORGFRONT
 10
0.0
 20
0.0
 30
0.0
  9
$PUCSORGBACK
 10
0.0
 20
0.0
 30
0.0
  9
$USERI1
 70
     0
  9
$USERI2
 70
     0
  9
$USERI3
 70
     0
  9
$USERI4
 70
     0
  9
$USERI5
 70
     0
  9
$USERR1
 40
0.0
  9
$USERR2
 40
0.0
  9
$USERR3
 40
0.0
  9
$USERR4
 40
0.0
  9
$USERR5
 40
0.0
  9
$WORLDVIEW
 70
     1
  9
$SHADEDGE
 70
     3
  9
$SHADEDIF
 70
    70
  9
$TILEMODE
 70
     1
  9
$MAXACTVP
 70
    16
  9
$PINSBASE
 10
0.0
 20
0.0
 30
0.0
  9
$PLIMCHECK
 70
     0
  9
$PEXTMIN
 10
1.000000000000000E+20
 20
1.000000000000000E+20
 30
1.000000000000000E+20
  9
$PEXTMAX
 10
-1.000000000000000E+20
 20
-1.000000000000000E+20
 30
-1.000000000000000E+20
  9
$PLIMMIN
 10
0.0
 20
0.0
  9
$PLIMMAX
 10
12.0
 20
9.0
  9
$UNITMODE
 70
     0
  9
$VISRETAIN
 70
     0
  9
$PLINEGEN
 70
     0
  9
$PSLTSCALE
 70
     0
  9
$TREEDEPTH
 70
  3020
  9
$CMLSTYLE
  2
Standard
  9
$CMLJUST
 70
     0
  9
$CMLSCALE
 40
1.0
  9
$PROXYGRAPHICS
 70
     1
  9
$MEASUREMENT
 70
     0
  9
$CELWEIGHT
370
    -1
  9
$ENDCAPS
280
     0
  9
$JOINSTYLE
280
     0
  9
$LWDISPLAY
290
     0
  9
$INSUNITS
 70
     0
  9
$HYPERLINKBASE
  1

  9
$STYLESHEET
  1
monochrome 1.ctb
  9
$XEDIT
290
     1
  9
$CEPSNTYPE
380
     0
  9
$PSTYLEMODE
290
     1
  9
$FINGERPRINTGUID
  2
{7AADB5C8-6110-11D8-B72B-000102183313}
  9
$VERSIONGUID
  2
{31C23EA4-4FAF-4831-AB07-5226BB700564}
  9
$EXTNAMES
290
     1
  9
$PSVPSCALE
 40
0.0
  9
$OLESTARTUP
290
     0
  9
$SORTENTS
280
    96
  9
$INDEXCTL
280
     0
  9
$HIDETEXT
280
     0
  9
$XCLIPFRAME
290
     0
  9
$HALOGAP
280
     0
  9
$OBSCOLOR
 70
   257
  9
$OBSLTYPE
280
     0
  9
$INTERSECTIONDISPLAY
280
     0
  9
$INTERSECTIONCOLOR
 70
   257
  9
$DIMASSOC
280
     1
  9
$PROJECTNAME
  1

  0
ENDSEC
  0
SECTION
  2
CLASSES
  0
CLASS
  1
ACDBDICTIONARYWDFLT
  2
AcDbDictionaryWithDefault
  3
ObjectDBX Classes
 90
        0
 91
        1
280
     0
281
     0
  0
CLASS
  1
DICTIONARYVAR
  2
AcDbDictionaryVar
  3
ObjectDBX Classes
 90
        0
 91
        3
280
     0
281
     0
  0
ENDSEC
  0
SECTION
  2
TABLES
  0
TABLE
  2
VPORT
  5
8
330
0
100
AcDbSymbolTable
 70
     3
  0
VPORT
  5
21B6
330
8
100
AcDbSymbolTableRecord
100
AcDbViewportTableRecord
  2
*Active
 70
     0
 10
0.0
 20
0.0
 11
1.0
 21
1.0
 12
210.0
 22
297.0
 13
0.0
 23
0.0
 14
1.0
 24
1.0
 15
10.0
 25
10.0
 16
0.0
 26
0.0
 36
1.0
 17
0.0
 27
0.0
 37
0.0
 40
594.0
 41
1.334231805929919
 42
50.0
 43
0.0
 44
0.0
 50
0.0
 51
0.0
 71
     0
 72
  1500
 73
     1
 74
     0
 75
     0
 76
     0
 77
     0
 78
     0
281
     0
 65
     1
110
0.0
120
0.0
130
0.0
111
1.0
121
0.0
131
0.0
112
0.0
122
1.0
132
0.0
 79
     0
146
0.0
  0
ENDTAB
  0
TABLE
  2
LTYPE
  5
5
330
0
100
AcDbSymbolTable
 70
     2
  0
LTYPE
  5
13
330
5
100
AcDbSymbolTableRecord
100
AcDbLinetypeTableRecord
  2
ByBlock
 70
     0
  3

 72
    65
 73
     0
 40
0.0
  0
LTYPE
  5
14
330
5
100
AcDbSymbolTableRecord
100
AcDbLinetypeTableRecord
  2
ByLayer
 70
     0
  3

 72
    65
 73
     0
 40
0.0
  0
LTYPE
  5
15
330
5
100
AcDbSymbolTableRecord
100
AcDbLinetypeTableRecord
  2
Continuous
 70
     0
  3
Solid line
 72
    65
 73
     0
 40
0.0
  0
LTYPE
  5
35
330
5
100
AcDbSymbolTableRecord
100
AcDbLinetypeTableRecord
  2
STRICHPUNKT
 70
     0
  3
__ . __ . __ . __ . __ . __ . __ . __ . __ . __
 72
    65
 73
     4
 40
1.0
 49
0.5
 74
     0
 49
-0.25
 74
     0
 49
0.0
 74
     0
 49
-0.25
 74
     0
  0
ENDTAB
  0
TABLE
  2
LAYER
  5
2
330
0
100
AcDbSymbolTable
 70
     9
  0
LAYER
  5
10
330
2
100
AcDbSymbolTableRecord
100
AcDbLayerTableRecord
  2
0
 70
     0
 62
     7
  6
Continuous
370
    -3
390
F
  0
LAYER
  5
38
330
2
100
AcDbSymbolTableRecord
100
AcDbLayerTableRecord
  2
VOLL
 70
     0
 62
     1
  6
Continuous
370
    -3
390
F
  0
LAYER
  5
39
330
2
100
AcDbSymbolTableRecord
100
AcDbLayerTableRecord
  2
HILF
 70
     0
 62
     2
  6
Continuous
370
    -3
390
F
  0
LAYER
  5
3A
330
2
100
AcDbSymbolTableRecord
100
AcDbLayerTableRecord
  2
MITTEL
 70
     0
 62
     2
  6
STRICHPUNKT
370
    -3
390
F
  0
LAYER
  5
3B
330
2
100
AcDbSymbolTableRecord
100
AcDbLayerTableRecord
  2
BEM
 70
     0
 62
     7
  6
Continuous
370
    -3
390
F
  0
LAYER
  5
3C
330
2
100
AcDbSymbolTableRecord
100
AcDbLayerTableRecord
  2
STEMPEL
 70
     0
 62
     3
  6
Continuous
370
    -3
390
F
  0
LAYER
  5
3D
330
2
100
AcDbSymbolTableRecord
100
AcDbLayerTableRecord
  2
TEXT
 70
     0
 62
     7
  6
Continuous
370
    -3
390
F
  0
LAYER
  5
3E
330
2
100
AcDbSymbolTableRecord
100
AcDbLayerTableRecord
  2
DEFPOINTS
 70
     0
 62
     7
  6
Continuous
290
     0
370
    -3
390
F
  0
LAYER
  5
3F
330
2
100
AcDbSymbolTableRecord
100
AcDbLayerTableRecord
  2
SCHRAFF
 70
     0
 62
     7
  6
Continuous
370
    -3
390
F
  0
ENDTAB
  0
TABLE
  2
STYLE
  5
3
330
0
100
AcDbSymbolTable
 70
     2
  0
STYLE
  5
11
330
3
100
AcDbSymbolTableRecord
100
AcDbTextStyleTableRecord
  2
STANDARD
 70
     0
 40
0.0
 41
0.8
 50
0.0
 71
     0
 42
3.5
  3
simplex.shx
  4

  0
STYLE
  5
34
330
3
100
AcDbSymbolTableRecord
100
AcDbTextStyleTableRecord
  2
GREEKS
 70
     0
 40
0.0
 41
0.8
 50
0.0
 71
     0
 42
2.5
  3
SIMPLEX.shx
  4

  0
ENDTAB
  0
TABLE
  2
VIEW
  5
6
330
0
100
AcDbSymbolTable
 70
     0
  0
ENDTAB
  0
TABLE
  2
UCS
  5
7
330
0
100
AcDbSymbolTable
 70
     0
  0
ENDTAB
  0
TABLE
  2
APPID
  5
9
330
0
100
AcDbSymbolTable
 70
     2
  0
APPID
  5
12
330
9
100
AcDbSymbolTableRecord
100
AcDbRegAppTableRecord
  2
ACAD
 70
     0
  0
APPID
  5
1555
330
9
100
AcDbSymbolTableRecord
100
AcDbRegAppTableRecord
  2
AVE_RENDER
 70
     0
  0
ENDTAB
  0
TABLE
  2
DIMSTYLE
  5
A
330
0
100
AcDbSymbolTable
 70
     1
100
AcDbDimStyleTable
 71
     1
340
1CB
  0
DIMSTYLE
105
1CB
102
{ACAD_REACTORS
330
170F
330
1AB8
330
1AD2
330
1AE8
330
20B9
330
20EC
102
}
330
A
100
AcDbSymbolTableRecord
100
AcDbDimStyleTableRecord
  2
Standard
 70
     0
340
11
  0
ENDTAB
  0
TABLE
  2
BLOCK_RECORD
  5
1
330
0
100
AcDbSymbolTable
 70
     9
  0
BLOCK_RECORD
  5
1E
330
1
100
AcDbSymbolTableRecord
100
AcDbBlockTableRecord
  2
*Model_Space
340
21
  0
BLOCK_RECORD
  5
1A
330
1
100
AcDbSymbolTableRecord
100
AcDbBlockTableRecord
  2
*Paper_Space
340
1D
  0
BLOCK_RECORD
  5
22
330
1
100
AcDbSymbolTableRecord
100
AcDbBlockTableRecord
  2
LOGO
340
0
102
{BLKREFS
331
135
102
}
  0
BLOCK_RECORD
  5
1710
330
1
100
AcDbSymbolTableRecord
100
AcDbBlockTableRecord
  2
*D1
340
0
  0
BLOCK_RECORD
  5
1AB9
330
1
100
AcDbSymbolTableRecord
100
AcDbBlockTableRecord
  2
*D2
340
0
  0
BLOCK_RECORD
  5
1AD3
330
1
100
AcDbSymbolTableRecord
100
AcDbBlockTableRecord
  2
*D3
340
0
  0
BLOCK_RECORD
  5
1AE9
330
1
100
AcDbSymbolTableRecord
100
AcDbBlockTableRecord
  2
*D4
340
0
  0
BLOCK_RECORD
  5
20BA
330
1
100
AcDbSymbolTableRecord
100
AcDbBlockTableRecord
  2
*D7
340
0
  0
BLOCK_RECORD
  5
20ED
330
1
100
AcDbSymbolTableRecord
100
AcDbBlockTableRecord
  2
*D8
340
0
  0
ENDTAB
  0
ENDSEC
  0
SECTION
  2
BLOCKS
  0
BLOCK
  5
43
330
1E
100
AcDbEntity
  8
0
100
AcDbBlockBegin
  2
*Model_Space
 70
     0
 10
0.0
 20
0.0
 30
0.0
  3
*Model_Space
  1

  0
ENDBLK
  5
44
330
1E
100
AcDbEntity
  8
0
100
AcDbBlockEnd
  0
BLOCK
  5
41
330
1A
100
AcDbEntity
 67
     1
  8
0
100
AcDbBlockBegin
  2
*Paper_Space
 70
     0
 10
0.0
 20
0.0
 30
0.0
  3
*Paper_Space
  1

  0
ENDBLK
  5
42
330
1A
100
AcDbEntity
 67
     1
  8
0
100
AcDbBlockEnd
  0
BLOCK
  5
45
330
22
100
AcDbEntity
  8
0
100
AcDbBlockBegin
  2
LOGO
 70
     0
 10
0.0
 20
0.0
 30
0.0
  3
LOGO
  1

  0
ARC
  5
46
330
22
100
AcDbEntity
  8
0
100
AcDbCircle
 10
11.59973089678112
 20
-9.271599258481501
 30
0.0
 40
4.5
100
AcDbArc
 50
270.0
 51
231.0575587310159
  0
LINE
  5
47
330
22
100
AcDbEntity
  8
0
100
AcDbLine
 10
3.599730896781125
 20
-4.771599258481529
 30
0.0
 11
3.599730896781153
 21
-11.77159925848133
 31
0.0
  0
LINE
  5
48
330
22
100
AcDbEntity
  8
0
100
AcDbLine
 10
2.599730896781125
 20
-4.771599258481529
 30
0.0
 11
2.599730896781153
 21
-11.77159925848133
 31
0.0
  0
CIRCLE
  5
49
330
22
100
AcDbEntity
  8
0
100
AcDbCircle
 10
11.59973089678112
 20
-9.271599258481501
 30
0.0
 40
3.5
  0
ARC
  5
4A
330
22
100
AcDbEntity
  8
0
100
AcDbCircle
 10
31.59973089678115
 20
-9.271599258481472
 30
0.0
 40
4.5
100
AcDbArc
 50
270.0
 51
231.0575587310182
  0
LINE
  5
4B
330
22
100
AcDbEntity
  8
0
100
AcDbLine
 10
17.59973089678112
 20
-4.771599258481472
 30
0.0
 11
17.59973089678115
 21
-13.77159925848147
 31
0.0
  0
ARC
  5
4C
330
22
100
AcDbEntity
  8
0
100
AcDbCircle
 10
22.59973089678116
 20
-7.271599258481472
 30
0.0
 40
2.5
100
AcDbArc
 50
293.1161887722295
 51
90.0
  0
CIRCLE
  5
4D
330
22
100
AcDbEntity
  8
0
100
AcDbCircle
 10
31.59973089678115
 20
-9.271599258481472
 30
0.0
 40
3.5
  0
ARC
  5
4E
330
22
100
AcDbEntity
  8
0
100
AcDbCircle
 10
4.599730896781153
 20
-11.77159925848133
 30
0.0
 40
1.0
100
AcDbArc
 50
180.0
 51
270.0
  0
ARC
  5
4F
330
22
100
AcDbEntity
  8
0
100
AcDbCircle
 10
4.599730896781153
 20
-11.77159925848133
 30
0.0
 40
2.0
100
AcDbArc
 50
179.9999999999992
 51
270.0
  0
LINE
  5
50
330
22
100
AcDbEntity
  8
0
100
AcDbLine
 10
11.59973089678115
 20
-13.77159925848144
 30
0.0
 11
4.599730896781153
 21
-13.77159925848147
 31
0.0
  0
LINE
  5
51
330
22
100
AcDbEntity
  8
0
100
AcDbLine
 10
8.771303772034769
 20
-12.77159925848136
 30
0.0
 11
4.599730896781153
 21
-12.77159925848133
 31
0.0
  0
LINE
  5
52
330
22
100
AcDbEntity
  8
0
100
AcDbLine
 10
31.59973089678115
 20
-13.77159925848147
 30
0.0
 11
23.6715276665056
 21
-13.77159925848144
 31
0.0
  0
LINE
  5
53
330
22
100
AcDbEntity
  8
0
100
AcDbLine
 10
23.56565672307022
 20
-9.51278021337896
 30
0.0
 11
24.4388546544846
 21
-12.77159925848144
 31
0.0
  0
LINE
  5
54
330
22
100
AcDbEntity
  8
0
100
AcDbLine
 10
22.59973089678116
 20
-9.771599258481472
 30
0.0
 11
18.59973089678112
 21
-9.771599258481472
 31
0.0
  0
LINE
  5
55
330
22
100
AcDbEntity
  8
0
100
AcDbLine
 10
18.59973089678115
 20
-13.77159925848144
 30
0.0
 11
17.59973089678115
 21
-13.77159925848144
 31
0.0
  0
LINE
  5
56
330
22
100
AcDbEntity
  8
0
100
AcDbLine
 10
18.59973089678115
 20
-9.771599258481472
 30
0.0
 11
18.59973089678115
 21
-13.77159925848144
 31
0.0
  0
LINE
  5
57
330
22
100
AcDbEntity
  8
0
100
AcDbLine
 10
22.59973089678116
 20
-9.771599258481472
 30
0.0
 11
23.67152766650562
 21
-13.77159925848147
 31
0.0
  0
ARC
  5
58
330
22
100
AcDbEntity
  8
0
100
AcDbCircle
 10
22.59973089678116
 20
-7.271599258481472
 30
0.0
 40
2.5
100
AcDbArc
 50
270.0
 51
270.0000000000007
  0
LINE
  5
59
330
22
100
AcDbEntity
  8
0
100
AcDbLine
 10
28.77130377203494
 20
-12.77159925848147
 30
0.0
 11
24.43885465448463
 21
-12.77159925848144
 31
0.0
  0
LINE
  5
5A
330
22
100
AcDbEntity
  8
0
100
AcDbLine
 10
3.599730896781125
 20
-4.771599258481472
 30
0.0
 11
2.599730896781125
 21
-4.771599258481472
 31
0.0
  0
LINE
  5
5B
330
22
100
AcDbEntity
  8
0
100
AcDbLine
 10
22.59973089678116
 20
-8.771599258481472
 30
0.0
 11
18.59973089678115
 21
-8.771599258481472
 31
0.0
  0
LINE
  5
5C
330
22
100
AcDbEntity
  8
0
100
AcDbLine
 10
22.59973089678116
 20
-5.771599258481472
 30
0.0
 11
18.59973089678115
 21
-5.771599258481472
 31
0.0
  0
LINE
  5
5D
330
22
100
AcDbEntity
  8
0
100
AcDbLine
 10
22.59973089678116
 20
-4.771599258481472
 30
0.0
 11
17.59973089678115
 21
-4.771599258481472
 31
0.0
  0
LINE
  5
5E
330
22
100
AcDbEntity
  8
0
100
AcDbLine
 10
18.59973089678115
 20
-5.771599258481472
 30
0.0
 11
18.59973089678115
 21
-8.771599258481472
 31
0.0
  0
ARC
  5
5F
330
22
100
AcDbEntity
  8
0
100
AcDbCircle
 10
22.59973089678116
 20
-7.271599258481472
 30
0.0
 40
1.5
100
AcDbArc
 50
270.0
 51
90.0
  0
ENDBLK
  5
60
330
22
100
AcDbEntity
  8
0
100
AcDbBlockEnd
  0
BLOCK
  5
171A
330
1710
100
AcDbEntity
  8
0
100
AcDbBlockBegin
  2
*D1
 70
     1
 10
0.0
 20
0.0
 30
0.0
  3
*D1
  1

  0
LINE
  5
21A3
330
1710
100
AcDbEntity
  8
BEM
 62
     0
370
    -2
100
AcDbLine
 10
163.1594804925782
 20
234.2308850950838
 30
0.0
 11
143.7365547330939
 21
234.2308850950838
 31
0.0
  0
LINE
  5
21A4
330
1710
100
AcDbEntity
  8
BEM
 62
     0
370
    -2
100
AcDbLine
 10
213.2595711843709
 20
349.2308850950835
 30
0.0
 11
143.7365547330939
 21
349.2308850950835
 31
0.0
  0
LINE
  5
21A5
330
1710
100
AcDbEntity
  8
BEM
 62
     0
370
    -2
100
AcDbLine
 10
145.7365547330939
 20
241.2308850950838
 30
0.0
 11
145.7365547330939
 21
342.2308850950835
 31
0.0
  0
SOLID
  5
21A6
330
1710
100
AcDbEntity
  8
BEM
 62
     0
100
AcDbTrace
 10
144.5698880664273
 20
241.2308850950838
 30
0.0
 11
146.9032213997605
 21
241.2308850950838
 31
0.0
 12
145.7365547330939
 22
234.2308850950838
 32
0.0
 13
145.7365547330939
 23
234.2308850950838
 33
0.0
  0
SOLID
  5
21A7
330
1710
100
AcDbEntity
  8
BEM
 62
     0
100
AcDbTrace
 10
144.5698880664273
 20
342.2308850950835
 30
0.0
 11
146.9032213997606
 21
342.2308850950835
 31
0.0
 12
145.7365547330939
 22
349.2308850950835
 32
0.0
 13
145.7365547330939
 23
349.2308850950835
 33
0.0
  0
MTEXT
  5
21A8
330
1710
100
AcDbEntity
  8
BEM
 62
     1
100
AcDbMText
 10
139.2365547330939
 20
291.7308850950837
 30
0.0
 40
7.0
 41
0.0
 71
     5
 72
     1
  1
\A1;115
 11
0.0000000000000001
 21
1.0
 31
0.0
 73
     1
 44
1.0
  0
POINT
  5
21A9
330
1710
100
AcDbEntity
  8
DEFPOINTS
 62
     0
100
AcDbPoint
 10
165.1594804925782
 20
234.2308850950838
 30
0.0
  0
POINT
  5
21AA
330
1710
100
AcDbEntity
  8
DEFPOINTS
 62
     0
100
AcDbPoint
 10
215.259571184371
 20
349.2308850950835
 30
0.0
  0
POINT
  5
21AB
330
1710
100
AcDbEntity
  8
DEFPOINTS
 62
     0
100
AcDbPoint
 10
145.7365547330939
 20
349.2308850950835
 30
0.0
  0
ENDBLK
  5
171B
330
1710
100
AcDbEntity
  8
0
100
AcDbBlockEnd
  0
BLOCK
  5
1AC3
330
1AB9
100
AcDbEntity
  8
0
100
AcDbBlockBegin
  2
*D2
 70
     1
 10
0.0
 20
0.0
 30
0.0
  3
*D2
  1

  0
LINE
  5
21AC
330
1AB9
100
AcDbEntity
  8
BEM
 62
     0
370
    -2
100
AcDbLine
 10
158.5997882656478
 20
484.2341779994137
 30
0.0
 11
127.0180450627163
 21
484.2341779994137
 31
0.0
  0
LINE
  5
21AD
330
1AB9
100
AcDbEntity
  8
BEM
 62
     0
370
    -2
100
AcDbLine
 10
163.1594804925782
 20
234.2308850950838
 30
0.0
 11
127.0180450627162
 21
234.2308850950838
 31
0.0
  0
LINE
  5
21AE
330
1AB9
100
AcDbEntity
  8
BEM
 62
     0
370
    -2
100
AcDbLine
 10
129.0180450627163
 20
477.2341779994137
 30
0.0
 11
129.0180450627162
 21
241.2308850950838
 31
0.0
  0
SOLID
  5
21AF
330
1AB9
100
AcDbEntity
  8
BEM
 62
     0
100
AcDbTrace
 10
127.8513783960496
 20
477.2341779994138
 30
0.0
 11
130.1847117293829
 21
477.2341779994137
 31
0.0
 12
129.0180450627163
 22
484.2341779994137
 32
0.0
 13
129.0180450627163
 23
484.2341779994137
 33
0.0
  0
SOLID
  5
21B0
330
1AB9
100
AcDbEntity
  8
BEM
 62
     0
100
AcDbTrace
 10
127.8513783960495
 20
241.2308850950838
 30
0.0
 11
130.1847117293829
 21
241.2308850950838
 31
0.0
 12
129.0180450627162
 22
234.2308850950838
 32
0.0
 13
129.0180450627162
 23
234.2308850950838
 33
0.0
  0
MTEXT
  5
21B1
330
1AB9
100
AcDbEntity
  8
BEM
 62
     1
100
AcDbMText
 10
122.5180450627162
 20
359.2325315472488
 30
0.0
 40
7.0
 41
0.0
 71
     5
 72
     1
  1
\A1;250
 11
0.0000000000000001
 21
1.0
 31
0.0
 73
     1
 44
1.0
  0
POINT
  5
21B2
330
1AB9
100
AcDbEntity
  8
DEFPOINTS
 62
     0
100
AcDbPoint
 10
160.5997882656478
 20
484.2341779994137
 30
0.0
  0
POINT
  5
21B3
330
1AB9
100
AcDbEntity
  8
DEFPOINTS
 62
     0
100
AcDbPoint
 10
165.1594804925782
 20
234.2308850950838
 30
0.0
  0
POINT
  5
21B4
330
1AB9
100
AcDbEntity
  8
DEFPOINTS
 62
     0
100
AcDbPoint
 10
129.0180450627162
 20
234.2308850950838
 30
0.0
  0
ENDBLK
  5
1AC4
330
1AB9
100
AcDbEntity
  8
0
100
AcDbBlockEnd
  0
BLOCK
  5
1ADD
330
1AD3
100
AcDbEntity
  8
0
100
AcDbBlockBegin
  2
*D3
 70
     1
 10
0.0
 20
0.0
 30
0.0
  3
*D3
  1

  0
LINE
  5
219A
330
1AD3
100
AcDbEntity
  8
BEM
 62
     0
370
    -2
100
AcDbLine
 10
215.3642430968568
 20
347.2336260255743
 30
0.0
 11
217.9735461143354
 21
297.4451584893668
 31
0.0
  0
LINE
  5
219B
330
1AD3
100
AcDbEntity
  8
BEM
 62
     0
370
    -2
100
AcDbLine
 10
330.7266552067077
 20
324.2224493913787
 30
0.0
 11
331.8173130763565
 21
303.4114575010625
 31
0.0
  0
LINE
  5
219C
330
1AD3
100
AcDbEntity
  8
BEM
 62
     0
370
    -2
100
AcDbLine
 10
224.8592809451315
 20
299.8087692525766
 30
0.0
 11
324.7222344205886
 21
305.0423648768711
 31
0.0
  0
SOLID
  5
219D
330
1AD3
100
AcDbEntity
  8
BEM
 62
     0
100
AcDbTrace
 10
224.7982223295147
 20
300.9738370431236
 30
0.0
 11
224.9203395607482
 21
298.6437014620295
 31
0.0
 12
217.8688742018495
 22
299.4424175588759
 32
0.0
 13
217.8688742018495
 23
299.4424175588759
 33
0.0
  0
SOLID
  5
219E
330
1AD3
100
AcDbEntity
  8
BEM
 62
     0
100
AcDbTrace
 10
324.6611758049718
 20
306.2074326674181
 30
0.0
 11
324.7832930362054
 21
303.8772970863241
 31
0.0
 12
331.7126411638707
 22
305.4087165705717
 32
0.0
 13
331.7126411638707
 23
305.4087165705717
 33
0.0
  0
MTEXT
  5
219F
330
1AD3
100
AcDbEntity
  8
BEM
 62
     1
100
AcDbMText
 10
278.9518399078231
 20
309.1525603925348
 30
0.0
 40
7.0
 41
0.0
 71
     5
 72
     1
  1
\A1;114
 11
0.9986295347545738
 21
0.0523359562429453
 31
0.0
 73
     1
 44
1.0
  0
POINT
  5
21A0
330
1AD3
100
AcDbEntity
  8
DEFPOINTS
 62
     0
100
AcDbPoint
 10
215.259571184371
 20
349.2308850950835
 30
0.0
  0
POINT
  5
21A1
330
1AD3
100
AcDbEntity
  8
DEFPOINTS
 62
     0
100
AcDbPoint
 10
330.6219832942218
 20
326.2197084608879
 30
0.0
  0
POINT
  5
21A2
330
1AD3
100
AcDbEntity
  8
DEFPOINTS
 62
     0
100
AcDbPoint
 10
331.7126411638707
 20
305.4087165705717
 30
0.0
  0
ENDBLK
  5
1ADE
330
1AD3
100
AcDbEntity
  8
0
100
AcDbBlockEnd
  0
BLOCK
  5
1AF3
330
1AE9
100
AcDbEntity
  8
0
100
AcDbBlockBegin
  2
*D4
 70
     1
 10
0.0
 20
0.0
 30
0.0
  3
*D4
  1

  0
LINE
  5
1FB7
330
1AE9
100
AcDbEntity
  8
BEM
 62
     0
370
    -2
100
AcDbLine
 10
164.4595711843709
 20
240.2308850950838
 30
0.0
 11
164.4595711843709
 21
211.1409958420065
 31
0.0
  0
LINE
  5
1FB8
330
1AE9
100
AcDbEntity
  8
BEM
 62
     0
370
    -2
100
AcDbLine
 10
266.0595711843708
 20
240.2308850950833
 30
0.0
 11
266.0595711843708
 21
211.1409958420065
 31
0.0
  0
LINE
  5
1FB9
330
1AE9
100
AcDbEntity
  8
BEM
 62
     0
370
    -2
100
AcDbLine
 10
171.4595711843709
 20
213.1409958420065
 30
0.0
 11
259.0595711843708
 21
213.1409958420065
 31
0.0
  0
SOLID
  5
1FBA
330
1AE9
100
AcDbEntity
  8
BEM
 62
     0
100
AcDbTrace
 10
171.4595711843709
 20
214.3076625086732
 30
0.0
 11
171.4595711843709
 21
211.9743291753399
 31
0.0
 12
164.4595711843709
 22
213.1409958420065
 32
0.0
 13
164.4595711843709
 23
213.1409958420065
 33
0.0
  0
SOLID
  5
1FBB
330
1AE9
100
AcDbEntity
  8
BEM
 62
     0
100
AcDbTrace
 10
259.0595711843708
 20
214.3076625086732
 30
0.0
 11
259.0595711843708
 21
211.9743291753399
 31
0.0
 12
266.0595711843708
 22
213.1409958420065
 32
0.0
 13
266.0595711843708
 23
213.1409958420065
 33
0.0
  0
MTEXT
  5
1FBC
330
1AE9
100
AcDbEntity
  8
BEM
 62
     1
100
AcDbMText
 10
215.2595711843709
 20
219.6409958420066
 30
0.0
 40
7.0
 41
0.0
 71
     5
 72
     1
  1
\A1;%%c101.6
 73
     1
 44
1.0
  0
POINT
  5
1FBD
330
1AE9
100
AcDbEntity
  8
DEFPOINTS
 62
     0
100
AcDbPoint
 10
164.4595711843709
 20
242.2308850950838
 30
0.0
  0
POINT
  5
1FBE
330
1AE9
100
AcDbEntity
  8
DEFPOINTS
 62
     0
100
AcDbPoint
 10
266.0595711843708
 20
242.2308850950833
 30
0.0
  0
POINT
  5
1FBF
330
1AE9
100
AcDbEntity
  8
DEFPOINTS
 62
     0
100
AcDbPoint
 10
266.0595711843708
 20
213.1409958420065
 30
0.0
  0
ENDBLK
  5
1AF4
330
1AE9
100
AcDbEntity
  8
0
100
AcDbBlockEnd
  0
BLOCK
  5
20C6
330
20BA
100
AcDbEntity
  8
0
100
AcDbBlockBegin
  2
*D7
 70
     1
 10
0.0
 20
0.0
 30
0.0
  3
*D7
  1

  0
LINE
  5
20BB
330
20BA
100
AcDbEntity
  8
BEM
 62
     0
370
    -2
100
AcDbLine
 10
336.0937448896744
 20
355.5635358004798
 30
0.0
 11
375.9896752425463
 21
357.6543929127048
 31
0.0
  0
LINE
  5
20BC
330
20BA
100
AcDbEntity
  8
BEM
 62
     0
370
    -2
100
AcDbLine
 10
215.259571184371
 20
491.2341779994135
 30
0.0
 11
215.2595711843713
 21
510.1815664683085
 31
0.0
  0
ARC
  5
20BD
330
20BA
100
AcDbEntity
  8
BEM
 62
     0
370
    -2
100
AcDbCircle
 10
215.259571184371
 20
349.2308850950835
 30
0.0
 40
158.950681373225
100
AcDbArc
 50
5.523442305034604
 51
87.47655769496539
  0
SOLID
  5
20BE
330
20BA
100
AcDbEntity
  8
BEM
 62
     0
100
AcDbTrace
 10
374.6356695189699
 20
364.6170639411026
 30
0.0
 11
372.3087878437681
 21
364.4436681105465
 31
0.0
 12
373.9924161730372
 22
357.5497210002189
 32
0.0
 13
373.9924161730372
 23
357.5497210002189
 33
0.0
  0
SOLID
  5
20BF
330
20BA
100
AcDbEntity
  8
BEM
 62
     0
100
AcDbTrace
 10
222.2321846783502
 20
506.8610468074581
 30
0.0
 11
222.2835632984109
 21
509.1938144087945
 31
0.0
 12
215.2595711843712
 22
508.1815664683086
 32
0.0
 13
215.2595711843712
 23
508.1815664683086
 33
0.0
  0
MTEXT
  5
20C0
330
20BA
100
AcDbEntity
  8
BEM
 62
     1
100
AcDbMText
 10
329.1483047592797
 20
469.244569029741
 30
0.0
 40
7.0
 41
0.0
 71
     5
 72
     1
  1
\A1;87°
 11
0.7253743710122878
 21
-0.6883545756937539
 31
0.0
 73
     1
 44
1.0
  0
POINT
  5
20C1
330
20BA
100
AcDbEntity
  8
DEFPOINTS
 62
     0
100
AcDbPoint
 10
350.0573939057011
 20
433.4619132177494
 30
0.0
  0
POINT
  5
20C2
330
20BA
100
AcDbEntity
  8
DEFPOINTS
 62
     0
100
AcDbPoint
 10
215.259571184371
 20
489.2341779994135
 30
0.0
  0
POINT
  5
20C3
330
20BA
100
AcDbEntity
  8
DEFPOINTS
 62
     0
100
AcDbPoint
 10
334.0964858201652
 20
355.4588638879939
 30
0.0
  0
POINT
  5
20C4
330
20BA
100
AcDbEntity
  8
DEFPOINTS
 62
     0
100
AcDbPoint
 10
215.259571184371
 20
349.2308850950835
 30
0.0
  0
POINT
  5
20C5
330
20BA
100
AcDbEntity
  8
DEFPOINTS
 62
     0
100
AcDbPoint
 10
215.259571184371
 20
229.2308850950837
 30
0.0
  0
ENDBLK
  5
20C7
330
20BA
100
AcDbEntity
  8
0
100
AcDbBlockEnd
  0
BLOCK
  5
20F7
330
20ED
100
AcDbEntity
  8
0
100
AcDbBlockBegin
  2
*D8
 70
     1
 10
0.0
 20
0.0
 30
0.0
  3
*D8
  1

  0
LINE
  5
2103
330
20ED
100
AcDbEntity
  8
BEM
 62
     0
370
    -2
100
AcDbLine
 10
264.0623121148617
 20
378.324895539121
 30
0.0
 11
237.0407594525804
 21
376.9087559713112
 31
0.0
  0
LINE
  5
2104
330
20ED
100
AcDbEntity
  8
BEM
 62
     0
370
    -2
100
AcDbLine
 10
264.0623121148616
 20
325.2521612012312
 30
0.0
 11
239.8145651334562
 21
323.9813906293187
 31
0.0
  0
LINE
  5
2105
330
20ED
100
AcDbEntity
  8
BEM
 62
     0
370
    -2
100
AcDbLine
 10
239.4043702157901
 20
370.023021140515
 30
0.0
 11
241.4454725092648
 21
331.0764692850866
 31
0.0
  0
SOLID
  5
2106
330
20ED
100
AcDbEntity
  8
BEM
 62
     0
100
AcDbTrace
 10
240.5694380063371
 20
370.0840797561318
 30
0.0
 11
238.2393024252431
 21
369.9619625248983
 31
0.0
 12
239.0380185220895
 22
377.0134278837971
 32
0.0
 13
239.0380185220895
 23
377.0134278837971
 33
0.0
  0
SOLID
  5
2107
330
20ED
100
AcDbEntity
  8
BEM
 62
     0
100
AcDbTrace
 10
242.6105402998118
 20
331.1375279007033
 30
0.0
 11
240.2804047187178
 21
331.0154106694698
 31
0.0
 12
241.8118242029654
 22
324.0860625418046
 32
0.0
 13
241.8118242029654
 23
324.0860625418046
 33
0.0
  0
MTEXT
  5
2108
330
20ED
100
AcDbEntity
  8
BEM
 62
     1
100
AcDbMText
 10
246.9160133384322
 20
350.8899289283799
 30
0.0
 40
7.0
 41
0.0
 71
     5
 72
     1
  1
\A1;%%c53
 11
0.0523359562429406
 21
-0.9986295347545739
 31
0.0
 73
     1
 44
1.0
  0
POINT
  5
2109
330
20ED
100
AcDbEntity
  8
DEFPOINTS
 62
     0
100
AcDbPoint
 10
266.0595711843708
 20
378.4295674516069
 30
0.0
  0
POINT
  5
210A
330
20ED
100
AcDbEntity
  8
DEFPOINTS
 62
     0
100
AcDbPoint
 10
266.0595711843707
 20
325.356833113717
 30
0.0
  0
POINT
  5
210B
330
20ED
100
AcDbEntity
  8
DEFPOINTS
 62
     0
100
AcDbPoint
 10
241.8118242029654
 20
324.0860625418046
 30
0.0
  0
ENDBLK
  5
20F8
330
20ED
100
AcDbEntity
  8
0
100
AcDbBlockEnd
  0
ENDSEC
  0
SECTION
  2
ENTITIES
  0
TEXT
  5
134
330
1E
100
AcDbEntity
  8
TEXT
100
AcDbText
 10
204.4216048581257
 20
63.0896391972351
 30
0.0
 40
4.0
  1
Koeh
 41
0.8
  7
GREEKS
 72
     1
 11
209.6787477152686
 21
63.0896391972351
 31
0.0
100
AcDbText
  0
INSERT
  5
135
330
1E
100
AcDbEntity
  8
STEMPEL
100
AcDbBlockReference
  2
LOGO
 10
150.9955485457794
 20
45.02105276448322
 30
0.0
 41
2.0
 42
2.0
 43
2.0
  0
LINE
  5
136
330
1E
100
AcDbEntity
  8
HILF
100
AcDbLine
 10
420.0
 20
0.0
 30
0.0
 11
0.0
 21
0.0
 31
0.0
  0
LINE
  5
137
330
1E
100
AcDbEntity
  8
HILF
100
AcDbLine
 10
419.9999999999999
 20
594.0000000000002
 30
0.0
 11
0.0
 21
594.0
 31
0.0
  0
LINE
  5
138
330
1E
100
AcDbEntity
  8
STEMPEL
100
AcDbLine
 10
410.0
 20
584.0
 30
0.0
 11
39.99999999999989
 21
584.0
 31
0.0
  0
LINE
  5
139
330
1E
100
AcDbEntity
  8
STEMPEL
100
AcDbLine
 10
410.0
 20
10.0
 30
0.0
 11
39.99999999999989
 21
10.0
 31
0.0
  0
LINE
  5
13A
330
1E
100
AcDbEntity
  8
STEMPEL
100
AcDbLine
 10
49.99999999999989
 20
10.0
 30
0.0
 11
410.0
 21
10.0
 31
0.0
  0
TEXT
  5
13B
330
1E
100
AcDbEntity
  8
TEXT
100
AcDbText
 10
202.4626584226295
 20
73.30961091915225
 30
0.0
 40
4.0
  1
Name
 41
0.8
  7
GREEKS
100
AcDbText
  0
TEXT
  5
13C
330
1E
100
AcDbEntity
  8
TEXT
100
AcDbText
 10
196.5498279101549
 20
102.6506227776589
 30
0.0
 40
5.0
  1
Zul. Abw.
 41
0.8
  7
GREEKS
 72
     4
 11
209.9783993387263
 21
105.1506227776589
 31
0.0
100
AcDbText
  0
LINE
  5
13D
330
1E
100
AcDbEntity
  8
HILF
100
AcDbLine
 10
146.0000000000001
 20
49.99999999999997
 30
0.0
 11
230.0
 21
49.99999999999997
 31
0.0
  0
LINE
  5
13E
330
1E
100
AcDbEntity
  8
HILF
100
AcDbLine
 10
146.0000000000001
 20
59.99999999999997
 30
0.0
 11
230.0
 21
59.99999999999997
 31
0.0
  0
LINE
  5
13F
330
1E
100
AcDbEntity
  8
HILF
100
AcDbLine
 10
146.0000000000001
 20
69.99999999999994
 30
0.0
 11
230.0
 21
69.99999999999994
 31
0.0
  0
LINE
  5
140
330
1E
100
AcDbEntity
  8
STEMPEL
100
AcDbLine
 10
410.0
 20
80.0
 30
0.0
 11
146.0000000000001
 21
79.99999999999994
 31
0.0
  0
LINE
  5
141
330
1E
100
AcDbEntity
  8
STEMPEL
100
AcDbLine
 10
410.0
 20
40.0
 30
0.0
 11
146.0000000000001
 21
39.99999999999997
 31
0.0
  0
LINE
  5
142
330
1E
100
AcDbEntity
  8
STEMPEL
100
AcDbLine
 10
410.0
 20
110.0
 30
0.0
 11
39.99999999999997
 21
110.0
 31
0.0
  0
LINE
  5
144
330
1E
100
AcDbEntity
  8
HILF
100
AcDbLine
 10
0.0
 20
0.0
 30
0.0
 11
-0.0000000000001137
 21
594.0
 31
0.0
  0
LINE
  5
145
330
1E
100
AcDbEntity
  8
STEMPEL
100
AcDbLine
 10
40.0
 20
10.0
 30
0.0
 11
39.99999999999989
 21
584.0
 31
0.0
  0
TEXT
  5
146
330
1E
100
AcDbEntity
  8
TEXT
100
AcDbText
 10
41.85509950977674
 20
111.6719999999999
 30
0.0
 40
5.0
  1
Erstellt mit AUTOCAD 2004
 41
0.8
  7
GREEKS
100
AcDbText
  0
TEXT
  5
147
330
1E
100
AcDbEntity
  8
TEXT
100
AcDbText
 10
67.93969678957707
 20
18.67381894984132
 30
0.0
 40
4.0
  1
Änderung
 41
0.8
  7
GREEKS
 72
     1
 11
78.68255393243422
 21
18.67381894984132
 31
0.0
100
AcDbText
  0
LINE
  5
148
330
1E
100
AcDbEntity
  8
HILF
100
AcDbLine
 10
40.00000000000008
 20
39.99999999999997
 30
0.0
 11
146.0000000000001
 21
39.99999999999997
 31
0.0
  0
LINE
  5
149
330
1E
100
AcDbEntity
  8
HILF
100
AcDbLine
 10
40.00000000000008
 20
49.99999999999997
 30
0.0
 11
146.0000000000001
 21
49.99999999999997
 31
0.0
  0
LINE
  5
14A
330
1E
100
AcDbEntity
  8
HILF
100
AcDbLine
 10
40.00000000000008
 20
59.99999999999997
 30
0.0
 11
146.0000000000001
 21
59.99999999999997
 31
0.0
  0
LINE
  5
14B
330
1E
100
AcDbEntity
  8
HILF
100
AcDbLine
 10
40.00000000000008
 20
69.99999999999994
 30
0.0
 11
146.0000000000001
 21
69.99999999999994
 31
0.0
  0
LINE
  5
14C
330
1E
100
AcDbEntity
  8
HILF
100
AcDbLine
 10
40.00000000000008
 20
79.99999999999994
 30
0.0
 11
146.0000000000001
 21
79.99999999999994
 31
0.0
  0
LINE
  5
14D
330
1E
100
AcDbEntity
  8
HILF
100
AcDbLine
 10
40.00000000000008
 20
90.00000000000005
 30
0.0
 11
146.0000000000001
 21
90.00000000000005
 31
0.0
  0
LINE
  5
14E
330
1E
100
AcDbEntity
  8
HILF
100
AcDbLine
 10
40.00000000000008
 20
100.0
 30
0.0
 11
146.0000000000001
 21
100.0
 31
0.0
  0
LINE
  5
14F
330
1E
100
AcDbEntity
  8
STEMPEL
100
AcDbLine
 10
145.9999999999999
 20
29.99999999999997
 30
0.0
 11
39.99999999999997
 21
29.99999999999997
 31
0.0
  0
TEXT
  5
150
330
1E
100
AcDbEntity
  8
TEXT
100
AcDbText
 10
48.26641107045756
 20
13.65465846027192
 30
0.0
 40
4.0
  1
Index
 50
90.0
 41
0.8
  7
GREEKS
100
AcDbText
  0
LINE
  5
151
330
1E
100
AcDbEntity
  8
VOLL
100
AcDbLine
 10
54.00000000000009
 20
110.0
 30
0.0
 11
53.99999999999997
 21
9.999999999999971
 31
0.0
  0
LINE
  5
152
330
1E
100
AcDbEntity
  8
HILF
100
AcDbLine
 10
31.08767135713856
 20
297.0
 30
0.0
 11
0.0000000000001137
 21
297.0
 31
0.0
  0
TEXT
  5
153
330
1E
100
AcDbEntity
  8
TEXT
100
AcDbText
 10
110.2820548933125
 20
18.6715626933981
 30
0.0
 40
4.0
  1
Tag
 41
0.8
  7
GREEKS
 72
     1
 11
114.0153882266458
 21
18.6715626933981
 31
0.0
100
AcDbText
  0
LINE
  5
154
330
1E
100
AcDbEntity
  8
VOLL
100
AcDbLine
 10
124.0000000000001
 20
109.9999999999999
 30
0.0
 11
124.0
 21
9.999999999999971
 31
0.0
  0
LINE
  5
155
330
1E
100
AcDbEntity
  8
VOLL
100
AcDbLine
 10
104.0000000000001
 20
109.9999999999999
 30
0.0
 11
104.0
 21
9.999999999999971
 31
0.0
  0
TEXT
  5
156
330
1E
100
AcDbEntity
  8
TEXT
100
AcDbText
 10
128.9001864118674
 20
18.59324216966408
 30
0.0
 40
4.0
  1
Name
 41
0.8
  7
GREEKS
 72
     1
 11
135.2239959356769
 21
18.59324216966408
 31
0.0
100
AcDbText
  0
LINE
  5
157
330
1E
100
AcDbEntity
  8
STEMPEL
100
AcDbLine
 10
146.0000000000001
 20
109.9999999999999
 30
0.0
 11
146.0
 21
9.999999999999971
 31
0.0
  0
TEXT
  5
159
330
1E
100
AcDbEntity
  8
TEXT
100
AcDbText
 10
172.331167315365
 20
73.31880501229926
 30
0.0
 40
4.0
  1
Tag
 41
0.8
  7
GREEKS
100
AcDbText
  0
TEXT
  5
15A
330
1E
100
AcDbEntity
  8
TEXT
100
AcDbText
 10
147.5836127167615
 20
63.62990369617964
 30
0.0
 40
4.0
  1
Gez.
 41
0.8
  7
GREEKS
100
AcDbText
  0
LINE
  5
15B
330
1E
100
AcDbEntity
  8
VOLL
100
AcDbLine
 10
164.0000000000001
 20
79.99999999999994
 30
0.0
 11
164.0000000000001
 21
39.99999999999997
 31
0.0
  0
TEXT
  5
15C
330
1E
100
AcDbEntity
  8
TEXT
100
AcDbText
 10
147.6006777387303
 20
43.52946389649807
 30
0.0
 40
4.0
  1
Norm.
 41
0.8
  7
GREEKS
100
AcDbText
  0
TEXT
  5
15D
330
1E
100
AcDbEntity
  8
TEXT
100
AcDbText
 10
147.5515086571672
 20
53.68926291428377
 30
0.0
 40
4.0
  1
Gepr.
 41
0.8
  7
GREEKS
100
AcDbText
  0
TEXT
  5
15E
330
1E
100
AcDbEntity
  8
TEXT
 62
     1
100
AcDbText
 10
160.5006306481887
 20
88.14901428913959
 30
0.0
 40
7.0
  1
1:2
 41
0.8
  7
GREEKS
100
AcDbText
  0
TEXT
  5
15F
330
1E
100
AcDbEntity
  8
TEXT
100
AcDbText
 10
153.5163572150377
 20
102.4620895087088
 30
0.0
 40
5.0
  1
Maßstab
 41
0.8
  7
GREEKS
100
AcDbText
  0
TEXT
  5
160
330
1E
100
AcDbEntity
  8
TEXT
100
AcDbText
 10
148.622109822104
 20
73.14025471151666
 30
0.0
 40
4.0
  1
2011
 41
0.8
  7
GREEKS
100
AcDbText
  0
LINE
  5
161
330
1E
100
AcDbEntity
  8
VOLL
100
AcDbLine
 10
190.0000000000001
 20
109.9999999999998
 30
0.0
 11
190.0
 21
39.99999999999997
 31
0.0
  0
LINE
  5
186
330
1E
100
AcDbEntity
  8
HILF
100
AcDbLine
 10
420.0
 20
-0.0000000000001137
 30
0.0
 11
419.9999999999999
 21
594.0
 31
0.0
  0
LINE
  5
187
330
1E
100
AcDbEntity
  8
STEMPEL
100
AcDbLine
 10
410.0
 20
10.0
 30
0.0
 11
410.0
 21
584.0
 31
0.0
  0
TEXT
  5
188
330
1E
100
AcDbEntity
  8
TEXT
100
AcDbText
 10
337.2400861497006
 20
52.07416177878602
 30
0.0
 40
5.0
  1
ersetzt durch:
 41
0.8
  7
GREEKS
100
AcDbText
  0
TEXT
  5
189
330
1E
100
AcDbEntity
  8
TEXT
100
AcDbText
 10
336.7238616296993
 20
73.1811823709997
 30
0.0
 40
5.0
  1
Ersatz für:
 41
0.8
  7
GREEKS
100
AcDbText
  0
TEXT
  5
18A
330
1E
100
AcDbEntity
  8
TEXT
100
AcDbText
 10
336.178754957634
 20
102.3132034537136
 30
0.0
 40
5.0
  1
Zeichnungs Nr.
 41
0.8
  7
GREEKS
100
AcDbText
  0
LINE
  5
18B
330
1E
100
AcDbEntity
  8
HILF
100
AcDbLine
 10
233.4909699289885
 20
14.89398258028314
 30
0.0
 11
404.8588839326728
 21
14.89398258028314
 31
0.0
  0
LINE
  5
18C
330
1E
100
AcDbEntity
  8
HILF
100
AcDbLine
 10
336.7238616296993
 20
83.77983636955827
 30
0.0
 11
404.8588839326728
 21
83.77983636955827
 31
0.0
  0
LINE
  5
18D
330
1E
100
AcDbEntity
  8
VOLL
100
AcDbLine
 10
332.0
 20
60.0
 30
0.0
 11
410.0
 21
60.0
 31
0.0
  0
TEXT
  5
18E
330
1E
100
AcDbEntity
  8
TEXT
 62
     1
100
AcDbText
 10
234.9283864320014
 20
87.41748789253779
 30
0.0
 40
7.0
  1
Red.-Abzweig DN100/50
 41
0.7
  7
GREEKS
100
AcDbText
  0
LINE
  5
18F
330
1E
100
AcDbEntity
  8
HILF
100
AcDbLine
 10
234.7736801096947
 20
49.99999999999997
 30
0.0
 11
324.835391655631
 21
49.99999999999997
 31
0.0
  0
LINE
  5
190
330
1E
100
AcDbEntity
  8
HILF
100
AcDbLine
 10
234.7736801096947
 20
59.99999999999997
 30
0.0
 11
324.835391655631
 21
59.99999999999997
 31
0.0
  0
LINE
  5
191
330
1E
100
AcDbEntity
  8
HILF
100
AcDbLine
 10
234.7736801096947
 20
69.99999999999994
 30
0.0
 11
324.835391655631
 21
69.99999999999994
 31
0.0
  0
LINE
  5
192
330
1E
100
AcDbEntity
  8
HILF
100
AcDbLine
 10
234.7736801096947
 20
84.03758247564139
 30
0.0
 11
324.8353916556311
 21
84.03758247564139
 31
0.0
  0
LINE
  5
193
330
1E
100
AcDbEntity
  8
STEMPEL
100
AcDbLine
 10
230.0
 20
110.0
 30
0.0
 11
230.0
 21
9.999999999999971
 31
0.0
  0
TEXT
  5
194
330
1E
100
AcDbEntity
  8
TEXT
100
AcDbText
 10
235.1296391125315
 20
71.50334417585288
 30
0.0
 40
5.0
  1
dünnwandig 87° 
 41
0.8
  7
GREEKS
100
AcDbText
  0
TEXT
  5
195
330
1E
100
AcDbEntity
  8
TEXT
100
AcDbText
 10
234.9837501577827
 20
42.62974153022632
 30
0.0
 40
4.0
  1
5230DB0W.DWG
 41
0.8
  7
GREEKS
100
AcDbText
  0
TEXT
  5
196
330
1E
100
AcDbEntity
  8
TEXT
100
AcDbText
 10
234.742238391136
 20
30.84560570193057
 30
0.0
 40
5.0
  1
Bauvorhaben
 41
0.8
  7
GREEKS
100
AcDbText
  0
TEXT
  5
197
330
1E
100
AcDbEntity
  8
TEXT
100
AcDbText
 10
234.877940380901
 20
102.5489328011779
 30
0.0
 40
5.0
  1
Benennung
 41
0.8
  7
GREEKS
100
AcDbText
  0
LINE
  5
198
330
1E
100
AcDbEntity
  8
STEMPEL
100
AcDbLine
 10
332.0
 20
109.9999999999997
 30
0.0
 11
332.0
 21
40.0
 31
0.0
  0
TEXT
  5
19A
330
1E
100
AcDbEntity
  8
TEXT
 62
     1
100
AcDbText
 10
349.1280541012102
 20
88.14901428913959
 30
0.0
 40
7.0
  1
5230DB0W
 41
0.8
  7
GREEKS
 72
     1
 11
370.7280541012102
 21
88.14901428913959
 31
0.0
100
AcDbText
  0
TEXT
  5
212
330
1E
100
AcDbEntity
  8
TEXT
100
AcDbText
 10
235.1296391125315
 20
51.50334417585291
 30
0.0
 40
5.0
  1
EDV-Art.Nr. 5.230.DB0C
 41
0.8
  7
GREEKS
100
AcDbText
  0
TEXT
  5
255
330
1E
100
AcDbEntity
  8
TEXT
 62
     1
100
AcDbText
 10
297.0573649355706
 20
132.2248663682012
 30
0.0
 40
7.0
  1
Werkstoff: 1.4404
 41
0.8
  7
GREEKS
100
AcDbText
  0
LINE
  5
15D2
330
1E
100
AcDbEntity
  8
MITTEL
100
AcDbLine
 10
215.259571184371
 20
489.2341779994135
 30
0.0
 11
215.2595711843709
 21
229.2308850950836
 31
0.0
  0
LINE
  5
1606
330
1E
100
AcDbEntity
  8
STEMPEL
100
AcDbLine
 10
265.3596618761634
 20
234.2308850950832
 30
0.0
 11
165.1594804925783
 21
234.2308850950838
 31
0.0
  0
TEXT
  5
160F
330
1E
100
AcDbEntity
  8
TEXT
 62
     1
100
AcDbText
 10
205.3609553208938
 20
449.3713735635607
 30
0.0
 40
7.0
  1
DN100
 50
89.99999999999998
 41
0.8
  7
GREEKS
100
AcDbText
  0
TEXT
  5
16FA
330
1E
100
AcDbEntity
  8
TEXT
 62
     1
100
AcDbText
 10
313.0544482500752
 20
378.3329096610174
 30
0.0
 40
7.0
  1
DN50
 50
272.9999999999999
 41
0.8
  7
GREEKS
100
AcDbText
  0
LINE
  5
1702
330
1E
100
AcDbEntity
  8
MITTEL
100
AcDbLine
 10
334.0964858201652
 20
355.4588638879939
 30
0.0
 11
253.1303423989992
 21
351.2156081141783
 31
0.0
  0
DIMENSION
  5
170F
330
1E
100
AcDbEntity
  8
BEM
100
AcDbDimension
  2
*D1
 10
145.7365547330939
 20
349.2308850950835
 30
0.0
 11
139.2365547330939
 21
291.7308850950837
 31
0.0
 70
    32
 71
     5
 42
114.9999999999997
  3
Standard
100
AcDbAlignedDimension
 13
165.1594804925782
 23
234.2308850950838
 33
0.0
 14
215.259571184371
 24
349.2308850950835
 34
0.0
 50
90.0
100
AcDbRotatedDimension
1001
ACAD
1000
DSTYLE
1002
{
1070
    40
1040
2.0
1070
    41
1040
3.5
1070
    42
1040
1.0
1070
    43
1040
7.0
1070
    44
1040
1.0
1070
    73
1070
     0
1070
    74
1070
     0
1070
    77
1070
     1
1070
    78
1070
     8
1070
    79
1070
     2
1070
   140
1040
3.5
1070
   141
1040
1.5
1070
   146
1040
0.5142857142857144
1070
   147
1040
1.5
1070
   172
1070
     1
1070
   178
1070
     1
1070
   179
1070
     2
1070
   271
1070
     2
1070
   272
1070
     2
1070
   284
1070
     8
1070
   285
1070
     8
1070
   286
1070
     8
1002
}
  0
TEXT
  5
1905
330
1E
100
AcDbEntity
  8
VOLL
100
AcDbText
 10
525.3664702311624
 20
212.4618221180262
 30
0.0
 40
1.8
  1

  7
GREEKS
100
AcDbText
  0
LINE
  5
1A80
330
1E
100
AcDbEntity
  8
STEMPEL
100
AcDbLine
 10
269.9193541030942
 20
484.2341779994134
 30
0.0
 11
160.5997882656478
 21
484.2341779994137
 31
0.0
  0
LINE
  5
1A83
330
1E
100
AcDbEntity
  8
STEMPEL
100
AcDbLine
 10
164.459571184371
 20
409.6910513227733
 30
0.0
 11
164.4595711843709
 21
242.2308850950838
 31
0.0
  0
LINE
  5
1A8A
102
{ACAD_REACTORS
330
20A9
102
}
330
1E
100
AcDbEntity
  8
STEMPEL
100
AcDbLine
 10
266.059571184371
 20
409.6910513227735
 30
0.0
 11
266.0595711843708
 21
378.4295674516068
 31
0.0
  0
LINE
  5
1AA1
330
1E
100
AcDbEntity
  8
HILF
100
AcDbLine
 10
264.8047963874414
 20
242.2308850950833
 30
0.0
 11
165.7143459813001
 21
242.2308850950838
 31
0.0
  0
LINE
  5
1AA2
330
1E
100
AcDbEntity
  8
STEMPEL
100
AcDbLine
 10
164.4595711843709
 20
242.2308850950838
 30
0.0
 11
165.1594804925783
 21
234.2308850950838
 31
0.0
  0
LINE
  5
1AA5
330
1E
100
AcDbEntity
  8
STEMPEL
100
AcDbLine
 10
266.0595711843708
 20
242.2308850950845
 30
0.0
 11
265.3596618761634
 21
234.2308850950832
 31
0.0
  0
DIMENSION
  5
1AB8
330
1E
100
AcDbEntity
  8
BEM
100
AcDbDimension
  2
*D2
 10
129.0180450627162
 20
234.2308850950838
 30
0.0
 11
122.5180450627162
 21
359.2325315472488
 31
0.0
 70
    32
 71
     5
 42
250.00329290433
  3
Standard
100
AcDbAlignedDimension
 13
160.5997882656478
 23
484.2341779994137
 33
0.0
 14
165.1594804925782
 24
234.2308850950838
 34
0.0
 50
90.0
100
AcDbRotatedDimension
1001
ACAD
1000
DSTYLE
1002
{
1070
    40
1040
2.0
1070
    41
1040
3.5
1070
    42
1040
1.0
1070
    43
1040
7.0
1070
    44
1040
1.0
1070
    73
1070
     0
1070
    74
1070
     0
1070
    77
1070
     1
1070
    78
1070
     8
1070
    79
1070
     2
1070
   140
1040
3.5
1070
   141
1040
1.5
1070
   146
1040
0.5142857142857144
1070
   147
1040
1.5
1070
   172
1070
     1
1070
   178
1070
     1
1070
   179
1070
     2
1070
   271
1070
     2
1070
   272
1070
     2
1070
   284
1070
     8
1070
   285
1070
     8
1070
   286
1070
     8
1002
}
  0
LINE
  5
1ACE
102
{ACAD_REACTORS
330
20B8
102
}
330
1E
100
AcDbEntity
  8
STEMPEL
100
AcDbLine
 10
266.0595711843707
 20
325.356833113717
 30
0.0
 11
266.0595711843709
 21
242.2308850950833
 31
0.0
  0
DIMENSION
  5
1AD2
330
1E
100
AcDbEntity
  8
BEM
100
AcDbDimension
  2
*D3
 10
331.7126411638707
 20
305.4087165705717
 30
0.0
 11
279.2920236234023
 21
302.66146841663
 31
0.0
 70
   160
 71
     5
 42
113.9999999999997
 51
356.9999999999999
  3
Standard
100
AcDbAlignedDimension
 13
215.259571184371
 23
349.2308850950835
 33
0.0
 14
330.6219832942218
 24
326.2197084608879
 34
0.0
 50
2.99999999999989
100
AcDbRotatedDimension
1001
ACAD
1000
DSTYLE
1002
{
1070
    40
1040
2.0
1070
    41
1040
3.5
1070
    42
1040
1.0
1070
    43
1040
7.0
1070
    44
1040
1.0
1070
    73
1070
     0
1070
    74
1070
     0
1070
    77
1070
     1
1070
    78
1070
     8
1070
    79
1070
     2
1070
   140
1040
3.5
1070
   141
1040
1.5
1070
   146
1040
0.5142857142857144
1070
   147
1040
1.5
1070
   172
1070
     1
1070
   178
1070
     1
1070
   179
1070
     2
1070
   271
1070
     2
1070
   272
1070
     2
1070
   284
1070
     8
1070
   285
1070
     8
1070
   286
1070
     8
1002
}
  0
DIMENSION
  5
1AE8
330
1E
100
AcDbEntity
  8
BEM
100
AcDbDimension
  2
*D4
 10
266.0595711843708
 20
213.1409958420065
 30
0.0
 11
215.2595711843709
 21
219.6409958420066
 31
0.0
 70
    32
  1
%%c<>
 71
     5
 42
101.5999999999999
  3
Standard
100
AcDbAlignedDimension
 13
164.4595711843709
 23
242.2308850950838
 33
0.0
 14
266.0595711843708
 24
242.2308850950833
 34
0.0
100
AcDbRotatedDimension
1001
ACAD
1000
DSTYLE
1002
{
1070
    40
1040
2.0
1070
    41
1040
3.5
1070
    42
1040
1.0
1070
    43
1040
7.0
1070
    44
1040
1.0
1070
    73
1070
     0
1070
    74
1070
     0
1070
    77
1070
     1
1070
    78
1070
     8
1070
    79
1070
     2
1070
   140
1040
3.5
1070
   141
1040
1.5
1070
   146
1040
0.5142857142857144
1070
   147
1040
1.5
1070
   172
1070
     1
1070
   178
1070
     1
1070
   179
1070
     2
1070
   271
1070
     2
1070
   272
1070
     2
1070
   284
1070
     8
1070
   285
1070
     8
1070
   286
1070
     8
1002
}
  0
TEXT
  5
1BF5
330
1E
100
AcDbEntity
  8
BEM
100
AcDbText
 10
416.5811541437437
 20
12.14804815338303
 30
0.0
 40
4.0
  1
Diese Zeichnung ist urheberrechtlich geschützt und bleibt unser Eigentum. Sie darf weder ganz noch teilweise vervielfältigt und nicht an Dritte weitergegeben werden.
 50
90.0
 41
0.8
  7
GREEKS
100
AcDbText
  0
TEXT
  5
1C10
330
1E
100
AcDbEntity
  8
TEXT
100
AcDbText
 10
192.6882715247924
 20
88.73450771838452
 30
0.0
 40
4.0
  1
DIN EN1124-3
 41
0.8
  7
GREEKS
 72
     1
 11
209.6787477152686
 21
88.73450771838452
 31
0.0
100
AcDbText
  0
TEXT
  5
1DDC
330
1E
100
AcDbEntity
  8
VOLL
100
AcDbText
 10
539.7246252213716
 20
194.5107114195854
 30
0.0
 40
1.8
  1

  7
GREEKS
100
AcDbText
  0
LINE
  5
1DE8
330
1E
100
AcDbEntity
  8
STEMPEL
100
AcDbLine
 10
330.6219832942218
 20
326.2197084608879
 30
0.0
 11
327.5846929985628
 21
384.1746597526704
 31
0.0
  0
ARC
  5
1DEC
330
1E
100
AcDbEntity
  8
STEMPEL
100
AcDbCircle
 10
320.2456301617923
 20
366.6493022191439
 30
0.0
 40
19.0
100
AcDbArc
 50
67.27761350779989
 51
92.99999999999997
  0
LINE
  5
1DED
330
1E
100
AcDbEntity
  8
STEMPEL
100
AcDbLine
 10
319.2512469931764
 20
385.6232633794808
 30
0.0
 11
314.6657511313061
 21
385.3829477244486
 31
0.0
  0
LINE
  5
1DEF
102
{ACAD_REACTORS
330
20A9
102
}
330
1E
100
AcDbEntity
  8
STEMPEL
100
AcDbLine
 10
285.2641687599718
 20
379.4360377625687
 30
0.0
 11
266.0595711843708
 21
378.4295674516068
 31
0.0
  0
ARC
  5
1DF1
330
1E
100
AcDbEntity
  8
STEMPEL
100
AcDbCircle
 10
315.9479820592582
 20
360.9165241229616
 30
0.0
 40
24.5
100
AcDbArc
 50
92.99999999999997
 51
112.6048616874637
  0
LINE
  5
1DF3
330
1E
100
AcDbEntity
  8
STEMPEL
100
AcDbLine
 10
303.2104504231638
 20
382.7798561613196
 30
0.0
 11
294.8740480958086
 21
382.3429638281329
 31
0.0
  0
ARC
  5
1DF4
330
1E
100
AcDbEntity
  8
STEMPEL
100
AcDbCircle
 10
302.6870908607343
 20
392.7661515088654
 30
0.0
 40
10.0
100
AcDbArc
 50
273.0
 51
292.6048616874638
  0
ARC
  5
1DF8
330
1E
100
AcDbEntity
  8
STEMPEL
100
AcDbCircle
 10
295.4759115926025
 20
370.8587241784554
 30
0.0
 40
11.5
100
AcDbArc
 50
92.99999999999997
 51
120.660449899301
  0
ARC
  5
1DF9
330
1E
100
AcDbEntity
  8
STEMPEL
100
AcDbCircle
 10
284.7669771756638
 20
388.923018342737
 30
0.0
 40
9.5
100
AcDbArc
 50
273.0
 51
300.6604498993011
  0
ARC
  5
1DFB
330
1E
100
AcDbEntity
  8
STEMPEL
100
AcDbCircle
 10
288.5351660251558
 20
317.0216918404078
 30
0.0
 40
9.5
100
AcDbArc
 50
65.3395501006989
 51
92.99999999999997
  0
ARC
  5
1DFC
330
1E
100
AcDbEntity
  8
STEMPEL
100
AcDbCircle
 10
297.2972028698569
 20
336.106416368996
 30
0.0
 40
11.5
100
AcDbArc
 50
245.339550100699
 51
273.0
  0
ARC
  5
1E00
330
1E
100
AcDbEntity
  8
STEMPEL
100
AcDbCircle
 10
306.7588282564353
 20
315.0727737049594
 30
0.0
 40
10.0
100
AcDbArc
 50
73.39513831253618
 51
92.99999999999997
  0
LINE
  5
1E01
330
1E
100
AcDbEntity
  8
STEMPEL
100
AcDbLine
 10
306.2354686940058
 20
325.0590690525052
 30
0.0
 11
297.8990663666508
 21
324.6221767193185
 31
0.0
  0
ARC
  5
1E03
330
1E
100
AcDbEntity
  8
STEMPEL
100
AcDbCircle
 10
316.6178822991679
 20
348.1340660781029
 30
0.0
 40
24.5
100
AcDbArc
 50
253.3951383125362
 51
273.0
  0
LINE
  5
1E05
102
{ACAD_REACTORS
330
20B8
102
}
330
1E
100
AcDbEntity
  8
STEMPEL
100
AcDbLine
 10
288.0379744408478
 20
326.5086724205763
 30
0.0
 11
266.0595711843708
 21
325.3568331137171
 31
0.0
  0
LINE
  5
1E07
330
1E
100
AcDbEntity
  8
STEMPEL
100
AcDbLine
 10
322.4856090889904
 20
323.9079581316481
 30
0.0
 11
317.9001132271202
 21
323.6676424766159
 31
0.0
  0
ARC
  5
1E08
330
1E
100
AcDbEntity
  8
STEMPEL
100
AcDbCircle
 10
321.4912259203744
 20
342.881919291985
 30
0.0
 40
19.0
100
AcDbArc
 50
273.0
 51
298.7223864922001
  0
LINE
  5
1F3C
330
1E
100
AcDbEntity
  8
HILF
100
AcDbLine
 10
307.8902497440051
 20
326.0144319621645
 30
0.0
 11
304.9560290262382
 21
382.0026985498415
 31
0.0
  0
LINE
  5
1F3D
330
1E
100
AcDbEntity
  8
HILF
100
AcDbLine
 10
295.0823039268596
 20
325.8426829998799
 30
0.0
 11
292.2002938213008
 21
380.8347117594587
 31
0.0
  0
LINE
  5
1F3E
330
1E
100
AcDbEntity
  8
HILF
100
AcDbLine
 10
290.2664670994062
 20
327.377974792814
 30
0.0
 11
287.5713203436605
 21
378.804438432685
 31
0.0
  0
ELLIPSE
  5
2086
330
1E
100
AcDbEntity
  8
STEMPEL
100
AcDbEllipse
 10
266.0595711843708
 20
351.5022590477725
 30
0.0
 11
-0.0000000000002052
 21
-26.92730840383439
 31
0.0
210
0.0
220
0.0
230
1.0
 40
0.2770274335600997
 41
3.141592653589793
 42
4.712388980384689
  0
ELLIPSE
  5
2087
330
1E
100
AcDbEntity
  8
STEMPEL
100
AcDbEllipse
 10
266.0595711843708
 20
351.5022590477725
 30
0.0
 11
-0.0000000000001992
 21
-26.14542593405543
 31
0.0
210
0.0
220
0.0
230
1.0
 40
0.2853119761219544
 41
4.712388980384689
 42
6.283185307179586
  0
ARC
  5
208E
330
1E
100
AcDbEntity
  8
SCHRAFF
100
AcDbCircle
 10
266.059571184371
 20
378.4295674516068
 30
0.0
 40
5.0
100
AcDbArc
 50
178.7027080708768
 51
258.2299446558031
  0
ARC
  5
208F
330
1E
100
AcDbEntity
  8
SCHRAFF
100
AcDbCircle
 10
262.4181155212419
 20
375.00322820199
 30
0.0
 40
5.0
100
AcDbArc
 50
212.1460892255141
 51
286.1218620661928
  0
ARC
  5
2090
330
1E
100
AcDbEntity
  8
SCHRAFF
100
AcDbCircle
 10
260.7186782176686
 20
370.3008976253582
 30
0.0
 40
5.0
100
AcDbArc
 50
220.4864673056128
 51
294.2902465489273
  0
ARC
  5
2091
330
1E
100
AcDbEntity
  8
SCHRAFF
100
AcDbCircle
 10
259.6722445747325
 20
365.411626040456
 30
0.0
 40
5.0
100
AcDbArc
 50
225.2886640370031
 51
299.060833206569
  0
ARC
  5
2092
330
1E
100
AcDbEntity
  8
SCHRAFF
100
AcDbCircle
 10
259.0242202121135
 20
360.4537974406099
 30
0.0
 40
5.0
100
AcDbArc
 50
228.8710607622478
 51
302.6312297386685
  0
ARC
  5
2093
330
1E
100
AcDbEntity
  8
SCHRAFF
100
AcDbCircle
 10
258.6812116276048
 20
355.4655768048568
 30
0.0
 40
5.0
100
AcDbArc
 50
231.9573373138898
 51
305.7155634635392
  0
ARC
  5
2094
330
1E
100
AcDbEntity
  8
SCHRAFF
100
AcDbCircle
 10
258.6058278058987
 20
350.4661451092113
 30
0.0
 40
5.0
100
AcDbArc
 50
235.0350483699716
 51
308.7969269695292
  0
ARC
  5
2095
330
1E
100
AcDbEntity
  8
SCHRAFF
100
AcDbCircle
 10
258.8012282191626
 20
345.4699647002893
 30
0.0
 40
5.0
100
AcDbArc
 50
238.3935350296425
 51
312.1642344868522
  0
ARC
  5
2096
330
1E
100
AcDbEntity
  8
SCHRAFF
100
AcDbCircle
 10
259.2933636047344
 20
340.49424336944
 30
0.0
 40
5.0
100
AcDbArc
 50
242.4208158555496
 51
316.2187296990391
  0
ARC
  5
2097
330
1E
100
AcDbEntity
  8
SCHRAFF
100
AcDbCircle
 10
260.1455316161668
 20
335.5673975548957
 30
0.0
 40
5.0
100
AcDbArc
 50
248.1553533779218
 51
322.0329826386319
  0
ARC
  5
2098
330
1E
100
AcDbEntity
  8
SCHRAFF
100
AcDbCircle
 10
261.5184914484648
 20
330.7595933472667
 30
0.0
 40
5.0
100
AcDbArc
 50
259.4112124395415
 51
334.365506497799
  0
ARC
  5
2099
102
{ACAD_REACTORS
330
20A9
102
}
330
1E
100
AcDbEntity
  8
SCHRAFF
100
AcDbCircle
 10
266.0595711843708
 20
378.4295674516068
 30
0.0
 40
3.0
100
AcDbArc
 50
3.000000000000173
 51
90.0
  0
HATCH
  5
20A9
330
1E
100
AcDbEntity
  8
SCHRAFF
100
AcDbHatch
 10
0.0
 20
0.0
 30
0.0
210
0.0
220
0.0
230
1.0
  2
_USER
 70
     0
 71
     1
 91
        1
 92
        7
 72
     1
 73
     1
 93
        3
 10
266.0595711843708
 20
381.4295674516068
 42
0.0
 10
266.0595711843708
 20
378.4295674516068
 42
0.0
 10
269.0554597886345
 20
378.5865753203356
 42
0.3989595459737182
 97
        3
330
1A8A
330
1DEF
330
2099
 75
     0
 76
     0
 52
0.0
 41
0.1
 77
     0
 78
     1
 53
0.0
 43
0.0
 44
0.0
 45
0.0
 46
0.1
 79
     0
 47
0.0548630698879047
 98
        1
 10
267.3476448278957
 20
379.7156206133861
  0
ARC
  5
20AA
102
{ACAD_REACTORS
330
20B8
102
}
330
1E
100
AcDbEntity
  8
SCHRAFF
100
AcDbCircle
 10
266.0595711843697
 20
325.356833113717
 30
0.0
 40
3.0
100
AcDbArc
 50
270.0000000000196
 51
3.000000000000173
  0
HATCH
  5
20B8
330
1E
100
AcDbEntity
  8
SCHRAFF
100
AcDbHatch
 10
0.0
 20
0.0
 30
0.0
210
0.0
220
0.0
230
1.0
  2
_USER
 70
     0
 71
     1
 91
        1
 92
        7
 72
     1
 73
     1
 93
        3
 10
269.0554597886334
 20
325.5138409824458
 42
0.0
 10
266.0595711843707
 20
325.3568331137171
 42
0.0
 10
266.0595711843707
 20
322.356833113717
 42
0.4296339059667416
 97
        3
330
1E05
330
1ACE
330
20AA
 75
     0
 76
     0
 52
0.0
 41
0.1
 77
     0
 78
     1
 53
0.0
 43
0.0
 44
0.0
 45
0.0
 46
0.1
 79
     0
 47
0.1240382415695345
 98
        1
 10
267.3786782678076
 20
324.4196125265112
  0
DIMENSION
  5
20B9
330
1E
100
AcDbEntity
  8
BEM
100
AcDbDimension
  2
*D7
 10
215.2595711843709
 20
229.2308850950836
 30
0.0
 11
329.1483047592797
 21
469.2445690297409
 31
0.0
 70
    34
 71
     5
 42
1.518436449235063
  3
Standard
100
AcDb2LineAngularDimension
 13
334.0964858201652
 23
355.4588638879939
 33
0.0
 14
215.259571184371
 24
349.2308850950835
 34
0.0
 15
215.259571184371
 25
489.2341779994135
 35
0.0
 16
350.0573939057011
 26
433.4619132177494
 36
0.0
1001
ACAD
1000
DSTYLE
1002
{
1070
    40
1040
2.0
1070
    41
1040
3.5
1070
    42
1040
1.0
1070
    43
1040
7.0
1070
    44
1040
1.0
1070
    73
1070
     0
1070
    74
1070
     0
1070
    77
1070
     1
1070
    78
1070
     8
1070
    79
1070
     2
1070
   140
1040
3.5
1070
   141
1040
1.5
1070
   146
1040
0.5142857142857144
1070
   147
1040
1.5
1070
   172
1070
     1
1070
   178
1070
     1
1070
   179
1070
     2
1070
   271
1070
     2
1070
   272
1070
     2
1070
   284
1070
     8
1070
   285
1070
     8
1070
   286
1070
     8
1002
}
  0
DIMENSION
  5
20EC
330
1E
100
AcDbEntity
  8
BEM
100
AcDbDimension
  2
*D8
 10
241.8118242029654
 20
324.0860625418046
 30
0.0
 11
246.9160133384322
 21
350.8899289283799
 31
0.0
 70
    32
  1
%%c<>
 71
     5
 42
53.00000000000006
 51
87.00000000000018
  3
Standard
100
AcDbAlignedDimension
 13
266.0595711843708
 23
378.4295674516068
 33
0.0
 14
266.0595711843707
 24
325.356833113717
 34
0.0
 50
272.9999999999998
100
AcDbRotatedDimension
1001
ACAD
1000
DSTYLE
1002
{
1070
    40
1040
2.0
1070
    41
1040
3.5
1070
    42
1040
1.0
1070
    43
1040
7.0
1070
    44
1040
1.0
1070
    73
1070
     0
1070
    74
1070
     0
1070
    77
1070
     1
1070
    78
1070
     8
1070
    79
1070
     2
1070
   140
1040
3.5
1070
   141
1040
1.5
1070
   146
1040
0.5142857142857144
1070
   147
1040
1.5
1070
   172
1070
     1
1070
   178
1070
     1
1070
   179
1070
     2
1070
   271
1070
     2
1070
   272
1070
     2
1070
   284
1070
     8
1070
   285
1070
     8
1070
   286
1070
     8
1002
}
  0
LINE
  5
2102
330
1E
100
AcDbEntity
  8
MITTEL
100
AcDbLine
 10
236.444137274569
 20
350.3411211589456
 30
0.0
 11
215.259571184371
 21
349.2308850950835
 31
0.0
  0
LINE
  5
2159
330
1E
100
AcDbEntity
  8
HILF
100
AcDbLine
 10
268.2795206075718
 20
439.7069170205739
 30
0.0
 11
162.2396217611702
 21
439.706917020574
 31
0.0
  0
LINE
  5
215A
330
1E
100
AcDbEntity
  8
HILF
100
AcDbLine
 10
267.4063190138859
 20
417.2539570442501
 30
0.0
 11
163.1128233548563
 21
417.2539570442501
 31
0.0
  0
LINE
  5
215B
330
1E
100
AcDbEntity
  8
HILF
100
AcDbLine
 10
265.1091710301126
 20
411.8195101733626
 30
0.0
 11
165.4099713386295
 21
411.8195101733626
 31
0.0
  0
ARC
  5
215E
330
1E
100
AcDbEntity
  8
STEMPEL
100
AcDbCircle
 10
181.559571184371
 20
472.0378670817631
 30
0.0
 40
24.2
100
AcDbArc
 50
149.7363480579001
 51
180.0
  0
LINE
  5
215F
330
1E
100
AcDbEntity
  8
STEMPEL
100
AcDbLine
 10
161.3595711843711
 20
436.7309774687321
 30
0.0
 11
161.3595711843711
 21
421.0060855692967
 31
0.0
  0
ARC
  5
2161
330
1E
100
AcDbEntity
  8
STEMPEL
100
AcDbCircle
 10
175.559571184371
 20
421.0060855692967
 30
0.0
 40
14.2
100
AcDbArc
 50
180.0
 51
210.6429317629395
  0
ARC
  5
2162
330
1E
100
AcDbEntity
  8
STEMPEL
100
AcDbCircle
 10
156.4595711843711
 20
409.6910513227733
 30
0.0
 40
8.0
100
AcDbArc
 50
0.0
 51
30.85958109062227
  0
LINE
  5
2163
330
1E
100
AcDbEntity
  8
STEMPEL
100
AcDbLine
 10
157.3595711843711
 20
472.0378670817631
 30
0.0
 11
157.3595711843711
 21
453.4641779994136
 31
0.0
  0
ARC
  5
2164
330
1E
100
AcDbEntity
  8
STEMPEL
100
AcDbCircle
 10
181.559571184371
 20
453.4641779994136
 30
0.0
 40
24.2
100
AcDbArc
 50
180.0
 51
206.8880476177246
  0
ARC
  5
2165
330
1E
100
AcDbEntity
  8
STEMPEL
100
AcDbCircle
 10
148.559571184371
 20
436.7309774687321
 30
0.0
 40
12.8
100
AcDbArc
 50
0.0
 51
26.88804761772463
  0
ARC
  5
2167
330
1E
100
AcDbEntity
  8
STEMPEL
100
AcDbCircle
 10
248.9595711843711
 20
472.0378670817632
 30
0.0
 40
24.2
100
AcDbArc
 50
0.0
 51
30.26365194209988
  0
ARC
  5
2168
330
1E
100
AcDbEntity
  8
STEMPEL
100
AcDbCircle
 10
248.9595711843711
 20
453.4641779994136
 30
0.0
 40
24.2
100
AcDbArc
 50
333.1119523822754
 51
0.0
  0
LINE
  5
2169
330
1E
100
AcDbEntity
  8
STEMPEL
100
AcDbLine
 10
269.1595711843711
 20
436.7309774687321
 30
0.0
 11
269.1595711843711
 21
421.0060855692969
 31
0.0
  0
ARC
  5
216B
330
1E
100
AcDbEntity
  8
STEMPEL
100
AcDbCircle
 10
254.9595711843711
 20
421.0060855692968
 30
0.0
 40
14.2
100
AcDbArc
 50
329.3570682370604
 51
0.0
  0
ARC
  5
216C
330
1E
100
AcDbEntity
  8
STEMPEL
100
AcDbCircle
 10
274.059571184371
 20
409.6910513227734
 30
0.0
 40
8.0
100
AcDbArc
 50
149.1404189093777
 51
180.0
  0
ARC
  5
216D
330
1E
100
AcDbEntity
  8
STEMPEL
100
AcDbCircle
 10
281.959571184371
 20
436.7309774687321
 30
0.0
 40
12.8
100
AcDbArc
 50
153.1119523822753
 51
180.0
  0
LINE
  5
216E
330
1E
100
AcDbEntity
  8
STEMPEL
100
AcDbLine
 10
273.159571184371
 20
472.0378670817632
 30
0.0
 11
273.1595711843711
 21
453.4641779994137
 31
0.0
  0
TEXT
  5
2186
330
1E
100
AcDbEntity
  8
TEXT
100
AcDbText
 10
170.398997108236
 20
63.10765040825732
 30
0.0
 40
4.0
  1
08.04.
 41
0.8
  7
GREEKS
 72
     1
 11
177.4085209177598
 21
63.10765040825732
 31
0.0
100
AcDbText
  0
ENDSEC
  0
SECTION
  2
OBJECTS
  0
DICTIONARY
  5
C
330
0
100
AcDbDictionary
281
     1
  3
ACAD_COLOR
350
1790
  3
ACAD_GROUP
350
D
  3
ACAD_LAYOUT
350
19
  3
ACAD_MATERIAL
350
178F
  3
ACAD_MLINESTYLE
350
16
  3
ACAD_PLOTSETTINGS
350
18
  3
ACAD_PLOTSTYLENAME
350
E
  3
AcDbVariableDictionary
350
246
  0
DICTIONARY
  5
1790
102
{ACAD_REACTORS
330
C
102
}
330
C
100
AcDbDictionary
281
     1
  0
DICTIONARY
  5
D
102
{ACAD_REACTORS
330
C
102
}
330
C
100
AcDbDictionary
281
     1
  0
DICTIONARY
  5
19
102
{ACAD_REACTORS
330
C
102
}
330
C
100
AcDbDictionary
281
     1
  3
Layout1
350
1D
  3
Model
350
21
  0
DICTIONARY
  5
178F
102
{ACAD_REACTORS
330
C
102
}
330
C
100
AcDbDictionary
281
     1
  0
DICTIONARY
  5
16
102
{ACAD_REACTORS
330
C
102
}
330
C
100
AcDbDictionary
281
     1
  3
Standard
350
17
  0
DICTIONARY
  5
18
102
{ACAD_REACTORS
330
C
102
}
330
C
100
AcDbDictionary
281
     1
  0
ACDBDICTIONARYWDFLT
  5
E
102
{ACAD_REACTORS
330
C
102
}
330
C
100
AcDbDictionary
281
     1
  3
Normal
350
F
100
AcDbDictionaryWithDefault
340
F
  0
DICTIONARY
  5
246
102
{ACAD_REACTORS
330
C
102
}
330
C
100
AcDbDictionary
281
     1
  3
DIMASSOC
350
1C0C
  3
PROJECTNAME
350
1C0D
  3
SORTENTS
350
247
  0
LAYOUT
  5
1D
102
{ACAD_REACTORS
330
19
102
}
330
19
100
AcDbPlotSettings
  1

  2
Tektronix Phaser 740
  4

  6

 40
0.0
 41
0.0
 42
0.0
 43
0.0
 44
0.0
 45
0.0
 46
0.0
 47
0.0
 48
0.0
 49
0.0
140
0.0
141
0.0
142
1.0
143
1.0
 70
   688
 72
     0
 73
     0
 74
     5
  7
monochrome.ctb
 75
    16
147
1.0
 76
     0
 77
     2
 78
   300
148
0.0
149
0.0
100
AcDbLayout
  1
Layout1
 70
     0
 71
     1
 10
0.0
 20
0.0
 11
12.0
 21
9.0
 12
0.0
 22
0.0
 32
0.0
 14
1.000000000000000E+20
 24
1.000000000000000E+20
 34
1.000000000000000E+20
 15
-1.000000000000000E+20
 25
-1.000000000000000E+20
 35
-1.000000000000000E+20
146
0.0
 13
0.0
 23
0.0
 33
0.0
 16
1.0
 26
0.0
 36
0.0
 17
0.0
 27
1.0
 37
0.0
 76
     0
330
1A
  0
LAYOUT
  5
21
102
{ACAD_REACTORS
330
19
102
}
330
19
100
AcDbPlotSettings
  1

  2
Tektronix Phaser 740
  4
A4
  6

 40
5.873749732971191
 41
6.085414409637451
 42
5.577407836914062
 43
5.662078857421875
 44
209.9733276367187
 45
296.9683227539062
 46
0.0
 47
0.0
 48
0.0
 49
0.0
140
0.0
141
0.0
142
1.0
143
1.0
 70
 11952
 72
     0
 73
     1
 74
     0
  7
monochrome.ctb
 75
     0
147
1.0
 76
     0
 77
     2
 78
   300
148
1150.120678237584
149
45.30495740799864
100
AcDbLayout
  1
Model
 70
     1
 71
     0
 10
0.0
 20
0.0
 11
12.0
 21
9.0
 12
0.0
 22
0.0
 32
0.0
 14
0.0
 24
0.0
 34
0.0
 15
0.0
 25
0.0
 35
0.0
146
0.0
 13
0.0
 23
0.0
 33
0.0
 16
1.0
 26
0.0
 36
0.0
 17
0.0
 27
1.0
 37
0.0
 76
     0
330
1E
  0
MLINESTYLE
  5
17
102
{ACAD_REACTORS
330
16
102
}
330
16
100
AcDbMlineStyle
  2
STANDARD
 70
     0
  3

 62
   256
 51
90.0
 52
90.0
 71
     2
 49
0.5
 62
   256
  6
BYLAYER
 49
-0.5
 62
   256
  6
BYLAYER
  0
ACDBPLACEHOLDER
  5
F
102
{ACAD_REACTORS
330
E
102
}
330
E
  0
DICTIONARYVAR
  5
1C0C
102
{ACAD_REACTORS
330
246
102
}
330
246
100
DictionaryVariables
280
     0
  1
1
  0
DICTIONARYVAR
  5
1C0D
102
{ACAD_REACTORS
330
246
102
}
330
246
100
DictionaryVariables
280
     0
  1

  0
DICTIONARYVAR
  5
247
102
{ACAD_REACTORS
330
246
102
}
330
246
100
DictionaryVariables
280
     0
  1
96
  0
ENDSEC
  0
EOF
