  0
SECTION
  2
HEADER
  9
$ACADVER
  1
AC1018
  9
$ACADMAINTVER
 70
     2
  9
$DWGCODEPAGE
  3
ANSI_1252
  9
$INSBASE
 10
0.0
 20
0.0
 30
0.0
  9
$EXTMIN
 10
-0.032025120463004
 20
-0.0452926703683261
 30
-0.0000000000000023
  9
$EXTMAX
 10
1050.032053236514
 20
1485.0453324345
 30
0.000000000000013
  9
$LIMMIN
 10
0.0
 20
0.0
  9
$LIMMAX
 10
1050.0
 20
1485.0
  9
$ORTHOMODE
 70
     1
  9
$REGENMODE
 70
     1
  9
$FILLMODE
 70
     1
  9
$QTEXTMODE
 70
     0
  9
$MIRRTEXT
 70
     1
  9
$LTSCALE
 40
50.0
  9
$ATTMODE
 70
     1
  9
$TEXTSIZE
 40
3.5
  9
$TRACEWID
 40
0.5
  9
$TEXTSTYLE
  7
STANDARD
  9
$CLAYER
  8
SCHRAFF
  9
$CELTYPE
  6
ByLayer
  9
$CECOLOR
 62
   256
  9
$CELTSCALE
 40
1.0
  9
$DISPSILH
 70
     0
  9
$DIMSCALE
 40
5.0
  9
$DIMASZ
 40
3.5
  9
$DIMEXO
 40
1.0
  9
$DIMDLI
 40
7.0
  9
$DIMRND
 40
0.0
  9
$DIMDLE
 40
0.0
  9
$DIMEXE
 40
1.0
  9
$DIMTP
 40
0.0
  9
$DIMTM
 40
0.0
  9
$DIMTXT
 40
3.5
  9
$DIMCEN
 40
1.5
  9
$DIMTSZ
 40
0.0
  9
$DIMTOL
 70
     0
  9
$DIMLIM
 70
     0
  9
$DIMTIH
 70
     0
  9
$DIMTOH
 70
     0
  9
$DIMSE1
 70
     0
  9
$DIMSE2
 70
     0
  9
$DIMTAD
 70
     1
  9
$DIMZIN
 70
     8
  9
$DIMBLK
  1

  9
$DIMASO
 70
     1
  9
$DIMSHO
 70
     0
  9
$DIMPOST
  1

  9
$DIMAPOST
  1

  9
$DIMALT
 70
     0
  9
$DIMALTD
 70
     2
  9
$DIMALTF
 40
25.4
  9
$DIMLFAC
 40
1.0
  9
$DIMTOFL
 70
     1
  9
$DIMTVP
 40
0.0
  9
$DIMTIX
 70
     0
  9
$DIMSOXD
 70
     0
  9
$DIMSAH
 70
     0
  9
$DIMBLK1
  1

  9
$DIMBLK2
  1

  9
$DIMSTYLE
  2
Standard
  9
$DIMCLRD
 70
     0
  9
$DIMCLRE
 70
     0
  9
$DIMCLRT
 70
     1
  9
$DIMTFAC
 40
0.5142857142857144
  9
$DIMGAP
 40
1.5
  9
$DIMJUST
 70
     0
  9
$DIMSD1
 70
     0
  9
$DIMSD2
 70
     0
  9
$DIMTOLJ
 70
     1
  9
$DIMTZIN
 70
     8
  9
$DIMALTZ
 70
     8
  9
$DIMALTTZ
 70
     8
  9
$DIMUPT
 70
     0
  9
$DIMDEC
 70
     2
  9
$DIMTDEC
 70
     2
  9
$DIMALTU
 70
     2
  9
$DIMALTTD
 70
     2
  9
$DIMTXSTY
  7
STANDARD
  9
$DIMAUNIT
 70
     0
  9
$DIMADEC
 70
     2
  9
$DIMALTRND
 40
0.0
  9
$DIMAZIN
 70
     2
  9
$DIMDSEP
 70
    46
  9
$DIMATFIT
 70
     3
  9
$DIMFRAC
 70
     0
  9
$DIMLDRBLK
  1

  9
$DIMLUNIT
 70
     2
  9
$DIMLWD
 70
    -2
  9
$DIMLWE
 70
    -2
  9
$DIMTMOVE
 70
     0
  9
$LUNITS
 70
     2
  9
$LUPREC
 70
     2
  9
$SKETCHINC
 40
1.0
  9
$FILLETRAD
 40
0.0
  9
$AUNITS
 70
     1
  9
$AUPREC
 70
     3
  9
$MENU
  1
ACAD
  9
$ELEVATION
 40
0.0
  9
$PELEVATION
 40
0.0
  9
$THICKNESS
 40
0.0
  9
$LIMCHECK
 70
     0
  9
$CHAMFERA
 40
0.0
  9
$CHAMFERB
 40
0.0
  9
$CHAMFERC
 40
0.0
  9
$CHAMFERD
 40
0.0
  9
$SKPOLY
 70
     0
  9
$TDCREATE
 40
2452040.637099653
  9
$TDUCREATE
 40
2452040.553766320
  9
$TDUPDATE
 40
2455660.327066551
  9
$TDUUPDATE
 40
2455660.243733218
  9
$TDINDWG
 40
0.4288405556
  9
$TDUSRTIMER
 40
0.4288405556
  9
$USRTIMER
 70
     1
  9
$ANGBASE
 50
0.0
  9
$ANGDIR
 70
     0
  9
$PDMODE
 70
     0
  9
$PDSIZE
 40
0.0
  9
$PLINEWID
 40
0.0
  9
$SPLFRAME
 70
     0
  9
$SPLINETYPE
 70
     6
  9
$SPLINESEGS
 70
     8
  9
$HANDSEED
  5
276C
  9
$SURFTAB1
 70
     6
  9
$SURFTAB2
 70
     6
  9
$SURFTYPE
 70
     6
  9
$SURFU
 70
     6
  9
$SURFV
 70
     6
  9
$UCSBASE
  2

  9
$UCSNAME
  2

  9
$UCSORG
 10
0.0
 20
0.0
 30
0.0
  9
$UCSXDIR
 10
1.0
 20
0.0
 30
0.0
  9
$UCSYDIR
 10
0.0
 20
1.0
 30
0.0
  9
$UCSORTHOREF
  2

  9
$UCSORTHOVIEW
 70
     0
  9
$UCSORGTOP
 10
0.0
 20
0.0
 30
0.0
  9
$UCSORGBOTTOM
 10
0.0
 20
0.0
 30
0.0
  9
$UCSORGLEFT
 10
0.0
 20
0.0
 30
0.0
  9
$UCSORGRIGHT
 10
0.0
 20
0.0
 30
0.0
  9
$UCSORGFRONT
 10
0.0
 20
0.0
 30
0.0
  9
$UCSORGBACK
 10
0.0
 20
0.0
 30
0.0
  9
$PUCSBASE
  2

  9
$PUCSNAME
  2

  9
$PUCSORG
 10
0.0
 20
0.0
 30
0.0
  9
$PUCSXDIR
 10
1.0
 20
0.0
 30
0.0
  9
$PUCSYDIR
 10
0.0
 20
1.0
 30
0.0
  9
$PUCSORTHOREF
  2

  9
$PUCSORTHOVIEW
 70
     0
  9
$PUCSORGTOP
 10
0.0
 20
0.0
 30
0.0
  9
$PUCSORGBOTTOM
 10
0.0
 20
0.0
 30
0.0
  9
$PUCSORGLEFT
 10
0.0
 20
0.0
 30
0.0
  9
$PUCSORGRIGHT
 10
0.0
 20
0.0
 30
0.0
  9
$PUCSORGFRONT
 10
0.0
 20
0.0
 30
0.0
  9
$PUCSORGBACK
 10
0.0
 20
0.0
 30
0.0
  9
$USERI1
 70
     0
  9
$USERI2
 70
     0
  9
$USERI3
 70
     0
  9
$USERI4
 70
     0
  9
$USERI5
 70
     0
  9
$USERR1
 40
0.0
  9
$USERR2
 40
0.0
  9
$USERR3
 40
0.0
  9
$USERR4
 40
0.0
  9
$USERR5
 40
0.0
  9
$WORLDVIEW
 70
     1
  9
$SHADEDGE
 70
     3
  9
$SHADEDIF
 70
    70
  9
$TILEMODE
 70
     1
  9
$MAXACTVP
 70
    16
  9
$PINSBASE
 10
0.0
 20
0.0
 30
0.0
  9
$PLIMCHECK
 70
     0
  9
$PEXTMIN
 10
1.000000000000000E+20
 20
1.000000000000000E+20
 30
1.000000000000000E+20
  9
$PEXTMAX
 10
-1.000000000000000E+20
 20
-1.000000000000000E+20
 30
-1.000000000000000E+20
  9
$PLIMMIN
 10
0.0
 20
0.0
  9
$PLIMMAX
 10
12.0
 20
9.0
  9
$UNITMODE
 70
     0
  9
$VISRETAIN
 70
     0
  9
$PLINEGEN
 70
     0
  9
$PSLTSCALE
 70
     0
  9
$TREEDEPTH
 70
  3020
  9
$CMLSTYLE
  2
Standard
  9
$CMLJUST
 70
     0
  9
$CMLSCALE
 40
1.0
  9
$PROXYGRAPHICS
 70
     1
  9
$MEASUREMENT
 70
     0
  9
$CELWEIGHT
370
    -1
  9
$ENDCAPS
280
     0
  9
$JOINSTYLE
280
     0
  9
$LWDISPLAY
290
     0
  9
$INSUNITS
 70
     0
  9
$HYPERLINKBASE
  1

  9
$STYLESHEET
  1
monochrome 1.ctb
  9
$XEDIT
290
     1
  9
$CEPSNTYPE
380
     0
  9
$PSTYLEMODE
290
     1
  9
$FINGERPRINTGUID
  2
{7AADB5C8-6110-11D8-B72B-000102183313}
  9
$VERSIONGUID
  2
{B56E3248-A672-452D-915F-732E79716B53}
  9
$EXTNAMES
290
     1
  9
$PSVPSCALE
 40
0.0
  9
$OLESTARTUP
290
     0
  9
$SORTENTS
280
    96
  9
$INDEXCTL
280
     0
  9
$HIDETEXT
280
     0
  9
$XCLIPFRAME
290
     0
  9
$HALOGAP
280
     0
  9
$OBSCOLOR
 70
   257
  9
$OBSLTYPE
280
     0
  9
$INTERSECTIONDISPLAY
280
     0
  9
$INTERSECTIONCOLOR
 70
   257
  9
$DIMASSOC
280
     1
  9
$PROJECTNAME
  1

  0
ENDSEC
  0
SECTION
  2
CLASSES
  0
CLASS
  1
ACDBDICTIONARYWDFLT
  2
AcDbDictionaryWithDefault
  3
ObjectDBX Classes
 90
        0
 91
        1
280
     0
281
     0
  0
CLASS
  1
DICTIONARYVAR
  2
AcDbDictionaryVar
  3
ObjectDBX Classes
 90
        0
 91
        3
280
     0
281
     0
  0
ENDSEC
  0
SECTION
  2
TABLES
  0
TABLE
  2
VPORT
  5
8
330
0
100
AcDbSymbolTable
 70
     3
  0
VPORT
  5
276B
330
8
100
AcDbSymbolTableRecord
100
AcDbViewportTableRecord
  2
*Active
 70
     0
 10
0.0
 20
0.0
 11
1.0
 21
1.0
 12
524.9999999999998
 22
742.4999999999999
 13
0.0
 23
0.0
 14
1.0
 24
1.0
 15
10.0
 25
10.0
 16
0.0
 26
0.0
 36
1.0
 17
0.0
 27
0.0
 37
0.0
 40
1485.0
 41
1.334231805929919
 42
50.0
 43
0.0
 44
0.0
 50
0.0
 51
0.0
 71
     0
 72
  1500
 73
     1
 74
     0
 75
     0
 76
     0
 77
     0
 78
     0
281
     0
 65
     1
110
0.0
120
0.0
130
0.0
111
1.0
121
0.0
131
0.0
112
0.0
122
1.0
132
0.0
 79
     0
146
0.0
  0
ENDTAB
  0
TABLE
  2
LTYPE
  5
5
330
0
100
AcDbSymbolTable
 70
     2
  0
LTYPE
  5
13
330
5
100
AcDbSymbolTableRecord
100
AcDbLinetypeTableRecord
  2
ByBlock
 70
     0
  3

 72
    65
 73
     0
 40
0.0
  0
LTYPE
  5
14
330
5
100
AcDbSymbolTableRecord
100
AcDbLinetypeTableRecord
  2
ByLayer
 70
     0
  3

 72
    65
 73
     0
 40
0.0
  0
LTYPE
  5
15
330
5
100
AcDbSymbolTableRecord
100
AcDbLinetypeTableRecord
  2
Continuous
 70
     0
  3
Solid line
 72
    65
 73
     0
 40
0.0
  0
LTYPE
  5
35
330
5
100
AcDbSymbolTableRecord
100
AcDbLinetypeTableRecord
  2
STRICHPUNKT
 70
     0
  3
__ . __ . __ . __ . __ . __ . __ . __ . __ . __
 72
    65
 73
     4
 40
1.0
 49
0.5
 74
     0
 49
-0.25
 74
     0
 49
0.0
 74
     0
 49
-0.25
 74
     0
  0
ENDTAB
  0
TABLE
  2
LAYER
  5
2
330
0
100
AcDbSymbolTable
 70
     9
  0
LAYER
  5
10
330
2
100
AcDbSymbolTableRecord
100
AcDbLayerTableRecord
  2
0
 70
     0
 62
     7
  6
Continuous
370
    -3
390
F
  0
LAYER
  5
38
330
2
100
AcDbSymbolTableRecord
100
AcDbLayerTableRecord
  2
VOLL
 70
     0
 62
     1
  6
Continuous
370
    -3
390
F
  0
LAYER
  5
39
330
2
100
AcDbSymbolTableRecord
100
AcDbLayerTableRecord
  2
HILF
 70
     0
 62
     2
  6
Continuous
370
    -3
390
F
  0
LAYER
  5
3A
330
2
100
AcDbSymbolTableRecord
100
AcDbLayerTableRecord
  2
MITTEL
 70
     0
 62
     2
  6
STRICHPUNKT
370
    -3
390
F
  0
LAYER
  5
3B
330
2
100
AcDbSymbolTableRecord
100
AcDbLayerTableRecord
  2
BEM
 70
     0
 62
     7
  6
Continuous
370
    -3
390
F
  0
LAYER
  5
3C
330
2
100
AcDbSymbolTableRecord
100
AcDbLayerTableRecord
  2
STEMPEL
 70
     0
 62
     3
  6
Continuous
370
    -3
390
F
  0
LAYER
  5
3D
330
2
100
AcDbSymbolTableRecord
100
AcDbLayerTableRecord
  2
TEXT
 70
     0
 62
     7
  6
Continuous
370
    -3
390
F
  0
LAYER
  5
3E
330
2
100
AcDbSymbolTableRecord
100
AcDbLayerTableRecord
  2
DEFPOINTS
 70
     0
 62
     7
  6
Continuous
290
     0
370
    -3
390
F
  0
LAYER
  5
3F
330
2
100
AcDbSymbolTableRecord
100
AcDbLayerTableRecord
  2
SCHRAFF
 70
     0
 62
     7
  6
Continuous
370
    -3
390
F
  0
ENDTAB
  0
TABLE
  2
STYLE
  5
3
330
0
100
AcDbSymbolTable
 70
     2
  0
STYLE
  5
11
330
3
100
AcDbSymbolTableRecord
100
AcDbTextStyleTableRecord
  2
STANDARD
 70
     0
 40
0.0
 41
0.8
 50
0.0
 71
     0
 42
3.5
  3
simplex.shx
  4

  0
STYLE
  5
34
330
3
100
AcDbSymbolTableRecord
100
AcDbTextStyleTableRecord
  2
GREEKS
 70
     0
 40
0.0
 41
0.8
 50
0.0
 71
     0
 42
2.5
  3
SIMPLEX.shx
  4

  0
ENDTAB
  0
TABLE
  2
VIEW
  5
6
330
0
100
AcDbSymbolTable
 70
     0
  0
ENDTAB
  0
TABLE
  2
UCS
  5
7
330
0
100
AcDbSymbolTable
 70
     0
  0
ENDTAB
  0
TABLE
  2
APPID
  5
9
330
0
100
AcDbSymbolTable
 70
     2
  0
APPID
  5
12
330
9
100
AcDbSymbolTableRecord
100
AcDbRegAppTableRecord
  2
ACAD
 70
     0
  0
APPID
  5
1555
330
9
100
AcDbSymbolTableRecord
100
AcDbRegAppTableRecord
  2
AVE_RENDER
 70
     0
  0
ENDTAB
  0
TABLE
  2
DIMSTYLE
  5
A
330
0
100
AcDbSymbolTable
 70
     1
100
AcDbDimStyleTable
 71
     1
340
1CB
  0
DIMSTYLE
105
1CB
102
{ACAD_REACTORS
330
23EC
330
23EE
330
23E7
330
26CC
330
2704
102
}
330
A
100
AcDbSymbolTableRecord
100
AcDbDimStyleTableRecord
  2
Standard
 70
     0
340
11
  0
ENDTAB
  0
TABLE
  2
BLOCK_RECORD
  5
1
330
0
100
AcDbSymbolTable
 70
     7
  0
BLOCK_RECORD
  5
1E
330
1
100
AcDbSymbolTableRecord
100
AcDbBlockTableRecord
  2
*Model_Space
340
21
  0
BLOCK_RECORD
  5
1A
330
1
100
AcDbSymbolTableRecord
100
AcDbBlockTableRecord
  2
*Paper_Space
340
1D
  0
BLOCK_RECORD
  5
22
330
1
100
AcDbSymbolTableRecord
100
AcDbBlockTableRecord
  2
LOGO
340
0
102
{BLKREFS
331
135
102
}
  0
BLOCK_RECORD
  5
24CD
330
1
100
AcDbSymbolTableRecord
100
AcDbBlockTableRecord
  2
*D1
340
0
  0
BLOCK_RECORD
  5
24D9
330
1
100
AcDbSymbolTableRecord
100
AcDbBlockTableRecord
  2
*D2
340
0
  0
BLOCK_RECORD
  5
24E5
330
1
100
AcDbSymbolTableRecord
100
AcDbBlockTableRecord
  2
*D3
340
0
  0
BLOCK_RECORD
  5
26CD
330
1
100
AcDbSymbolTableRecord
100
AcDbBlockTableRecord
  2
*D5
340
0
  0
BLOCK_RECORD
  5
2705
330
1
100
AcDbSymbolTableRecord
100
AcDbBlockTableRecord
  2
*D6
340
0
  0
ENDTAB
  0
ENDSEC
  0
SECTION
  2
BLOCKS
  0
BLOCK
  5
43
330
1E
100
AcDbEntity
  8
0
100
AcDbBlockBegin
  2
*Model_Space
 70
     0
 10
0.0
 20
0.0
 30
0.0
  3
*Model_Space
  1

  0
ENDBLK
  5
44
330
1E
100
AcDbEntity
  8
0
100
AcDbBlockEnd
  0
BLOCK
  5
41
330
1A
100
AcDbEntity
 67
     1
  8
0
100
AcDbBlockBegin
  2
*Paper_Space
 70
     0
 10
0.0
 20
0.0
 30
0.0
  3
*Paper_Space
  1

  0
ENDBLK
  5
42
330
1A
100
AcDbEntity
 67
     1
  8
0
100
AcDbBlockEnd
  0
BLOCK
  5
45
330
22
100
AcDbEntity
  8
0
100
AcDbBlockBegin
  2
LOGO
 70
     0
 10
0.0
 20
0.0
 30
0.0
  3
LOGO
  1

  0
ARC
  5
46
330
22
100
AcDbEntity
  8
0
100
AcDbCircle
 10
11.59973089678112
 20
-9.271599258481501
 30
0.0
 40
4.5
100
AcDbArc
 50
270.0
 51
231.0575587310159
  0
LINE
  5
47
330
22
100
AcDbEntity
  8
0
100
AcDbLine
 10
3.599730896781125
 20
-4.771599258481529
 30
0.0
 11
3.599730896781153
 21
-11.77159925848133
 31
0.0
  0
LINE
  5
48
330
22
100
AcDbEntity
  8
0
100
AcDbLine
 10
2.599730896781125
 20
-4.771599258481529
 30
0.0
 11
2.599730896781153
 21
-11.77159925848133
 31
0.0
  0
CIRCLE
  5
49
330
22
100
AcDbEntity
  8
0
100
AcDbCircle
 10
11.59973089678112
 20
-9.271599258481501
 30
0.0
 40
3.5
  0
ARC
  5
4A
330
22
100
AcDbEntity
  8
0
100
AcDbCircle
 10
31.59973089678115
 20
-9.271599258481472
 30
0.0
 40
4.5
100
AcDbArc
 50
270.0
 51
231.0575587310182
  0
LINE
  5
4B
330
22
100
AcDbEntity
  8
0
100
AcDbLine
 10
17.59973089678112
 20
-4.771599258481472
 30
0.0
 11
17.59973089678115
 21
-13.77159925848147
 31
0.0
  0
ARC
  5
4C
330
22
100
AcDbEntity
  8
0
100
AcDbCircle
 10
22.59973089678116
 20
-7.271599258481472
 30
0.0
 40
2.5
100
AcDbArc
 50
293.1161887722295
 51
90.0
  0
CIRCLE
  5
4D
330
22
100
AcDbEntity
  8
0
100
AcDbCircle
 10
31.59973089678115
 20
-9.271599258481472
 30
0.0
 40
3.5
  0
ARC
  5
4E
330
22
100
AcDbEntity
  8
0
100
AcDbCircle
 10
4.599730896781153
 20
-11.77159925848133
 30
0.0
 40
1.0
100
AcDbArc
 50
180.0
 51
270.0
  0
ARC
  5
4F
330
22
100
AcDbEntity
  8
0
100
AcDbCircle
 10
4.599730896781153
 20
-11.77159925848133
 30
0.0
 40
2.0
100
AcDbArc
 50
179.9999999999992
 51
270.0
  0
LINE
  5
50
330
22
100
AcDbEntity
  8
0
100
AcDbLine
 10
11.59973089678115
 20
-13.77159925848144
 30
0.0
 11
4.599730896781153
 21
-13.77159925848147
 31
0.0
  0
LINE
  5
51
330
22
100
AcDbEntity
  8
0
100
AcDbLine
 10
8.771303772034769
 20
-12.77159925848136
 30
0.0
 11
4.599730896781153
 21
-12.77159925848133
 31
0.0
  0
LINE
  5
52
330
22
100
AcDbEntity
  8
0
100
AcDbLine
 10
31.59973089678115
 20
-13.77159925848147
 30
0.0
 11
23.6715276665056
 21
-13.77159925848144
 31
0.0
  0
LINE
  5
53
330
22
100
AcDbEntity
  8
0
100
AcDbLine
 10
23.56565672307022
 20
-9.51278021337896
 30
0.0
 11
24.4388546544846
 21
-12.77159925848144
 31
0.0
  0
LINE
  5
54
330
22
100
AcDbEntity
  8
0
100
AcDbLine
 10
22.59973089678116
 20
-9.771599258481472
 30
0.0
 11
18.59973089678112
 21
-9.771599258481472
 31
0.0
  0
LINE
  5
55
330
22
100
AcDbEntity
  8
0
100
AcDbLine
 10
18.59973089678115
 20
-13.77159925848144
 30
0.0
 11
17.59973089678115
 21
-13.77159925848144
 31
0.0
  0
LINE
  5
56
330
22
100
AcDbEntity
  8
0
100
AcDbLine
 10
18.59973089678115
 20
-9.771599258481472
 30
0.0
 11
18.59973089678115
 21
-13.77159925848144
 31
0.0
  0
LINE
  5
57
330
22
100
AcDbEntity
  8
0
100
AcDbLine
 10
22.59973089678116
 20
-9.771599258481472
 30
0.0
 11
23.67152766650562
 21
-13.77159925848147
 31
0.0
  0
ARC
  5
58
330
22
100
AcDbEntity
  8
0
100
AcDbCircle
 10
22.59973089678116
 20
-7.271599258481472
 30
0.0
 40
2.5
100
AcDbArc
 50
270.0
 51
270.0000000000007
  0
LINE
  5
59
330
22
100
AcDbEntity
  8
0
100
AcDbLine
 10
28.77130377203494
 20
-12.77159925848147
 30
0.0
 11
24.43885465448463
 21
-12.77159925848144
 31
0.0
  0
LINE
  5
5A
330
22
100
AcDbEntity
  8
0
100
AcDbLine
 10
3.599730896781125
 20
-4.771599258481472
 30
0.0
 11
2.599730896781125
 21
-4.771599258481472
 31
0.0
  0
LINE
  5
5B
330
22
100
AcDbEntity
  8
0
100
AcDbLine
 10
22.59973089678116
 20
-8.771599258481472
 30
0.0
 11
18.59973089678115
 21
-8.771599258481472
 31
0.0
  0
LINE
  5
5C
330
22
100
AcDbEntity
  8
0
100
AcDbLine
 10
22.59973089678116
 20
-5.771599258481472
 30
0.0
 11
18.59973089678115
 21
-5.771599258481472
 31
0.0
  0
LINE
  5
5D
330
22
100
AcDbEntity
  8
0
100
AcDbLine
 10
22.59973089678116
 20
-4.771599258481472
 30
0.0
 11
17.59973089678115
 21
-4.771599258481472
 31
0.0
  0
LINE
  5
5E
330
22
100
AcDbEntity
  8
0
100
AcDbLine
 10
18.59973089678115
 20
-5.771599258481472
 30
0.0
 11
18.59973089678115
 21
-8.771599258481472
 31
0.0
  0
ARC
  5
5F
330
22
100
AcDbEntity
  8
0
100
AcDbCircle
 10
22.59973089678116
 20
-7.271599258481472
 30
0.0
 40
1.5
100
AcDbArc
 50
270.0
 51
90.0
  0
ENDBLK
  5
60
330
22
100
AcDbEntity
  8
0
100
AcDbBlockEnd
  0
BLOCK
  5
24D7
330
24CD
100
AcDbEntity
  8
0
100
AcDbBlockBegin
  2
*D1
 70
     1
 10
0.0
 20
0.0
 30
0.0
  3
*D1
  1

  0
LINE
  5
25E2
330
24CD
100
AcDbEntity
  8
BEM
 62
     0
370
    -2
100
AcDbLine
 10
403.7578976004815
 20
629.0647310454949
 30
0.0
 11
403.7578976004815
 21
568.3023876230083
 31
0.0
  0
LINE
  5
25E3
330
24CD
100
AcDbEntity
  8
BEM
 62
     0
370
    -2
100
AcDbLine
 10
562.7578976004818
 20
629.0647310454938
 30
0.0
 11
562.7578976004818
 21
568.3023876230083
 31
0.0
  0
LINE
  5
25E4
330
24CD
100
AcDbEntity
  8
BEM
 62
     0
370
    -2
100
AcDbLine
 10
421.2578976004815
 20
573.3023876230084
 30
0.0
 11
545.2578976004818
 21
573.3023876230084
 31
0.0
  0
SOLID
  5
25E5
330
24CD
100
AcDbEntity
  8
BEM
 62
     0
100
AcDbTrace
 10
421.2578976004815
 20
576.219054289675
 30
0.0
 11
421.2578976004815
 21
570.3857209563417
 31
0.0
 12
403.7578976004815
 22
573.3023876230084
 32
0.0
 13
403.7578976004815
 23
573.3023876230084
 33
0.0
  0
SOLID
  5
25E6
330
24CD
100
AcDbEntity
  8
BEM
 62
     0
100
AcDbTrace
 10
545.2578976004818
 20
576.219054289675
 30
0.0
 11
545.2578976004818
 21
570.3857209563417
 31
0.0
 12
562.7578976004818
 22
573.3023876230084
 32
0.0
 13
562.7578976004818
 23
573.3023876230084
 33
0.0
  0
MTEXT
  5
25E7
330
24CD
100
AcDbEntity
  8
BEM
 62
     1
100
AcDbMText
 10
483.2578976004817
 20
589.5523876230083
 30
0.0
 40
17.5
 41
0.0
 71
     5
 72
     1
  1
\A1;%%c159
 73
     1
 44
1.0
  0
POINT
  5
25E8
330
24CD
100
AcDbEntity
  8
DEFPOINTS
 62
     0
100
AcDbPoint
 10
403.7578976004815
 20
634.0647310454949
 30
0.0
  0
POINT
  5
25E9
330
24CD
100
AcDbEntity
  8
DEFPOINTS
 62
     0
100
AcDbPoint
 10
562.7578976004818
 20
634.0647310454938
 30
0.0
  0
POINT
  5
25EA
330
24CD
100
AcDbEntity
  8
DEFPOINTS
 62
     0
100
AcDbPoint
 10
562.7578976004818
 20
573.3023876230084
 30
0.0
  0
ENDBLK
  5
24D8
330
24CD
100
AcDbEntity
  8
0
100
AcDbBlockEnd
  0
BLOCK
  5
24E3
330
24D9
100
AcDbEntity
  8
0
100
AcDbBlockBegin
  2
*D2
 70
     1
 10
0.0
 20
0.0
 30
0.0
  3
*D2
  1

  0
LINE
  5
25B5
330
24D9
100
AcDbEntity
  8
SCHRAFF
 62
     0
370
    -2
100
AcDbLine
 10
399.6327842357409
 20
624.0647310454943
 30
0.0
 11
378.6517088929822
 21
624.0647310454943
 31
0.0
  0
LINE
  5
25B6
330
24D9
100
AcDbEntity
  8
SCHRAFF
 62
     0
370
    -2
100
AcDbLine
 10
480.4636303091815
 20
764.0647310454944
 30
0.0
 11
378.6517088929822
 21
764.0647310454944
 31
0.0
  0
LINE
  5
25B7
330
24D9
100
AcDbEntity
  8
SCHRAFF
 62
     0
370
    -2
100
AcDbLine
 10
383.6517088929822
 20
641.5647310454943
 30
0.0
 11
383.6517088929822
 21
746.5647310454945
 31
0.0
  0
SOLID
  5
25B8
330
24D9
100
AcDbEntity
  8
SCHRAFF
 62
     0
100
AcDbTrace
 10
380.7350422263155
 20
641.5647310454943
 30
0.0
 11
386.568375559649
 21
641.5647310454943
 31
0.0
 12
383.6517088929822
 22
624.0647310454943
 32
0.0
 13
383.6517088929822
 23
624.0647310454943
 33
0.0
  0
SOLID
  5
25B9
330
24D9
100
AcDbEntity
  8
SCHRAFF
 62
     0
100
AcDbTrace
 10
380.7350422263155
 20
746.5647310454945
 30
0.0
 11
386.568375559649
 21
746.5647310454945
 31
0.0
 12
383.6517088929822
 22
764.0647310454944
 32
0.0
 13
383.6517088929822
 23
764.0647310454944
 33
0.0
  0
MTEXT
  5
25BA
330
24D9
100
AcDbEntity
  8
SCHRAFF
 62
     1
100
AcDbMText
 10
367.4017088929821
 20
694.0647310454944
 30
0.0
 40
17.5
 41
0.0
 71
     5
 72
     1
  1
\A1;140
 11
0.0000000000000001
 21
1.0
 31
0.0
 73
     1
 44
1.0
  0
POINT
  5
25BB
330
24D9
100
AcDbEntity
  8
DEFPOINTS
 62
     0
100
AcDbPoint
 10
404.6327842357409
 20
624.0647310454943
 30
0.0
  0
POINT
  5
25BC
330
24D9
100
AcDbEntity
  8
DEFPOINTS
 62
     0
100
AcDbPoint
 10
485.4636303091815
 20
764.0647310454944
 30
0.0
  0
POINT
  5
25BD
330
24D9
100
AcDbEntity
  8
DEFPOINTS
 62
     0
100
AcDbPoint
 10
383.6517088929822
 20
764.0647310454944
 30
0.0
  0
ENDBLK
  5
24E4
330
24D9
100
AcDbEntity
  8
0
100
AcDbBlockEnd
  0
BLOCK
  5
24EF
330
24E5
100
AcDbEntity
  8
0
100
AcDbBlockBegin
  2
*D3
 70
     1
 10
0.0
 20
0.0
 30
0.0
  3
*D3
  1

  0
LINE
  5
2723
330
24E5
100
AcDbEntity
  8
BEM
 62
     0
370
    -2
100
AcDbLine
 10
399.6327842357409
 20
624.0647310454943
 30
0.0
 11
345.0024291391541
 21
624.0647310454943
 31
0.0
  0
LINE
  5
2724
330
24E5
100
AcDbEntity
  8
BEM
 62
     0
370
    -2
100
AcDbLine
 10
392.6028307220377
 20
1084.064731045494
 30
0.0
 11
345.0024291391542
 21
1084.064731045494
 31
0.0
  0
LINE
  5
2725
330
24E5
100
AcDbEntity
  8
BEM
 62
     0
370
    -2
100
AcDbLine
 10
350.0024291391541
 20
641.5647310454943
 30
0.0
 11
350.0024291391542
 21
1066.564731045494
 31
0.0
  0
SOLID
  5
2726
330
24E5
100
AcDbEntity
  8
BEM
 62
     0
100
AcDbTrace
 10
347.0857624724875
 20
641.5647310454943
 30
0.0
 11
352.9190958058208
 21
641.5647310454943
 31
0.0
 12
350.002429139154
 22
624.0647310454943
 32
0.0
 13
350.002429139154
 23
624.0647310454943
 33
0.0
  0
SOLID
  5
2727
330
24E5
100
AcDbEntity
  8
BEM
 62
     0
100
AcDbTrace
 10
347.0857624724875
 20
1066.564731045494
 30
0.0
 11
352.9190958058209
 21
1066.564731045494
 31
0.0
 12
350.0024291391542
 22
1084.064731045494
 32
0.0
 13
350.0024291391542
 23
1084.064731045494
 33
0.0
  0
MTEXT
  5
2728
330
24E5
100
AcDbEntity
  8
BEM
 62
     1
100
AcDbMText
 10
333.752429139154
 20
854.0647310454943
 30
0.0
 40
17.5
 41
0.0
 71
     5
 72
     1
  1
\A1;460
 11
0.0000000000000001
 21
1.0
 31
0.0
 73
     1
 44
1.0
  0
POINT
  5
2729
330
24E5
100
AcDbEntity
  8
DEFPOINTS
 62
     0
100
AcDbPoint
 10
404.6327842357409
 20
624.0647310454943
 30
0.0
  0
POINT
  5
272A
330
24E5
100
AcDbEntity
  8
DEFPOINTS
 62
     0
100
AcDbPoint
 10
397.6028307220376
 20
1084.064731045494
 30
0.0
  0
POINT
  5
272B
330
24E5
100
AcDbEntity
  8
DEFPOINTS
 62
     0
100
AcDbPoint
 10
350.0024291391542
 20
1084.064731045494
 30
0.0
  0
ENDBLK
  5
24F0
330
24E5
100
AcDbEntity
  8
0
100
AcDbBlockEnd
  0
BLOCK
  5
26D9
330
26CD
100
AcDbEntity
  8
0
100
AcDbBlockBegin
  2
*D5
 70
     1
 10
0.0
 20
0.0
 30
0.0
  3
*D5
  1

  0
LINE
  5
26DB
330
26CD
100
AcDbEntity
  8
BEM
 62
     0
370
    -2
100
AcDbLine
 10
716.6031353920422
 20
997.409968837055
 30
0.0
 11
748.6402026808624
 21
1029.447036125875
 31
0.0
  0
LINE
  5
26DC
330
26CD
100
AcDbEntity
  8
BEM
 62
     0
370
    -2
100
AcDbLine
 10
483.2578976004813
 20
1094.064731045494
 30
0.0
 11
483.2578976004816
 21
1139.371986104003
 31
0.0
  0
ARC
  5
26DD
330
26CD
100
AcDbEntity
  8
BEM
 62
     0
370
    -2
100
AcDbCircle
 10
483.2578976004813
 20
764.0647310454943
 30
0.0
 40
370.307255058509
100
AcDbArc
 50
47.70793903011623
 51
87.29206096988368
  0
SOLID
  5
26DE
330
26CD
100
AcDbEntity
  8
BEM
 62
     0
100
AcDbTrace
 10
734.4544473630553
 20
1040.10057295493
 30
0.0
 11
730.4282742280254
 21
1035.879470295134
 31
0.0
 12
745.1046687749297
 22
1025.911502219942
 32
0.0
 13
745.1046687749297
 23
1025.911502219942
 33
0.0
  0
SOLID
  5
26DF
330
26CD
100
AcDbEntity
  8
BEM
 62
     0
100
AcDbTrace
 10
500.684093528586
 20
1131.042625817137
 30
0.0
 11
500.8219295174018
 21
1136.874330457974
 31
0.0
 12
483.2578976004816
 22
1134.371986104003
 32
0.0
 13
483.2578976004816
 23
1134.371986104003
 33
0.0
  0
MTEXT
  5
26E0
330
26CD
100
AcDbEntity
  8
BEM
 62
     1
100
AcDbMText
 10
631.1869547718993
 20
1121.197067137796
 30
0.0
 40
17.5
 41
0.0
 71
     5
 72
     1
  1
\A1;45°
 11
0.9238795325112864
 21
-0.3826834323650904
 31
0.0
 73
     1
 44
1.0
  0
POINT
  5
26E1
330
26CD
100
AcDbEntity
  8
DEFPOINTS
 62
     0
100
AcDbPoint
 10
668.411525129736
 20
1084.760221131847
 30
0.0
  0
POINT
  5
26E2
330
26CD
100
AcDbEntity
  8
DEFPOINTS
 62
     0
100
AcDbPoint
 10
483.2578976004813
 20
1089.064731045494
 30
0.0
  0
POINT
  5
26E3
330
26CD
100
AcDbEntity
  8
DEFPOINTS
 62
     0
100
AcDbPoint
 10
713.0676014861094
 20
993.8744349311221
 30
0.0
  0
POINT
  5
26E4
330
26CD
100
AcDbEntity
  8
DEFPOINTS
 62
     0
100
AcDbPoint
 10
483.2578976004812
 20
764.0647310454943
 30
0.0
  0
POINT
  5
26E5
330
26CD
100
AcDbEntity
  8
DEFPOINTS
 62
     0
100
AcDbPoint
 10
483.2578976004813
 20
619.0647310454944
 30
0.0
  0
ENDBLK
  5
26DA
330
26CD
100
AcDbEntity
  8
0
100
AcDbBlockEnd
  0
BLOCK
  5
270F
330
2705
100
AcDbEntity
  8
0
100
AcDbBlockBegin
  2
*D6
 70
     1
 10
0.0
 20
0.0
 30
0.0
  3
*D6
  1

  0
LINE
  5
271A
330
2705
100
AcDbEntity
  8
SCHRAFF
 62
     0
370
    -2
100
AcDbLine
 10
485.2337429506067
 20
762.0888856953682
 30
0.0
 11
575.8727248962972
 21
671.4499037496557
 31
0.0
  0
LINE
  5
271B
330
2705
100
AcDbEntity
  8
SCHRAFF
 62
     0
370
    -2
100
AcDbLine
 10
773.6348801188437
 20
926.2360884865218
 30
0.0
 11
802.1468948760272
 21
897.7240737293312
 31
0.0
  0
LINE
  5
271C
330
2705
100
AcDbEntity
  8
SCHRAFF
 62
     0
370
    -2
100
AcDbLine
 10
584.711559661131
 20
687.359806326352
 30
0.0
 11
786.2369922993289
 21
888.8852389645013
 31
0.0
  0
SOLID
  5
271D
330
2705
100
AcDbEntity
  8
SCHRAFF
 62
     0
100
AcDbTrace
 10
582.6491648826704
 20
689.4222011048131
 30
0.0
 11
586.7739544395915
 21
685.2974115478911
 31
0.0
 12
572.3371909903648
 22
674.9854376555889
 32
0.0
 13
572.3371909903648
 23
674.9854376555889
 33
0.0
  0
SOLID
  5
271E
330
2705
100
AcDbEntity
  8
SCHRAFF
 62
     0
100
AcDbTrace
 10
784.1745975208683
 20
890.9476337429623
 30
0.0
 11
788.2993870777895
 21
886.8228441860404
 31
0.0
 12
798.611360970095
 22
901.2596076352645
 32
0.0
 13
798.611360970095
 23
901.2596076352645
 33
0.0
  0
MTEXT
  5
271F
330
2705
100
AcDbEntity
  8
SCHRAFF
 62
     1
100
AcDbMText
 10
673.9837907859498
 20
799.6130078397094
 30
0.0
 40
17.5
 41
0.0
 71
     5
 72
     1
  1
\A1;320
 11
0.7071067811866328
 21
0.7071067811864623
 31
0.0
 73
     1
 44
1.0
  0
POINT
  5
2720
330
2705
100
AcDbEntity
  8
DEFPOINTS
 62
     0
100
AcDbPoint
 10
481.6982090446743
 20
765.6244196013012
 30
0.0
  0
POINT
  5
2721
330
2705
100
AcDbEntity
  8
DEFPOINTS
 62
     0
100
AcDbPoint
 10
770.0993462129114
 20
929.7716223924549
 30
0.0
  0
POINT
  5
2722
330
2705
100
AcDbEntity
  8
DEFPOINTS
 62
     0
100
AcDbPoint
 10
798.611360970095
 20
901.2596076352645
 30
0.0
  0
ENDBLK
  5
2710
330
2705
100
AcDbEntity
  8
0
100
AcDbBlockEnd
  0
ENDSEC
  0
SECTION
  2
ENTITIES
  0
TEXT
  5
134
330
1E
100
AcDbEntity
  8
TEXT
100
AcDbText
 10
511.0540121453142
 20
157.7240979930877
 30
0.0
 40
10.0
  1
Koeh
 41
0.8
  7
GREEKS
 72
     1
 11
524.1968692881714
 21
157.7240979930877
 31
0.0
100
AcDbText
  0
INSERT
  5
135
330
1E
100
AcDbEntity
  8
STEMPEL
100
AcDbBlockReference
  2
LOGO
 10
377.4888713644485
 20
112.552631911208
 30
0.0
 41
5.0
 42
5.0
 43
5.0
  0
LINE
  5
136
330
1E
100
AcDbEntity
  8
HILF
100
AcDbLine
 10
1050.0
 20
0.0
 30
0.0
 11
0.0
 21
0.0
 31
0.0
  0
LINE
  5
137
330
1E
100
AcDbEntity
  8
HILF
100
AcDbLine
 10
1050.0
 20
1485.0
 30
0.0
 11
0.0
 21
1485.0
 31
0.0
  0
LINE
  5
138
330
1E
100
AcDbEntity
  8
STEMPEL
100
AcDbLine
 10
1025.0
 20
1460.0
 30
0.0
 11
99.99999999999971
 21
1460.0
 31
0.0
  0
LINE
  5
139
330
1E
100
AcDbEntity
  8
STEMPEL
100
AcDbLine
 10
1025.0
 20
25.0
 30
0.0
 11
99.99999999999971
 21
25.0
 31
0.0
  0
LINE
  5
13A
330
1E
100
AcDbEntity
  8
STEMPEL
100
AcDbLine
 10
124.9999999999997
 20
25.0
 30
0.0
 11
1025.0
 21
25.0
 31
0.0
  0
TEXT
  5
13B
330
1E
100
AcDbEntity
  8
TEXT
100
AcDbText
 10
506.1566460565737
 20
183.2740272978806
 30
0.0
 40
10.0
  1
Name
 41
0.8
  7
GREEKS
100
AcDbText
  0
TEXT
  5
13C
330
1E
100
AcDbEntity
  8
TEXT
100
AcDbText
 10
491.3745697753872
 20
256.6265569441474
 30
0.0
 40
12.5
  1
Zul. Abw.
 41
0.8
  7
GREEKS
 72
     4
 11
524.9459983468158
 21
262.8765569441474
 31
0.0
100
AcDbText
  0
LINE
  5
13D
330
1E
100
AcDbEntity
  8
HILF
100
AcDbLine
 10
365.0000000000003
 20
124.9999999999999
 30
0.0
 11
575.0
 21
124.9999999999999
 31
0.0
  0
LINE
  5
13E
330
1E
100
AcDbEntity
  8
HILF
100
AcDbLine
 10
365.0000000000003
 20
149.9999999999999
 30
0.0
 11
575.0
 21
149.9999999999999
 31
0.0
  0
LINE
  5
13F
330
1E
100
AcDbEntity
  8
HILF
100
AcDbLine
 10
365.0000000000003
 20
174.9999999999998
 30
0.0
 11
575.0
 21
174.9999999999998
 31
0.0
  0
LINE
  5
140
330
1E
100
AcDbEntity
  8
STEMPEL
100
AcDbLine
 10
1025.0
 20
200.0
 30
0.0
 11
365.0000000000003
 21
199.9999999999998
 31
0.0
  0
LINE
  5
141
330
1E
100
AcDbEntity
  8
STEMPEL
100
AcDbLine
 10
1025.0
 20
100.0
 30
0.0
 11
365.0000000000003
 21
99.99999999999992
 31
0.0
  0
LINE
  5
142
330
1E
100
AcDbEntity
  8
STEMPEL
100
AcDbLine
 10
1025.0
 20
275.0000000000001
 30
0.0
 11
99.99999999999992
 21
275.0
 31
0.0
  0
LINE
  5
144
330
1E
100
AcDbEntity
  8
HILF
100
AcDbLine
 10
0.0
 20
0.0
 30
0.0
 11
-0.0000000000002842
 21
1485.0
 31
0.0
  0
LINE
  5
145
330
1E
100
AcDbEntity
  8
STEMPEL
100
AcDbLine
 10
100.0
 20
25.0
 30
0.0
 11
99.99999999999971
 21
1460.0
 31
0.0
  0
LINE
  5
148
330
1E
100
AcDbEntity
  8
HILF
100
AcDbLine
 10
100.0000000000002
 20
99.99999999999992
 30
0.0
 11
365.0000000000003
 21
99.99999999999992
 31
0.0
  0
LINE
  5
149
330
1E
100
AcDbEntity
  8
HILF
100
AcDbLine
 10
100.0000000000002
 20
124.9999999999999
 30
0.0
 11
365.0000000000003
 21
124.9999999999999
 31
0.0
  0
LINE
  5
14A
330
1E
100
AcDbEntity
  8
HILF
100
AcDbLine
 10
100.0000000000002
 20
149.9999999999999
 30
0.0
 11
365.0000000000003
 21
149.9999999999999
 31
0.0
  0
LINE
  5
14B
330
1E
100
AcDbEntity
  8
HILF
100
AcDbLine
 10
100.0000000000002
 20
174.9999999999998
 30
0.0
 11
365.0000000000003
 21
174.9999999999998
 31
0.0
  0
LINE
  5
14C
330
1E
100
AcDbEntity
  8
HILF
100
AcDbLine
 10
100.0000000000002
 20
199.9999999999998
 30
0.0
 11
365.0000000000003
 21
199.9999999999998
 31
0.0
  0
LINE
  5
14D
330
1E
100
AcDbEntity
  8
HILF
100
AcDbLine
 10
100.0000000000002
 20
225.0000000000001
 30
0.0
 11
365.0000000000003
 21
225.0000000000001
 31
0.0
  0
LINE
  5
14E
330
1E
100
AcDbEntity
  8
HILF
100
AcDbLine
 10
100.0000000000002
 20
250.0000000000001
 30
0.0
 11
365.0000000000003
 21
250.0000000000001
 31
0.0
  0
LINE
  5
14F
330
1E
100
AcDbEntity
  8
STEMPEL
100
AcDbLine
 10
364.9999999999997
 20
74.99999999999992
 30
0.0
 11
99.99999999999992
 21
74.99999999999992
 31
0.0
  0
TEXT
  5
150
330
1E
100
AcDbEntity
  8
TEXT
100
AcDbText
 10
120.6660276761439
 20
34.13664615067979
 30
0.0
 40
10.0
  1
Index
 50
90.0
 41
0.8
  7
GREEKS
100
AcDbText
  0
LINE
  5
151
330
1E
100
AcDbEntity
  8
VOLL
100
AcDbLine
 10
135.0000000000002
 20
275.0000000000001
 30
0.0
 11
134.9999999999999
 21
24.99999999999993
 31
0.0
  0
LINE
  5
152
330
1E
100
AcDbEntity
  8
HILF
100
AcDbLine
 10
77.7191783928464
 20
742.5000000000001
 30
0.0
 11
0.0000000000002842
 21
742.5000000000001
 31
0.0
  0
LINE
  5
154
330
1E
100
AcDbEntity
  8
VOLL
100
AcDbLine
 10
310.0000000000003
 20
274.9999999999999
 30
0.0
 11
310.0
 21
24.99999999999993
 31
0.0
  0
LINE
  5
155
330
1E
100
AcDbEntity
  8
VOLL
100
AcDbLine
 10
260.0000000000003
 20
274.9999999999999
 30
0.0
 11
260.0
 21
24.99999999999993
 31
0.0
  0
LINE
  5
157
330
1E
100
AcDbEntity
  8
STEMPEL
100
AcDbLine
 10
365.0000000000003
 20
274.9999999999999
 30
0.0
 11
365.0
 21
24.99999999999993
 31
0.0
  0
TEXT
  5
158
330
1E
100
AcDbEntity
  8
TEXT
100
AcDbText
 10
425.9974927705902
 20
157.7691260206433
 30
0.0
 40
10.0
  1
08.04.
 41
0.8
  7
GREEKS
 72
     1
 11
443.5213022943996
 21
157.7691260206433
 31
0.0
100
AcDbText
  0
TEXT
  5
159
330
1E
100
AcDbEntity
  8
TEXT
100
AcDbText
 10
430.8279182884127
 20
183.2970125307481
 30
0.0
 40
10.0
  1
Tag
 41
0.8
  7
GREEKS
100
AcDbText
  0
TEXT
  5
15A
330
1E
100
AcDbEntity
  8
TEXT
100
AcDbText
 10
368.9590317919039
 20
159.0747592404491
 30
0.0
 40
10.0
  1
Gez.
 41
0.8
  7
GREEKS
100
AcDbText
  0
LINE
  5
15B
330
1E
100
AcDbEntity
  8
VOLL
100
AcDbLine
 10
410.0000000000003
 20
199.9999999999998
 30
0.0
 11
410.0000000000003
 21
99.99999999999992
 31
0.0
  0
TEXT
  5
15C
330
1E
100
AcDbEntity
  8
TEXT
100
AcDbText
 10
369.0016943468259
 20
108.8236597412452
 30
0.0
 40
10.0
  1
Norm.
 41
0.8
  7
GREEKS
100
AcDbText
  0
TEXT
  5
15D
330
1E
100
AcDbEntity
  8
TEXT
100
AcDbText
 10
368.8787716429181
 20
134.2231572857094
 30
0.0
 40
10.0
  1
Gepr.
 41
0.8
  7
GREEKS
100
AcDbText
  0
TEXT
  5
15E
330
1E
100
AcDbEntity
  8
TEXT
 62
     1
100
AcDbText
 10
401.2515766204717
 20
220.372535722849
 30
0.0
 40
17.5
  1
1:5
 41
0.8
  7
GREEKS
100
AcDbText
  0
TEXT
  5
160
330
1E
100
AcDbEntity
  8
TEXT
100
AcDbText
 10
371.55527455526
 20
182.8506367787916
 30
0.0
 40
10.0
  1
2011
 41
0.8
  7
GREEKS
100
AcDbText
  0
LINE
  5
161
330
1E
100
AcDbEntity
  8
VOLL
100
AcDbLine
 10
475.0000000000002
 20
274.9999999999996
 30
0.0
 11
475.0
 21
99.99999999999992
 31
0.0
  0
LINE
  5
186
330
1E
100
AcDbEntity
  8
HILF
100
AcDbLine
 10
1050.0
 20
-0.0000000000002842
 30
0.0
 11
1050.0
 21
1485.0
 31
0.0
  0
LINE
  5
187
330
1E
100
AcDbEntity
  8
STEMPEL
100
AcDbLine
 10
1025.0
 20
25.0
 30
0.0
 11
1025.0
 21
1460.0
 31
0.0
  0
TEXT
  5
188
330
1E
100
AcDbEntity
  8
TEXT
100
AcDbText
 10
843.1002153742515
 20
130.185404446965
 30
0.0
 40
12.5
  1
ersetzt durch:
 41
0.8
  7
GREEKS
100
AcDbText
  0
TEXT
  5
18A
330
1E
100
AcDbEntity
  8
TEXT
100
AcDbText
 10
840.4468873940851
 20
255.7830086342841
 30
0.0
 40
12.5
  1
Zeichnungs Nr.
 41
0.8
  7
GREEKS
100
AcDbText
  0
LINE
  5
18B
330
1E
100
AcDbEntity
  8
HILF
100
AcDbLine
 10
583.7274248224712
 20
37.23495645070784
 30
0.0
 11
1012.147209831682
 21
37.23495645070784
 31
0.0
  0
LINE
  5
18C
330
1E
100
AcDbEntity
  8
HILF
100
AcDbLine
 10
841.8096540742482
 20
209.4495909238957
 30
0.0
 11
1012.147209831682
 21
209.4495909238957
 31
0.0
  0
LINE
  5
18D
330
1E
100
AcDbEntity
  8
VOLL
100
AcDbLine
 10
830.0
 20
150.0
 30
0.0
 11
1025.0
 21
150.0
 31
0.0
  0
TEXT
  5
18E
330
1E
100
AcDbEntity
  8
TEXT
 62
     1
100
AcDbText
 10
587.3209660800035
 20
218.5437197313445
 30
0.0
 40
17.5
  1
Abzweig DN150/150
 41
0.8
  7
GREEKS
100
AcDbText
  0
LINE
  5
18F
330
1E
100
AcDbEntity
  8
HILF
100
AcDbLine
 10
586.9342002742369
 20
124.9999999999999
 30
0.0
 11
812.0884791390775
 21
124.9999999999999
 31
0.0
  0
LINE
  5
190
330
1E
100
AcDbEntity
  8
HILF
100
AcDbLine
 10
586.9342002742369
 20
149.9999999999999
 30
0.0
 11
812.0884791390775
 21
149.9999999999999
 31
0.0
  0
LINE
  5
191
330
1E
100
AcDbEntity
  8
HILF
100
AcDbLine
 10
586.9342002742369
 20
174.9999999999998
 30
0.0
 11
812.0884791390775
 21
174.9999999999998
 31
0.0
  0
LINE
  5
192
330
1E
100
AcDbEntity
  8
HILF
100
AcDbLine
 10
586.9342002742369
 20
210.0939561891034
 30
0.0
 11
812.0884791390777
 21
210.0939561891034
 31
0.0
  0
LINE
  5
193
330
1E
100
AcDbEntity
  8
STEMPEL
100
AcDbLine
 10
575.0
 20
275.0000000000001
 30
0.0
 11
575.0
 21
24.99999999999993
 31
0.0
  0
TEXT
  5
194
330
1E
100
AcDbEntity
  8
TEXT
100
AcDbText
 10
587.8240977813288
 20
178.7583604396322
 30
0.0
 40
12.5
  1
dünnwandig 45° 
 41
0.8
  7
GREEKS
100
AcDbText
  0
TEXT
  5
195
330
1E
100
AcDbEntity
  8
TEXT
100
AcDbText
 10
587.4593753944567
 20
106.5743538255658
 30
0.0
 40
10.0
  1
5220FF0W.DWG
 41
0.8
  7
GREEKS
100
AcDbText
  0
TEXT
  5
196
330
1E
100
AcDbEntity
  8
TEXT
100
AcDbText
 10
586.8555959778399
 20
77.11401425482641
 30
0.0
 40
12.5
  1
Bauvorhaben
 41
0.8
  7
GREEKS
100
AcDbText
  0
TEXT
  5
197
330
1E
100
AcDbEntity
  8
TEXT
100
AcDbText
 10
587.1948509522525
 20
256.3723320029449
 30
0.0
 40
12.5
  1
Benennung
 41
0.8
  7
GREEKS
100
AcDbText
  0
LINE
  5
198
330
1E
100
AcDbEntity
  8
STEMPEL
100
AcDbLine
 10
830.0
 20
274.9999999999994
 30
0.0
 11
830.0
 21
100.0
 31
0.0
  0
TEXT
  5
19A
330
1E
100
AcDbEntity
  8
TEXT
 62
     1
100
AcDbText
 10
871.0226766546693
 20
220.372535722849
 30
0.0
 40
17.5
  1
5220FF0W
 41
0.8
  7
GREEKS
 72
     1
 11
923.0226766546692
 21
220.372535722849
 31
0.0
100
AcDbText
  0
TEXT
  5
212
330
1E
100
AcDbEntity
  8
TEXT
100
AcDbText
 10
587.8240977813288
 20
128.7583604396323
 30
0.0
 40
12.5
  1
EDV-Art.Nr. 5.220.FF0C
 41
0.8
  7
GREEKS
100
AcDbText
  0
TEXT
  5
255
330
1E
100
AcDbEntity
  8
TEXT
 62
     1
100
AcDbText
 10
742.6434123389265
 20
330.562165920503
 30
0.0
 40
17.5
  1
Werkstoff: 1.4404
 41
0.8
  7
GREEKS
100
AcDbText
  0
LINE
  5
23E5
330
1E
100
AcDbEntity
  8
MITTEL
100
AcDbLine
 10
713.0676014861094
 20
993.8744349311221
 30
0.0
 11
483.2578976004812
 21
764.0647310454943
 31
0.0
  0
LINE
  5
23E6
330
1E
100
AcDbEntity
  8
HILF
100
AcDbLine
 10
561.2578976004813
 20
634.0647310454938
 30
0.0
 11
405.2578976004815
 21
634.0647310454953
 31
0.0
  0
DIMENSION
  5
23E7
330
1E
100
AcDbEntity
  8
BEM
100
AcDbDimension
  2
*D1
 10
562.7578976004818
 20
573.3023876230084
 30
0.0
 11
483.2578976004817
 21
589.5523876230083
 31
0.0
 70
    32
  1
%%c<>
 71
     5
 42
159.0000000000002
  3
Standard
100
AcDbAlignedDimension
 13
403.7578976004815
 23
634.0647310454949
 33
0.0
 14
562.7578976004818
 24
634.0647310454938
 34
0.0
100
AcDbRotatedDimension
1001
ACAD
1000
DSTYLE
1002
{
1070
    40
1040
5.0
1070
    41
1040
3.5
1070
    42
1040
1.0
1070
    43
1040
7.0
1070
    44
1040
1.0
1070
    73
1070
     0
1070
    74
1070
     0
1070
    77
1070
     1
1070
    78
1070
     8
1070
    79
1070
     2
1070
   140
1040
3.5
1070
   141
1040
1.5
1070
   146
1040
0.5142857142857144
1070
   147
1040
1.5
1070
   172
1070
     1
1070
   178
1070
     1
1070
   179
1070
     2
1070
   271
1070
     2
1070
   272
1070
     2
1070
   284
1070
     8
1070
   285
1070
     8
1070
   286
1070
     8
1002
}
  0
LINE
  5
23E8
330
1E
100
AcDbEntity
  8
HILF
100
AcDbLine
 10
565.861838570529
 20
1032.504046289195
 30
0.0
 11
400.6539566304341
 21
1032.504046289195
 31
0.0
  0
LINE
  5
23E9
330
1E
100
AcDbEntity
  8
HILF
100
AcDbLine
 10
564.6727795545466
 20
1008.309392655298
 30
0.0
 11
401.8430156464162
 21
1008.309392655298
 31
0.0
  0
LINE
  5
23EA
330
1E
100
AcDbEntity
  8
HILF
100
AcDbLine
 10
561.6920174410133
 20
1001.515726259917
 30
0.0
 11
404.8237777599492
 21
1001.515726259917
 31
0.0
  0
LINE
  5
23EB
330
1E
100
AcDbEntity
  8
STEMPEL
100
AcDbLine
 10
568.9129644789249
 20
1084.064731045494
 30
0.0
 11
397.6028307220376
 21
1084.064731045494
 31
0.0
  0
DIMENSION
  5
23EC
330
1E
100
AcDbEntity
  8
SCHRAFF
100
AcDbDimension
  2
*D2
 10
383.6517088929822
 20
764.0647310454944
 30
0.0
 11
367.4017088929821
 21
694.0647310454944
 31
0.0
 70
    32
 71
     5
 42
140.0000000000001
  3
Standard
100
AcDbAlignedDimension
 13
404.6327842357409
 23
624.0647310454943
 33
0.0
 14
485.4636303091815
 24
764.0647310454944
 34
0.0
 50
90.0
100
AcDbRotatedDimension
1001
ACAD
1000
DSTYLE
1002
{
1070
    40
1040
5.0
1070
    41
1040
3.5
1070
    42
1040
1.0
1070
    43
1040
7.0
1070
    44
1040
1.0
1070
    73
1070
     0
1070
    74
1070
     0
1070
    77
1070
     1
1070
    78
1070
     8
1070
    79
1070
     2
1070
   140
1040
3.5
1070
   141
1040
1.5
1070
   146
1040
0.5142857142857144
1070
   147
1040
1.5
1070
   172
1070
     1
1070
   178
1070
     1
1070
   179
1070
     2
1070
   271
1070
     2
1070
   272
1070
     2
1070
   284
1070
     8
1070
   285
1070
     8
1070
   286
1070
     8
1002
}
  0
LINE
  5
23ED
330
1E
100
AcDbEntity
  8
MITTEL
100
AcDbLine
 10
483.2578976004813
 20
1089.064731045494
 30
0.0
 11
483.2578976004813
 21
619.0647310454944
 31
0.0
  0
DIMENSION
  5
23EE
330
1E
100
AcDbEntity
  8
BEM
100
AcDbDimension
  2
*D3
 10
350.0024291391542
 20
1084.064731045494
 30
0.0
 11
333.752429139154
 21
854.0647310454943
 31
0.0
 70
    32
 71
     5
 42
459.9999999999997
  3
Standard
100
AcDbAlignedDimension
 13
404.6327842357409
 23
624.0647310454943
 33
0.0
 14
397.6028307220376
 24
1084.064731045494
 34
0.0
 50
90.0
100
AcDbRotatedDimension
1001
ACAD
1000
DSTYLE
1002
{
1070
    40
1040
5.0
1070
    41
1040
3.5
1070
    42
1040
1.0
1070
    43
1040
7.0
1070
    44
1040
1.0
1070
    73
1070
     0
1070
    74
1070
     0
1070
    77
1070
     1
1070
    78
1070
     8
1070
    79
1070
     2
1070
   140
1040
3.5
1070
   141
1040
1.5
1070
   146
1040
0.5142857142857144
1070
   147
1040
1.5
1070
   172
1070
     1
1070
   178
1070
     1
1070
   179
1070
     2
1070
   271
1070
     2
1070
   272
1070
     2
1070
   284
1070
     8
1070
   285
1070
     8
1070
   286
1070
     8
1002
}
  0
LINE
  5
23EF
330
1E
100
AcDbEntity
  8
STEMPEL
100
AcDbLine
 10
403.7578976004815
 20
998.3858226996941
 30
0.0
 11
403.7578976004815
 21
634.0647310454949
 31
0.0
  0
LINE
  5
23F0
330
1E
100
AcDbEntity
  8
STEMPEL
100
AcDbLine
 10
403.7578976004815
 20
634.0647310454949
 30
0.0
 11
404.6327842357409
 21
624.0647310454948
 31
0.0
  0
ARC
  5
23F1
330
1E
100
AcDbEntity
  8
STEMPEL
100
AcDbCircle
 10
416.7578976004815
 20
1012.527958323425
 30
0.0
 40
17.0
100
AcDbArc
 50
180.0
 51
211.5863380965237
  0
ARC
  5
23F2
330
1E
100
AcDbEntity
  8
STEMPEL
100
AcDbCircle
 10
393.7578976004815
 20
998.3858226996941
 30
0.0
 40
10.0
100
AcDbArc
 50
0.0
 51
31.58633809652372
  0
TEXT
  5
23F3
330
1E
100
AcDbEntity
  8
TEXT
 62
     1
100
AcDbText
 10
412.7597047536982
 20
1046.886008760583
 30
0.0
 40
17.5
  1
DN150
 41
0.8
  7
GREEKS
100
AcDbText
  0
LINE
  5
23F4
330
1E
100
AcDbEntity
  8
STEMPEL
100
AcDbLine
 10
393.7578976004815
 20
1068.28162682756
 30
0.0
 11
393.7578976004815
 21
1052.00212551634
 31
0.0
  0
ARC
  5
23F5
330
1E
100
AcDbEntity
  8
STEMPEL
100
AcDbCircle
 10
380.7578976004815
 20
1027.564731045494
 30
0.0
 40
19.0
100
AcDbArc
 50
0.0
 51
27.9064081148516
  0
LINE
  5
23F6
330
1E
100
AcDbEntity
  8
STEMPEL
100
AcDbLine
 10
399.7578976004815
 20
1027.564731045494
 30
0.0
 11
399.7578976004815
 21
1012.527958323425
 31
0.0
  0
ARC
  5
23F7
330
1E
100
AcDbEntity
  8
STEMPEL
100
AcDbCircle
 10
427.7559252802397
 20
1052.062032564776
 30
0.0
 40
34.0
100
AcDbArc
 50
180.0
 51
207.3202406357879
  0
ARC
  5
23F8
330
1E
100
AcDbEntity
  8
STEMPEL
100
AcDbCircle
 10
427.7578976004815
 20
1068.28162682756
 30
0.0
 40
34.0
100
AcDbArc
 50
155.0000000000065
 51
180.0
  0
LINE
  5
23F9
330
1E
100
AcDbEntity
  8
STEMPEL
100
AcDbLine
 10
397.6028307220376
 20
1084.064731045494
 30
0.0
 11
396.9434328412353
 21
1082.650647726744
 31
0.0
  0
LINE
  5
23FA
330
1E
100
AcDbEntity
  8
HILF
100
AcDbLine
 10
731.4829645590291
 20
895.470184378734
 30
0.0
 11
614.6633509337213
 21
1012.289798004042
 31
0.0
  0
LINE
  5
23FB
330
1E
100
AcDbEntity
  8
HILF
100
AcDbLine
 10
713.5339692126089
 20
879.2027724191784
 30
0.0
 11
598.3959389741658
 21
994.3408026576221
 31
0.0
  0
LINE
  5
23FC
330
1E
100
AcDbEntity
  8
HILF
100
AcDbLine
 10
706.6224045317326
 20
876.5066419454683
 30
0.0
 11
595.6998085004554
 21
987.4292379767455
 31
0.0
  0
LINE
  5
23FD
330
1E
100
AcDbEntity
  8
STEMPEL
100
AcDbLine
 10
770.0993462129113
 20
929.7716223924547
 30
0.0
 11
648.9647889474418
 21
1050.906179657924
 31
0.0
  0
ARC
  5
23FF
330
1E
100
AcDbEntity
  8
STEMPEL
100
AcDbCircle
 10
742.0589795147575
 20
877.9089228165281
 30
0.0
 40
19.0
100
AcDbArc
 50
107.8456571516225
 51
134.9999999999954
  0
LINE
  5
2400
102
{ACAD_REACTORS
330
268F
102
}
330
1E
100
AcDbEntity
  8
STEMPEL
100
AcDbLine
 10
705.1629195885309
 20
873.5397748248828
 30
0.0
 11
562.7578976004813
 21
731.1347528368331
 31
0.0
  0
LINE
  5
2402
102
{ACAD_REACTORS
330
268F
102
}
330
1E
100
AcDbEntity
  8
STEMPEL
100
AcDbLine
 10
562.7578976004813
 20
731.1347528368331
 30
0.0
 11
562.7578976004813
 21
634.0647310454935
 31
0.0
  0
LINE
  5
2405
330
1E
100
AcDbEntity
  8
STEMPEL
100
AcDbLine
 10
562.7578976004813
 20
634.0647310454945
 30
0.0
 11
561.8830109652221
 21
624.0647310454939
 31
0.0
  0
ARC
  5
2406
330
1E
100
AcDbEntity
  8
STEMPEL
100
AcDbCircle
 10
712.2339874003962
 20
866.4687070130174
 30
0.0
 40
10.0
100
AcDbArc
 50
103.4136619034671
 51
134.9999999999954
  0
LINE
  5
2407
330
1E
100
AcDbEntity
  8
STEMPEL
100
AcDbLine
 10
728.6239506722131
 20
891.3439516590726
 30
0.0
 11
717.9913467132771
 21
880.7113477001367
 31
0.0
  0
ARC
  5
2408
330
1E
100
AcDbEntity
  8
STEMPEL
100
AcDbCircle
 10
705.9705314331059
 20
892.7321629803079
 30
0.0
 40
17.0
100
AcDbArc
 50
283.4136619034671
 51
314.9999999999954
  0
LINE
  5
2409
330
1E
100
AcDbEntity
  8
STEMPEL
100
AcDbLine
 10
761.6577844756975
 20
915.8925040883184
 30
0.0
 11
750.1464387041985
 21
904.3811583168194
 31
0.0
  0
ARC
  5
240A
330
1E
100
AcDbEntity
  8
STEMPEL
100
AcDbCircle
 10
726.1485634650634
 20
928.4637549163342
 30
0.0
 40
34.0
100
AcDbArc
 50
287.2594896725473
 51
314.9999999999954
  0
ARC
  5
240B
330
1E
100
AcDbEntity
  8
STEMPEL
100
AcDbCircle
 10
737.6161539153547
 20
939.9341346486608
 30
0.0
 40
34.0
100
AcDbArc
 50
314.9999999999954
 51
339.999999999991
  0
LINE
  5
240C
330
1E
100
AcDbEntity
  8
STEMPEL
100
AcDbLine
 10
770.0993462129113
 20
929.7716223924547
 30
0.0
 11
769.5657030220758
 21
928.3054497755884
 31
0.0
  0
ARC
  5
240D
330
1E
100
AcDbEntity
  8
STEMPEL
100
AcDbCircle
 10
647.6569214713213
 20
1006.955396910076
 30
0.0
 40
34.0
100
AcDbArc
 50
134.9999999999954
 51
162.3202406357883
  0
ARC
  5
240E
330
1E
100
AcDbEntity
  8
STEMPEL
100
AcDbCircle
 10
549.7578976004813
 20
1012.527958323425
 30
0.0
 40
17.0
100
AcDbArc
 50
328.4136619034763
 51
0.0
  0
LINE
  5
240F
102
{ACAD_REACTORS
330
26C9
102
}
330
1E
100
AcDbEntity
  8
STEMPEL
100
AcDbLine
 10
592.7329413798702
 20
985.9697530335436
 30
0.0
 11
562.7578976004813
 21
955.994709254155
 31
0.0
  0
LINE
  5
2410
102
{ACAD_REACTORS
330
26C9
102
}
330
1E
100
AcDbEntity
  8
STEMPEL
100
AcDbLine
 10
562.7578976004813
 20
998.3858226996941
 30
0.0
 11
562.7578976004813
 21
955.994709254155
 31
0.0
  0
ARC
  5
2411
330
1E
100
AcDbEntity
  8
STEMPEL
100
AcDbCircle
 10
572.7578976004813
 20
998.3858226996941
 30
0.0
 40
10.0
100
AcDbArc
 50
148.4136619034763
 51
180.0
  0
ARC
  5
2412
330
1E
100
AcDbEntity
  8
STEMPEL
100
AcDbCircle
 10
611.925329535295
 20
986.7773648781184
 30
0.0
 40
17.0
100
AcDbArc
 50
134.9999999999954
 51
166.5863380965272
  0
ARC
  5
2413
330
1E
100
AcDbEntity
  8
STEMPEL
100
AcDbCircle
 10
585.6618735680044
 20
993.0408208454089
 30
0.0
 40
10.0
100
AcDbArc
 50
314.9999999999954
 51
346.5863380965273
  0
LINE
  5
2414
330
1E
100
AcDbEntity
  8
STEMPEL
100
AcDbLine
 10
610.5371182140597
 20
1009.430784117226
 30
0.0
 11
599.9045142551239
 21
998.7981801582899
 31
0.0
  0
ARC
  5
2415
330
1E
100
AcDbEntity
  8
STEMPEL
100
AcDbCircle
 10
597.1020893715153
 20
1022.86581295977
 30
0.0
 40
19.0
100
AcDbArc
 50
314.9999999999954
 51
342.9064081148542
  0
LINE
  5
2416
330
1E
100
AcDbEntity
  8
STEMPEL
100
AcDbLine
 10
572.7578976004813
 20
1068.28162682756
 30
0.0
 11
572.7578976004813
 21
1052.00212551634
 31
0.0
  0
ARC
  5
2417
330
1E
100
AcDbEntity
  8
STEMPEL
100
AcDbCircle
 10
538.7598699207233
 20
1052.062032564776
 30
0.0
 40
34.0
100
AcDbArc
 50
332.2594896725485
 51
0.0
  0
ARC
  5
2418
330
1E
100
AcDbEntity
  8
STEMPEL
100
AcDbCircle
 10
585.7578976004813
 20
1027.564731045494
 30
0.0
 40
19.0
100
AcDbArc
 50
152.8456571516197
 51
180.0
  0
LINE
  5
2419
330
1E
100
AcDbEntity
  8
STEMPEL
100
AcDbLine
 10
566.7578976004813
 20
1027.564731045494
 30
0.0
 11
566.7578976004813
 21
1012.527958323425
 31
0.0
  0
ARC
  5
241A
330
1E
100
AcDbEntity
  8
STEMPEL
100
AcDbCircle
 10
538.7578976004813
 20
1068.28162682756
 30
0.0
 40
34.0
100
AcDbArc
 50
0.0
 51
24.99999999999344
  0
LINE
  5
241B
330
1E
100
AcDbEntity
  8
STEMPEL
100
AcDbLine
 10
568.9129644789249
 20
1084.064731045494
 30
0.0
 11
569.5723623597273
 21
1082.650647726744
 31
0.0
  0
TEXT
  5
241C
330
1E
100
AcDbEntity
  8
TEXT
 62
     1
100
AcDbText
 10
596.7401906739016
 20
887.1654959079991
 30
0.0
 40
17.5
  1
DN150
 50
45.0000000000046
 41
0.8
  7
GREEKS
100
AcDbText
  0
ARC
  5
241D
330
1E
100
AcDbEntity
  8
STEMPEL
100
AcDbCircle
 10
659.1273012036481
 20
1018.422987360367
 30
0.0
 40
34.0
100
AcDbArc
 50
110.0000000000037
 51
134.9999999999954
  0
LINE
  5
241E
330
1E
100
AcDbEntity
  8
STEMPEL
100
AcDbLine
 10
635.0856706433055
 20
1042.46461792071
 30
0.0
 11
623.5743248718067
 21
1030.953272149211
 31
0.0
  0
LINE
  5
241F
330
1E
100
AcDbEntity
  8
STEMPEL
100
AcDbLine
 10
648.964788947442
 20
1050.906179657924
 30
0.0
 11
647.4986163305755
 21
1050.372536467088
 31
0.0
  0
LINE
  5
2420
330
1E
100
AcDbEntity
  8
STEMPEL
100
AcDbLine
 10
561.8830109652221
 20
624.0647310454944
 30
0.0
 11
404.6327842357409
 21
624.0647310454943
 31
0.0
  0
LINE
  5
266C
330
1E
100
AcDbEntity
  8
STEMPEL
100
AcDbLine
 10
562.7578976004813
 20
955.994709254155
 30
0.0
 11
483.2578976004813
 21
764.0647310454944
 31
0.0
  0
LINE
  5
266D
102
{ACAD_REACTORS
330
268F
102
}
330
1E
100
AcDbEntity
  8
STEMPEL
100
AcDbLine
 10
483.2578976004813
 20
764.0647310454944
 30
0.0
 11
562.7578976004814
 21
731.1347528368331
 31
0.0
  0
ARC
  5
2670
330
1E
100
AcDbEntity
  8
SCHRAFF
100
AcDbCircle
 10
492.4966929255942
 20
760.2378967218436
 30
0.0
 40
5.0
100
AcDbArc
 50
120.6301023541583
 51
194.3698976458463
  0
ARC
  5
2671
330
1E
100
AcDbEntity
  8
SCHRAFF
100
AcDbCircle
 10
497.1160905881506
 20
758.3244795600181
 30
0.0
 40
5.0
100
AcDbArc
 50
120.6301023541583
 51
194.3698976458463
  0
ARC
  5
2672
330
1E
100
AcDbEntity
  8
SCHRAFF
100
AcDbCircle
 10
501.7354882507071
 20
756.4110623981926
 30
0.0
 40
5.0
100
AcDbArc
 50
120.6301023541583
 51
194.3698976458463
  0
ARC
  5
2673
330
1E
100
AcDbEntity
  8
SCHRAFF
100
AcDbCircle
 10
506.3548859132635
 20
754.4976452363672
 30
0.0
 40
5.0
100
AcDbArc
 50
120.6301023541583
 51
194.3698976458463
  0
ARC
  5
2674
330
1E
100
AcDbEntity
  8
SCHRAFF
100
AcDbCircle
 10
510.9742835758199
 20
752.5842280745417
 30
0.0
 40
5.0
100
AcDbArc
 50
120.630102354156
 51
194.3698976458463
  0
ARC
  5
2675
330
1E
100
AcDbEntity
  8
SCHRAFF
100
AcDbCircle
 10
515.5936812383763
 20
750.6708109127163
 30
0.0
 40
5.0
100
AcDbArc
 50
120.630102354156
 51
194.3698976458463
  0
ARC
  5
2676
330
1E
100
AcDbEntity
  8
SCHRAFF
100
AcDbCircle
 10
520.2130789009328
 20
748.7573937508908
 30
0.0
 40
5.0
100
AcDbArc
 50
120.6301023541578
 51
194.3698976458464
  0
ARC
  5
2677
330
1E
100
AcDbEntity
  8
SCHRAFF
100
AcDbCircle
 10
524.8324765634893
 20
746.8439765890654
 30
0.0
 40
5.0
100
AcDbArc
 50
120.6301023541578
 51
194.3698976458464
  0
ARC
  5
2678
330
1E
100
AcDbEntity
  8
SCHRAFF
100
AcDbCircle
 10
529.4518742260457
 20
744.9305594272399
 30
0.0
 40
5.0
100
AcDbArc
 50
120.6301023541578
 51
194.3698976458464
  0
ARC
  5
267B
330
1E
100
AcDbEntity
  8
SCHRAFF
100
AcDbCircle
 10
538.6906695511587
 20
741.103725103589
 30
0.0
 40
5.0
100
AcDbArc
 50
120.6301023541578
 51
194.3698976458464
  0
ARC
  5
267C
330
1E
100
AcDbEntity
  8
SCHRAFF
100
AcDbCircle
 10
543.3100672137152
 20
739.1903079417635
 30
0.0
 40
5.0
100
AcDbArc
 50
120.6301023541578
 51
194.3698976458464
  0
ARC
  5
267D
330
1E
100
AcDbEntity
  8
SCHRAFF
100
AcDbCircle
 10
547.9294648762715
 20
737.2768907799379
 30
0.0
 40
5.0
100
AcDbArc
 50
120.630102354156
 51
194.3698976458436
  0
ARC
  5
267E
330
1E
100
AcDbEntity
  8
SCHRAFF
100
AcDbCircle
 10
552.548862538828
 20
735.3634736181125
 30
0.0
 40
5.0
100
AcDbArc
 50
120.630102354156
 51
194.3698976458436
  0
ARC
  5
267F
330
1E
100
AcDbEntity
  8
SCHRAFF
100
AcDbCircle
 10
557.1682602013845
 20
733.450056456287
 30
0.0
 40
5.0
100
AcDbArc
 50
120.630102354156
 51
194.3698976458436
  0
ARC
  5
2680
330
1E
100
AcDbEntity
  8
SCHRAFF
100
AcDbCircle
 10
561.787657863941
 20
731.5366392944615
 30
0.0
 40
5.0
100
AcDbArc
 50
120.630102354156
 51
194.3698976458436
  0
ARC
  5
2681
330
1E
100
AcDbEntity
  8
SCHRAFF
100
AcDbCircle
 10
566.4070555264975
 20
729.6232221326361
 30
0.0
 40
5.0
100
AcDbArc
 50
120.630102354156
 51
194.3698976458436
  0
ARC
  5
2684
330
1E
100
AcDbEntity
  8
SCHRAFF
100
AcDbCircle
 10
534.0712718886022
 20
743.0171422654145
 30
0.0
 40
5.0
100
AcDbArc
 50
120.6301023541578
 51
194.3698976458464
  0
ARC
  5
2687
102
{ACAD_REACTORS
330
268F
102
}
330
1E
100
AcDbEntity
  8
SCHRAFF
100
AcDbCircle
 10
561.2743990391675
 20
731.7492380606904
 30
0.0
 40
4.136810369116695
100
AcDbArc
 50
291.0148112933974
 51
23.98518870660304
  0
HATCH
  5
268F
330
1E
100
AcDbEntity
  8
SCHRAFF
100
AcDbHatch
 10
0.0
 20
0.0
 30
0.0
210
0.0
220
0.0
230
1.0
  2
_USER
 70
     0
 71
     1
 91
        2
 92
        7
 72
     1
 73
     1
 93
        3
 10
565.0963134690748
 20
730.1661492695934
 42
0.0
 10
562.7578976004814
 20
731.1347528368332
 42
0.0
 10
562.7578976004814
 20
727.8875762359561
 42
0.2056579179105994
 97
        3
330
266D
330
2402
330
2687
 92
        7
 72
     1
 73
     1
 93
        3
 10
565.0539981946719
 20
733.4308534310238
 42
0.0
 10
562.7578976004813
 20
731.1347528368331
 42
0.0
 10
565.0963134690748
 20
730.1661492695934
 42
0.2056579179106081
 97
        3
330
2400
330
266D
330
2687
 75
     0
 76
     0
 52
0.0
 41
0.1
 77
     0
 78
     1
 53
0.0
 43
0.0
 44
0.0
 45
0.0
 46
0.1
 79
     0
 47
0.0840928095032073
 98
        2
 10
563.8820960422918
 20
729.5198883556054
 10
564.3028587083099
 20
731.538118523531
  0
ARC
  5
2691
330
1E
100
AcDbEntity
  8
SCHRAFF
100
AcDbCircle
 10
502.3920692187362
 20
810.2587076710587
 30
0.0
 40
5.0
100
AcDbArc
 50
210.6301023541531
 51
284.3698976458417
  0
ARC
  5
2692
330
1E
100
AcDbEntity
  8
SCHRAFF
100
AcDbCircle
 10
488.9981490859578
 20
777.9229240331635
 30
0.0
 40
5.0
100
AcDbArc
 50
210.6301023541532
 51
284.3698976458412
  0
ARC
  5
2693
330
1E
100
AcDbEntity
  8
SCHRAFF
100
AcDbCircle
 10
487.0847319241323
 20
773.3035263706072
 30
0.0
 40
5.0
100
AcDbArc
 50
210.6301023541532
 51
284.3698976458412
  0
ARC
  5
2694
330
1E
100
AcDbEntity
  8
SCHRAFF
100
AcDbCircle
 10
490.9115662477833
 20
782.5423216957201
 30
0.0
 40
5.0
100
AcDbArc
 50
210.6301023541532
 51
284.3698976458412
  0
ARC
  5
2695
330
1E
100
AcDbEntity
  8
SCHRAFF
100
AcDbCircle
 10
492.8249834096087
 20
787.1617193582765
 30
0.0
 40
5.0
100
AcDbArc
 50
210.6301023541532
 51
284.3698976458412
  0
ARC
  5
2696
330
1E
100
AcDbEntity
  8
SCHRAFF
100
AcDbCircle
 10
498.5652348950851
 20
801.0199123459457
 30
0.0
 40
5.0
100
AcDbArc
 50
210.6301023541531
 51
284.3698976458417
  0
ARC
  5
2697
330
1E
100
AcDbEntity
  8
SCHRAFF
100
AcDbCircle
 10
494.7384005714342
 20
791.7811170208328
 30
0.0
 40
5.0
100
AcDbArc
 50
210.6301023541532
 51
284.3698976458435
  0
ARC
  5
2698
330
1E
100
AcDbEntity
  8
SCHRAFF
100
AcDbCircle
 10
496.6518177332597
 20
796.4005146833892
 30
0.0
 40
5.0
100
AcDbArc
 50
210.6301023541532
 51
284.3698976458435
  0
ARC
  5
2699
330
1E
100
AcDbEntity
  8
SCHRAFF
100
AcDbCircle
 10
500.4786520569106
 20
805.6393100085022
 30
0.0
 40
5.0
100
AcDbArc
 50
210.6301023541531
 51
284.3698976458417
  0
ARC
  5
269A
330
1E
100
AcDbEntity
  8
SCHRAFF
100
AcDbCircle
 10
504.3054863805617
 20
814.8781053336151
 30
0.0
 40
5.0
100
AcDbArc
 50
210.6301023541531
 51
284.3698976458417
  0
ARC
  5
269B
330
1E
100
AcDbEntity
  8
SCHRAFF
100
AcDbCircle
 10
508.1323207042126
 20
824.1169006587281
 30
0.0
 40
5.0
100
AcDbArc
 50
210.6301023541531
 51
284.3698976458417
  0
ARC
  5
269C
330
1E
100
AcDbEntity
  8
SCHRAFF
100
AcDbCircle
 10
506.2189035423872
 20
819.4975029961716
 30
0.0
 40
5.0
100
AcDbArc
 50
210.6301023541531
 51
284.3698976458417
  0
ARC
  5
269D
330
1E
100
AcDbEntity
  8
SCHRAFF
100
AcDbCircle
 10
510.0457378660381
 20
828.7362983212844
 30
0.0
 40
5.0
100
AcDbArc
 50
210.6301023541559
 51
284.3698976458435
  0
ARC
  5
269E
330
1E
100
AcDbEntity
  8
SCHRAFF
100
AcDbCircle
 10
513.872572189689
 20
837.9750936463974
 30
0.0
 40
5.0
100
AcDbArc
 50
210.6301023541559
 51
284.3698976458435
  0
ARC
  5
269F
330
1E
100
AcDbEntity
  8
SCHRAFF
100
AcDbCircle
 10
511.9591550278636
 20
833.3556959838411
 30
0.0
 40
5.0
100
AcDbArc
 50
210.6301023541559
 51
284.3698976458435
  0
ARC
  5
26A0
330
1E
100
AcDbEntity
  8
SCHRAFF
100
AcDbCircle
 10
515.7859893515146
 20
842.5944913089541
 30
0.0
 40
5.0
100
AcDbArc
 50
210.6301023541559
 51
284.3698976458435
  0
ARC
  5
26A1
330
1E
100
AcDbEntity
  8
SCHRAFF
100
AcDbCircle
 10
517.69940651334
 20
847.2138889715104
 30
0.0
 40
5.0
100
AcDbArc
 50
210.6301023541559
 51
284.3698976458435
  0
ARC
  5
26A2
330
1E
100
AcDbEntity
  8
SCHRAFF
100
AcDbCircle
 10
529.1799094842925
 20
874.9302749468492
 30
0.0
 40
5.0
100
AcDbArc
 50
210.6301023541531
 51
284.3698976458417
  0
ARC
  5
26A3
330
1E
100
AcDbEntity
  8
SCHRAFF
100
AcDbCircle
 10
525.3530751606416
 20
865.6914796217362
 30
0.0
 40
5.0
100
AcDbArc
 50
210.6301023541532
 51
284.3698976458435
  0
ARC
  5
26A4
330
1E
100
AcDbEntity
  8
SCHRAFF
100
AcDbCircle
 10
523.4396579988161
 20
861.0720819591799
 30
0.0
 40
5.0
100
AcDbArc
 50
210.6301023541532
 51
284.3698976458435
  0
ARC
  5
26A5
330
1E
100
AcDbEntity
  8
SCHRAFF
100
AcDbCircle
 10
527.2664923224671
 20
870.3108772842927
 30
0.0
 40
5.0
100
AcDbArc
 50
210.6301023541531
 51
284.3698976458417
  0
ARC
  5
26A6
330
1E
100
AcDbEntity
  8
SCHRAFF
100
AcDbCircle
 10
521.5262408369907
 20
856.4526842966234
 30
0.0
 40
5.0
100
AcDbArc
 50
210.6301023541532
 51
284.3698976458412
  0
ARC
  5
26A7
330
1E
100
AcDbEntity
  8
SCHRAFF
100
AcDbCircle
 10
519.6128236751652
 20
851.8332866340671
 30
0.0
 40
5.0
100
AcDbArc
 50
210.6301023541532
 51
284.3698976458412
  0
ARC
  5
26A8
330
1E
100
AcDbEntity
  8
SCHRAFF
100
AcDbCircle
 10
534.9201609697692
 20
888.7884679345186
 30
0.0
 40
5.0
100
AcDbArc
 50
210.6301023541531
 51
284.3698976458417
  0
ARC
  5
26A9
330
1E
100
AcDbEntity
  8
SCHRAFF
100
AcDbCircle
 10
536.8335781315947
 20
893.4078655970751
 30
0.0
 40
5.0
100
AcDbArc
 50
210.6301023541531
 51
284.3698976458417
  0
ARC
  5
26AA
330
1E
100
AcDbEntity
  8
SCHRAFF
100
AcDbCircle
 10
533.0067438079437
 20
884.169070271962
 30
0.0
 40
5.0
100
AcDbArc
 50
210.6301023541531
 51
284.3698976458417
  0
ARC
  5
26AB
330
1E
100
AcDbEntity
  8
SCHRAFF
100
AcDbCircle
 10
531.0933266461181
 20
879.5496726094055
 30
0.0
 40
5.0
100
AcDbArc
 50
210.6301023541531
 51
284.3698976458417
  0
ARC
  5
26AC
330
1E
100
AcDbEntity
  8
SCHRAFF
100
AcDbCircle
 10
540.6604124552456
 20
902.6466609221881
 30
0.0
 40
5.0
100
AcDbArc
 50
210.6301023541559
 51
284.3698976458435
  0
ARC
  5
26AD
330
1E
100
AcDbEntity
  8
SCHRAFF
100
AcDbCircle
 10
538.7469952934201
 20
898.0272632596314
 30
0.0
 40
5.0
100
AcDbArc
 50
210.6301023541559
 51
284.3698976458435
  0
ARC
  5
26AE
330
1E
100
AcDbEntity
  8
SCHRAFF
100
AcDbCircle
 10
546.4006639407219
 20
916.5048539098574
 30
0.0
 40
5.0
100
AcDbArc
 50
210.6301023541559
 51
284.3698976458435
  0
ARC
  5
26AF
330
1E
100
AcDbEntity
  8
SCHRAFF
100
AcDbCircle
 10
544.4872467788966
 20
911.8854562473011
 30
0.0
 40
5.0
100
AcDbArc
 50
210.6301023541559
 51
284.3698976458435
  0
ARC
  5
26B0
330
1E
100
AcDbEntity
  8
SCHRAFF
100
AcDbCircle
 10
542.5738296170711
 20
907.2660585847444
 30
0.0
 40
5.0
100
AcDbArc
 50
210.6301023541559
 51
284.3698976458435
  0
ARC
  5
26B2
330
1E
100
AcDbEntity
  8
SCHRAFF
100
AcDbCircle
 10
557.8811669116744
 20
944.2212398851962
 30
0.0
 40
5.0
100
AcDbArc
 50
210.6301023541531
 51
284.3698976458417
  0
ARC
  5
26B3
330
1E
100
AcDbEntity
  8
SCHRAFF
100
AcDbCircle
 10
555.967749749849
 20
939.6018422226395
 30
0.0
 40
5.0
100
AcDbArc
 50
210.6301023541532
 51
284.3698976458435
  0
ARC
  5
26B4
330
1E
100
AcDbEntity
  8
SCHRAFF
100
AcDbCircle
 10
559.7945840734999
 20
948.8406375477525
 30
0.0
 40
5.0
100
AcDbArc
 50
210.6301023541531
 51
284.3698976458417
  0
ARC
  5
26B5
330
1E
100
AcDbEntity
  8
SCHRAFF
100
AcDbCircle
 10
554.0543325880235
 20
934.9824445600832
 30
0.0
 40
5.0
100
AcDbArc
 50
210.6301023541532
 51
284.3698976458435
  0
ARC
  5
26B6
330
1E
100
AcDbEntity
  8
SCHRAFF
100
AcDbCircle
 10
548.3140811025473
 20
921.1242515724137
 30
0.0
 40
5.0
100
AcDbArc
 50
210.6301023541559
 51
284.3698976458435
  0
ARC
  5
26B7
330
1E
100
AcDbEntity
  8
SCHRAFF
100
AcDbCircle
 10
550.2274982643725
 20
925.7436492349704
 30
0.0
 40
5.0
100
AcDbArc
 50
210.6301023541532
 51
284.3698976458412
  0
ARC
  5
26B8
330
1E
100
AcDbEntity
  8
SCHRAFF
100
AcDbCircle
 10
552.140915426198
 20
930.3630468975269
 30
0.0
 40
5.0
100
AcDbArc
 50
210.6301023541532
 51
284.3698976458412
  0
ARC
  5
26BC
330
1E
100
AcDbEntity
  8
SCHRAFF
100
AcDbCircle
 10
561.7080012353254
 20
953.460035210309
 30
0.0
 40
5.0
100
AcDbArc
 50
210.6301023541531
 51
284.3698976458417
  0
ARC
  5
26BD
330
1E
100
AcDbEntity
  8
SCHRAFF
100
AcDbCircle
 10
563.621418397151
 20
958.0794328728655
 30
0.0
 40
5.0
100
AcDbArc
 50
210.6301023541531
 51
284.3698976458417
  0
ARC
  5
26C4
102
{ACAD_REACTORS
330
26C9
102
}
330
1E
100
AcDbEntity
  8
SCHRAFF
100
AcDbCircle
 10
562.4225936520389
 20
955.1852139143088
 30
0.0
 40
8.655370306416022
100
AcDbArc
 50
47.22016030725
 51
87.77983969274725
  0
HATCH
  5
26C9
330
1E
100
AcDbEntity
  8
SCHRAFF
100
AcDbHatch
 10
0.0
 20
0.0
 30
0.0
210
0.0
220
0.0
230
1.0
  2
_USER
 70
     0
 71
     1
 91
        1
 92
        7
 72
     1
 73
     1
 93
        3
 10
568.301174795549
 20
961.5379864492227
 42
0.1788460590913472
 10
562.7578976004813
 20
963.8340870434134
 42
0.0
 10
562.7578976004813
 20
955.994709254155
 42
0.0
 97
        3
330
26C4
330
2410
330
240F
 75
     0
 76
     0
 52
0.0
 41
0.1
 77
     0
 78
     1
 53
0.0
 43
0.0
 44
0.0
 45
0.0
 46
0.1
 79
     0
 47
0.1169875934104755
 98
        1
 10
565.7751483734927
 20
960.8350333084782
  0
DIMENSION
  5
26CC
330
1E
100
AcDbEntity
  8
BEM
100
AcDbDimension
  2
*D5
 10
483.2578976004813
 20
619.0647310454944
 30
0.0
 11
631.1869547718993
 21
1121.197067137796
 31
0.0
 70
    34
 71
     5
 42
0.7853981633974483
  3
Standard
100
AcDb2LineAngularDimension
 13
713.0676014861094
 23
993.8744349311221
 33
0.0
 14
483.2578976004812
 24
764.0647310454943
 34
0.0
 15
483.2578976004813
 25
1089.064731045494
 35
0.0
 16
668.411525129736
 26
1084.760221131847
 36
0.0
1001
ACAD
1000
DSTYLE
1002
{
1070
    40
1040
5.0
1070
    41
1040
3.5
1070
    42
1040
1.0
1070
    43
1040
7.0
1070
    44
1040
1.0
1070
    73
1070
     0
1070
    74
1070
     0
1070
    77
1070
     1
1070
    78
1070
     8
1070
    79
1070
     2
1070
   140
1040
3.5
1070
   141
1040
1.5
1070
   146
1040
0.5142857142857144
1070
   147
1040
1.5
1070
   172
1070
     1
1070
   178
1070
     1
1070
   179
1070
     2
1070
   271
1070
     2
1070
   272
1070
     2
1070
   284
1070
     8
1070
   285
1070
     8
1070
   286
1070
     8
1002
}
  0
TEXT
  5
26FC
330
1E
100
AcDbEntity
  8
BEM
100
AcDbText
 10
1041.452885359359
 20
30.37012038345762
 30
0.0
 40
10.0
  1
Diese Zeichnung ist urheberrechtlich geschützt und bleibt unser Eigentum. Sie darf weder ganz noch teilweise vervielfältigt und nicht an Dritte weitergegeben werden.
 50
90.0
 41
0.8
  7
GREEKS
100
AcDbText
  0
TEXT
  5
26FD
330
1E
100
AcDbEntity
  8
TEXT
100
AcDbText
 10
841.809654074248
 20
182.9529559274993
 30
0.0
 40
12.5
  1
Ersatz für:
 41
0.8
  7
GREEKS
100
AcDbText
  0
TEXT
  5
26FE
330
1E
100
AcDbEntity
  8
TEXT
100
AcDbText
 10
481.7206788119809
 20
224.4478592884235
 30
0.0
 40
10.0
  1
DIN EN1124-3
 41
0.8
  7
GREEKS
 72
     1
 11
524.1968692881714
 21
224.4478592884235
 31
0.0
100
AcDbText
  0
TEXT
  5
26FF
330
1E
100
AcDbEntity
  8
TEXT
100
AcDbText
 10
383.7908930375943
 20
256.1552237717722
 30
0.0
 40
12.5
  1
Maßstab
 41
0.8
  7
GREEKS
100
AcDbText
  0
TEXT
  5
2700
330
1E
100
AcDbEntity
  8
TEXT
100
AcDbText
 10
104.6377487744416
 20
279.1799999999999
 30
0.0
 40
12.5
  1
Erstellt mit AUTOCAD 2004
 41
0.8
  7
GREEKS
100
AcDbText
  0
TEXT
  5
2701
330
1E
100
AcDbEntity
  8
TEXT
100
AcDbText
 10
322.2507152447943
 20
46.48310542416021
 30
0.0
 40
10.0
  1
Name
 41
0.8
  7
GREEKS
 72
     1
 11
338.0602390543181
 21
46.48310542416021
 31
0.0
100
AcDbText
  0
TEXT
  5
2702
330
1E
100
AcDbEntity
  8
TEXT
100
AcDbText
 10
276.15652626084
 20
46.67890673349524
 30
0.0
 40
10.0
  1
Tag
 41
0.8
  7
GREEKS
 72
     1
 11
285.4898595941734
 21
46.67890673349524
 31
0.0
100
AcDbText
  0
TEXT
  5
2703
330
1E
100
AcDbEntity
  8
TEXT
100
AcDbText
 10
169.1452957849062
 20
45.8707299621667
 30
0.0
 40
10.0
  1
Änderung
 41
0.8
  7
GREEKS
 72
     1
 11
196.0024386420491
 21
45.8707299621667
 31
0.0
100
AcDbText
  0
DIMENSION
  5
2704
330
1E
100
AcDbEntity
  8
SCHRAFF
100
AcDbDimension
  2
*D6
 10
798.611360970095
 20
901.2596076352645
 30
0.0
 11
673.9837907859498
 21
799.6130078397094
 31
0.0
 70
    32
 71
     5
 42
320.0000000000107
  3
Standard
100
AcDbAlignedDimension
 13
481.6982090446743
 23
765.6244196013012
 33
0.0
 14
770.0993462129114
 24
929.7716223924547
 34
0.0
 50
44.99999999999309
100
AcDbRotatedDimension
1001
ACAD
1000
DSTYLE
1002
{
1070
    40
1040
5.0
1070
    41
1040
3.5
1070
    42
1040
1.0
1070
    43
1040
7.0
1070
    44
1040
1.0
1070
    73
1070
     0
1070
    74
1070
     0
1070
    77
1070
     1
1070
    78
1070
     8
1070
    79
1070
     2
1070
   140
1040
3.5
1070
   141
1040
1.5
1070
   146
1040
0.5142857142857144
1070
   147
1040
1.5
1070
   172
1070
     1
1070
   178
1070
     1
1070
   179
1070
     2
1070
   271
1070
     2
1070
   272
1070
     2
1070
   284
1070
     8
1070
   285
1070
     8
1070
   286
1070
     8
1002
}
  0
ENDSEC
  0
SECTION
  2
OBJECTS
  0
DICTIONARY
  5
C
330
0
100
AcDbDictionary
281
     1
  3
ACAD_COLOR
350
26ED
  3
ACAD_GROUP
350
D
  3
ACAD_LAYOUT
350
19
  3
ACAD_MATERIAL
350
26EC
  3
ACAD_MLINESTYLE
350
16
  3
ACAD_PLOTSETTINGS
350
18
  3
ACAD_PLOTSTYLENAME
350
E
  3
AcDbVariableDictionary
350
246
  0
DICTIONARY
  5
26ED
102
{ACAD_REACTORS
330
C
102
}
330
C
100
AcDbDictionary
281
     1
  0
DICTIONARY
  5
D
102
{ACAD_REACTORS
330
C
102
}
330
C
100
AcDbDictionary
281
     1
  0
DICTIONARY
  5
19
102
{ACAD_REACTORS
330
C
102
}
330
C
100
AcDbDictionary
281
     1
  3
Layout1
350
1D
  3
Model
350
21
  0
DICTIONARY
  5
26EC
102
{ACAD_REACTORS
330
C
102
}
330
C
100
AcDbDictionary
281
     1
  0
DICTIONARY
  5
16
102
{ACAD_REACTORS
330
C
102
}
330
C
100
AcDbDictionary
281
     1
  3
Standard
350
17
  0
DICTIONARY
  5
18
102
{ACAD_REACTORS
330
C
102
}
330
C
100
AcDbDictionary
281
     1
  0
ACDBDICTIONARYWDFLT
  5
E
102
{ACAD_REACTORS
330
C
102
}
330
C
100
AcDbDictionary
281
     1
  3
Normal
350
F
100
AcDbDictionaryWithDefault
340
F
  0
DICTIONARY
  5
246
102
{ACAD_REACTORS
330
C
102
}
330
C
100
AcDbDictionary
281
     1
  3
DIMASSOC
350
2748
  3
PROJECTNAME
350
2749
  3
SORTENTS
350
247
  0
LAYOUT
  5
1D
102
{ACAD_REACTORS
330
19
102
}
330
19
100
AcDbPlotSettings
  1

  2
Tektronix Phaser 740
  4

  6

 40
0.0
 41
0.0
 42
0.0
 43
0.0
 44
0.0
 45
0.0
 46
0.0
 47
0.0
 48
0.0
 49
0.0
140
0.0
141
0.0
142
1.0
143
1.0
 70
   688
 72
     0
 73
     0
 74
     5
  7
monochrome.ctb
 75
    16
147
1.0
 76
     0
 77
     2
 78
   300
148
0.0
149
0.0
100
AcDbLayout
  1
Layout1
 70
     0
 71
     1
 10
0.0
 20
0.0
 11
12.0
 21
9.0
 12
0.0
 22
0.0
 32
0.0
 14
1.000000000000000E+20
 24
1.000000000000000E+20
 34
1.000000000000000E+20
 15
-1.000000000000000E+20
 25
-1.000000000000000E+20
 35
-1.000000000000000E+20
146
0.0
 13
0.0
 23
0.0
 33
0.0
 16
1.0
 26
0.0
 36
0.0
 17
0.0
 27
1.0
 37
0.0
 76
     0
330
1A
  0
LAYOUT
  5
21
102
{ACAD_REACTORS
330
19
102
}
330
19
100
AcDbPlotSettings
  1

  2
Tektronix Phaser 740
  4
A4
  6

 40
5.873749732971191
 41
6.085414409637451
 42
5.577407836914062
 43
5.662078857421875
 44
209.9733276367187
 45
296.9683227539062
 46
0.0
 47
0.0
 48
0.0
 49
0.0
140
0.0
141
0.0
142
1.0
143
1.0
 70
 11952
 72
     0
 73
     1
 74
     0
  7
monochrome.ctb
 75
     0
147
1.0
 76
     0
 77
     2
 78
   300
148
1150.120678237584
149
45.30495740799864
100
AcDbLayout
  1
Model
 70
     1
 71
     0
 10
0.0
 20
0.0
 11
12.0
 21
9.0
 12
0.0
 22
0.0
 32
0.0
 14
0.0
 24
0.0
 34
0.0
 15
0.0
 25
0.0
 35
0.0
146
0.0
 13
0.0
 23
0.0
 33
0.0
 16
1.0
 26
0.0
 36
0.0
 17
0.0
 27
1.0
 37
0.0
 76
     0
330
1E
  0
MLINESTYLE
  5
17
102
{ACAD_REACTORS
330
16
102
}
330
16
100
AcDbMlineStyle
  2
STANDARD
 70
     0
  3

 62
   256
 51
90.0
 52
90.0
 71
     2
 49
0.5
 62
   256
  6
BYLAYER
 49
-0.5
 62
   256
  6
BYLAYER
  0
ACDBPLACEHOLDER
  5
F
102
{ACAD_REACTORS
330
E
102
}
330
E
  0
DICTIONARYVAR
  5
2748
102
{ACAD_REACTORS
330
246
102
}
330
246
100
DictionaryVariables
280
     0
  1
1
  0
DICTIONARYVAR
  5
2749
102
{ACAD_REACTORS
330
246
102
}
330
246
100
DictionaryVariables
280
     0
  1

  0
DICTIONARYVAR
  5
247
102
{ACAD_REACTORS
330
246
102
}
330
246
100
DictionaryVariables
280
     0
  1
96
  0
ENDSEC
  0
EOF
