  0
SECTION
  2
HEADER
  9
$ACADVER
  1
AC1018
  9
$ACADMAINTVER
 70
     2
  9
$DWGCODEPAGE
  3
ANSI_1252
  9
$INSBASE
 10
0.0
 20
0.0
 30
0.0
  9
$EXTMIN
 10
-0.0065030510331781
 20
-0.0089199409096636
 30
-0.00000000000001
  9
$EXTMAX
 10
420.0255583167169
 20
605.1765834557004
 30
0.0000000000000053
  9
$LIMMIN
 10
0.0
 20
0.0
  9
$LIMMAX
 10
419.9999999999999
 20
594.0
  9
$ORTHOMODE
 70
     1
  9
$REGENMODE
 70
     1
  9
$FILLMODE
 70
     1
  9
$QTEXTMODE
 70
     0
  9
$MIRRTEXT
 70
     1
  9
$LTSCALE
 40
20.0
  9
$ATTMODE
 70
     1
  9
$TEXTSIZE
 40
3.5
  9
$TRACEWID
 40
0.5
  9
$TEXTSTYLE
  7
STANDARD
  9
$CLAYER
  8
BEM
  9
$CELTYPE
  6
ByLayer
  9
$CECOLOR
 62
   256
  9
$CELTSCALE
 40
1.0
  9
$DISPSILH
 70
     0
  9
$DIMSCALE
 40
2.0
  9
$DIMASZ
 40
3.5
  9
$DIMEXO
 40
1.0
  9
$DIMDLI
 40
7.0
  9
$DIMRND
 40
0.0
  9
$DIMDLE
 40
0.0
  9
$DIMEXE
 40
1.0
  9
$DIMTP
 40
0.0
  9
$DIMTM
 40
0.0
  9
$DIMTXT
 40
3.5
  9
$DIMCEN
 40
1.5
  9
$DIMTSZ
 40
0.0
  9
$DIMTOL
 70
     0
  9
$DIMLIM
 70
     0
  9
$DIMTIH
 70
     0
  9
$DIMTOH
 70
     0
  9
$DIMSE1
 70
     0
  9
$DIMSE2
 70
     0
  9
$DIMTAD
 70
     1
  9
$DIMZIN
 70
     8
  9
$DIMBLK
  1

  9
$DIMASO
 70
     1
  9
$DIMSHO
 70
     0
  9
$DIMPOST
  1

  9
$DIMAPOST
  1

  9
$DIMALT
 70
     0
  9
$DIMALTD
 70
     2
  9
$DIMALTF
 40
25.4
  9
$DIMLFAC
 40
1.0
  9
$DIMTOFL
 70
     1
  9
$DIMTVP
 40
0.0
  9
$DIMTIX
 70
     0
  9
$DIMSOXD
 70
     0
  9
$DIMSAH
 70
     0
  9
$DIMBLK1
  1

  9
$DIMBLK2
  1

  9
$DIMSTYLE
  2
Standard
  9
$DIMCLRD
 70
     0
  9
$DIMCLRE
 70
     0
  9
$DIMCLRT
 70
     1
  9
$DIMTFAC
 40
0.5142857142857144
  9
$DIMGAP
 40
1.5
  9
$DIMJUST
 70
     0
  9
$DIMSD1
 70
     0
  9
$DIMSD2
 70
     0
  9
$DIMTOLJ
 70
     1
  9
$DIMTZIN
 70
     8
  9
$DIMALTZ
 70
     8
  9
$DIMALTTZ
 70
     8
  9
$DIMUPT
 70
     0
  9
$DIMDEC
 70
     2
  9
$DIMTDEC
 70
     2
  9
$DIMALTU
 70
     2
  9
$DIMALTTD
 70
     2
  9
$DIMTXSTY
  7
STANDARD
  9
$DIMAUNIT
 70
     0
  9
$DIMADEC
 70
     2
  9
$DIMALTRND
 40
0.0
  9
$DIMAZIN
 70
     2
  9
$DIMDSEP
 70
    46
  9
$DIMATFIT
 70
     3
  9
$DIMFRAC
 70
     0
  9
$DIMLDRBLK
  1

  9
$DIMLUNIT
 70
     2
  9
$DIMLWD
 70
    -2
  9
$DIMLWE
 70
    -2
  9
$DIMTMOVE
 70
     0
  9
$LUNITS
 70
     2
  9
$LUPREC
 70
     2
  9
$SKETCHINC
 40
1.0
  9
$FILLETRAD
 40
0.0
  9
$AUNITS
 70
     1
  9
$AUPREC
 70
     3
  9
$MENU
  1
ACAD
  9
$ELEVATION
 40
0.0
  9
$PELEVATION
 40
0.0
  9
$THICKNESS
 40
0.0
  9
$LIMCHECK
 70
     0
  9
$CHAMFERA
 40
0.0
  9
$CHAMFERB
 40
0.0
  9
$CHAMFERC
 40
0.0
  9
$CHAMFERD
 40
0.0
  9
$SKPOLY
 70
     0
  9
$TDCREATE
 40
2452040.637099653
  9
$TDUCREATE
 40
2452040.553766320
  9
$TDUPDATE
 40
2455660.314998056
  9
$TDUUPDATE
 40
2455660.231664722
  9
$TDINDWG
 40
0.4447103125
  9
$TDUSRTIMER
 40
0.4447103125
  9
$USRTIMER
 70
     1
  9
$ANGBASE
 50
0.0
  9
$ANGDIR
 70
     0
  9
$PDMODE
 70
     0
  9
$PDSIZE
 40
0.0
  9
$PLINEWID
 40
0.0
  9
$SPLFRAME
 70
     0
  9
$SPLINETYPE
 70
     6
  9
$SPLINESEGS
 70
     8
  9
$HANDSEED
  5
1C03
  9
$SURFTAB1
 70
     6
  9
$SURFTAB2
 70
     6
  9
$SURFTYPE
 70
     6
  9
$SURFU
 70
     6
  9
$SURFV
 70
     6
  9
$UCSBASE
  2

  9
$UCSNAME
  2

  9
$UCSORG
 10
0.0
 20
0.0
 30
0.0
  9
$UCSXDIR
 10
1.0
 20
0.0
 30
0.0
  9
$UCSYDIR
 10
0.0
 20
1.0
 30
0.0
  9
$UCSORTHOREF
  2

  9
$UCSORTHOVIEW
 70
     0
  9
$UCSORGTOP
 10
0.0
 20
0.0
 30
0.0
  9
$UCSORGBOTTOM
 10
0.0
 20
0.0
 30
0.0
  9
$UCSORGLEFT
 10
0.0
 20
0.0
 30
0.0
  9
$UCSORGRIGHT
 10
0.0
 20
0.0
 30
0.0
  9
$UCSORGFRONT
 10
0.0
 20
0.0
 30
0.0
  9
$UCSORGBACK
 10
0.0
 20
0.0
 30
0.0
  9
$PUCSBASE
  2

  9
$PUCSNAME
  2

  9
$PUCSORG
 10
0.0
 20
0.0
 30
0.0
  9
$PUCSXDIR
 10
1.0
 20
0.0
 30
0.0
  9
$PUCSYDIR
 10
0.0
 20
1.0
 30
0.0
  9
$PUCSORTHOREF
  2

  9
$PUCSORTHOVIEW
 70
     0
  9
$PUCSORGTOP
 10
0.0
 20
0.0
 30
0.0
  9
$PUCSORGBOTTOM
 10
0.0
 20
0.0
 30
0.0
  9
$PUCSORGLEFT
 10
0.0
 20
0.0
 30
0.0
  9
$PUCSORGRIGHT
 10
0.0
 20
0.0
 30
0.0
  9
$PUCSORGFRONT
 10
0.0
 20
0.0
 30
0.0
  9
$PUCSORGBACK
 10
0.0
 20
0.0
 30
0.0
  9
$USERI1
 70
     0
  9
$USERI2
 70
     0
  9
$USERI3
 70
     0
  9
$USERI4
 70
     0
  9
$USERI5
 70
     0
  9
$USERR1
 40
0.0
  9
$USERR2
 40
0.0
  9
$USERR3
 40
0.0
  9
$USERR4
 40
0.0
  9
$USERR5
 40
0.0
  9
$WORLDVIEW
 70
     1
  9
$SHADEDGE
 70
     3
  9
$SHADEDIF
 70
    70
  9
$TILEMODE
 70
     1
  9
$MAXACTVP
 70
    16
  9
$PINSBASE
 10
0.0
 20
0.0
 30
0.0
  9
$PLIMCHECK
 70
     0
  9
$PEXTMIN
 10
1.000000000000000E+20
 20
1.000000000000000E+20
 30
1.000000000000000E+20
  9
$PEXTMAX
 10
-1.000000000000000E+20
 20
-1.000000000000000E+20
 30
-1.000000000000000E+20
  9
$PLIMMIN
 10
0.0
 20
0.0
  9
$PLIMMAX
 10
12.0
 20
9.0
  9
$UNITMODE
 70
     0
  9
$VISRETAIN
 70
     0
  9
$PLINEGEN
 70
     0
  9
$PSLTSCALE
 70
     0
  9
$TREEDEPTH
 70
  3020
  9
$CMLSTYLE
  2
Standard
  9
$CMLJUST
 70
     0
  9
$CMLSCALE
 40
1.0
  9
$PROXYGRAPHICS
 70
     1
  9
$MEASUREMENT
 70
     0
  9
$CELWEIGHT
370
    -1
  9
$ENDCAPS
280
     0
  9
$JOINSTYLE
280
     0
  9
$LWDISPLAY
290
     0
  9
$INSUNITS
 70
     0
  9
$HYPERLINKBASE
  1

  9
$STYLESHEET
  1
monochrome 1.ctb
  9
$XEDIT
290
     1
  9
$CEPSNTYPE
380
     0
  9
$PSTYLEMODE
290
     1
  9
$FINGERPRINTGUID
  2
{7AADB5C8-6110-11D8-B72B-000102183313}
  9
$VERSIONGUID
  2
{B977EDEA-8356-4F7F-9598-240028B6DB63}
  9
$EXTNAMES
290
     1
  9
$PSVPSCALE
 40
0.0
  9
$OLESTARTUP
290
     0
  9
$SORTENTS
280
    96
  9
$INDEXCTL
280
     0
  9
$HIDETEXT
280
     0
  9
$XCLIPFRAME
290
     0
  9
$HALOGAP
280
     0
  9
$OBSCOLOR
 70
   257
  9
$OBSLTYPE
280
     0
  9
$INTERSECTIONDISPLAY
280
     0
  9
$INTERSECTIONCOLOR
 70
   257
  9
$DIMASSOC
280
     1
  9
$PROJECTNAME
  1

  0
ENDSEC
  0
SECTION
  2
CLASSES
  0
CLASS
  1
ACDBDICTIONARYWDFLT
  2
AcDbDictionaryWithDefault
  3
ObjectDBX Classes
 90
        0
 91
        1
280
     0
281
     0
  0
CLASS
  1
DICTIONARYVAR
  2
AcDbDictionaryVar
  3
ObjectDBX Classes
 90
        0
 91
        3
280
     0
281
     0
  0
ENDSEC
  0
SECTION
  2
TABLES
  0
TABLE
  2
VPORT
  5
8
330
0
100
AcDbSymbolTable
 70
     3
  0
VPORT
  5
1C02
330
8
100
AcDbSymbolTableRecord
100
AcDbViewportTableRecord
  2
*Active
 70
     0
 10
0.0
 20
0.0
 11
1.0
 21
1.0
 12
210.0
 22
297.0000000000001
 13
0.0
 23
0.0
 14
1.0
 24
1.0
 15
10.0
 25
10.0
 16
0.0
 26
0.0
 36
1.0
 17
0.0
 27
0.0
 37
0.0
 40
594.0000000000002
 41
1.334231805929919
 42
50.0
 43
0.0
 44
0.0
 50
0.0
 51
0.0
 71
     0
 72
  1500
 73
     1
 74
     0
 75
     0
 76
     0
 77
     0
 78
     0
281
     0
 65
     1
110
0.0
120
0.0
130
0.0
111
1.0
121
0.0
131
0.0
112
0.0
122
1.0
132
0.0
 79
     0
146
0.0
  0
ENDTAB
  0
TABLE
  2
LTYPE
  5
5
330
0
100
AcDbSymbolTable
 70
     2
  0
LTYPE
  5
13
330
5
100
AcDbSymbolTableRecord
100
AcDbLinetypeTableRecord
  2
ByBlock
 70
     0
  3

 72
    65
 73
     0
 40
0.0
  0
LTYPE
  5
14
330
5
100
AcDbSymbolTableRecord
100
AcDbLinetypeTableRecord
  2
ByLayer
 70
     0
  3

 72
    65
 73
     0
 40
0.0
  0
LTYPE
  5
15
330
5
100
AcDbSymbolTableRecord
100
AcDbLinetypeTableRecord
  2
Continuous
 70
     0
  3
Solid line
 72
    65
 73
     0
 40
0.0
  0
LTYPE
  5
35
330
5
100
AcDbSymbolTableRecord
100
AcDbLinetypeTableRecord
  2
STRICHPUNKT
 70
     0
  3
__ . __ . __ . __ . __ . __ . __ . __ . __ . __
 72
    65
 73
     4
 40
1.0
 49
0.5
 74
     0
 49
-0.25
 74
     0
 49
0.0
 74
     0
 49
-0.25
 74
     0
  0
ENDTAB
  0
TABLE
  2
LAYER
  5
2
330
0
100
AcDbSymbolTable
 70
     9
  0
LAYER
  5
10
330
2
100
AcDbSymbolTableRecord
100
AcDbLayerTableRecord
  2
0
 70
     0
 62
     7
  6
Continuous
370
    -3
390
F
  0
LAYER
  5
38
330
2
100
AcDbSymbolTableRecord
100
AcDbLayerTableRecord
  2
VOLL
 70
     0
 62
     1
  6
Continuous
370
    -3
390
F
  0
LAYER
  5
39
330
2
100
AcDbSymbolTableRecord
100
AcDbLayerTableRecord
  2
HILF
 70
     0
 62
     2
  6
Continuous
370
    -3
390
F
  0
LAYER
  5
3A
330
2
100
AcDbSymbolTableRecord
100
AcDbLayerTableRecord
  2
MITTEL
 70
     0
 62
     2
  6
STRICHPUNKT
370
    -3
390
F
  0
LAYER
  5
3B
330
2
100
AcDbSymbolTableRecord
100
AcDbLayerTableRecord
  2
BEM
 70
     0
 62
     7
  6
Continuous
370
    -3
390
F
  0
LAYER
  5
3C
330
2
100
AcDbSymbolTableRecord
100
AcDbLayerTableRecord
  2
STEMPEL
 70
     0
 62
     3
  6
Continuous
370
    -3
390
F
  0
LAYER
  5
3D
330
2
100
AcDbSymbolTableRecord
100
AcDbLayerTableRecord
  2
TEXT
 70
     0
 62
     7
  6
Continuous
370
    -3
390
F
  0
LAYER
  5
3E
330
2
100
AcDbSymbolTableRecord
100
AcDbLayerTableRecord
  2
DEFPOINTS
 70
     0
 62
     7
  6
Continuous
290
     0
370
    -3
390
F
  0
LAYER
  5
3F
330
2
100
AcDbSymbolTableRecord
100
AcDbLayerTableRecord
  2
SCHRAFF
 70
     0
 62
     7
  6
Continuous
370
    -3
390
F
  0
ENDTAB
  0
TABLE
  2
STYLE
  5
3
330
0
100
AcDbSymbolTable
 70
     2
  0
STYLE
  5
11
330
3
100
AcDbSymbolTableRecord
100
AcDbTextStyleTableRecord
  2
STANDARD
 70
     0
 40
0.0
 41
0.8
 50
0.0
 71
     0
 42
3.5
  3
simplex.shx
  4

  0
STYLE
  5
34
330
3
100
AcDbSymbolTableRecord
100
AcDbTextStyleTableRecord
  2
GREEKS
 70
     0
 40
0.0
 41
0.8
 50
0.0
 71
     0
 42
2.5
  3
SIMPLEX.shx
  4

  0
ENDTAB
  0
TABLE
  2
VIEW
  5
6
330
0
100
AcDbSymbolTable
 70
     0
  0
ENDTAB
  0
TABLE
  2
UCS
  5
7
330
0
100
AcDbSymbolTable
 70
     0
  0
ENDTAB
  0
TABLE
  2
APPID
  5
9
330
0
100
AcDbSymbolTable
 70
     2
  0
APPID
  5
12
330
9
100
AcDbSymbolTableRecord
100
AcDbRegAppTableRecord
  2
ACAD
 70
     0
  0
APPID
  5
1555
330
9
100
AcDbSymbolTableRecord
100
AcDbRegAppTableRecord
  2
AVE_RENDER
 70
     0
  0
ENDTAB
  0
TABLE
  2
DIMSTYLE
  5
A
330
0
100
AcDbSymbolTable
 70
     1
100
AcDbDimStyleTable
 71
     1
340
1CB
  0
DIMSTYLE
105
1CB
102
{ACAD_REACTORS
330
1859
330
185A
330
19C5
330
1AA9
330
1BE8
102
}
330
A
100
AcDbSymbolTableRecord
100
AcDbDimStyleTableRecord
  2
Standard
 70
     0
340
11
  0
ENDTAB
  0
TABLE
  2
BLOCK_RECORD
  5
1
330
0
100
AcDbSymbolTable
 70
     7
  0
BLOCK_RECORD
  5
1E
330
1
100
AcDbSymbolTableRecord
100
AcDbBlockTableRecord
  2
*Model_Space
340
21
  0
BLOCK_RECORD
  5
1A
330
1
100
AcDbSymbolTableRecord
100
AcDbBlockTableRecord
  2
*Paper_Space
340
1D
  0
BLOCK_RECORD
  5
22
330
1
100
AcDbSymbolTableRecord
100
AcDbBlockTableRecord
  2
LOGO
340
0
102
{BLKREFS
331
135
102
}
  0
BLOCK_RECORD
  5
187A
330
1
100
AcDbSymbolTableRecord
100
AcDbBlockTableRecord
  2
*D1
340
0
  0
BLOCK_RECORD
  5
1886
330
1
100
AcDbSymbolTableRecord
100
AcDbBlockTableRecord
  2
*D2
340
0
  0
BLOCK_RECORD
  5
19C6
330
1
100
AcDbSymbolTableRecord
100
AcDbBlockTableRecord
  2
*D4
340
0
  0
BLOCK_RECORD
  5
1AAA
330
1
100
AcDbSymbolTableRecord
100
AcDbBlockTableRecord
  2
*D5
340
0
  0
BLOCK_RECORD
  5
1BE9
330
1
100
AcDbSymbolTableRecord
100
AcDbBlockTableRecord
  2
*D6
340
0
  0
ENDTAB
  0
ENDSEC
  0
SECTION
  2
BLOCKS
  0
BLOCK
  5
43
330
1E
100
AcDbEntity
  8
0
100
AcDbBlockBegin
  2
*Model_Space
 70
     0
 10
0.0
 20
0.0
 30
0.0
  3
*Model_Space
  1

  0
ENDBLK
  5
44
330
1E
100
AcDbEntity
  8
0
100
AcDbBlockEnd
  0
BLOCK
  5
41
330
1A
100
AcDbEntity
 67
     1
  8
0
100
AcDbBlockBegin
  2
*Paper_Space
 70
     0
 10
0.0
 20
0.0
 30
0.0
  3
*Paper_Space
  1

  0
ENDBLK
  5
42
330
1A
100
AcDbEntity
 67
     1
  8
0
100
AcDbBlockEnd
  0
BLOCK
  5
45
330
22
100
AcDbEntity
  8
0
100
AcDbBlockBegin
  2
LOGO
 70
     0
 10
0.0
 20
0.0
 30
0.0
  3
LOGO
  1

  0
ARC
  5
46
330
22
100
AcDbEntity
  8
0
100
AcDbCircle
 10
11.59973089678112
 20
-9.271599258481501
 30
0.0
 40
4.5
100
AcDbArc
 50
270.0
 51
231.0575587310159
  0
LINE
  5
47
330
22
100
AcDbEntity
  8
0
100
AcDbLine
 10
3.599730896781125
 20
-4.771599258481529
 30
0.0
 11
3.599730896781153
 21
-11.77159925848133
 31
0.0
  0
LINE
  5
48
330
22
100
AcDbEntity
  8
0
100
AcDbLine
 10
2.599730896781125
 20
-4.771599258481529
 30
0.0
 11
2.599730896781153
 21
-11.77159925848133
 31
0.0
  0
CIRCLE
  5
49
330
22
100
AcDbEntity
  8
0
100
AcDbCircle
 10
11.59973089678112
 20
-9.271599258481501
 30
0.0
 40
3.5
  0
ARC
  5
4A
330
22
100
AcDbEntity
  8
0
100
AcDbCircle
 10
31.59973089678115
 20
-9.271599258481472
 30
0.0
 40
4.5
100
AcDbArc
 50
270.0
 51
231.0575587310182
  0
LINE
  5
4B
330
22
100
AcDbEntity
  8
0
100
AcDbLine
 10
17.59973089678112
 20
-4.771599258481472
 30
0.0
 11
17.59973089678115
 21
-13.77159925848147
 31
0.0
  0
ARC
  5
4C
330
22
100
AcDbEntity
  8
0
100
AcDbCircle
 10
22.59973089678116
 20
-7.271599258481472
 30
0.0
 40
2.5
100
AcDbArc
 50
293.1161887722295
 51
90.0
  0
CIRCLE
  5
4D
330
22
100
AcDbEntity
  8
0
100
AcDbCircle
 10
31.59973089678115
 20
-9.271599258481472
 30
0.0
 40
3.5
  0
ARC
  5
4E
330
22
100
AcDbEntity
  8
0
100
AcDbCircle
 10
4.599730896781153
 20
-11.77159925848133
 30
0.0
 40
1.0
100
AcDbArc
 50
180.0
 51
270.0
  0
ARC
  5
4F
330
22
100
AcDbEntity
  8
0
100
AcDbCircle
 10
4.599730896781153
 20
-11.77159925848133
 30
0.0
 40
2.0
100
AcDbArc
 50
179.9999999999992
 51
270.0
  0
LINE
  5
50
330
22
100
AcDbEntity
  8
0
100
AcDbLine
 10
11.59973089678115
 20
-13.77159925848144
 30
0.0
 11
4.599730896781153
 21
-13.77159925848147
 31
0.0
  0
LINE
  5
51
330
22
100
AcDbEntity
  8
0
100
AcDbLine
 10
8.771303772034769
 20
-12.77159925848136
 30
0.0
 11
4.599730896781153
 21
-12.77159925848133
 31
0.0
  0
LINE
  5
52
330
22
100
AcDbEntity
  8
0
100
AcDbLine
 10
31.59973089678115
 20
-13.77159925848147
 30
0.0
 11
23.6715276665056
 21
-13.77159925848144
 31
0.0
  0
LINE
  5
53
330
22
100
AcDbEntity
  8
0
100
AcDbLine
 10
23.56565672307022
 20
-9.51278021337896
 30
0.0
 11
24.4388546544846
 21
-12.77159925848144
 31
0.0
  0
LINE
  5
54
330
22
100
AcDbEntity
  8
0
100
AcDbLine
 10
22.59973089678116
 20
-9.771599258481472
 30
0.0
 11
18.59973089678112
 21
-9.771599258481472
 31
0.0
  0
LINE
  5
55
330
22
100
AcDbEntity
  8
0
100
AcDbLine
 10
18.59973089678115
 20
-13.77159925848144
 30
0.0
 11
17.59973089678115
 21
-13.77159925848144
 31
0.0
  0
LINE
  5
56
330
22
100
AcDbEntity
  8
0
100
AcDbLine
 10
18.59973089678115
 20
-9.771599258481472
 30
0.0
 11
18.59973089678115
 21
-13.77159925848144
 31
0.0
  0
LINE
  5
57
330
22
100
AcDbEntity
  8
0
100
AcDbLine
 10
22.59973089678116
 20
-9.771599258481472
 30
0.0
 11
23.67152766650562
 21
-13.77159925848147
 31
0.0
  0
ARC
  5
58
330
22
100
AcDbEntity
  8
0
100
AcDbCircle
 10
22.59973089678116
 20
-7.271599258481472
 30
0.0
 40
2.5
100
AcDbArc
 50
270.0
 51
270.0000000000007
  0
LINE
  5
59
330
22
100
AcDbEntity
  8
0
100
AcDbLine
 10
28.77130377203494
 20
-12.77159925848147
 30
0.0
 11
24.43885465448463
 21
-12.77159925848144
 31
0.0
  0
LINE
  5
5A
330
22
100
AcDbEntity
  8
0
100
AcDbLine
 10
3.599730896781125
 20
-4.771599258481472
 30
0.0
 11
2.599730896781125
 21
-4.771599258481472
 31
0.0
  0
LINE
  5
5B
330
22
100
AcDbEntity
  8
0
100
AcDbLine
 10
22.59973089678116
 20
-8.771599258481472
 30
0.0
 11
18.59973089678115
 21
-8.771599258481472
 31
0.0
  0
LINE
  5
5C
330
22
100
AcDbEntity
  8
0
100
AcDbLine
 10
22.59973089678116
 20
-5.771599258481472
 30
0.0
 11
18.59973089678115
 21
-5.771599258481472
 31
0.0
  0
LINE
  5
5D
330
22
100
AcDbEntity
  8
0
100
AcDbLine
 10
22.59973089678116
 20
-4.771599258481472
 30
0.0
 11
17.59973089678115
 21
-4.771599258481472
 31
0.0
  0
LINE
  5
5E
330
22
100
AcDbEntity
  8
0
100
AcDbLine
 10
18.59973089678115
 20
-5.771599258481472
 30
0.0
 11
18.59973089678115
 21
-8.771599258481472
 31
0.0
  0
ARC
  5
5F
330
22
100
AcDbEntity
  8
0
100
AcDbCircle
 10
22.59973089678116
 20
-7.271599258481472
 30
0.0
 40
1.5
100
AcDbArc
 50
270.0
 51
90.0
  0
ENDBLK
  5
60
330
22
100
AcDbEntity
  8
0
100
AcDbBlockEnd
  0
BLOCK
  5
1884
330
187A
100
AcDbEntity
  8
0
100
AcDbBlockBegin
  2
*D1
 70
     1
 10
0.0
 20
0.0
 30
0.0
  3
*D1
  1

  0
LINE
  5
1BA9
330
187A
100
AcDbEntity
  8
BEM
 62
     0
370
    -2
100
AcDbLine
 10
97.13203481792834
 20
175.0711662463891
 30
0.0
 11
64.07765600885212
 21
175.0711662463891
 31
0.0
  0
LINE
  5
1BAA
330
187A
100
AcDbEntity
  8
BEM
 62
     0
370
    -2
100
AcDbLine
 10
91.10208130422554
 20
535.0744591507193
 30
0.0
 11
64.07765600885219
 21
535.0744591507193
 31
0.0
  0
LINE
  5
1BAB
330
187A
100
AcDbEntity
  8
BEM
 62
     0
370
    -2
100
AcDbLine
 10
66.07765600885212
 20
182.0711662463891
 30
0.0
 11
66.07765600885219
 21
528.0744591507193
 31
0.0
  0
SOLID
  5
1BAC
330
187A
100
AcDbEntity
  8
BEM
 62
     0
100
AcDbTrace
 10
64.91098934218545
 20
182.0711662463891
 30
0.0
 11
67.24432267551879
 21
182.0711662463891
 31
0.0
 12
66.07765600885212
 22
175.0711662463891
 32
0.0
 13
66.07765600885212
 23
175.0711662463891
 33
0.0
  0
SOLID
  5
1BAD
330
187A
100
AcDbEntity
  8
BEM
 62
     0
100
AcDbTrace
 10
64.91098934218552
 20
528.0744591507193
 30
0.0
 11
67.24432267551886
 21
528.0744591507193
 31
0.0
 12
66.07765600885219
 22
535.0744591507193
 32
0.0
 13
66.07765600885219
 23
535.0744591507193
 33
0.0
  0
MTEXT
  5
1BAE
330
187A
100
AcDbEntity
  8
BEM
 62
     1
100
AcDbMText
 10
59.5776560088521
 20
355.0728126985543
 30
0.0
 40
7.0
 41
0.0
 71
     5
 72
     1
  1
\A1;360
 11
0.0000000000000001
 21
1.0
 31
0.0
 73
     1
 44
1.0
  0
POINT
  5
1BAF
330
187A
100
AcDbEntity
  8
DEFPOINTS
 62
     0
100
AcDbPoint
 10
99.13203481792834
 20
175.0711662463891
 30
0.0
  0
POINT
  5
1BB0
330
187A
100
AcDbEntity
  8
DEFPOINTS
 62
     0
100
AcDbPoint
 10
93.10208130422553
 20
535.0744591507193
 30
0.0
  0
POINT
  5
1BB1
330
187A
100
AcDbEntity
  8
DEFPOINTS
 62
     0
100
AcDbPoint
 10
66.07765600885219
 20
535.0744591507193
 30
0.0
  0
ENDBLK
  5
1885
330
187A
100
AcDbEntity
  8
0
100
AcDbBlockEnd
  0
BLOCK
  5
1890
330
1886
100
AcDbEntity
  8
0
100
AcDbBlockBegin
  2
*D2
 70
     1
 10
0.0
 20
0.0
 30
0.0
  3
*D2
  1

  0
LINE
  5
1BA0
330
1886
100
AcDbEntity
  8
BEM
 62
     0
370
    -2
100
AcDbLine
 10
98.25714818266915
 20
183.0711662463891
 30
0.0
 11
98.25714818266915
 21
146.9472232637206
 31
0.0
  0
LINE
  5
1BA1
330
1886
100
AcDbEntity
  8
BEM
 62
     0
370
    -2
100
AcDbLine
 10
231.2571481826696
 20
183.0711662463894
 30
0.0
 11
231.2571481826696
 21
146.9472232637206
 31
0.0
  0
LINE
  5
1BA2
330
1886
100
AcDbEntity
  8
BEM
 62
     0
370
    -2
100
AcDbLine
 10
105.2571481826691
 20
148.9472232637206
 30
0.0
 11
224.2571481826696
 21
148.9472232637206
 31
0.0
  0
SOLID
  5
1BA3
330
1886
100
AcDbEntity
  8
BEM
 62
     0
100
AcDbTrace
 10
105.2571481826691
 20
150.1138899303873
 30
0.0
 11
105.2571481826691
 21
147.7805565970539
 31
0.0
 12
98.25714818266915
 22
148.9472232637206
 32
0.0
 13
98.25714818266915
 23
148.9472232637206
 33
0.0
  0
SOLID
  5
1BA4
330
1886
100
AcDbEntity
  8
BEM
 62
     0
100
AcDbTrace
 10
224.2571481826696
 20
150.1138899303873
 30
0.0
 11
224.2571481826696
 21
147.7805565970539
 31
0.0
 12
231.2571481826696
 22
148.9472232637206
 32
0.0
 13
231.2571481826696
 23
148.9472232637206
 33
0.0
  0
MTEXT
  5
1BA5
330
1886
100
AcDbEntity
  8
BEM
 62
     1
100
AcDbMText
 10
164.7571481826694
 20
155.4472232637206
 30
0.0
 40
7.0
 41
0.0
 71
     5
 72
     1
  1
\A1;%%c133
 73
     1
 44
1.0
  0
POINT
  5
1BA6
330
1886
100
AcDbEntity
  8
DEFPOINTS
 62
     0
100
AcDbPoint
 10
98.25714818266915
 20
185.0711662463891
 30
0.0
  0
POINT
  5
1BA7
330
1886
100
AcDbEntity
  8
DEFPOINTS
 62
     0
100
AcDbPoint
 10
231.2571481826696
 20
185.0711662463894
 30
0.0
  0
POINT
  5
1BA8
330
1886
100
AcDbEntity
  8
DEFPOINTS
 62
     0
100
AcDbPoint
 10
231.2571481826696
 20
148.9472232637206
 30
0.0
  0
ENDBLK
  5
1891
330
1886
100
AcDbEntity
  8
0
100
AcDbBlockEnd
  0
BLOCK
  5
19D0
330
19C6
100
AcDbEntity
  8
0
100
AcDbBlockBegin
  2
*D4
 70
     1
 10
0.0
 20
0.0
 30
0.0
  3
*D4
  1

  0
LINE
  5
1BC4
330
19C6
100
AcDbEntity
  8
BEM
 62
     0
370
    -2
100
AcDbLine
 10
162.7571481826691
 20
325.0711662463894
 30
0.0
 11
80.13860318809268
 21
325.0711662463895
 31
0.0
  0
LINE
  5
1BC5
330
19C6
100
AcDbEntity
  8
BEM
 62
     0
370
    -2
100
AcDbLine
 10
97.13203481792834
 20
175.0711662463892
 30
0.0
 11
80.13860318809264
 21
175.0711662463892
 31
0.0
  0
LINE
  5
1BC6
330
19C6
100
AcDbEntity
  8
BEM
 62
     0
370
    -2
100
AcDbLine
 10
82.13860318809267
 20
318.0711662463894
 30
0.0
 11
82.13860318809265
 21
182.0711662463892
 31
0.0
  0
SOLID
  5
1BC7
330
19C6
100
AcDbEntity
  8
BEM
 62
     0
100
AcDbTrace
 10
80.971936521426
 20
318.0711662463894
 30
0.0
 11
83.30526985475934
 21
318.0711662463894
 31
0.0
 12
82.13860318809267
 22
325.0711662463895
 32
0.0
 13
82.13860318809267
 23
325.0711662463895
 33
0.0
  0
SOLID
  5
1BC8
330
19C6
100
AcDbEntity
  8
BEM
 62
     0
100
AcDbTrace
 10
80.97193652142598
 20
182.0711662463892
 30
0.0
 11
83.30526985475932
 21
182.0711662463892
 31
0.0
 12
82.13860318809265
 22
175.0711662463892
 32
0.0
 13
82.13860318809265
 23
175.0711662463892
 33
0.0
  0
MTEXT
  5
1BC9
330
19C6
100
AcDbEntity
  8
BEM
 62
     1
100
AcDbMText
 10
75.63860318809261
 20
250.0711662463893
 30
0.0
 40
7.0
 41
0.0
 71
     5
 72
     1
  1
\A1;150
 11
0.0000000000000001
 21
1.0
 31
0.0
 73
     1
 44
1.0
  0
POINT
  5
1BCA
330
19C6
100
AcDbEntity
  8
DEFPOINTS
 62
     0
100
AcDbPoint
 10
164.7571481826691
 20
325.0711662463894
 30
0.0
  0
POINT
  5
1BCB
330
19C6
100
AcDbEntity
  8
DEFPOINTS
 62
     0
100
AcDbPoint
 10
99.13203481792834
 20
175.0711662463892
 30
0.0
  0
POINT
  5
1BCC
330
19C6
100
AcDbEntity
  8
DEFPOINTS
 62
     0
100
AcDbPoint
 10
82.13860318809265
 20
175.0711662463892
 30
0.0
  0
ENDBLK
  5
19D1
330
19C6
100
AcDbEntity
  8
0
100
AcDbBlockEnd
  0
BLOCK
  5
1AB4
330
1AAA
100
AcDbEntity
  8
0
100
AcDbBlockBegin
  2
*D5
 70
     1
 10
0.0
 20
0.0
 30
0.0
  3
*D5
  1

  0
LINE
  5
1BCD
330
1AAA
100
AcDbEntity
  8
BEM
 62
     0
370
    -2
100
AcDbLine
 10
165.4411884693204
 20
323.1917810048176
 30
0.0
 11
197.8206795740607
 21
234.2298603411073
 31
0.0
  0
LINE
  5
1BCE
330
1AAA
100
AcDbEntity
  8
BEM
 62
     0
370
    -2
100
AcDbLine
 10
396.6810412859961
 20
331.1024749488702
 30
0.0
 11
404.5530561469629
 21
309.4742918727515
 31
0.0
  0
LINE
  5
1BCF
330
1AAA
100
AcDbEntity
  8
BEM
 62
     0
370
    -2
100
AcDbLine
 10
203.7144876329108
 20
238.5033865859587
 30
0.0
 11
397.2911675148102
 21
308.9595361110438
 31
0.0
  0
SOLID
  5
1BD0
330
1AAA
100
AcDbEntity
  8
BEM
 62
     0
100
AcDbTrace
 10
203.3154641323642
 20
239.5996946435423
 30
0.0
 11
204.1135111334574
 21
237.4070785283752
 31
0.0
 12
197.1366392874094
 22
236.1092455826792
 32
0.0
 13
197.1366392874094
 23
236.1092455826792
 33
0.0
  0
SOLID
  5
1BD1
330
1AAA
100
AcDbEntity
  8
BEM
 62
     0
100
AcDbTrace
 10
396.8921440142636
 20
310.0558441686274
 30
0.0
 11
397.6901910153568
 21
307.8632280534602
 31
0.0
 12
403.8690158603116
 22
311.3536771143234
 32
0.0
 13
403.8690158603116
 23
311.3536771143234
 33
0.0
  0
MTEXT
  5
1BD2
330
1AAA
100
AcDbEntity
  8
BEM
 62
     1
100
AcDbMText
 10
298.2796966422437
 20
279.8394633836097
 30
0.0
 40
7.0
 41
0.0
 71
     5
 72
     1
  1
\A1;220
 11
0.939692620785914
 21
0.3420201433256536
 31
0.0
 73
     1
 44
1.0
  0
POINT
  5
1BD3
330
1AAA
100
AcDbEntity
  8
DEFPOINTS
 62
     0
100
AcDbPoint
 10
164.7571481826691
 20
325.0711662463894
 30
0.0
  0
POINT
  5
1BD4
330
1AAA
100
AcDbEntity
  8
DEFPOINTS
 62
     0
100
AcDbPoint
 10
395.9970009993448
 20
332.981860190442
 30
0.0
  0
POINT
  5
1BD5
330
1AAA
100
AcDbEntity
  8
DEFPOINTS
 62
     0
100
AcDbPoint
 10
403.8690158603116
 20
311.3536771143233
 30
0.0
  0
ENDBLK
  5
1AB5
330
1AAA
100
AcDbEntity
  8
0
100
AcDbBlockEnd
  0
BLOCK
  5
1BF5
330
1BE9
100
AcDbEntity
  8
0
100
AcDbBlockBegin
  2
*D6
 70
     1
 10
0.0
 20
0.0
 30
0.0
  3
*D6
  1

  0
LINE
  5
1BEA
330
1BE9
100
AcDbEntity
  8
BEM
 62
     0
370
    -2
100
AcDbLine
 10
378.0673731010705
 20
402.7097387813161
 30
0.0
 11
398.5895706703296
 21
410.1792078382564
 31
0.0
  0
LINE
  5
1BEB
330
1BE9
100
AcDbEntity
  8
BEM
 62
     0
370
    -2
100
AcDbLine
 10
164.7571481826692
 20
542.0744591507193
 30
0.0
 11
164.7571481826694
 21
573.9104327419542
 31
0.0
  0
ARC
  5
1BEC
330
1BE9
100
AcDbEntity
  8
BEM
 62
     0
370
    -2
100
AcDbCircle
 10
164.7571481826691
 20
325.0711662463893
 30
0.0
 40
246.8392664955648
100
AcDbArc
 50
21.62487882423761
 51
88.37512117576228
  0
SOLID
  5
1BED
330
1BE9
100
AcDbEntity
  8
BEM
 62
     0
100
AcDbTrace
 10
395.313556022808
 20
416.4529356861111
 30
0.0
 11
393.1324760551817
 21
415.6238792228569
 31
0.0
 12
396.7101854287577
 22
409.4951675516051
 32
0.0
 13
396.7101854287577
 23
409.4951675516051
 33
0.0
  0
SOLID
  5
1BEE
330
1BE9
100
AcDbEntity
  8
BEM
 62
     0
100
AcDbTrace
 10
171.7399019877971
 20
570.6446284884914
 30
0.0
 11
171.7729869453998
 21
572.9777272498011
 31
0.0
 12
164.7571481826694
 22
571.9104327419541
 32
0.0
 13
164.7571481826694
 23
571.9104327419541
 33
0.0
  0
MTEXT
  5
1BEF
330
1BE9
100
AcDbEntity
  8
BEM
 62
     1
100
AcDbMText
 10
310.0665818469833
 20
532.5945442949047
 30
0.0
 40
7.0
 41
0.0
 71
     5
 72
     1
  1
\A1;70°
 11
0.8191520442889917
 21
-0.5735764363510463
 31
0.0
 73
     1
 44
1.0
  0
POINT
  5
1BF0
330
1BE9
100
AcDbEntity
  8
DEFPOINTS
 62
     0
100
AcDbPoint
 10
344.3015243367685
 20
494.4625487766223
 30
0.0
  0
POINT
  5
1BF1
330
1BE9
100
AcDbEntity
  8
DEFPOINTS
 62
     0
100
AcDbPoint
 10
164.7571481826692
 20
540.0744591507193
 30
0.0
  0
POINT
  5
1BF2
330
1BE9
100
AcDbEntity
  8
DEFPOINTS
 62
     0
100
AcDbPoint
 10
376.1879878594986
 20
402.0256984946647
 30
0.0
  0
POINT
  5
1BF3
330
1BE9
100
AcDbEntity
  8
DEFPOINTS
 62
     0
100
AcDbPoint
 10
164.7571481826691
 20
325.0711662463894
 30
0.0
  0
POINT
  5
1BF4
330
1BE9
100
AcDbEntity
  8
DEFPOINTS
 62
     0
100
AcDbPoint
 10
164.7571481826691
 20
170.0711662463894
 30
0.0
  0
ENDBLK
  5
1BF6
330
1BE9
100
AcDbEntity
  8
0
100
AcDbBlockEnd
  0
ENDSEC
  0
SECTION
  2
ENTITIES
  0
TEXT
  5
134
330
1E
100
AcDbEntity
  8
TEXT
100
AcDbText
 10
204.4216048581257
 20
63.0896391972351
 30
0.0
 40
4.0
  1
Koeh
 41
0.8
  7
GREEKS
 72
     1
 11
209.6787477152686
 21
63.0896391972351
 31
0.0
100
AcDbText
  0
INSERT
  5
135
330
1E
100
AcDbEntity
  8
STEMPEL
100
AcDbBlockReference
  2
LOGO
 10
150.9955485457794
 20
45.02105276448322
 30
0.0
 41
2.0
 42
2.0
 43
2.0
  0
LINE
  5
136
330
1E
100
AcDbEntity
  8
HILF
100
AcDbLine
 10
420.0
 20
0.0
 30
0.0
 11
0.0
 21
0.0
 31
0.0
  0
LINE
  5
137
330
1E
100
AcDbEntity
  8
HILF
100
AcDbLine
 10
419.9999999999999
 20
594.0000000000002
 30
0.0
 11
0.0
 21
594.0
 31
0.0
  0
LINE
  5
138
330
1E
100
AcDbEntity
  8
STEMPEL
100
AcDbLine
 10
410.0
 20
584.0
 30
0.0
 11
39.99999999999989
 21
584.0
 31
0.0
  0
LINE
  5
139
330
1E
100
AcDbEntity
  8
STEMPEL
100
AcDbLine
 10
410.0
 20
10.0
 30
0.0
 11
39.99999999999989
 21
10.0
 31
0.0
  0
LINE
  5
13A
330
1E
100
AcDbEntity
  8
STEMPEL
100
AcDbLine
 10
49.99999999999989
 20
10.0
 30
0.0
 11
410.0
 21
10.0
 31
0.0
  0
TEXT
  5
13B
330
1E
100
AcDbEntity
  8
TEXT
100
AcDbText
 10
202.4626584226295
 20
73.30961091915225
 30
0.0
 40
4.0
  1
Name
 41
0.8
  7
GREEKS
100
AcDbText
  0
TEXT
  5
13C
330
1E
100
AcDbEntity
  8
TEXT
100
AcDbText
 10
196.5498279101549
 20
102.6506227776589
 30
0.0
 40
5.0
  1
Zul. Abw.
 41
0.8
  7
GREEKS
 72
     4
 11
209.9783993387263
 21
105.1506227776589
 31
0.0
100
AcDbText
  0
LINE
  5
13D
330
1E
100
AcDbEntity
  8
HILF
100
AcDbLine
 10
146.0000000000001
 20
49.99999999999997
 30
0.0
 11
230.0
 21
49.99999999999997
 31
0.0
  0
LINE
  5
13E
330
1E
100
AcDbEntity
  8
HILF
100
AcDbLine
 10
146.0000000000001
 20
59.99999999999997
 30
0.0
 11
230.0
 21
59.99999999999997
 31
0.0
  0
LINE
  5
13F
330
1E
100
AcDbEntity
  8
HILF
100
AcDbLine
 10
146.0000000000001
 20
69.99999999999994
 30
0.0
 11
230.0
 21
69.99999999999994
 31
0.0
  0
LINE
  5
140
330
1E
100
AcDbEntity
  8
STEMPEL
100
AcDbLine
 10
410.0
 20
80.0
 30
0.0
 11
146.0000000000001
 21
79.99999999999994
 31
0.0
  0
LINE
  5
141
330
1E
100
AcDbEntity
  8
STEMPEL
100
AcDbLine
 10
410.0
 20
40.0
 30
0.0
 11
146.0000000000001
 21
39.99999999999997
 31
0.0
  0
LINE
  5
142
330
1E
100
AcDbEntity
  8
STEMPEL
100
AcDbLine
 10
410.0
 20
110.0
 30
0.0
 11
39.99999999999997
 21
110.0
 31
0.0
  0
LINE
  5
144
330
1E
100
AcDbEntity
  8
HILF
100
AcDbLine
 10
0.0
 20
0.0
 30
0.0
 11
-0.0000000000001137
 21
594.0
 31
0.0
  0
LINE
  5
145
330
1E
100
AcDbEntity
  8
STEMPEL
100
AcDbLine
 10
40.0
 20
10.0
 30
0.0
 11
39.99999999999989
 21
584.0
 31
0.0
  0
TEXT
  5
146
330
1E
100
AcDbEntity
  8
TEXT
100
AcDbText
 10
41.85509950977674
 20
111.6719999999999
 30
0.0
 40
5.0
  1
Erstellt mit AUTOCAD 2004
 41
0.8
  7
GREEKS
100
AcDbText
  0
TEXT
  5
147
330
1E
100
AcDbEntity
  8
TEXT
100
AcDbText
 10
67.65811831396264
 20
18.34829198486668
 30
0.0
 40
4.0
  1
Änderung
 41
0.8
  7
GREEKS
 72
     1
 11
78.40097545681979
 21
18.34829198486668
 31
0.0
100
AcDbText
  0
LINE
  5
148
330
1E
100
AcDbEntity
  8
HILF
100
AcDbLine
 10
40.00000000000008
 20
39.99999999999997
 30
0.0
 11
146.0000000000001
 21
39.99999999999997
 31
0.0
  0
LINE
  5
149
330
1E
100
AcDbEntity
  8
HILF
100
AcDbLine
 10
40.00000000000008
 20
49.99999999999997
 30
0.0
 11
146.0000000000001
 21
49.99999999999997
 31
0.0
  0
LINE
  5
14A
330
1E
100
AcDbEntity
  8
HILF
100
AcDbLine
 10
40.00000000000008
 20
59.99999999999997
 30
0.0
 11
146.0000000000001
 21
59.99999999999997
 31
0.0
  0
LINE
  5
14B
330
1E
100
AcDbEntity
  8
HILF
100
AcDbLine
 10
40.00000000000008
 20
69.99999999999994
 30
0.0
 11
146.0000000000001
 21
69.99999999999994
 31
0.0
  0
LINE
  5
14C
330
1E
100
AcDbEntity
  8
HILF
100
AcDbLine
 10
40.00000000000008
 20
79.99999999999994
 30
0.0
 11
146.0000000000001
 21
79.99999999999994
 31
0.0
  0
LINE
  5
14D
330
1E
100
AcDbEntity
  8
HILF
100
AcDbLine
 10
40.00000000000008
 20
90.00000000000005
 30
0.0
 11
146.0000000000001
 21
90.00000000000005
 31
0.0
  0
LINE
  5
14E
330
1E
100
AcDbEntity
  8
HILF
100
AcDbLine
 10
40.00000000000008
 20
100.0
 30
0.0
 11
146.0000000000001
 21
100.0
 31
0.0
  0
LINE
  5
14F
330
1E
100
AcDbEntity
  8
STEMPEL
100
AcDbLine
 10
145.9999999999999
 20
29.99999999999997
 30
0.0
 11
39.99999999999997
 21
29.99999999999997
 31
0.0
  0
TEXT
  5
150
330
1E
100
AcDbEntity
  8
TEXT
100
AcDbText
 10
48.26641107045756
 20
13.65465846027192
 30
0.0
 40
4.0
  1
Index
 50
90.0
 41
0.8
  7
GREEKS
100
AcDbText
  0
LINE
  5
151
330
1E
100
AcDbEntity
  8
VOLL
100
AcDbLine
 10
54.00000000000009
 20
110.0
 30
0.0
 11
53.99999999999997
 21
9.999999999999971
 31
0.0
  0
LINE
  5
152
330
1E
100
AcDbEntity
  8
HILF
100
AcDbLine
 10
31.08767135713856
 20
297.0
 30
0.0
 11
0.0000000000001137
 21
297.0
 31
0.0
  0
TEXT
  5
153
330
1E
100
AcDbEntity
  8
TEXT
100
AcDbText
 10
110.462610504336
 20
18.6715626933981
 30
0.0
 40
4.0
  1
Tag
 41
0.8
  7
GREEKS
 72
     1
 11
114.1959438376693
 21
18.6715626933981
 31
0.0
100
AcDbText
  0
LINE
  5
154
330
1E
100
AcDbEntity
  8
VOLL
100
AcDbLine
 10
124.0000000000001
 20
109.9999999999999
 30
0.0
 11
124.0
 21
9.999999999999971
 31
0.0
  0
LINE
  5
155
330
1E
100
AcDbEntity
  8
VOLL
100
AcDbLine
 10
104.0000000000001
 20
109.9999999999999
 30
0.0
 11
104.0
 21
9.999999999999971
 31
0.0
  0
TEXT
  5
156
330
1E
100
AcDbEntity
  8
TEXT
100
AcDbText
 10
128.9002860979178
 20
18.59324216966408
 30
0.0
 40
4.0
  1
Name
 41
0.8
  7
GREEKS
 72
     1
 11
135.2240956217273
 21
18.59324216966408
 31
0.0
100
AcDbText
  0
LINE
  5
157
330
1E
100
AcDbEntity
  8
STEMPEL
100
AcDbLine
 10
146.0000000000001
 20
109.9999999999999
 30
0.0
 11
146.0
 21
9.999999999999971
 31
0.0
  0
TEXT
  5
158
330
1E
100
AcDbEntity
  8
TEXT
100
AcDbText
 10
170.398997108236
 20
63.10765040825732
 30
0.0
 40
4.0
  1
08.04.
 41
0.8
  7
GREEKS
 72
     1
 11
177.4085209177598
 21
63.10765040825732
 31
0.0
100
AcDbText
  0
TEXT
  5
159
330
1E
100
AcDbEntity
  8
TEXT
100
AcDbText
 10
172.331167315365
 20
73.31880501229926
 30
0.0
 40
4.0
  1
Tag
 41
0.8
  7
GREEKS
100
AcDbText
  0
TEXT
  5
15A
330
1E
100
AcDbEntity
  8
TEXT
100
AcDbText
 10
147.5836127167615
 20
63.62990369617964
 30
0.0
 40
4.0
  1
Gez.
 41
0.8
  7
GREEKS
100
AcDbText
  0
LINE
  5
15B
330
1E
100
AcDbEntity
  8
VOLL
100
AcDbLine
 10
164.0000000000001
 20
79.99999999999994
 30
0.0
 11
164.0000000000001
 21
39.99999999999997
 31
0.0
  0
TEXT
  5
15C
330
1E
100
AcDbEntity
  8
TEXT
100
AcDbText
 10
147.6006777387303
 20
43.52946389649807
 30
0.0
 40
4.0
  1
Norm.
 41
0.8
  7
GREEKS
100
AcDbText
  0
TEXT
  5
15D
330
1E
100
AcDbEntity
  8
TEXT
100
AcDbText
 10
147.5515086571672
 20
53.68926291428377
 30
0.0
 40
4.0
  1
Gepr.
 41
0.8
  7
GREEKS
100
AcDbText
  0
TEXT
  5
15E
330
1E
100
AcDbEntity
  8
TEXT
 62
     1
100
AcDbText
 10
160.5006306481887
 20
88.14901428913959
 30
0.0
 40
7.0
  1
1:2
 41
0.8
  7
GREEKS
100
AcDbText
  0
TEXT
  5
15F
330
1E
100
AcDbEntity
  8
TEXT
100
AcDbText
 10
153.5163572150377
 20
102.4620895087088
 30
0.0
 40
5.0
  1
Maßstab
 41
0.8
  7
GREEKS
100
AcDbText
  0
TEXT
  5
160
330
1E
100
AcDbEntity
  8
TEXT
100
AcDbText
 10
148.622109822104
 20
73.14025471151666
 30
0.0
 40
4.0
  1
2011
 41
0.8
  7
GREEKS
100
AcDbText
  0
LINE
  5
161
330
1E
100
AcDbEntity
  8
VOLL
100
AcDbLine
 10
190.0000000000001
 20
109.9999999999998
 30
0.0
 11
190.0
 21
39.99999999999997
 31
0.0
  0
LINE
  5
186
330
1E
100
AcDbEntity
  8
HILF
100
AcDbLine
 10
420.0
 20
-0.0000000000001137
 30
0.0
 11
419.9999999999999
 21
594.0
 31
0.0
  0
LINE
  5
187
330
1E
100
AcDbEntity
  8
STEMPEL
100
AcDbLine
 10
410.0
 20
10.0
 30
0.0
 11
410.0
 21
584.0
 31
0.0
  0
TEXT
  5
188
330
1E
100
AcDbEntity
  8
TEXT
100
AcDbText
 10
337.2400861497006
 20
52.07416177878602
 30
0.0
 40
5.0
  1
ersetzt durch:
 41
0.8
  7
GREEKS
100
AcDbText
  0
TEXT
  5
189
330
1E
100
AcDbEntity
  8
TEXT
100
AcDbText
 10
336.7238616296993
 20
73.1811823709997
 30
0.0
 40
5.0
  1
Ersatz für:
 41
0.8
  7
GREEKS
100
AcDbText
  0
TEXT
  5
18A
330
1E
100
AcDbEntity
  8
TEXT
100
AcDbText
 10
336.178754957634
 20
102.3132034537136
 30
0.0
 40
5.0
  1
Zeichnungs Nr.
 41
0.8
  7
GREEKS
100
AcDbText
  0
LINE
  5
18B
330
1E
100
AcDbEntity
  8
HILF
100
AcDbLine
 10
233.4909699289885
 20
14.89398258028314
 30
0.0
 11
404.8588839326728
 21
14.89398258028314
 31
0.0
  0
LINE
  5
18C
330
1E
100
AcDbEntity
  8
HILF
100
AcDbLine
 10
336.7238616296993
 20
83.77983636955827
 30
0.0
 11
404.8588839326728
 21
83.77983636955827
 31
0.0
  0
LINE
  5
18D
330
1E
100
AcDbEntity
  8
VOLL
100
AcDbLine
 10
332.0
 20
60.0
 30
0.0
 11
410.0
 21
60.0
 31
0.0
  0
TEXT
  5
18E
330
1E
100
AcDbEntity
  8
TEXT
 62
     1
100
AcDbText
 10
234.9283864320014
 20
87.41748789253779
 30
0.0
 40
7.0
  1
Abzweig DN125/125
 41
0.8
  7
GREEKS
100
AcDbText
  0
LINE
  5
18F
330
1E
100
AcDbEntity
  8
HILF
100
AcDbLine
 10
234.7736801096947
 20
49.99999999999997
 30
0.0
 11
324.835391655631
 21
49.99999999999997
 31
0.0
  0
LINE
  5
190
330
1E
100
AcDbEntity
  8
HILF
100
AcDbLine
 10
234.7736801096947
 20
59.99999999999997
 30
0.0
 11
324.835391655631
 21
59.99999999999997
 31
0.0
  0
LINE
  5
191
330
1E
100
AcDbEntity
  8
HILF
100
AcDbLine
 10
234.7736801096947
 20
69.99999999999994
 30
0.0
 11
324.835391655631
 21
69.99999999999994
 31
0.0
  0
LINE
  5
192
330
1E
100
AcDbEntity
  8
HILF
100
AcDbLine
 10
234.7736801096947
 20
84.03758247564139
 30
0.0
 11
324.8353916556311
 21
84.03758247564139
 31
0.0
  0
LINE
  5
193
330
1E
100
AcDbEntity
  8
STEMPEL
100
AcDbLine
 10
230.0
 20
110.0
 30
0.0
 11
230.0
 21
9.999999999999971
 31
0.0
  0
TEXT
  5
194
330
1E
100
AcDbEntity
  8
TEXT
100
AcDbText
 10
235.1296391125315
 20
71.50334417585288
 30
0.0
 40
5.0
  1
dünnwandig 70° 
 41
0.8
  7
GREEKS
100
AcDbText
  0
TEXT
  5
195
330
1E
100
AcDbEntity
  8
TEXT
100
AcDbText
 10
234.9837501577827
 20
42.62974153022632
 30
0.0
 40
4.0
  1
5210EE0W.DWG
 41
0.8
  7
GREEKS
100
AcDbText
  0
TEXT
  5
196
330
1E
100
AcDbEntity
  8
TEXT
100
AcDbText
 10
234.742238391136
 20
30.84560570193057
 30
0.0
 40
5.0
  1
Bauvorhaben
 41
0.8
  7
GREEKS
100
AcDbText
  0
TEXT
  5
197
330
1E
100
AcDbEntity
  8
TEXT
100
AcDbText
 10
234.877940380901
 20
102.5489328011779
 30
0.0
 40
5.0
  1
Benennung
 41
0.8
  7
GREEKS
100
AcDbText
  0
LINE
  5
198
330
1E
100
AcDbEntity
  8
STEMPEL
100
AcDbLine
 10
332.0
 20
109.9999999999997
 30
0.0
 11
332.0
 21
40.0
 31
0.0
  0
TEXT
  5
19A
330
1E
100
AcDbEntity
  8
TEXT
 62
     1
100
AcDbText
 10
350.3673691953291
 20
88.14901428913959
 30
0.0
 40
7.0
  1
5210EE0W
 41
0.8
  7
GREEKS
 72
     1
 11
370.9007025286624
 21
88.14901428913959
 31
0.0
100
AcDbText
  0
TEXT
  5
212
330
1E
100
AcDbEntity
  8
TEXT
100
AcDbText
 10
235.1296391125315
 20
51.50334417585291
 30
0.0
 40
5.0
  1
EDV-Art.Nr. 5.210.EE0C
 41
0.8
  7
GREEKS
100
AcDbText
  0
TEXT
  5
255
330
1E
100
AcDbEntity
  8
TEXT
 62
     1
100
AcDbText
 10
297.0573649355706
 20
132.2248663682012
 30
0.0
 40
7.0
  1
Werkstoff: 1.4404
 41
0.8
  7
GREEKS
100
AcDbText
  0
LINE
  5
1811
330
1E
100
AcDbEntity
  8
STEMPEL
100
AcDbLine
 10
236.4122150611132
 20
535.0744591507191
 30
0.0
 11
93.10208130422553
 21
535.0744591507193
 31
0.0
  0
LINE
  5
1821
330
1E
100
AcDbEntity
  8
MITTEL
100
AcDbLine
 10
164.7571481826692
 20
540.0744591507193
 30
0.0
 11
164.757148182669
 21
170.0711662463894
 31
0.0
  0
LINE
  5
1855
330
1E
100
AcDbEntity
  8
STEMPEL
100
AcDbLine
 10
230.38226154741
 20
175.0711662463894
 30
0.0
 11
99.13203481792834
 21
175.0711662463892
 31
0.0
  0
LINE
  5
1856
330
1E
100
AcDbEntity
  8
HILF
100
AcDbLine
 10
229.7571481826692
 20
185.0711662463894
 30
0.0
 11
99.75714818266903
 21
185.0711662463895
 31
0.0
  0
LINE
  5
1857
330
1E
100
AcDbEntity
  8
STEMPEL
100
AcDbLine
 10
98.25714818266915
 20
185.0711662463892
 30
0.0
 11
99.13203481792828
 21
175.0711662463892
 31
0.0
  0
LINE
  5
1858
330
1E
100
AcDbEntity
  8
STEMPEL
100
AcDbLine
 10
231.2571481826692
 20
185.0711662463899
 30
0.0
 11
230.38226154741
 21
175.0711662463894
 31
0.0
  0
DIMENSION
  5
1859
330
1E
100
AcDbEntity
  8
BEM
100
AcDbDimension
  2
*D1
 10
66.07765600885219
 20
535.0744591507193
 30
0.0
 11
59.5776560088521
 21
355.0728126985543
 31
0.0
 70
    32
 71
     5
 42
360.0032929043301
  3
Standard
100
AcDbAlignedDimension
 13
99.13203481792834
 23
175.0711662463891
 33
0.0
 14
93.10208130422553
 24
535.0744591507193
 34
0.0
 50
90.0
100
AcDbRotatedDimension
1001
ACAD
1000
DSTYLE
1002
{
1070
    40
1040
2.0
1070
    41
1040
3.5
1070
    42
1040
1.0
1070
    43
1040
7.0
1070
    44
1040
1.0
1070
    73
1070
     0
1070
    74
1070
     0
1070
    77
1070
     1
1070
    78
1070
     8
1070
    79
1070
     2
1070
   140
1040
3.5
1070
   141
1040
1.5
1070
   146
1040
0.5142857142857144
1070
   147
1040
1.5
1070
   172
1070
     1
1070
   178
1070
     1
1070
   179
1070
     2
1070
   271
1070
     2
1070
   272
1070
     2
1070
   284
1070
     8
1070
   285
1070
     8
1070
   286
1070
     8
1002
}
  0
DIMENSION
  5
185A
330
1E
100
AcDbEntity
  8
BEM
100
AcDbDimension
  2
*D2
 10
231.2571481826696
 20
148.9472232637206
 30
0.0
 11
164.7571481826694
 21
155.4472232637206
 31
0.0
 70
    32
  1
%%c<>
 71
     5
 42
133.0000000000004
  3
Standard
100
AcDbAlignedDimension
 13
98.25714818266915
 23
185.0711662463891
 33
0.0
 14
231.2571481826696
 24
185.0711662463894
 34
0.0
100
AcDbRotatedDimension
1001
ACAD
1000
DSTYLE
1002
{
1070
    40
1040
2.0
1070
    41
1040
3.5
1070
    42
1040
1.0
1070
    43
1040
7.0
1070
    44
1040
1.0
1070
    73
1070
     0
1070
    74
1070
     0
1070
    77
1070
     1
1070
    78
1070
     8
1070
    79
1070
     2
1070
   140
1040
3.5
1070
   141
1040
1.5
1070
   146
1040
0.5142857142857144
1070
   147
1040
1.5
1070
   172
1070
     1
1070
   178
1070
     1
1070
   179
1070
     2
1070
   271
1070
     2
1070
   272
1070
     2
1070
   284
1070
     8
1070
   285
1070
     8
1070
   286
1070
     8
1002
}
  0
TEXT
  5
1861
330
1E
100
AcDbEntity
  8
TEXT
 62
     1
100
AcDbText
 10
131.9559589102654
 20
509.6183630086192
 30
0.0
 40
7.0
  1
DN125
 41
0.8
  7
GREEKS
100
AcDbText
  0
LINE
  5
1862
330
1E
100
AcDbEntity
  8
STEMPEL
100
AcDbLine
 10
236.4122150611131
 20
535.0744591507191
 30
0.0
 11
237.0400740067321
 21
533.7280112967353
 31
0.0
  0
ARC
  5
1863
330
1E
100
AcDbEntity
  8
STEMPEL
100
AcDbCircle
 10
210.7571481826692
 20
521.4720817062548
 30
0.0
 40
29.0
100
AcDbArc
 50
0.0
 51
24.9999999999925
  0
LINE
  5
1864
330
1E
100
AcDbEntity
  8
STEMPEL
100
AcDbLine
 10
239.7571481826692
 20
521.4720817062548
 30
0.0
 11
239.7571481826692
 21
502.3654591507192
 31
0.0
  0
ARC
  5
1865
330
1E
100
AcDbEntity
  8
STEMPEL
100
AcDbCircle
 10
210.7571481826693
 20
502.3654591507191
 30
0.0
 40
29.0
100
AcDbArc
 50
334.8288522569417
 51
0.0
  0
ARC
  5
1866
330
1E
100
AcDbEntity
  8
STEMPEL
100
AcDbCircle
 10
254.2571481826692
 20
482.0744591507192
 30
0.0
 40
19.0
100
AcDbArc
 50
154.772855634092
 51
179.9999999999999
  0
LINE
  5
1867
330
1E
100
AcDbEntity
  8
STEMPEL
100
AcDbLine
 10
235.2571481826692
 20
482.0744591507192
 30
0.0
 11
235.2571481826692
 21
468.5376864286498
 31
0.0
  0
ARC
  5
1868
330
1E
100
AcDbEntity
  8
STEMPEL
100
AcDbCircle
 10
218.2571481826694
 20
468.5376864286499
 30
0.0
 40
17.0
100
AcDbArc
 50
328.4136619034717
 51
0.0
  0
ARC
  5
1869
330
1E
100
AcDbEntity
  8
STEMPEL
100
AcDbCircle
 10
241.2571481826693
 20
454.3955508049188
 30
0.0
 40
10.0
100
AcDbArc
 50
148.4136619034718
 51
179.9999999999999
  0
ARC
  5
186A
330
1E
100
AcDbEntity
  8
STEMPEL
100
AcDbCircle
 10
118.7571481826692
 20
502.3654591507192
 30
0.0
 40
29.0
100
AcDbArc
 50
179.9999999999999
 51
205.1711477430582
  0
ARC
  5
186B
330
1E
100
AcDbEntity
  8
STEMPEL
100
AcDbCircle
 10
75.25714818266926
 20
482.0744591507192
 30
0.0
 40
19.0
100
AcDbArc
 50
0.0
 51
25.22714436590796
  0
LINE
  5
186C
330
1E
100
AcDbEntity
  8
STEMPEL
100
AcDbLine
 10
94.25714818266923
 20
482.0744591507192
 30
0.0
 11
94.25714818266923
 21
468.5376864286499
 31
0.0
  0
ARC
  5
186D
330
1E
100
AcDbEntity
  8
STEMPEL
100
AcDbCircle
 10
111.2571481826692
 20
468.5376864286499
 30
0.0
 40
17.0
100
AcDbArc
 50
179.9999999999999
 51
211.5863380965281
  0
ARC
  5
186E
330
1E
100
AcDbEntity
  8
STEMPEL
100
AcDbCircle
 10
88.25714818266922
 20
454.3955508049189
 30
0.0
 40
10.0
100
AcDbArc
 50
0.0
 51
31.58633809652806
  0
LINE
  5
186F
330
1E
100
AcDbEntity
  8
STEMPEL
100
AcDbLine
 10
93.10208130422559
 20
535.0744591507193
 30
0.0
 11
92.47422235860661
 21
533.7280112967353
 31
0.0
  0
POINT
  5
1870
330
1E
100
AcDbEntity
  8
STEMPEL
100
AcDbPoint
 10
94.75714818266927
 20
535.0744591507193
 30
0.0
  0
ARC
  5
1871
330
1E
100
AcDbEntity
  8
STEMPEL
100
AcDbCircle
 10
118.7571481826692
 20
521.4720817062548
 30
0.0
 40
29.0
100
AcDbArc
 50
155.0000000000074
 51
179.9999999999999
  0
LINE
  5
1872
330
1E
100
AcDbEntity
  8
STEMPEL
100
AcDbLine
 10
89.75714818266949
 20
521.472081706255
 30
0.0
 11
89.75714818266947
 21
502.3654591507192
 31
0.0
  0
LINE
  5
1873
330
1E
100
AcDbEntity
  8
HILF
100
AcDbLine
 10
233.1720301367346
 20
464.3191207605233
 30
0.0
 11
96.34226622860394
 21
464.3191207605234
 31
0.0
  0
LINE
  5
1874
330
1E
100
AcDbEntity
  8
HILF
100
AcDbLine
 10
230.1912680232014
 20
457.5254543651418
 30
0.0
 11
99.32302834213707
 21
457.5254543651418
 31
0.0
  0
LINE
  5
1875
330
1E
100
AcDbEntity
  8
HILF
100
AcDbLine
 10
234.2519144332922
 20
486.5511345502526
 30
0.0
 11
95.26238193204624
 21
486.5511345502527
 31
0.0
  0
LINE
  5
1876
330
1E
100
AcDbEntity
  8
STEMPEL
100
AcDbLine
 10
98.25714818266924
 20
454.3955508049189
 30
0.0
 11
98.25714818266908
 21
185.0711662463893
 31
0.0
  0
LINE
  5
1877
102
{ACAD_REACTORS
330
1BE0
102
}
330
1E
100
AcDbEntity
  8
STEMPEL
100
AcDbLine
 10
231.2571481826692
 20
454.3955508049188
 30
0.0
 11
231.2571481826691
 21
420.0430086947397
 31
0.0
  0
LINE
  5
19AB
330
1E
100
AcDbEntity
  8
HILF
100
AcDbLine
 10
349.6611246059331
 20
318.4159243145948
 30
0.0
 11
302.1239047790893
 21
449.0233623724988
 31
0.0
  0
LINE
  5
19AC
330
1E
100
AcDbEntity
  8
HILF
100
AcDbLine
 10
320.9970842555188
 20
312.3043164847414
 30
0.0
 11
276.237510163023
 21
435.2802356082789
 31
0.0
  0
LINE
  5
19AD
330
1E
100
AcDbEntity
  8
HILF
100
AcDbLine
 10
328.4005231206302
 20
311.826887076591
 30
0.0
 11
281.6019876575539
 21
440.4048065249395
 31
0.0
  0
LINE
  5
19AE
330
1E
100
AcDbEntity
  8
STEMPEL
100
AcDbLine
 10
395.9970009993448
 20
332.9818601904417
 30
0.0
 11
346.9820485117933
 21
467.6493353656307
 31
0.0
  0
LINE
  5
19AF
330
1E
100
AcDbEntity
  8
STEMPEL
100
AcDbLine
 10
297.5733957494563
 20
448.4368599471825
 30
0.0
 11
284.8529903132718
 21
443.8070110006133
 31
0.0
  0
ARC
  5
19B0
330
1E
100
AcDbEntity
  8
STEMPEL
100
AcDbCircle
 10
269.5116089655441
 20
444.608271472369
 30
0.0
 40
10.0
100
AcDbArc
 50
290.0
 51
321.5863380965281
  0
ARC
  5
19B1
330
1E
100
AcDbEntity
  8
STEMPEL
100
AcDbCircle
 10
290.667332749808
 20
427.8322364472526
 30
0.0
 40
17.0
100
AcDbArc
 50
109.9999999999999
 51
141.5863380965281
  0
ARC
  5
19B2
330
1E
100
AcDbEntity
  8
STEMPEL
100
AcDbCircle
 10
342.9745444528803
 20
438.8891712510623
 30
0.0
 40
29.0
100
AcDbArc
 50
85.00000000000744
 51
109.9999999999999
  0
ARC
  5
19B3
330
1E
100
AcDbEntity
  8
STEMPEL
100
AcDbCircle
 10
325.0201922293018
 20
432.3543214661487
 30
0.0
 40
29.0
100
AcDbArc
 50
109.9999999999999
 51
135.1711477430581
  0
LINE
  5
19B4
330
1E
100
AcDbEntity
  8
STEMPEL
100
AcDbLine
 10
333.0559602964362
 20
466.1402572538537
 30
0.0
 11
315.1016080728576
 21
459.60540746894
 31
0.0
  0
ARC
  5
19B5
330
1E
100
AcDbEntity
  8
STEMPEL
100
AcDbCircle
 10
291.0750130262685
 20
466.2910197421146
 30
0.0
 40
19.0
100
AcDbArc
 50
290.0
 51
315.227144365908
  0
POINT
  5
19B6
330
1E
100
AcDbEntity
  8
STEMPEL
100
AcDbPoint
 10
347.5481147227722
 20
466.0940812330498
 30
0.0
  0
LINE
  5
19B7
330
1E
100
AcDbEntity
  8
STEMPEL
100
AcDbLine
 10
346.9820485117933
 20
467.6493353656305
 30
0.0
 11
345.5020609925627
 21
467.7788174957229
 31
0.0
  0
TEXT
  5
19B8
330
1E
100
AcDbEntity
  8
TEXT
 62
     1
100
AcDbText
 10
332.382435196881
 20
397.2541279834446
 30
0.0
 40
7.0
  1
DN125
 50
19.99999999999999
 41
0.8
  7
GREEKS
100
AcDbText
  0
LINE
  5
19B9
330
1E
100
AcDbEntity
  8
STEMPEL
100
AcDbLine
 10
345.7982359583755
 20
315.9402004163694
 30
0.0
 11
333.077830522191
 21
311.3103514698003
 31
0.0
  0
ARC
  5
19BA
330
1E
100
AcDbEntity
  8
STEMPEL
100
AcDbCircle
 10
321.8406908943713
 20
300.8353004921251
 30
0.0
 40
10.0
100
AcDbArc
 50
78.41366190347191
 51
109.9999999999999
  0
ARC
  5
19BB
330
1E
100
AcDbEntity
  8
STEMPEL
100
AcDbCircle
 10
327.2634880856545
 20
327.2851260231604
 30
0.0
 40
17.0
100
AcDbArc
 50
258.4136619034718
 51
290.0
  0
ARC
  5
19BC
330
1E
100
AcDbEntity
  8
STEMPEL
100
AcDbCircle
 10
374.4403976388418
 20
352.4374501387589
 30
0.0
 40
29.0
100
AcDbArc
 50
290.0
 51
314.9999999999926
  0
ARC
  5
19BD
330
1E
100
AcDbEntity
  8
STEMPEL
100
AcDbCircle
 10
356.4860454152633
 20
345.9026003538451
 30
0.0
 40
29.0
100
AcDbArc
 50
264.8288522569417
 51
290.0
  0
ARC
  5
19BE
330
1E
100
AcDbEntity
  8
STEMPEL
100
AcDbCircle
 10
352.2966186815631
 20
298.086040621437
 30
0.0
 40
19.0
100
AcDbArc
 50
84.77285563409202
 51
109.9999999999999
  0
LINE
  5
19BF
330
1E
100
AcDbEntity
  8
STEMPEL
100
AcDbLine
 10
384.3589817952864
 20
325.1863641359677
 30
0.0
 11
366.4046295717078
 21
318.6515143510539
 31
0.0
  0
LINE
  5
19C0
330
1E
100
AcDbEntity
  8
STEMPEL
100
AcDbLine
 10
395.9970009993448
 20
332.9818601904419
 30
0.0
 11
394.946494293252
 21
331.9313534843491
 31
0.0
  0
LINE
  5
19C1
102
{ACAD_REACTORS
330
1BE0
102
}
330
1E
100
AcDbEntity
  8
STEMPEL
100
AcDbLine
 10
272.931810398801
 20
435.2113452645101
 30
0.0
 11
231.2571481826691
 21
420.0430086947397
 31
0.0
  0
LINE
  5
19C2
330
1E
100
AcDbEntity
  8
MITTEL
100
AcDbLine
 10
376.1879878594986
 20
402.0256984946647
 30
0.0
 11
164.7571481826691
 21
325.0711662463894
 31
0.0
  0
LINE
  5
19C3
102
{ACAD_REACTORS
330
1BE7
102
}
330
1E
100
AcDbEntity
  8
STEMPEL
100
AcDbLine
 10
318.4204894611148
 20
310.2322266999843
 30
0.0
 11
231.2571481826692
 21
278.5073649554435
 31
0.0
  0
DIMENSION
  5
19C5
330
1E
100
AcDbEntity
  8
BEM
100
AcDbDimension
  2
*D4
 10
82.13860318809265
 20
175.0711662463892
 30
0.0
 11
75.63860318809261
 21
250.0711662463893
 31
0.0
 70
    32
 71
     5
 42
150.0000000000002
  3
Standard
100
AcDbAlignedDimension
 13
164.7571481826691
 23
325.0711662463894
 33
0.0
 14
99.13203481792834
 24
175.0711662463892
 34
0.0
 50
90.0
100
AcDbRotatedDimension
1001
ACAD
1000
DSTYLE
1002
{
1070
    40
1040
2.0
1070
    41
1040
3.5
1070
    42
1040
1.0
1070
    43
1040
7.0
1070
    44
1040
1.0
1070
    73
1070
     0
1070
    74
1070
     0
1070
    77
1070
     1
1070
    78
1070
     8
1070
    79
1070
     2
1070
   140
1040
3.5
1070
   141
1040
1.5
1070
   146
1040
0.5142857142857144
1070
   147
1040
1.5
1070
   172
1070
     1
1070
   178
1070
     1
1070
   179
1070
     2
1070
   271
1070
     2
1070
   272
1070
     2
1070
   284
1070
     8
1070
   285
1070
     8
1070
   286
1070
     8
1002
}
  0
LINE
  5
19D2
102
{ACAD_REACTORS
330
1BE7
102
}
330
1E
100
AcDbEntity
  8
STEMPEL
100
AcDbLine
 10
231.2571481826692
 20
278.5073649554435
 30
0.0
 11
231.2571481826691
 21
185.0711662463896
 31
0.0
  0
LINE
  5
1A07
330
1E
100
AcDbEntity
  8
STEMPEL
100
AcDbLine
 10
231.2571481826692
 20
420.0430086947397
 30
0.0
 11
164.7571481826691
 21
325.0711662463894
 31
0.0
  0
LINE
  5
1A08
330
1E
100
AcDbEntity
  8
STEMPEL
100
AcDbLine
 10
164.7571481826691
 20
325.0711662463894
 30
0.0
 11
231.2571481826692
 21
278.5073649554436
 31
0.0
  0
ARC
  5
1A3C
330
1E
100
AcDbEntity
  8
SCHRAFF
100
AcDbCircle
 10
194.9361704199002
 20
368.1712766999166
 30
0.0
 40
5.615519614478622
100
AcDbArc
 50
202.7080400911382
 51
267.291959908862
  0
ARC
  5
1A3D
330
1E
100
AcDbEntity
  8
SCHRAFF
100
AcDbCircle
 10
192.068288238145
 20
364.0755164784717
 30
0.0
 40
5.615519614478622
100
AcDbArc
 50
202.7080400911382
 51
267.291959908862
  0
ARC
  5
1A3E
330
1E
100
AcDbEntity
  8
SCHRAFF
100
AcDbCircle
 10
189.2004060563897
 20
359.9797562570269
 30
0.0
 40
5.615519614478622
100
AcDbArc
 50
202.7080400911382
 51
267.291959908862
  0
ARC
  5
1A3F
330
1E
100
AcDbEntity
  8
SCHRAFF
100
AcDbCircle
 10
186.3325238746345
 20
355.8839960355819
 30
0.0
 40
5.615519614478622
100
AcDbArc
 50
202.7080400911382
 51
267.291959908862
  0
ARC
  5
1A40
330
1E
100
AcDbEntity
  8
SCHRAFF
100
AcDbCircle
 10
183.4646416928793
 20
351.7882358141369
 30
0.0
 40
5.615519614478622
100
AcDbArc
 50
202.7080400911382
 51
267.291959908862
  0
ARC
  5
1A41
330
1E
100
AcDbEntity
  8
SCHRAFF
100
AcDbCircle
 10
180.5967595111241
 20
347.692475592692
 30
0.0
 40
5.615519614478622
100
AcDbArc
 50
202.7080400911382
 51
267.291959908862
  0
ARC
  5
1A42
330
1E
100
AcDbEntity
  8
SCHRAFF
100
AcDbCircle
 10
177.7288773293689
 20
343.596715371247
 30
0.0
 40
5.615519614478622
100
AcDbArc
 50
202.7080400911382
 51
267.291959908862
  0
ARC
  5
1A43
330
1E
100
AcDbEntity
  8
SCHRAFF
100
AcDbCircle
 10
174.8609951476137
 20
339.500955149802
 30
0.0
 40
5.615519614478622
100
AcDbArc
 50
202.7080400911382
 51
267.291959908862
  0
ARC
  5
1A44
330
1E
100
AcDbEntity
  8
SCHRAFF
100
AcDbCircle
 10
171.9931129658585
 20
335.4051949283572
 30
0.0
 40
5.615519614478622
100
AcDbArc
 50
202.7080400911382
 51
267.291959908862
  0
ARC
  5
1A45
330
1E
100
AcDbEntity
  8
SCHRAFF
100
AcDbCircle
 10
200.6719347834106
 20
376.3627971428065
 30
0.0
 40
5.615519614478622
100
AcDbArc
 50
202.7080400911382
 51
267.291959908862
  0
ARC
  5
1A46
330
1E
100
AcDbEntity
  8
SCHRAFF
100
AcDbCircle
 10
197.8040526016553
 20
372.2670369213615
 30
0.0
 40
5.615519614478622
100
AcDbArc
 50
202.7080400911382
 51
267.291959908862
  0
ARC
  5
1A47
330
1E
100
AcDbEntity
  8
SCHRAFF
100
AcDbCircle
 10
215.0113456921866
 20
396.8415982500312
 30
0.0
 40
5.615519614478622
100
AcDbArc
 50
202.7080400911382
 51
267.291959908862
  0
ARC
  5
1A48
330
1E
100
AcDbEntity
  8
SCHRAFF
100
AcDbCircle
 10
206.407699146921
 20
384.5543175856963
 30
0.0
 40
5.615519614478622
100
AcDbArc
 50
202.7080400911382
 51
267.291959908862
  0
ARC
  5
1A49
330
1E
100
AcDbEntity
  8
SCHRAFF
100
AcDbCircle
 10
209.2755813286762
 20
388.6500778071413
 30
0.0
 40
5.615519614478622
100
AcDbArc
 50
202.7080400911382
 51
267.291959908862
  0
ARC
  5
1A4A
330
1E
100
AcDbEntity
  8
SCHRAFF
100
AcDbCircle
 10
203.5398169651657
 20
380.4585573642516
 30
0.0
 40
5.615519614478622
100
AcDbArc
 50
202.7080400911382
 51
267.291959908862
  0
ARC
  5
1A4B
330
1E
100
AcDbEntity
  8
SCHRAFF
100
AcDbCircle
 10
212.1434635104314
 20
392.7458380285863
 30
0.0
 40
5.615519614478622
100
AcDbArc
 50
202.7080400911382
 51
267.291959908862
  0
ARC
  5
1A4C
330
1E
100
AcDbEntity
  8
SCHRAFF
100
AcDbCircle
 10
217.8792278739419
 20
400.9373584714761
 30
0.0
 40
5.615519614478622
100
AcDbArc
 50
202.7080400911382
 51
267.291959908862
  0
ARC
  5
1A4D
330
1E
100
AcDbEntity
  8
SCHRAFF
100
AcDbCircle
 10
220.7471100556971
 20
405.0331186929211
 30
0.0
 40
5.615519614478622
100
AcDbArc
 50
202.7080400911382
 51
267.291959908862
  0
ARC
  5
1A7F
330
1E
100
AcDbEntity
  8
SCHRAFF
100
AcDbCircle
 10
176.5021375452717
 20
316.847236158502
 30
0.0
 40
5.352655712586298
100
AcDbArc
 50
110.9117304855398
 51
179.0882695144566
  0
ARC
  5
1A80
330
1E
100
AcDbEntity
  8
SCHRAFF
100
AcDbCircle
 10
172.4063773238268
 20
319.7151183402572
 30
0.0
 40
5.352655712586298
100
AcDbArc
 50
110.9117304855398
 51
179.0882695144566
  0
ARC
  5
1A81
330
1E
100
AcDbEntity
  8
SCHRAFF
100
AcDbCircle
 10
180.5978977667167
 20
313.9793539767467
 30
0.0
 40
5.352655712586298
100
AcDbArc
 50
110.9117304855398
 51
179.0882695144566
  0
ARC
  5
1A82
330
1E
100
AcDbEntity
  8
SCHRAFF
100
AcDbCircle
 10
184.6936579881616
 20
311.1114717949914
 30
0.0
 40
5.352655712586298
100
AcDbArc
 50
110.9117304855398
 51
179.0882695144566
  0
ARC
  5
1A83
330
1E
100
AcDbEntity
  8
SCHRAFF
100
AcDbCircle
 10
188.7894182096066
 20
308.2435896132362
 30
0.0
 40
5.352655712586298
100
AcDbArc
 50
110.9117304855398
 51
179.0882695144566
  0
ARC
  5
1A84
330
1E
100
AcDbEntity
  8
SCHRAFF
100
AcDbCircle
 10
192.8851784310515
 20
305.375707431481
 30
0.0
 40
5.352655712586298
100
AcDbArc
 50
110.9117304855398
 51
179.0882695144566
  0
ARC
  5
1A85
330
1E
100
AcDbEntity
  8
SCHRAFF
100
AcDbCircle
 10
196.9809386524964
 20
302.5078252497258
 30
0.0
 40
5.352655712586298
100
AcDbArc
 50
110.9117304855398
 51
179.0882695144566
  0
ARC
  5
1A86
330
1E
100
AcDbEntity
  8
SCHRAFF
100
AcDbCircle
 10
205.1724590953863
 20
296.7720608862155
 30
0.0
 40
5.352655712586298
100
AcDbArc
 50
110.9117304855398
 51
179.0882695144566
  0
ARC
  5
1A87
330
1E
100
AcDbEntity
  8
SCHRAFF
100
AcDbCircle
 10
201.0766988739413
 20
299.6399430679706
 30
0.0
 40
5.352655712586298
100
AcDbArc
 50
110.9117304855398
 51
179.0882695144566
  0
ARC
  5
1A88
330
1E
100
AcDbEntity
  8
SCHRAFF
100
AcDbCircle
 10
213.3639795382761
 20
291.0362965227049
 30
0.0
 40
5.352655712586298
100
AcDbArc
 50
110.9117304855398
 51
179.0882695144566
  0
ARC
  5
1A89
330
1E
100
AcDbEntity
  8
SCHRAFF
100
AcDbCircle
 10
209.2682193168312
 20
293.9041787044602
 30
0.0
 40
5.352655712586298
100
AcDbArc
 50
110.9117304855398
 51
179.0882695144566
  0
ARC
  5
1A8A
330
1E
100
AcDbEntity
  8
SCHRAFF
100
AcDbCircle
 10
225.6512602026109
 20
282.4326499774394
 30
0.0
 40
5.352655712586298
100
AcDbArc
 50
110.9117304855398
 51
179.0882695144566
  0
ARC
  5
1A8B
330
1E
100
AcDbEntity
  8
SCHRAFF
100
AcDbCircle
 10
229.7470204240558
 20
279.5647677956841
 30
0.0
 40
5.352655712586298
100
AcDbArc
 50
110.9117304855398
 51
179.0882695144566
  0
ARC
  5
1A8D
330
1E
100
AcDbEntity
  8
SCHRAFF
100
AcDbCircle
 10
233.8427806455008
 20
276.696885613929
 30
0.0
 40
5.352655712586298
100
AcDbArc
 50
110.9117304855398
 51
179.0882695144566
  0
ARC
  5
1A8F
330
1E
100
AcDbEntity
  8
SCHRAFF
100
AcDbCircle
 10
221.555499981166
 20
285.3005321591946
 30
0.0
 40
5.352655712586298
100
AcDbArc
 50
110.9117304855398
 51
179.0882695144566
  0
ARC
  5
1A90
330
1E
100
AcDbEntity
  8
SCHRAFF
100
AcDbCircle
 10
217.4597397597211
 20
288.1684143409498
 30
0.0
 40
5.352655712586298
100
AcDbArc
 50
110.9117304855398
 51
179.0882695144566
  0
DIMENSION
  5
1AA9
330
1E
100
AcDbEntity
  8
BEM
100
AcDbDimension
  2
*D5
 10
403.8690158603116
 20
311.3536771143233
 30
0.0
 11
298.2796966422437
 21
279.8394633836097
 31
0.0
 70
    32
 71
     5
 42
220.0000000000012
 51
357.0
  3
Standard
100
AcDbAlignedDimension
 13
164.7571481826691
 23
325.0711662463895
 33
0.0
 14
395.9970009993449
 24
332.981860190442
 34
0.0
 50
19.99999999999905
100
AcDbRotatedDimension
1001
ACAD
1000
DSTYLE
1002
{
1070
    40
1040
2.0
1070
    41
1040
3.5
1070
    42
1040
1.0
1070
    43
1040
7.0
1070
    44
1040
1.0
1070
    73
1070
     0
1070
    74
1070
     0
1070
    77
1070
     1
1070
    78
1070
     8
1070
    79
1070
     2
1070
   140
1040
3.5
1070
   141
1040
1.5
1070
   146
1040
0.5142857142857144
1070
   147
1040
1.5
1070
   172
1070
     1
1070
   178
1070
     1
1070
   179
1070
     2
1070
   271
1070
     2
1070
   272
1070
     2
1070
   284
1070
     8
1070
   285
1070
     8
1070
   286
1070
     8
1002
}
  0
TEXT
  5
1ADF
330
1E
100
AcDbEntity
  8
BEM
100
AcDbText
 10
416.5811541437437
 20
12.14804815338303
 30
0.0
 40
4.0
  1
Diese Zeichnung ist urheberrechtlich geschützt und bleibt unser Eigentum. Sie darf weder ganz noch teilweise vervielfältigt und nicht an Dritte weitergegeben werden.
 50
90.0
 41
0.8
  7
GREEKS
100
AcDbText
  0
TEXT
  5
1B04
330
1E
100
AcDbEntity
  8
TEXT
100
AcDbText
 10
192.6882715247924
 20
89.7791437153694
 30
0.0
 40
4.0
  1
DIN EN1124-3
 41
0.8
  7
GREEKS
 72
     1
 11
209.6787477152686
 21
89.7791437153694
 31
0.0
100
AcDbText
  0
ARC
  5
1BD6
330
1E
100
AcDbEntity
  8
SCHRAFF
100
AcDbCircle
 10
226.4828744192076
 20
413.2246391358109
 30
0.0
 40
5.615519614478622
100
AcDbArc
 50
202.7080400911382
 51
267.291959908862
  0
ARC
  5
1BD7
330
1E
100
AcDbEntity
  8
SCHRAFF
100
AcDbCircle
 10
223.6149922374524
 20
409.128878914366
 30
0.0
 40
5.615519614478622
100
AcDbArc
 50
202.7080400911382
 51
267.291959908862
  0
ARC
  5
1BD8
330
1E
100
AcDbEntity
  8
SCHRAFF
100
AcDbCircle
 10
229.3507566009628
 20
417.3203993572558
 30
0.0
 40
5.615519614478622
100
AcDbArc
 50
202.7080400911382
 51
267.291959908862
  0
ARC
  5
1BD9
330
1E
100
AcDbEntity
  8
SCHRAFF
100
AcDbCircle
 10
232.218638782718
 20
421.4161595787008
 30
0.0
 40
5.615519614478622
100
AcDbArc
 50
202.7080400911382
 51
267.291959908862
  0
ARC
  5
1BDC
102
{ACAD_REACTORS
330
1BE0
102
}
330
1E
100
AcDbEntity
  8
SCHRAFF
100
AcDbCircle
 10
231.5896167497818
 20
420.517823016166
 30
0.0
 40
4.767133678340529
100
AcDbArc
 50
16.00084178962008
 51
93.99915821038174
  0
HATCH
  5
1BE0
330
1E
100
AcDbEntity
  8
SCHRAFF
100
AcDbHatch
 10
0.0
 20
0.0
 30
0.0
210
0.0
220
0.0
230
1.0
  2
_USER
 70
     0
 71
     1
 91
        1
 92
        7
 72
     1
 73
     1
 93
        3
 10
231.2571481826691
 20
420.0430086947397
 42
0.0
 10
236.1720604484031
 20
421.8318904634968
 42
0.3541103053638117
 10
231.2571481826691
 20
425.273349081603
 42
0.0
 97
        3
330
1877
330
19C1
330
1BDC
 75
     0
 76
     0
 52
0.0
 41
0.1
 77
     0
 78
     1
 53
0.0
 43
0.0
 44
0.0
 45
0.0
 46
0.1
 79
     0
 47
0.138690688008187
 98
        1
 10
232.529520595067
 20
423.0451538409219
  0
ARC
  5
1BE3
102
{ACAD_REACTORS
330
1BE7
102
}
330
1E
100
AcDbEntity
  8
SCHRAFF
100
AcDbCircle
 10
230.5686470189429
 20
278.989458660351
 30
0.0
 40
4.201217683954506
100
AcDbArc
 50
279.4322551307118
 51
10.56774486928489
  0
HATCH
  5
1BE7
330
1E
100
AcDbEntity
  8
SCHRAFF
100
AcDbHatch
 10
0.0
 20
0.0
 30
0.0
210
0.0
220
0.0
230
1.0
  2
_USER
 70
     0
 71
     1
 91
        1
 92
        7
 72
     1
 73
     1
 93
        3
 10
234.6986068007756
 20
279.7599534548932
 42
0.0
 10
231.2571481826692
 20
278.5073649554435
 42
0.0
 10
231.2571481826692
 20
274.8450411891592
 42
0.4200301147718318
 97
        3
330
19C3
330
19D2
330
1BE3
 75
     0
 76
     0
 52
0.0
 41
0.1
 77
     0
 78
     1
 53
0.0
 43
0.0
 44
0.0
 45
0.0
 46
0.1
 79
     0
 47
0.0496501436533217
 98
        1
 10
234.0460230194858
 20
277.6972215255617
  0
DIMENSION
  5
1BE8
330
1E
100
AcDbEntity
  8
BEM
100
AcDbDimension
  2
*D6
 10
164.757148182669
 20
170.0711662463894
 30
0.0
 11
310.0665818469833
 21
532.5945442949047
 31
0.0
 70
    34
 71
     5
 42
1.22173047639603
  3
Standard
100
AcDb2LineAngularDimension
 13
376.1879878594986
 23
402.0256984946647
 33
0.0
 14
164.7571481826691
 24
325.0711662463894
 34
0.0
 15
164.7571481826692
 25
540.0744591507193
 35
0.0
 16
344.3015243367685
 26
494.4625487766223
 36
0.0
1001
ACAD
1000
DSTYLE
1002
{
1070
    40
1040
2.0
1070
    41
1040
3.5
1070
    42
1040
1.0
1070
    43
1040
7.0
1070
    44
1040
1.0
1070
    73
1070
     0
1070
    74
1070
     0
1070
    77
1070
     1
1070
    78
1070
     8
1070
    79
1070
     2
1070
   140
1040
3.5
1070
   141
1040
1.5
1070
   146
1040
0.5142857142857144
1070
   147
1040
1.5
1070
   172
1070
     1
1070
   178
1070
     1
1070
   179
1070
     2
1070
   271
1070
     2
1070
   272
1070
     2
1070
   284
1070
     8
1070
   285
1070
     8
1070
   286
1070
     8
1002
}
  0
ENDSEC
  0
SECTION
  2
OBJECTS
  0
DICTIONARY
  5
C
330
0
100
AcDbDictionary
281
     1
  3
ACAD_COLOR
350
1ADD
  3
ACAD_GROUP
350
D
  3
ACAD_LAYOUT
350
19
  3
ACAD_MATERIAL
350
1ADC
  3
ACAD_MLINESTYLE
350
16
  3
ACAD_PLOTSETTINGS
350
18
  3
ACAD_PLOTSTYLENAME
350
E
  3
AcDbVariableDictionary
350
246
  0
DICTIONARY
  5
1ADD
102
{ACAD_REACTORS
330
C
102
}
330
C
100
AcDbDictionary
281
     1
  0
DICTIONARY
  5
D
102
{ACAD_REACTORS
330
C
102
}
330
C
100
AcDbDictionary
281
     1
  0
DICTIONARY
  5
19
102
{ACAD_REACTORS
330
C
102
}
330
C
100
AcDbDictionary
281
     1
  3
Layout1
350
1D
  3
Model
350
21
  0
DICTIONARY
  5
1ADC
102
{ACAD_REACTORS
330
C
102
}
330
C
100
AcDbDictionary
281
     1
  0
DICTIONARY
  5
16
102
{ACAD_REACTORS
330
C
102
}
330
C
100
AcDbDictionary
281
     1
  3
Standard
350
17
  0
DICTIONARY
  5
18
102
{ACAD_REACTORS
330
C
102
}
330
C
100
AcDbDictionary
281
     1
  0
ACDBDICTIONARYWDFLT
  5
E
102
{ACAD_REACTORS
330
C
102
}
330
C
100
AcDbDictionary
281
     1
  3
Normal
350
F
100
AcDbDictionaryWithDefault
340
F
  0
DICTIONARY
  5
246
102
{ACAD_REACTORS
330
C
102
}
330
C
100
AcDbDictionary
281
     1
  3
DIMASSOC
350
1B18
  3
PROJECTNAME
350
1B19
  3
SORTENTS
350
247
  0
LAYOUT
  5
1D
102
{ACAD_REACTORS
330
19
102
}
330
19
100
AcDbPlotSettings
  1

  2
Tektronix Phaser 740
  4

  6

 40
0.0
 41
0.0
 42
0.0
 43
0.0
 44
0.0
 45
0.0
 46
0.0
 47
0.0
 48
0.0
 49
0.0
140
0.0
141
0.0
142
1.0
143
1.0
 70
   688
 72
     0
 73
     0
 74
     5
  7
monochrome.ctb
 75
    16
147
1.0
 76
     0
 77
     2
 78
   300
148
0.0
149
0.0
100
AcDbLayout
  1
Layout1
 70
     0
 71
     1
 10
0.0
 20
0.0
 11
12.0
 21
9.0
 12
0.0
 22
0.0
 32
0.0
 14
1.000000000000000E+20
 24
1.000000000000000E+20
 34
1.000000000000000E+20
 15
-1.000000000000000E+20
 25
-1.000000000000000E+20
 35
-1.000000000000000E+20
146
0.0
 13
0.0
 23
0.0
 33
0.0
 16
1.0
 26
0.0
 36
0.0
 17
0.0
 27
1.0
 37
0.0
 76
     0
330
1A
  0
LAYOUT
  5
21
102
{ACAD_REACTORS
330
19
102
}
330
19
100
AcDbPlotSettings
  1

  2
Tektronix Phaser 740
  4
A4
  6

 40
5.873749732971191
 41
6.085414409637451
 42
5.577407836914062
 43
5.662078857421875
 44
209.9733276367187
 45
296.9683227539062
 46
0.0
 47
0.0
 48
0.0
 49
0.0
140
0.0
141
0.0
142
1.0
143
1.0
 70
 11952
 72
     0
 73
     1
 74
     0
  7
monochrome.ctb
 75
     0
147
1.0
 76
     0
 77
     2
 78
   300
148
1150.120678237584
149
45.30495740799864
100
AcDbLayout
  1
Model
 70
     1
 71
     0
 10
0.0
 20
0.0
 11
12.0
 21
9.0
 12
0.0
 22
0.0
 32
0.0
 14
0.0
 24
0.0
 34
0.0
 15
0.0
 25
0.0
 35
0.0
146
0.0
 13
0.0
 23
0.0
 33
0.0
 16
1.0
 26
0.0
 36
0.0
 17
0.0
 27
1.0
 37
0.0
 76
     0
330
1E
  0
MLINESTYLE
  5
17
102
{ACAD_REACTORS
330
16
102
}
330
16
100
AcDbMlineStyle
  2
STANDARD
 70
     0
  3

 62
   256
 51
90.0
 52
90.0
 71
     2
 49
0.5
 62
   256
  6
BYLAYER
 49
-0.5
 62
   256
  6
BYLAYER
  0
ACDBPLACEHOLDER
  5
F
102
{ACAD_REACTORS
330
E
102
}
330
E
  0
DICTIONARYVAR
  5
1B18
102
{ACAD_REACTORS
330
246
102
}
330
246
100
DictionaryVariables
280
     0
  1
1
  0
DICTIONARYVAR
  5
1B19
102
{ACAD_REACTORS
330
246
102
}
330
246
100
DictionaryVariables
280
     0
  1

  0
DICTIONARYVAR
  5
247
102
{ACAD_REACTORS
330
246
102
}
330
246
100
DictionaryVariables
280
     0
  1
96
  0
ENDSEC
  0
EOF
