  0
SECTION
  2
HEADER
  9
$ACADVER
  1
AC1018
  9
$ACADMAINTVER
 70
     2
  9
$DWGCODEPAGE
  3
ANSI_1252
  9
$INSBASE
 10
0.0
 20
0.0
 30
0.0
  9
$EXTMIN
 10
-0.0037741314653204
 20
-0.0062095944290377
 30
-0.0000000000000024
  9
$EXTMAX
 10
420.030792932969
 20
594.0138693863584
 30
0.0000000000000129
  9
$LIMMIN
 10
0.0
 20
0.0
  9
$LIMMAX
 10
419.9999999999999
 20
594.0
  9
$ORTHOMODE
 70
     1
  9
$REGENMODE
 70
     1
  9
$FILLMODE
 70
     1
  9
$QTEXTMODE
 70
     0
  9
$MIRRTEXT
 70
     1
  9
$LTSCALE
 40
20.0
  9
$ATTMODE
 70
     1
  9
$TEXTSIZE
 40
3.5
  9
$TRACEWID
 40
0.5
  9
$TEXTSTYLE
  7
STANDARD
  9
$CLAYER
  8
BEM
  9
$CELTYPE
  6
ByLayer
  9
$CECOLOR
 62
   256
  9
$CELTSCALE
 40
1.0
  9
$DISPSILH
 70
     0
  9
$DIMSCALE
 40
2.0
  9
$DIMASZ
 40
3.5
  9
$DIMEXO
 40
1.0
  9
$DIMDLI
 40
7.0
  9
$DIMRND
 40
0.0
  9
$DIMDLE
 40
0.0
  9
$DIMEXE
 40
1.0
  9
$DIMTP
 40
0.0
  9
$DIMTM
 40
0.0
  9
$DIMTXT
 40
3.5
  9
$DIMCEN
 40
1.5
  9
$DIMTSZ
 40
0.0
  9
$DIMTOL
 70
     0
  9
$DIMLIM
 70
     0
  9
$DIMTIH
 70
     0
  9
$DIMTOH
 70
     0
  9
$DIMSE1
 70
     0
  9
$DIMSE2
 70
     0
  9
$DIMTAD
 70
     1
  9
$DIMZIN
 70
     8
  9
$DIMBLK
  1

  9
$DIMASO
 70
     1
  9
$DIMSHO
 70
     0
  9
$DIMPOST
  1

  9
$DIMAPOST
  1

  9
$DIMALT
 70
     0
  9
$DIMALTD
 70
     2
  9
$DIMALTF
 40
25.4
  9
$DIMLFAC
 40
1.0
  9
$DIMTOFL
 70
     1
  9
$DIMTVP
 40
0.0
  9
$DIMTIX
 70
     0
  9
$DIMSOXD
 70
     0
  9
$DIMSAH
 70
     0
  9
$DIMBLK1
  1

  9
$DIMBLK2
  1

  9
$DIMSTYLE
  2
Standard
  9
$DIMCLRD
 70
     0
  9
$DIMCLRE
 70
     0
  9
$DIMCLRT
 70
     1
  9
$DIMTFAC
 40
0.5
  9
$DIMGAP
 40
1.5
  9
$DIMJUST
 70
     0
  9
$DIMSD1
 70
     0
  9
$DIMSD2
 70
     0
  9
$DIMTOLJ
 70
     1
  9
$DIMTZIN
 70
     8
  9
$DIMALTZ
 70
     8
  9
$DIMALTTZ
 70
     8
  9
$DIMUPT
 70
     0
  9
$DIMDEC
 70
     2
  9
$DIMTDEC
 70
     2
  9
$DIMALTU
 70
     2
  9
$DIMALTTD
 70
     2
  9
$DIMTXSTY
  7
STANDARD
  9
$DIMAUNIT
 70
     0
  9
$DIMADEC
 70
     2
  9
$DIMALTRND
 40
0.0
  9
$DIMAZIN
 70
     2
  9
$DIMDSEP
 70
    46
  9
$DIMATFIT
 70
     3
  9
$DIMFRAC
 70
     0
  9
$DIMLDRBLK
  1

  9
$DIMLUNIT
 70
     2
  9
$DIMLWD
 70
    -2
  9
$DIMLWE
 70
    -2
  9
$DIMTMOVE
 70
     0
  9
$LUNITS
 70
     2
  9
$LUPREC
 70
     2
  9
$SKETCHINC
 40
1.0
  9
$FILLETRAD
 40
0.0
  9
$AUNITS
 70
     1
  9
$AUPREC
 70
     3
  9
$MENU
  1
ACAD
  9
$ELEVATION
 40
0.0
  9
$PELEVATION
 40
0.0
  9
$THICKNESS
 40
0.0
  9
$LIMCHECK
 70
     0
  9
$CHAMFERA
 40
0.0
  9
$CHAMFERB
 40
0.0
  9
$CHAMFERC
 40
0.0
  9
$CHAMFERD
 40
0.0
  9
$SKPOLY
 70
     0
  9
$TDCREATE
 40
2452040.637099653
  9
$TDUCREATE
 40
2452040.553766320
  9
$TDUPDATE
 40
2455659.612017790
  9
$TDUUPDATE
 40
2455659.528684456
  9
$TDINDWG
 40
0.4638043866
  9
$TDUSRTIMER
 40
0.4638043866
  9
$USRTIMER
 70
     1
  9
$ANGBASE
 50
0.0
  9
$ANGDIR
 70
     0
  9
$PDMODE
 70
     0
  9
$PDSIZE
 40
0.0
  9
$PLINEWID
 40
0.0
  9
$SPLFRAME
 70
     0
  9
$SPLINETYPE
 70
     6
  9
$SPLINESEGS
 70
     8
  9
$HANDSEED
  5
1CCB
  9
$SURFTAB1
 70
     6
  9
$SURFTAB2
 70
     6
  9
$SURFTYPE
 70
     6
  9
$SURFU
 70
     6
  9
$SURFV
 70
     6
  9
$UCSBASE
  2

  9
$UCSNAME
  2

  9
$UCSORG
 10
0.0
 20
0.0
 30
0.0
  9
$UCSXDIR
 10
1.0
 20
0.0
 30
0.0
  9
$UCSYDIR
 10
0.0
 20
1.0
 30
0.0
  9
$UCSORTHOREF
  2

  9
$UCSORTHOVIEW
 70
     0
  9
$UCSORGTOP
 10
0.0
 20
0.0
 30
0.0
  9
$UCSORGBOTTOM
 10
0.0
 20
0.0
 30
0.0
  9
$UCSORGLEFT
 10
0.0
 20
0.0
 30
0.0
  9
$UCSORGRIGHT
 10
0.0
 20
0.0
 30
0.0
  9
$UCSORGFRONT
 10
0.0
 20
0.0
 30
0.0
  9
$UCSORGBACK
 10
0.0
 20
0.0
 30
0.0
  9
$PUCSBASE
  2

  9
$PUCSNAME
  2

  9
$PUCSORG
 10
0.0
 20
0.0
 30
0.0
  9
$PUCSXDIR
 10
1.0
 20
0.0
 30
0.0
  9
$PUCSYDIR
 10
0.0
 20
1.0
 30
0.0
  9
$PUCSORTHOREF
  2

  9
$PUCSORTHOVIEW
 70
     0
  9
$PUCSORGTOP
 10
0.0
 20
0.0
 30
0.0
  9
$PUCSORGBOTTOM
 10
0.0
 20
0.0
 30
0.0
  9
$PUCSORGLEFT
 10
0.0
 20
0.0
 30
0.0
  9
$PUCSORGRIGHT
 10
0.0
 20
0.0
 30
0.0
  9
$PUCSORGFRONT
 10
0.0
 20
0.0
 30
0.0
  9
$PUCSORGBACK
 10
0.0
 20
0.0
 30
0.0
  9
$USERI1
 70
     0
  9
$USERI2
 70
     0
  9
$USERI3
 70
     0
  9
$USERI4
 70
     0
  9
$USERI5
 70
     0
  9
$USERR1
 40
0.0
  9
$USERR2
 40
0.0
  9
$USERR3
 40
0.0
  9
$USERR4
 40
0.0
  9
$USERR5
 40
0.0
  9
$WORLDVIEW
 70
     1
  9
$SHADEDGE
 70
     3
  9
$SHADEDIF
 70
    70
  9
$TILEMODE
 70
     1
  9
$MAXACTVP
 70
    16
  9
$PINSBASE
 10
0.0
 20
0.0
 30
0.0
  9
$PLIMCHECK
 70
     0
  9
$PEXTMIN
 10
1.000000000000000E+20
 20
1.000000000000000E+20
 30
1.000000000000000E+20
  9
$PEXTMAX
 10
-1.000000000000000E+20
 20
-1.000000000000000E+20
 30
-1.000000000000000E+20
  9
$PLIMMIN
 10
0.0
 20
0.0
  9
$PLIMMAX
 10
12.0
 20
9.0
  9
$UNITMODE
 70
     0
  9
$VISRETAIN
 70
     0
  9
$PLINEGEN
 70
     0
  9
$PSLTSCALE
 70
     0
  9
$TREEDEPTH
 70
  3020
  9
$CMLSTYLE
  2
Standard
  9
$CMLJUST
 70
     0
  9
$CMLSCALE
 40
1.0
  9
$PROXYGRAPHICS
 70
     1
  9
$MEASUREMENT
 70
     0
  9
$CELWEIGHT
370
    -1
  9
$ENDCAPS
280
     0
  9
$JOINSTYLE
280
     0
  9
$LWDISPLAY
290
     0
  9
$INSUNITS
 70
     0
  9
$HYPERLINKBASE
  1

  9
$STYLESHEET
  1
monochrome 1.ctb
  9
$XEDIT
290
     1
  9
$CEPSNTYPE
380
     0
  9
$PSTYLEMODE
290
     1
  9
$FINGERPRINTGUID
  2
{7AADB5C8-6110-11D8-B72B-000102183313}
  9
$VERSIONGUID
  2
{00EF8ABF-4541-4337-ABB2-41D1F55882D3}
  9
$EXTNAMES
290
     1
  9
$PSVPSCALE
 40
0.0
  9
$OLESTARTUP
290
     0
  9
$SORTENTS
280
    96
  9
$INDEXCTL
280
     0
  9
$HIDETEXT
280
     0
  9
$XCLIPFRAME
290
     0
  9
$HALOGAP
280
     0
  9
$OBSCOLOR
 70
   257
  9
$OBSLTYPE
280
     0
  9
$INTERSECTIONDISPLAY
280
     0
  9
$INTERSECTIONCOLOR
 70
   257
  9
$DIMASSOC
280
     1
  9
$PROJECTNAME
  1

  0
ENDSEC
  0
SECTION
  2
CLASSES
  0
CLASS
  1
ACDBDICTIONARYWDFLT
  2
AcDbDictionaryWithDefault
  3
ObjectDBX Classes
 90
        0
 91
        1
280
     0
281
     0
  0
CLASS
  1
DICTIONARYVAR
  2
AcDbDictionaryVar
  3
ObjectDBX Classes
 90
        0
 91
        3
280
     0
281
     0
  0
ENDSEC
  0
SECTION
  2
TABLES
  0
TABLE
  2
VPORT
  5
8
330
0
100
AcDbSymbolTable
 70
     3
  0
VPORT
  5
1CCA
330
8
100
AcDbSymbolTableRecord
100
AcDbViewportTableRecord
  2
*Active
 70
     0
 10
0.0
 20
0.0
 11
1.0
 21
1.0
 12
210.0
 22
297.0
 13
0.0
 23
0.0
 14
1.0
 24
1.0
 15
10.0
 25
10.0
 16
0.0
 26
0.0
 36
1.0
 17
0.0
 27
0.0
 37
0.0
 40
594.0
 41
1.334231805929919
 42
50.0
 43
0.0
 44
0.0
 50
0.0
 51
0.0
 71
     0
 72
  1500
 73
     1
 74
     0
 75
     0
 76
     0
 77
     0
 78
     0
281
     0
 65
     1
110
0.0
120
0.0
130
0.0
111
1.0
121
0.0
131
0.0
112
0.0
122
1.0
132
0.0
 79
     0
146
0.0
  0
ENDTAB
  0
TABLE
  2
LTYPE
  5
5
330
0
100
AcDbSymbolTable
 70
     2
  0
LTYPE
  5
13
330
5
100
AcDbSymbolTableRecord
100
AcDbLinetypeTableRecord
  2
ByBlock
 70
     0
  3

 72
    65
 73
     0
 40
0.0
  0
LTYPE
  5
14
330
5
100
AcDbSymbolTableRecord
100
AcDbLinetypeTableRecord
  2
ByLayer
 70
     0
  3

 72
    65
 73
     0
 40
0.0
  0
LTYPE
  5
15
330
5
100
AcDbSymbolTableRecord
100
AcDbLinetypeTableRecord
  2
Continuous
 70
     0
  3
Solid line
 72
    65
 73
     0
 40
0.0
  0
LTYPE
  5
35
330
5
100
AcDbSymbolTableRecord
100
AcDbLinetypeTableRecord
  2
STRICHPUNKT
 70
     0
  3
__ . __ . __ . __ . __ . __ . __ . __ . __ . __
 72
    65
 73
     4
 40
1.0
 49
0.5
 74
     0
 49
-0.25
 74
     0
 49
0.0
 74
     0
 49
-0.25
 74
     0
  0
ENDTAB
  0
TABLE
  2
LAYER
  5
2
330
0
100
AcDbSymbolTable
 70
     9
  0
LAYER
  5
10
330
2
100
AcDbSymbolTableRecord
100
AcDbLayerTableRecord
  2
0
 70
     0
 62
     7
  6
Continuous
370
    -3
390
F
  0
LAYER
  5
38
330
2
100
AcDbSymbolTableRecord
100
AcDbLayerTableRecord
  2
VOLL
 70
     0
 62
     1
  6
Continuous
370
    -3
390
F
  0
LAYER
  5
39
330
2
100
AcDbSymbolTableRecord
100
AcDbLayerTableRecord
  2
HILF
 70
     0
 62
     2
  6
Continuous
370
    -3
390
F
  0
LAYER
  5
3A
330
2
100
AcDbSymbolTableRecord
100
AcDbLayerTableRecord
  2
MITTEL
 70
     0
 62
     2
  6
STRICHPUNKT
370
    -3
390
F
  0
LAYER
  5
3B
330
2
100
AcDbSymbolTableRecord
100
AcDbLayerTableRecord
  2
BEM
 70
     0
 62
     7
  6
Continuous
370
    -3
390
F
  0
LAYER
  5
3C
330
2
100
AcDbSymbolTableRecord
100
AcDbLayerTableRecord
  2
STEMPEL
 70
     0
 62
     3
  6
Continuous
370
    -3
390
F
  0
LAYER
  5
3D
330
2
100
AcDbSymbolTableRecord
100
AcDbLayerTableRecord
  2
TEXT
 70
     0
 62
     7
  6
Continuous
370
    -3
390
F
  0
LAYER
  5
3E
330
2
100
AcDbSymbolTableRecord
100
AcDbLayerTableRecord
  2
DEFPOINTS
 70
     0
 62
     7
  6
Continuous
290
     0
370
    -3
390
F
  0
LAYER
  5
3F
330
2
100
AcDbSymbolTableRecord
100
AcDbLayerTableRecord
  2
SCHRAFF
 70
     0
 62
     7
  6
Continuous
370
    -3
390
F
  0
ENDTAB
  0
TABLE
  2
STYLE
  5
3
330
0
100
AcDbSymbolTable
 70
     2
  0
STYLE
  5
11
330
3
100
AcDbSymbolTableRecord
100
AcDbTextStyleTableRecord
  2
STANDARD
 70
     0
 40
0.0
 41
0.8
 50
0.0
 71
     0
 42
3.5
  3
simplex.shx
  4

  0
STYLE
  5
34
330
3
100
AcDbSymbolTableRecord
100
AcDbTextStyleTableRecord
  2
GREEKS
 70
     0
 40
0.0
 41
0.8
 50
0.0
 71
     0
 42
2.5
  3
SIMPLEX.shx
  4

  0
ENDTAB
  0
TABLE
  2
VIEW
  5
6
330
0
100
AcDbSymbolTable
 70
     0
  0
ENDTAB
  0
TABLE
  2
UCS
  5
7
330
0
100
AcDbSymbolTable
 70
     0
  0
ENDTAB
  0
TABLE
  2
APPID
  5
9
330
0
100
AcDbSymbolTable
 70
     1
  0
APPID
  5
12
330
9
100
AcDbSymbolTableRecord
100
AcDbRegAppTableRecord
  2
ACAD
 70
     0
  0
ENDTAB
  0
TABLE
  2
DIMSTYLE
  5
A
330
0
100
AcDbSymbolTable
 70
     1
100
AcDbDimStyleTable
 71
     1
340
1CB
  0
DIMSTYLE
105
1CB
102
{ACAD_REACTORS
330
12CA
330
13FA
330
18E4
330
18FA
330
1907
102
}
330
A
100
AcDbSymbolTableRecord
100
AcDbDimStyleTableRecord
  2
Standard
 70
     0
340
11
  0
ENDTAB
  0
TABLE
  2
BLOCK_RECORD
  5
1
330
0
100
AcDbSymbolTable
 70
     7
  0
BLOCK_RECORD
  5
1E
330
1
100
AcDbSymbolTableRecord
100
AcDbBlockTableRecord
  2
*Model_Space
340
21
  0
BLOCK_RECORD
  5
1A
330
1
100
AcDbSymbolTableRecord
100
AcDbBlockTableRecord
  2
*Paper_Space
340
1D
  0
BLOCK_RECORD
  5
22
330
1
100
AcDbSymbolTableRecord
100
AcDbBlockTableRecord
  2
LOGO
340
0
102
{BLKREFS
331
135
102
}
  0
BLOCK_RECORD
  5
12E9
330
1
100
AcDbSymbolTableRecord
100
AcDbBlockTableRecord
  2
*D1
340
0
  0
BLOCK_RECORD
  5
13FB
330
1
100
AcDbSymbolTableRecord
100
AcDbBlockTableRecord
  2
*D2
340
0
  0
BLOCK_RECORD
  5
18E5
330
1
100
AcDbSymbolTableRecord
100
AcDbBlockTableRecord
  2
*D4
340
0
  0
BLOCK_RECORD
  5
18FB
330
1
100
AcDbSymbolTableRecord
100
AcDbBlockTableRecord
  2
*D5
340
0
  0
BLOCK_RECORD
  5
1908
330
1
100
AcDbSymbolTableRecord
100
AcDbBlockTableRecord
  2
*D6
340
0
  0
ENDTAB
  0
ENDSEC
  0
SECTION
  2
BLOCKS
  0
BLOCK
  5
43
330
1E
100
AcDbEntity
  8
0
100
AcDbBlockBegin
  2
*Model_Space
 70
     0
 10
0.0
 20
0.0
 30
0.0
  3
*Model_Space
  1

  0
ENDBLK
  5
44
330
1E
100
AcDbEntity
  8
0
100
AcDbBlockEnd
  0
BLOCK
  5
41
330
1A
100
AcDbEntity
 67
     1
  8
0
100
AcDbBlockBegin
  2
*Paper_Space
 70
     0
 10
0.0
 20
0.0
 30
0.0
  3
*Paper_Space
  1

  0
ENDBLK
  5
42
330
1A
100
AcDbEntity
 67
     1
  8
0
100
AcDbBlockEnd
  0
BLOCK
  5
45
330
22
100
AcDbEntity
  8
0
100
AcDbBlockBegin
  2
LOGO
 70
     0
 10
0.0
 20
0.0
 30
0.0
  3
LOGO
  1

  0
ARC
  5
46
330
22
100
AcDbEntity
  8
0
100
AcDbCircle
 10
11.59973089678112
 20
-9.271599258481501
 30
0.0
 40
4.5
100
AcDbArc
 50
270.0
 51
231.0575587310159
  0
LINE
  5
47
330
22
100
AcDbEntity
  8
0
100
AcDbLine
 10
3.599730896781125
 20
-4.771599258481529
 30
0.0
 11
3.599730896781153
 21
-11.77159925848133
 31
0.0
  0
LINE
  5
48
330
22
100
AcDbEntity
  8
0
100
AcDbLine
 10
2.599730896781125
 20
-4.771599258481529
 30
0.0
 11
2.599730896781153
 21
-11.77159925848133
 31
0.0
  0
CIRCLE
  5
49
330
22
100
AcDbEntity
  8
0
100
AcDbCircle
 10
11.59973089678112
 20
-9.271599258481501
 30
0.0
 40
3.5
  0
ARC
  5
4A
330
22
100
AcDbEntity
  8
0
100
AcDbCircle
 10
31.59973089678115
 20
-9.271599258481472
 30
0.0
 40
4.5
100
AcDbArc
 50
270.0
 51
231.0575587310182
  0
LINE
  5
4B
330
22
100
AcDbEntity
  8
0
100
AcDbLine
 10
17.59973089678112
 20
-4.771599258481472
 30
0.0
 11
17.59973089678115
 21
-13.77159925848147
 31
0.0
  0
ARC
  5
4C
330
22
100
AcDbEntity
  8
0
100
AcDbCircle
 10
22.59973089678116
 20
-7.271599258481472
 30
0.0
 40
2.5
100
AcDbArc
 50
293.1161887722295
 51
90.0
  0
CIRCLE
  5
4D
330
22
100
AcDbEntity
  8
0
100
AcDbCircle
 10
31.59973089678115
 20
-9.271599258481472
 30
0.0
 40
3.5
  0
ARC
  5
4E
330
22
100
AcDbEntity
  8
0
100
AcDbCircle
 10
4.599730896781153
 20
-11.77159925848133
 30
0.0
 40
1.0
100
AcDbArc
 50
180.0
 51
270.0
  0
ARC
  5
4F
330
22
100
AcDbEntity
  8
0
100
AcDbCircle
 10
4.599730896781153
 20
-11.77159925848133
 30
0.0
 40
2.0
100
AcDbArc
 50
179.9999999999992
 51
270.0
  0
LINE
  5
50
330
22
100
AcDbEntity
  8
0
100
AcDbLine
 10
11.59973089678115
 20
-13.77159925848144
 30
0.0
 11
4.599730896781153
 21
-13.77159925848147
 31
0.0
  0
LINE
  5
51
330
22
100
AcDbEntity
  8
0
100
AcDbLine
 10
8.771303772034769
 20
-12.77159925848136
 30
0.0
 11
4.599730896781153
 21
-12.77159925848133
 31
0.0
  0
LINE
  5
52
330
22
100
AcDbEntity
  8
0
100
AcDbLine
 10
31.59973089678115
 20
-13.77159925848147
 30
0.0
 11
23.6715276665056
 21
-13.77159925848144
 31
0.0
  0
LINE
  5
53
330
22
100
AcDbEntity
  8
0
100
AcDbLine
 10
23.56565672307022
 20
-9.51278021337896
 30
0.0
 11
24.4388546544846
 21
-12.77159925848144
 31
0.0
  0
LINE
  5
54
330
22
100
AcDbEntity
  8
0
100
AcDbLine
 10
22.59973089678116
 20
-9.771599258481472
 30
0.0
 11
18.59973089678112
 21
-9.771599258481472
 31
0.0
  0
LINE
  5
55
330
22
100
AcDbEntity
  8
0
100
AcDbLine
 10
18.59973089678115
 20
-13.77159925848144
 30
0.0
 11
17.59973089678115
 21
-13.77159925848144
 31
0.0
  0
LINE
  5
56
330
22
100
AcDbEntity
  8
0
100
AcDbLine
 10
18.59973089678115
 20
-9.771599258481472
 30
0.0
 11
18.59973089678115
 21
-13.77159925848144
 31
0.0
  0
LINE
  5
57
330
22
100
AcDbEntity
  8
0
100
AcDbLine
 10
22.59973089678116
 20
-9.771599258481472
 30
0.0
 11
23.67152766650562
 21
-13.77159925848147
 31
0.0
  0
ARC
  5
58
330
22
100
AcDbEntity
  8
0
100
AcDbCircle
 10
22.59973089678116
 20
-7.271599258481472
 30
0.0
 40
2.5
100
AcDbArc
 50
270.0
 51
270.0000000000007
  0
LINE
  5
59
330
22
100
AcDbEntity
  8
0
100
AcDbLine
 10
28.77130377203494
 20
-12.77159925848147
 30
0.0
 11
24.43885465448463
 21
-12.77159925848144
 31
0.0
  0
LINE
  5
5A
330
22
100
AcDbEntity
  8
0
100
AcDbLine
 10
3.599730896781125
 20
-4.771599258481472
 30
0.0
 11
2.599730896781125
 21
-4.771599258481472
 31
0.0
  0
LINE
  5
5B
330
22
100
AcDbEntity
  8
0
100
AcDbLine
 10
22.59973089678116
 20
-8.771599258481472
 30
0.0
 11
18.59973089678115
 21
-8.771599258481472
 31
0.0
  0
LINE
  5
5C
330
22
100
AcDbEntity
  8
0
100
AcDbLine
 10
22.59973089678116
 20
-5.771599258481472
 30
0.0
 11
18.59973089678115
 21
-5.771599258481472
 31
0.0
  0
LINE
  5
5D
330
22
100
AcDbEntity
  8
0
100
AcDbLine
 10
22.59973089678116
 20
-4.771599258481472
 30
0.0
 11
17.59973089678115
 21
-4.771599258481472
 31
0.0
  0
LINE
  5
5E
330
22
100
AcDbEntity
  8
0
100
AcDbLine
 10
18.59973089678115
 20
-5.771599258481472
 30
0.0
 11
18.59973089678115
 21
-8.771599258481472
 31
0.0
  0
ARC
  5
5F
330
22
100
AcDbEntity
  8
0
100
AcDbCircle
 10
22.59973089678116
 20
-7.271599258481472
 30
0.0
 40
1.5
100
AcDbArc
 50
270.0
 51
90.0
  0
ENDBLK
  5
60
330
22
100
AcDbEntity
  8
0
100
AcDbBlockEnd
  0
BLOCK
  5
12F3
330
12E9
100
AcDbEntity
  8
0
100
AcDbBlockBegin
  2
*D1
 70
     1
 10
0.0
 20
0.0
 30
0.0
  3
*D1
  1

  0
LINE
  5
18DB
330
12E9
100
AcDbEntity
  8
BEM
 62
     0
370
    -2
100
AcDbLine
 10
154.9457147297172
 20
211.1518513511118
 30
0.0
 11
111.0781304134195
 21
211.1518513511118
 31
0.0
  0
LINE
  5
18DC
330
12E9
100
AcDbEntity
  8
BEM
 62
     0
370
    -2
100
AcDbLine
 10
151.7063576241111
 20
476.1551442554418
 30
0.0
 11
111.0781304134195
 21
476.1551442554419
 31
0.0
  0
LINE
  5
18DD
330
12E9
100
AcDbEntity
  8
BEM
 62
     0
370
    -2
100
AcDbLine
 10
113.0781304134195
 20
218.1518513511118
 30
0.0
 11
113.0781304134195
 21
469.1551442554419
 31
0.0
  0
SOLID
  5
18DE
330
12E9
100
AcDbEntity
  8
BEM
 62
     0
100
AcDbTrace
 10
111.9114637467528
 20
218.1518513511118
 30
0.0
 11
114.2447970800861
 21
218.1518513511118
 31
0.0
 12
113.0781304134195
 22
211.1518513511118
 32
0.0
 13
113.0781304134195
 23
211.1518513511118
 33
0.0
  0
SOLID
  5
18DF
330
12E9
100
AcDbEntity
  8
BEM
 62
     0
100
AcDbTrace
 10
111.9114637467529
 20
469.1551442554419
 30
0.0
 11
114.2447970800862
 21
469.1551442554419
 31
0.0
 12
113.0781304134195
 22
476.1551442554419
 32
0.0
 13
113.0781304134195
 23
476.1551442554419
 33
0.0
  0
MTEXT
  5
18E0
330
12E9
100
AcDbEntity
  8
BEM
 62
     1
100
AcDbMText
 10
106.5781304134195
 20
343.6534978032769
 30
0.0
 40
7.0
 41
0.0
 71
     5
 72
     1
  1
\A1;265
 11
0.0000000000000001
 21
1.0
 31
0.0
 73
     1
 44
1.0
  0
POINT
  5
18E1
330
12E9
100
AcDbEntity
  8
DEFPOINTS
 62
     0
100
AcDbPoint
 10
156.9457147297172
 20
211.1518513511118
 30
0.0
  0
POINT
  5
18E2
330
12E9
100
AcDbEntity
  8
DEFPOINTS
 62
     0
100
AcDbPoint
 10
153.7063576241111
 20
476.1551442554418
 30
0.0
  0
POINT
  5
18E3
330
12E9
100
AcDbEntity
  8
DEFPOINTS
 62
     0
100
AcDbPoint
 10
113.0781304134195
 20
476.1551442554419
 30
0.0
  0
ENDBLK
  5
12F4
330
12E9
100
AcDbEntity
  8
0
100
AcDbBlockEnd
  0
BLOCK
  5
1405
330
13FB
100
AcDbEntity
  8
0
100
AcDbBlockBegin
  2
*D2
 70
     1
 10
0.0
 20
0.0
 30
0.0
  3
*D2
  1

  0
LINE
  5
18D2
330
13FB
100
AcDbEntity
  8
BEM
 62
     0
370
    -2
100
AcDbLine
 10
154.9457147297172
 20
211.1518513511117
 30
0.0
 11
126.5181205044425
 21
211.1518513511117
 31
0.0
  0
LINE
  5
18D3
330
13FB
100
AcDbEntity
  8
BEM
 62
     0
370
    -2
100
AcDbLine
 10
198.9582714120875
 20
346.1518513511119
 30
0.0
 11
126.5181205044425
 21
346.1518513511119
 31
0.0
  0
LINE
  5
18D4
330
13FB
100
AcDbEntity
  8
BEM
 62
     0
370
    -2
100
AcDbLine
 10
128.5181205044425
 20
218.1518513511118
 30
0.0
 11
128.5181205044425
 21
339.1518513511119
 31
0.0
  0
SOLID
  5
18D5
330
13FB
100
AcDbEntity
  8
BEM
 62
     0
100
AcDbTrace
 10
127.3514538377758
 20
218.1518513511118
 30
0.0
 11
129.6847871711092
 21
218.1518513511118
 31
0.0
 12
128.5181205044425
 22
211.1518513511117
 32
0.0
 13
128.5181205044425
 23
211.1518513511117
 33
0.0
  0
SOLID
  5
18D6
330
13FB
100
AcDbEntity
  8
BEM
 62
     0
100
AcDbTrace
 10
127.3514538377758
 20
339.1518513511119
 30
0.0
 11
129.6847871711092
 21
339.1518513511119
 31
0.0
 12
128.5181205044425
 22
346.1518513511119
 32
0.0
 13
128.5181205044425
 23
346.1518513511119
 33
0.0
  0
MTEXT
  5
18D7
330
13FB
100
AcDbEntity
  8
BEM
 62
     1
100
AcDbMText
 10
122.0181205044424
 20
278.6518513511119
 30
0.0
 40
7.0
 41
0.0
 71
     5
 72
     1
  1
\A1;135
 11
0.0000000000000001
 21
1.0
 31
0.0
 73
     1
 44
1.0
  0
POINT
  5
18D8
330
13FB
100
AcDbEntity
  8
DEFPOINTS
 62
     0
100
AcDbPoint
 10
156.9457147297172
 20
211.1518513511117
 30
0.0
  0
POINT
  5
18D9
330
13FB
100
AcDbEntity
  8
DEFPOINTS
 62
     0
100
AcDbPoint
 10
200.9582714120875
 20
346.1518513511119
 30
0.0
  0
POINT
  5
18DA
330
13FB
100
AcDbEntity
  8
DEFPOINTS
 62
     0
100
AcDbPoint
 10
128.5181205044425
 20
346.1518513511119
 30
0.0
  0
ENDBLK
  5
1406
330
13FB
100
AcDbEntity
  8
0
100
AcDbBlockEnd
  0
BLOCK
  5
18EF
330
18E5
100
AcDbEntity
  8
0
100
AcDbBlockBegin
  2
*D4
 70
     1
 10
0.0
 20
0.0
 30
0.0
  3
*D4
  1

  0
LINE
  5
18F1
330
18E5
100
AcDbEntity
  8
BEM
 62
     0
370
    -2
100
AcDbLine
 10
156.5082714120875
 20
214.1518513511118
 30
0.0
 11
156.5082714120875
 21
188.4609660665999
 31
0.0
  0
LINE
  5
18F2
330
18E5
100
AcDbEntity
  8
BEM
 62
     0
370
    -2
100
AcDbLine
 10
245.4082714120876
 20
214.1518513511148
 30
0.0
 11
245.4082714120876
 21
188.4609660665999
 31
0.0
  0
LINE
  5
18F3
330
18E5
100
AcDbEntity
  8
BEM
 62
     0
370
    -2
100
AcDbLine
 10
163.5082714120875
 20
190.4609660665999
 30
0.0
 11
238.4082714120876
 21
190.4609660665999
 31
0.0
  0
SOLID
  5
18F4
330
18E5
100
AcDbEntity
  8
BEM
 62
     0
100
AcDbTrace
 10
163.5082714120875
 20
191.6276327332665
 30
0.0
 11
163.5082714120875
 21
189.2942993999332
 31
0.0
 12
156.5082714120875
 22
190.4609660665999
 32
0.0
 13
156.5082714120875
 23
190.4609660665999
 33
0.0
  0
SOLID
  5
18F5
330
18E5
100
AcDbEntity
  8
BEM
 62
     0
100
AcDbTrace
 10
238.4082714120876
 20
191.6276327332665
 30
0.0
 11
238.4082714120876
 21
189.2942993999332
 31
0.0
 12
245.4082714120876
 22
190.4609660665999
 32
0.0
 13
245.4082714120876
 23
190.4609660665999
 33
0.0
  0
MTEXT
  5
18F6
330
18E5
100
AcDbEntity
  8
BEM
 62
     1
100
AcDbMText
 10
200.9582714120876
 20
196.9609660665999
 30
0.0
 40
7.0
 41
0.0
 71
     5
 72
     1
  1
\A1;%%c88.9
 73
     1
 44
1.0
  0
POINT
  5
18F7
330
18E5
100
AcDbEntity
  8
DEFPOINTS
 62
     0
100
AcDbPoint
 10
156.5082714120875
 20
216.1518513511118
 30
0.0
  0
POINT
  5
18F8
330
18E5
100
AcDbEntity
  8
DEFPOINTS
 62
     0
100
AcDbPoint
 10
245.4082714120876
 20
216.1518513511148
 30
0.0
  0
POINT
  5
18F9
330
18E5
100
AcDbEntity
  8
DEFPOINTS
 62
     0
100
AcDbPoint
 10
245.4082714120876
 20
190.4609660665999
 30
0.0
  0
ENDBLK
  5
18F0
330
18E5
100
AcDbEntity
  8
0
100
AcDbBlockEnd
  0
BLOCK
  5
1905
330
18FB
100
AcDbEntity
  8
0
100
AcDbBlockBegin
  2
*D5
 70
     1
 10
0.0
 20
0.0
 30
0.0
  3
*D5
  1

  0
LINE
  5
18FC
330
18FB
100
AcDbEntity
  8
BEM
 62
     0
370
    -2
100
AcDbLine
 10
201.0629433245734
 20
344.1545922816027
 30
0.0
 11
204.5051293565763
 21
278.4737701003661
 31
0.0
  0
LINE
  5
18FD
330
18FB
100
AcDbEntity
  8
BEM
 62
     0
370
    -2
100
AcDbLine
 10
341.3467932131077
 20
304.1897975607788
 30
0.0
 11
342.3160051527077
 21
285.6961320618924
 31
0.0
  0
LINE
  5
18FE
330
18FB
100
AcDbEntity
  8
BEM
 62
     0
370
    -2
100
AcDbLine
 10
211.3908641873724
 20
280.8373808635758
 30
0.0
 11
335.2209264969397
 21
287.3270394377009
 31
0.0
  0
SOLID
  5
18FF
330
18FB
100
AcDbEntity
  8
BEM
 62
     0
100
AcDbTrace
 10
211.3298055717557
 20
282.0024486541229
 30
0.0
 11
211.4519228029892
 21
279.6723130730288
 31
0.0
 12
204.4004574440904
 22
280.4710291698752
 32
0.0
 13
204.4004574440904
 23
280.4710291698752
 33
0.0
  0
SOLID
  5
1900
330
18FB
100
AcDbEntity
  8
BEM
 62
     0
100
AcDbTrace
 10
335.159867881323
 20
288.492107228248
 30
0.0
 11
335.2819851125565
 21
286.1619716471539
 31
0.0
 12
342.2113332402218
 22
287.6933911314015
 32
0.0
 13
342.2113332402218
 23
287.6933911314015
 33
0.0
  0
MTEXT
  5
1901
330
18FB
100
AcDbEntity
  8
BEM
 62
     1
100
AcDbMText
 10
272.9657116265769
 20
290.5733021265431
 30
0.0
 40
7.0
 41
0.0
 71
     5
 72
     1
  1
\A1;138
 11
0.9986295347545739
 21
0.0523359562429444
 31
0.0
 73
     1
 44
1.0
  0
POINT
  5
1902
330
18FB
100
AcDbEntity
  8
DEFPOINTS
 62
     0
100
AcDbPoint
 10
200.9582714120875
 20
346.1518513511119
 30
0.0
  0
POINT
  5
1903
330
18FB
100
AcDbEntity
  8
DEFPOINTS
 62
     0
100
AcDbPoint
 10
341.2421213006218
 20
306.187056630288
 30
0.0
  0
POINT
  5
1904
330
18FB
100
AcDbEntity
  8
DEFPOINTS
 62
     0
100
AcDbPoint
 10
342.2113332402218
 20
287.6933911314015
 30
0.0
  0
ENDBLK
  5
1906
330
18FB
100
AcDbEntity
  8
0
100
AcDbBlockEnd
  0
BLOCK
  5
1914
330
1908
100
AcDbEntity
  8
0
100
AcDbBlockBegin
  2
*D6
 70
     1
 10
0.0
 20
0.0
 30
0.0
  3
*D6
  1

  0
LINE
  5
1909
330
1908
100
AcDbEntity
  8
BEM
 62
     0
370
    -2
100
AcDbLine
 10
345.7595539515006
 20
353.7405650063388
 30
0.0
 11
363.4118461579611
 21
354.6656824401347
 31
0.0
  0
LINE
  5
190A
330
1908
100
AcDbEntity
  8
BEM
 62
     0
370
    -2
100
AcDbLine
 10
200.9582714120875
 20
483.1551442554418
 30
0.0
 11
200.9582714120875
 21
508.8283686101358
 31
0.0
  0
ARC
  5
190B
330
1908
100
AcDbEntity
  8
BEM
 62
     0
370
    -2
100
AcDbCircle
 10
200.9582714120875
 20
346.1518513511119
 30
0.0
 40
160.6765172590239
100
AcDbArc
 50
5.496333551632826
 51
87.50366644836718
  0
SOLID
  5
190C
330
1908
100
AcDbEntity
  8
BEM
 62
     0
100
AcDbTrace
 10
362.0595123270983
 20
361.628201097293
 30
0.0
 11
359.7325896970166
 21
361.4553557384949
 31
0.0
 12
361.4145870884519
 22
354.5610105276488
 32
0.0
 13
361.4145870884519
 23
354.5610105276488
 33
0.0
  0
SOLID
  5
190D
330
1908
100
AcDbEntity
  8
BEM
 62
     0
100
AcDbTrace
 10
207.931197104311
 20
505.5094984869469
 30
0.0
 11
207.9820238636035
 21
507.8422781775702
 31
0.0
 12
200.9582714120875
 22
506.8283686101358
 32
0.0
 13
200.9582714120875
 23
506.8283686101358
 33
0.0
  0
MTEXT
  5
190E
330
1908
100
AcDbEntity
  8
BEM
 62
     1
100
AcDbMText
 10
316.0349920158824
 20
467.4174124059012
 30
0.0
 40
7.0
 41
0.0
 71
     5
 72
     1
  1
\A1;87°
 11
0.7253743710122878
 21
-0.6883545756937539
 31
0.0
 73
     1
 44
1.0
  0
POINT
  5
190F
330
1908
100
AcDbEntity
  8
DEFPOINTS
 62
     0
100
AcDbPoint
 10
337.2196859706479
 20
431.2974331565676
 30
0.0
  0
POINT
  5
1910
330
1908
100
AcDbEntity
  8
DEFPOINTS
 62
     0
100
AcDbPoint
 10
343.7622948819914
 20
353.6358930938529
 30
0.0
  0
POINT
  5
1911
330
1908
100
AcDbEntity
  8
DEFPOINTS
 62
     0
100
AcDbPoint
 10
200.9582714120875
 20
481.1551442554418
 30
0.0
  0
POINT
  5
1912
330
1908
100
AcDbEntity
  8
DEFPOINTS
 62
     0
100
AcDbPoint
 10
200.9582714120875
 20
206.1518513511121
 30
0.0
  0
POINT
  5
1913
330
1908
100
AcDbEntity
  8
DEFPOINTS
 62
     0
100
AcDbPoint
 10
200.9582714120875
 20
346.1518513511119
 30
0.0
  0
ENDBLK
  5
1915
330
1908
100
AcDbEntity
  8
0
100
AcDbBlockEnd
  0
ENDSEC
  0
SECTION
  2
ENTITIES
  0
TEXT
  5
134
330
1E
100
AcDbEntity
  8
TEXT
100
AcDbText
 10
204.4216048581257
 20
63.0896391972351
 30
0.0
 40
4.0
  1
Koeh
 41
0.8
  7
GREEKS
 72
     1
 11
209.6787477152686
 21
63.0896391972351
 31
0.0
100
AcDbText
  0
INSERT
  5
135
330
1E
100
AcDbEntity
  8
STEMPEL
100
AcDbBlockReference
  2
LOGO
 10
150.9955485457794
 20
45.02105276448322
 30
0.0
 41
2.0
 42
2.0
 43
2.0
  0
LINE
  5
136
330
1E
100
AcDbEntity
  8
HILF
100
AcDbLine
 10
420.0
 20
0.0
 30
0.0
 11
0.0
 21
0.0
 31
0.0
  0
LINE
  5
137
330
1E
100
AcDbEntity
  8
HILF
100
AcDbLine
 10
419.9999999999999
 20
594.0000000000002
 30
0.0
 11
0.0
 21
594.0
 31
0.0
  0
LINE
  5
138
330
1E
100
AcDbEntity
  8
STEMPEL
100
AcDbLine
 10
410.0
 20
584.0
 30
0.0
 11
39.99999999999989
 21
584.0
 31
0.0
  0
LINE
  5
139
330
1E
100
AcDbEntity
  8
STEMPEL
100
AcDbLine
 10
410.0
 20
10.0
 30
0.0
 11
39.99999999999989
 21
10.0
 31
0.0
  0
LINE
  5
13A
330
1E
100
AcDbEntity
  8
STEMPEL
100
AcDbLine
 10
49.99999999999989
 20
10.0
 30
0.0
 11
410.0
 21
10.0
 31
0.0
  0
TEXT
  5
13B
330
1E
100
AcDbEntity
  8
TEXT
100
AcDbText
 10
202.4626584226295
 20
73.30961091915225
 30
0.0
 40
4.0
  1
Name
 41
0.8
  7
GREEKS
100
AcDbText
  0
TEXT
  5
13C
330
1E
100
AcDbEntity
  8
TEXT
100
AcDbText
 10
196.5498279101549
 20
102.6506227776589
 30
0.0
 40
5.0
  1
Zul. Abw.
 41
0.8
  7
GREEKS
 72
     4
 11
209.9783993387263
 21
105.1506227776589
 31
0.0
100
AcDbText
  0
LINE
  5
13D
330
1E
100
AcDbEntity
  8
HILF
100
AcDbLine
 10
146.0000000000001
 20
49.99999999999997
 30
0.0
 11
230.0
 21
49.99999999999997
 31
0.0
  0
LINE
  5
13E
330
1E
100
AcDbEntity
  8
HILF
100
AcDbLine
 10
146.0000000000001
 20
59.99999999999997
 30
0.0
 11
230.0
 21
59.99999999999997
 31
0.0
  0
LINE
  5
13F
330
1E
100
AcDbEntity
  8
HILF
100
AcDbLine
 10
146.0000000000001
 20
69.99999999999994
 30
0.0
 11
230.0
 21
69.99999999999994
 31
0.0
  0
LINE
  5
140
330
1E
100
AcDbEntity
  8
STEMPEL
100
AcDbLine
 10
410.0
 20
80.0
 30
0.0
 11
146.0000000000001
 21
79.99999999999994
 31
0.0
  0
LINE
  5
141
330
1E
100
AcDbEntity
  8
STEMPEL
100
AcDbLine
 10
410.0
 20
40.0
 30
0.0
 11
146.0000000000001
 21
39.99999999999997
 31
0.0
  0
LINE
  5
142
330
1E
100
AcDbEntity
  8
STEMPEL
100
AcDbLine
 10
410.0
 20
110.0
 30
0.0
 11
39.99999999999997
 21
110.0
 31
0.0
  0
LINE
  5
144
330
1E
100
AcDbEntity
  8
HILF
100
AcDbLine
 10
0.0
 20
0.0
 30
0.0
 11
-0.0000000000001137
 21
594.0
 31
0.0
  0
LINE
  5
145
330
1E
100
AcDbEntity
  8
STEMPEL
100
AcDbLine
 10
40.0
 20
10.0
 30
0.0
 11
39.99999999999989
 21
584.0
 31
0.0
  0
TEXT
  5
146
330
1E
100
AcDbEntity
  8
TEXT
100
AcDbText
 10
41.85509950977674
 20
111.6719999999999
 30
0.0
 40
5.0
  1
Erstellt mit AUTOCAD 2004
 41
0.8
  7
GREEKS
100
AcDbText
  0
TEXT
  5
147
330
1E
100
AcDbEntity
  8
TEXT
100
AcDbText
 10
67.82662250653562
 20
18.67381894984132
 30
0.0
 40
4.0
  1
Änderung
 41
0.8
  7
GREEKS
 72
     1
 11
78.56947964939277
 21
18.67381894984132
 31
0.0
100
AcDbText
  0
LINE
  5
148
330
1E
100
AcDbEntity
  8
HILF
100
AcDbLine
 10
40.00000000000008
 20
39.99999999999997
 30
0.0
 11
146.0000000000001
 21
39.99999999999997
 31
0.0
  0
LINE
  5
149
330
1E
100
AcDbEntity
  8
HILF
100
AcDbLine
 10
40.00000000000008
 20
49.99999999999997
 30
0.0
 11
146.0000000000001
 21
49.99999999999997
 31
0.0
  0
LINE
  5
14A
330
1E
100
AcDbEntity
  8
HILF
100
AcDbLine
 10
40.00000000000008
 20
59.99999999999997
 30
0.0
 11
146.0000000000001
 21
59.99999999999997
 31
0.0
  0
LINE
  5
14B
330
1E
100
AcDbEntity
  8
HILF
100
AcDbLine
 10
40.00000000000008
 20
69.99999999999994
 30
0.0
 11
146.0000000000001
 21
69.99999999999994
 31
0.0
  0
LINE
  5
14C
330
1E
100
AcDbEntity
  8
HILF
100
AcDbLine
 10
40.00000000000008
 20
79.99999999999994
 30
0.0
 11
146.0000000000001
 21
79.99999999999994
 31
0.0
  0
LINE
  5
14D
330
1E
100
AcDbEntity
  8
HILF
100
AcDbLine
 10
40.00000000000008
 20
90.00000000000005
 30
0.0
 11
146.0000000000001
 21
90.00000000000005
 31
0.0
  0
LINE
  5
14E
330
1E
100
AcDbEntity
  8
HILF
100
AcDbLine
 10
40.00000000000008
 20
100.0
 30
0.0
 11
146.0000000000001
 21
100.0
 31
0.0
  0
LINE
  5
14F
330
1E
100
AcDbEntity
  8
STEMPEL
100
AcDbLine
 10
145.9999999999999
 20
29.99999999999997
 30
0.0
 11
39.99999999999997
 21
29.99999999999997
 31
0.0
  0
TEXT
  5
150
330
1E
100
AcDbEntity
  8
TEXT
100
AcDbText
 10
48.26641107045756
 20
13.65465846027192
 30
0.0
 40
4.0
  1
Index
 50
90.0
 41
0.8
  7
GREEKS
100
AcDbText
  0
LINE
  5
151
330
1E
100
AcDbEntity
  8
VOLL
100
AcDbLine
 10
54.00000000000009
 20
110.0
 30
0.0
 11
53.99999999999997
 21
9.999999999999971
 31
0.0
  0
LINE
  5
152
330
1E
100
AcDbEntity
  8
HILF
100
AcDbLine
 10
31.08767135713856
 20
297.0
 30
0.0
 11
0.0000000000001137
 21
297.0
 31
0.0
  0
TEXT
  5
153
330
1E
100
AcDbEntity
  8
TEXT
100
AcDbText
 10
110.1314052170812
 20
18.6715626933981
 30
0.0
 40
4.0
  1
Tag
 41
0.8
  7
GREEKS
 72
     1
 11
113.8647385504146
 21
18.6715626933981
 31
0.0
100
AcDbText
  0
LINE
  5
154
330
1E
100
AcDbEntity
  8
VOLL
100
AcDbLine
 10
124.0000000000001
 20
109.9999999999999
 30
0.0
 11
124.0
 21
9.999999999999971
 31
0.0
  0
LINE
  5
155
330
1E
100
AcDbEntity
  8
VOLL
100
AcDbLine
 10
104.0000000000001
 20
109.9999999999999
 30
0.0
 11
104.0
 21
9.999999999999971
 31
0.0
  0
TEXT
  5
156
330
1E
100
AcDbEntity
  8
TEXT
100
AcDbText
 10
128.5727686473826
 20
18.59324216966408
 30
0.0
 40
4.0
  1
Name
 41
0.8
  7
GREEKS
 72
     1
 11
134.8965781711921
 21
18.59324216966408
 31
0.0
100
AcDbText
  0
LINE
  5
157
330
1E
100
AcDbEntity
  8
STEMPEL
100
AcDbLine
 10
146.0000000000001
 20
109.9999999999999
 30
0.0
 11
146.0
 21
9.999999999999971
 31
0.0
  0
TEXT
  5
158
330
1E
100
AcDbEntity
  8
TEXT
100
AcDbText
 10
170.398997108236
 20
63.10765040825732
 30
0.0
 40
4.0
  1
08.04.
 41
0.8
  7
GREEKS
 72
     1
 11
177.4085209177598
 21
63.10765040825732
 31
0.0
100
AcDbText
  0
TEXT
  5
159
330
1E
100
AcDbEntity
  8
TEXT
100
AcDbText
 10
172.331167315365
 20
73.31880501229926
 30
0.0
 40
4.0
  1
Tag
 41
0.8
  7
GREEKS
100
AcDbText
  0
TEXT
  5
15A
330
1E
100
AcDbEntity
  8
TEXT
100
AcDbText
 10
147.5836127167615
 20
63.62990369617964
 30
0.0
 40
4.0
  1
Gez.
 41
0.8
  7
GREEKS
100
AcDbText
  0
LINE
  5
15B
330
1E
100
AcDbEntity
  8
VOLL
100
AcDbLine
 10
164.0000000000001
 20
79.99999999999994
 30
0.0
 11
164.0000000000001
 21
39.99999999999997
 31
0.0
  0
TEXT
  5
15C
330
1E
100
AcDbEntity
  8
TEXT
100
AcDbText
 10
147.6006777387303
 20
43.52946389649807
 30
0.0
 40
4.0
  1
Norm.
 41
0.8
  7
GREEKS
100
AcDbText
  0
TEXT
  5
15D
330
1E
100
AcDbEntity
  8
TEXT
100
AcDbText
 10
147.5515086571672
 20
53.68926291428377
 30
0.0
 40
4.0
  1
Gepr.
 41
0.8
  7
GREEKS
100
AcDbText
  0
TEXT
  5
15E
330
1E
100
AcDbEntity
  8
TEXT
 62
     1
100
AcDbText
 10
160.5006306481887
 20
88.14901428913959
 30
0.0
 40
7.0
  1
1:2
 41
0.8
  7
GREEKS
100
AcDbText
  0
TEXT
  5
15F
330
1E
100
AcDbEntity
  8
TEXT
100
AcDbText
 10
153.5163572150377
 20
102.4620895087088
 30
0.0
 40
5.0
  1
Maßstab
 41
0.8
  7
GREEKS
100
AcDbText
  0
TEXT
  5
160
330
1E
100
AcDbEntity
  8
TEXT
100
AcDbText
 10
148.622109822104
 20
73.14025471151666
 30
0.0
 40
4.0
  1
2011
 41
0.8
  7
GREEKS
100
AcDbText
  0
LINE
  5
161
330
1E
100
AcDbEntity
  8
VOLL
100
AcDbLine
 10
190.0000000000001
 20
109.9999999999998
 30
0.0
 11
190.0
 21
39.99999999999997
 31
0.0
  0
LINE
  5
186
330
1E
100
AcDbEntity
  8
HILF
100
AcDbLine
 10
420.0
 20
-0.0000000000001137
 30
0.0
 11
419.9999999999999
 21
594.0
 31
0.0
  0
LINE
  5
187
330
1E
100
AcDbEntity
  8
STEMPEL
100
AcDbLine
 10
410.0
 20
10.0
 30
0.0
 11
410.0
 21
584.0
 31
0.0
  0
TEXT
  5
188
330
1E
100
AcDbEntity
  8
TEXT
100
AcDbText
 10
337.2400861497006
 20
52.07416177878602
 30
0.0
 40
5.0
  1
ersetzt durch:
 41
0.8
  7
GREEKS
100
AcDbText
  0
TEXT
  5
189
330
1E
100
AcDbEntity
  8
TEXT
100
AcDbText
 10
336.7238616296993
 20
73.1811823709997
 30
0.0
 40
5.0
  1
Ersatz für:
 41
0.8
  7
GREEKS
100
AcDbText
  0
TEXT
  5
18A
330
1E
100
AcDbEntity
  8
TEXT
100
AcDbText
 10
336.178754957634
 20
102.3132034537136
 30
0.0
 40
5.0
  1
Zeichnungs Nr.
 41
0.8
  7
GREEKS
100
AcDbText
  0
LINE
  5
18B
330
1E
100
AcDbEntity
  8
HILF
100
AcDbLine
 10
233.4909699289885
 20
14.89398258028314
 30
0.0
 11
404.8588839326728
 21
14.89398258028314
 31
0.0
  0
LINE
  5
18C
330
1E
100
AcDbEntity
  8
HILF
100
AcDbLine
 10
336.7238616296993
 20
83.77983636955827
 30
0.0
 11
404.8588839326728
 21
83.77983636955827
 31
0.0
  0
LINE
  5
18D
330
1E
100
AcDbEntity
  8
VOLL
100
AcDbLine
 10
332.0
 20
60.0
 30
0.0
 11
410.0
 21
60.0
 31
0.0
  0
TEXT
  5
18E
330
1E
100
AcDbEntity
  8
TEXT
 62
     1
100
AcDbText
 10
234.9283864320014
 20
87.41748789253779
 30
0.0
 40
7.0
  1
Abzweig DN80/80
 41
0.8
  7
GREEKS
100
AcDbText
  0
LINE
  5
18F
330
1E
100
AcDbEntity
  8
HILF
100
AcDbLine
 10
234.7736801096947
 20
49.99999999999997
 30
0.0
 11
324.835391655631
 21
49.99999999999997
 31
0.0
  0
LINE
  5
190
330
1E
100
AcDbEntity
  8
HILF
100
AcDbLine
 10
234.7736801096947
 20
59.99999999999997
 30
0.0
 11
324.835391655631
 21
59.99999999999997
 31
0.0
  0
LINE
  5
191
330
1E
100
AcDbEntity
  8
HILF
100
AcDbLine
 10
234.7736801096947
 20
69.99999999999994
 30
0.0
 11
324.835391655631
 21
69.99999999999994
 31
0.0
  0
LINE
  5
192
330
1E
100
AcDbEntity
  8
HILF
100
AcDbLine
 10
234.7736801096947
 20
84.03758247564139
 30
0.0
 11
324.8353916556311
 21
84.03758247564139
 31
0.0
  0
LINE
  5
193
330
1E
100
AcDbEntity
  8
STEMPEL
100
AcDbLine
 10
230.0
 20
110.0
 30
0.0
 11
230.0
 21
9.999999999999971
 31
0.0
  0
TEXT
  5
194
330
1E
100
AcDbEntity
  8
TEXT
100
AcDbText
 10
235.1296391125315
 20
71.50334417585288
 30
0.0
 40
5.0
  1
dünnwandig 87° 
 41
0.8
  7
GREEKS
100
AcDbText
  0
TEXT
  5
195
330
1E
100
AcDbEntity
  8
TEXT
100
AcDbText
 10
234.9837501577827
 20
42.62974153022632
 30
0.0
 40
4.0
  1
5200MM0W.DWG
 41
0.8
  7
GREEKS
100
AcDbText
  0
TEXT
  5
196
330
1E
100
AcDbEntity
  8
TEXT
100
AcDbText
 10
234.742238391136
 20
30.84560570193057
 30
0.0
 40
5.0
  1
Bauvorhaben
 41
0.8
  7
GREEKS
100
AcDbText
  0
TEXT
  5
197
330
1E
100
AcDbEntity
  8
TEXT
100
AcDbText
 10
234.877940380901
 20
102.5489328011779
 30
0.0
 40
5.0
  1
Benennung
 41
0.8
  7
GREEKS
100
AcDbText
  0
LINE
  5
198
330
1E
100
AcDbEntity
  8
STEMPEL
100
AcDbLine
 10
332.0
 20
109.9999999999997
 30
0.0
 11
332.0
 21
40.0
 31
0.0
  0
TEXT
  5
19A
330
1E
100
AcDbEntity
  8
TEXT
 62
     1
100
AcDbText
 10
347.3138528972752
 20
88.14901428913959
 30
0.0
 40
7.0
  1
5200MM0W
 41
0.8
  7
GREEKS
 72
     1
 11
369.7138528972752
 21
88.14901428913959
 31
0.0
100
AcDbText
  0
TEXT
  5
212
330
1E
100
AcDbEntity
  8
TEXT
100
AcDbText
 10
235.1296391125315
 20
51.50334417585291
 30
0.0
 40
5.0
  1
EDV-Art.Nr. 5.200.MM0C
 41
0.8
  7
GREEKS
100
AcDbText
  0
TEXT
  5
255
330
1E
100
AcDbEntity
  8
TEXT
 62
     1
100
AcDbText
 10
297.0573649355706
 20
132.2248663682012
 30
0.0
 40
7.0
  1
Werkstoff: 1.4404
 41
0.8
  7
GREEKS
100
AcDbText
  0
LINE
  5
1283
330
1E
100
AcDbEntity
  8
STEMPEL
100
AcDbLine
 10
248.2101852000639
 20
476.1551442554418
 30
0.0
 11
153.7063576241111
 21
476.1551442554418
 31
0.0
  0
LINE
  5
1293
330
1E
100
AcDbEntity
  8
MITTEL
100
AcDbLine
 10
200.9582714120875
 20
481.1551442554417
 30
0.0
 11
200.9582714120875
 21
206.151851351112
 31
0.0
  0
LINE
  5
12C7
330
1E
100
AcDbEntity
  8
STEMPEL
100
AcDbLine
 10
244.9708280944578
 20
211.151851351112
 30
0.0
 11
156.9457147297172
 21
211.1518513511118
 31
0.0
  0
DIMENSION
  5
12CA
330
1E
100
AcDbEntity
  8
BEM
100
AcDbDimension
  2
*D1
 10
113.0781304134195
 20
476.1551442554419
 30
0.0
 11
106.5781304134195
 21
343.6534978032769
 31
0.0
 70
    32
 71
     5
 42
265.0032929043301
  3
Standard
100
AcDbAlignedDimension
 13
156.9457147297172
 23
211.1518513511118
 33
0.0
 14
153.7063576241111
 24
476.1551442554418
 34
0.0
 50
90.0
100
AcDbRotatedDimension
1001
ACAD
1000
DSTYLE
1002
{
1070
    40
1040
2.0
1070
    41
1040
3.5
1070
    42
1040
1.0
1070
    43
1040
7.0
1070
    44
1040
1.0
1070
    73
1070
     0
1070
    74
1070
     0
1070
    77
1070
     1
1070
    78
1070
     8
1070
    79
1070
     2
1070
   140
1040
3.5
1070
   141
1040
1.5
1070
   146
1040
0.5
1070
   147
1040
1.5
1070
   172
1070
     1
1070
   178
1070
     1
1070
   179
1070
     2
1070
   271
1070
     2
1070
   272
1070
     2
1070
   284
1070
     8
1070
   285
1070
     8
1070
   286
1070
     8
1002
}
  0
LINE
  5
13C9
330
1E
100
AcDbEntity
  8
MITTEL
100
AcDbLine
 10
343.7622948819914
 20
353.6358930938529
 30
0.0
 11
200.9582714120875
 21
346.1518513511119
 31
0.0
  0
TEXT
  5
13CA
330
1E
100
AcDbEntity
  8
TEXT
 62
     1
100
AcDbText
 10
310.1791196801443
 20
363.8814752441934
 30
0.0
 40
7.0
  1
DN80
 50
2.999999999999989
 41
0.8
  7
GREEKS
100
AcDbText
  0
DIMENSION
  5
13FA
330
1E
100
AcDbEntity
  8
BEM
100
AcDbDimension
  2
*D2
 10
128.5181205044425
 20
346.1518513511119
 30
0.0
 11
122.0181205044424
 21
278.6518513511119
 31
0.0
 70
    32
 71
     5
 42
135.0000000000001
  3
Standard
100
AcDbAlignedDimension
 13
156.9457147297172
 23
211.1518513511117
 33
0.0
 14
200.9582714120875
 24
346.1518513511119
 34
0.0
 50
90.0
100
AcDbRotatedDimension
1001
ACAD
1000
DSTYLE
1002
{
1070
    40
1040
2.0
1070
    41
1040
3.5
1070
    42
1040
1.0
1070
    43
1040
7.0
1070
    44
1040
1.0
1070
    73
1070
     0
1070
    74
1070
     0
1070
    77
1070
     1
1070
    78
1070
     8
1070
    79
1070
     2
1070
   140
1040
3.5
1070
   141
1040
1.5
1070
   146
1040
0.5
1070
   147
1040
1.5
1070
   172
1070
     1
1070
   178
1070
     1
1070
   179
1070
     2
1070
   271
1070
     2
1070
   272
1070
     2
1070
   284
1070
     8
1070
   285
1070
     8
1070
   286
1070
     8
1002
}
  0
TEXT
  5
14B3
330
1E
100
AcDbEntity
  8
TEXT
 62
     1
100
AcDbText
 10
183.8814233700701
 20
450.5831773608815
 30
0.0
 40
7.0
  1
DN80
 50
89.99999999999998
 41
0.8
  7
GREEKS
100
AcDbText
  0
TEXT
  5
1630
330
1E
100
AcDbEntity
  8
VOLL
100
AcDbText
 10
530.1602023581097
 20
204.0789315492053
 30
0.0
 40
1.8
  1

  7
GREEKS
100
AcDbText
  0
LINE
  5
163C
330
1E
100
AcDbEntity
  8
STEMPEL
100
AcDbLine
 10
341.2421213006216
 20
306.187056630288
 30
0.0
 11
336.296173115816
 21
400.5613699949882
 31
0.0
  0
LINE
  5
163F
102
{ACAD_REACTORS
330
1859
102
}
330
1E
100
AcDbEntity
  8
STEMPEL
100
AcDbLine
 10
271.6819460099709
 20
394.3693228591309
 30
0.0
 11
245.4082714120875
 21
392.9923779198506
 31
0.0
  0
LINE
  5
1642
330
1E
100
AcDbEntity
  8
STEMPEL
100
AcDbLine
 10
300.5702552843343
 20
398.4868630950365
 30
0.0
 11
281.6018289722909
 21
397.4927699955283
 31
0.0
  0
ARC
  5
1645
330
1E
100
AcDbEntity
  8
STEMPEL
100
AcDbCircle
 10
271.2004552125358
 20
403.5567145788728
 30
0.0
 40
9.200000000000001
100
AcDbArc
 50
273.0
 51
301.9550243718593
  0
ARC
  5
1646
330
1E
100
AcDbEntity
  8
STEMPEL
100
AcDbCircle
 10
282.208926064709
 20
385.9086673923751
 30
0.0
 40
11.6
100
AcDbArc
 50
93.0
 51
121.9550243718592
  0
ARC
  5
1649
330
1E
100
AcDbEntity
  8
STEMPEL
100
AcDbCircle
 10
325.2104984638017
 20
379.0497959589095
 30
0.0
 40
24.2
100
AcDbArc
 50
62.73634805790153
 51
93.0
  0
LINE
  5
164A
330
1E
100
AcDbEntity
  8
STEMPEL
100
AcDbLine
 10
323.9439683227225
 20
403.2166306999703
 30
0.0
 11
316.250836878522
 21
402.8134507652471
 31
0.0
  0
ARC
  5
164C
330
1E
100
AcDbEntity
  8
STEMPEL
100
AcDbCircle
 10
317.5173670196012
 20
378.6466160241864
 30
0.0
 40
24.2
100
AcDbArc
 50
93.0
 51
117.8505023402282
  0
ARC
  5
164D
330
1E
100
AcDbEntity
  8
STEMPEL
100
AcDbCircle
 10
299.8584862794302
 20
412.0682247676985
 30
0.0
 40
13.6
100
AcDbArc
 50
273.0
 51
297.8505023402283
  0
ARC
  5
1650
330
1E
100
AcDbEntity
  8
STEMPEL
100
AcDbCircle
 10
306.2068377716995
 20
290.934462201969
 30
0.0
 40
13.6
100
AcDbArc
 50
68.14949765977174
 51
93.0
  0
ARC
  5
1651
330
1E
100
AcDbEntity
  8
STEMPEL
100
AcDbCircle
 10
320.2754719136044
 20
326.0188395426204
 30
0.0
 40
24.2
100
AcDbArc
 50
248.1494976597718
 51
273.0
  0
LINE
  5
1653
330
1E
100
AcDbEntity
  8
STEMPEL
100
AcDbLine
 10
329.2351334988842
 20
302.255184736283
 30
0.0
 11
321.5420020546837
 21
301.8520048015599
 31
0.0
  0
ARC
  5
1654
330
1E
100
AcDbEntity
  8
STEMPEL
100
AcDbCircle
 10
327.9686033578049
 20
326.4220194773435
 30
0.0
 40
24.2
100
AcDbArc
 50
273.0
 51
303.2636519420985
  0
ARC
  5
1657
330
1E
100
AcDbEntity
  8
STEMPEL
100
AcDbCircle
 10
285.9195453623337
 20
315.105833378276
 30
0.0
 40
11.6
100
AcDbArc
 50
244.0449756281407
 51
273.0
  0
ARC
  5
1658
330
1E
100
AcDbEntity
  8
STEMPEL
100
AcDbCircle
 10
276.8161033174038
 20
296.4037654997071
 30
0.0
 40
9.200000000000001
100
AcDbArc
 50
64.04497562814078
 51
93.0
  0
LINE
  5
165B
330
1E
100
AcDbEntity
  8
STEMPEL
100
AcDbLine
 10
305.4950687667953
 20
304.5158238746313
 30
0.0
 11
286.526642454752
 21
303.5217307751231
 31
0.0
  0
LINE
  5
165E
102
{ACAD_REACTORS
330
1859
102
}
330
1E
100
AcDbEntity
  8
STEMPEL
100
AcDbLine
 10
276.3346125199686
 20
305.5911572194494
 30
0.0
 11
245.4082714120875
 21
303.9703763606356
 31
0.0
  0
LINE
  5
17AC
330
1E
100
AcDbEntity
  8
HILF
100
AcDbLine
 10
308.3698005399588
 20
305.5755547863059
 30
0.0
 11
303.5400110197309
 21
397.733428794733
 31
0.0
  0
LINE
  5
17AD
330
1E
100
AcDbEntity
  8
HILF
100
AcDbLine
 10
283.5462246651355
 20
304.980254438371
 30
0.0
 11
278.7901954603311
 21
395.7306977860712
 31
0.0
  0
LINE
  5
17AE
330
1E
100
AcDbEntity
  8
HILF
100
AcDbLine
 10
278.5821346012806
 20
306.6527231786309
 30
0.0
 11
274.0281197885299
 21
393.5485022986668
 31
0.0
  0
ARC
  5
17AF
330
1E
100
AcDbEntity
  8
STEMPEL
100
AcDbCircle
 10
174.6082714120875
 20
463.9588333377914
 30
0.0
 40
24.2
100
AcDbArc
 50
149.7363480579015
 51
180.0
  0
ARC
  5
17B0
330
1E
100
AcDbEntity
  8
STEMPEL
100
AcDbCircle
 10
147.3082714120875
 20
411.305401994249
 30
0.0
 40
9.200000000000001
100
AcDbArc
 50
0.0
 51
28.95502437185924
  0
ARC
  5
17B1
330
1E
100
AcDbEntity
  8
STEMPEL
100
AcDbCircle
 10
165.5082714120876
 20
421.3751586943882
 30
0.0
 40
11.6
100
AcDbArc
 50
180.0
 51
208.9550243718592
  0
ARC
  5
17B2
330
1E
100
AcDbEntity
  8
STEMPEL
100
AcDbCircle
 10
140.3082714120876
 20
440.3696162503677
 30
0.0
 40
13.6
100
AcDbArc
 50
0.0
 51
24.85050234022826
  0
LINE
  5
17B3
330
1E
100
AcDbEntity
  8
STEMPEL
100
AcDbLine
 10
153.9082714120876
 20
440.3696162503677
 30
0.0
 11
153.9082714120876
 21
421.3751586943882
 31
0.0
  0
ARC
  5
17B4
330
1E
100
AcDbEntity
  8
STEMPEL
100
AcDbCircle
 10
174.6082714120875
 20
456.2551442554419
 30
0.0
 40
24.2
100
AcDbArc
 50
180.0
 51
204.8505023402283
  0
LINE
  5
17B5
330
1E
100
AcDbEntity
  8
STEMPEL
100
AcDbLine
 10
150.4082714120875
 20
463.9588333377914
 30
0.0
 11
150.4082714120876
 21
456.2551442554419
 31
0.0
  0
LINE
  5
17B6
330
1E
100
AcDbEntity
  8
STEMPEL
100
AcDbLine
 10
156.5082714120875
 20
411.305401994249
 30
0.0
 11
156.5082714120875
 21
216.1518513511118
 31
0.0
  0
ARC
  5
17B7
330
1E
100
AcDbEntity
  8
STEMPEL
100
AcDbCircle
 10
227.3082714120875
 20
463.9588333377914
 30
0.0
 40
24.2
100
AcDbArc
 50
0.0
 51
30.26365194209847
  0
ARC
  5
17B8
330
1E
100
AcDbEntity
  8
STEMPEL
100
AcDbCircle
 10
236.4082714120874
 20
421.3751586943882
 30
0.0
 40
11.6
100
AcDbArc
 50
331.0449756281407
 51
0.0
  0
LINE
  5
17B9
102
{ACAD_REACTORS
330
1859
102
}
330
1E
100
AcDbEntity
  8
STEMPEL
100
AcDbLine
 10
245.4082714120875
 20
411.3054019942491
 30
0.0
 11
245.4082714120875
 21
392.9923779198506
 31
0.0
  0
ARC
  5
17BA
330
1E
100
AcDbEntity
  8
STEMPEL
100
AcDbCircle
 10
254.6082714120875
 20
411.3054019942491
 30
0.0
 40
9.200000000000001
100
AcDbArc
 50
151.0449756281408
 51
180.0
  0
ARC
  5
17BB
330
1E
100
AcDbEntity
  8
STEMPEL
100
AcDbCircle
 10
261.6082714120874
 20
440.3696162503678
 30
0.0
 40
13.6
100
AcDbArc
 50
155.1494976597717
 51
180.0
  0
LINE
  5
17BC
330
1E
100
AcDbEntity
  8
STEMPEL
100
AcDbLine
 10
248.0082714120874
 20
440.3696162503678
 30
0.0
 11
248.0082714120874
 21
421.3751586943882
 31
0.0
  0
ARC
  5
17BD
330
1E
100
AcDbEntity
  8
STEMPEL
100
AcDbCircle
 10
227.3082714120875
 20
456.2551442554419
 30
0.0
 40
24.2
100
AcDbArc
 50
335.1494976597718
 51
0.0
  0
LINE
  5
17BE
330
1E
100
AcDbEntity
  8
STEMPEL
100
AcDbLine
 10
251.5082714120874
 20
463.9588333377914
 30
0.0
 11
251.5082714120874
 21
456.255144255442
 31
0.0
  0
LINE
  5
17BF
330
1E
100
AcDbEntity
  8
HILF
100
AcDbLine
 10
247.1004446610873
 20
443.2958703341689
 30
0.0
 11
154.8160981630877
 21
443.2958703341689
 31
0.0
  0
LINE
  5
17C0
330
1E
100
AcDbEntity
  8
HILF
100
AcDbLine
 10
246.3957635898065
 20
418.4751586943882
 30
0.0
 11
155.5207792343685
 21
418.4751586943883
 31
0.0
  0
LINE
  5
17C1
330
1E
100
AcDbEntity
  8
HILF
100
AcDbLine
 10
244.4657865094614
 20
413.605401994249
 30
0.0
 11
157.4507563147137
 21
413.605401994249
 31
0.0
  0
LINE
  5
17CB
330
1E
100
AcDbEntity
  8
HILF
100
AcDbLine
 10
244.2036876070353
 20
216.151851351112
 30
0.0
 11
157.7128552171396
 21
216.1518513511118
 31
0.0
  0
LINE
  5
17CC
330
1E
100
AcDbEntity
  8
STEMPEL
100
AcDbLine
 10
156.5082714120875
 20
216.1518513511118
 30
0.0
 11
156.9457147297172
 21
211.1518513511118
 31
0.0
  0
LINE
  5
17CF
330
1E
100
AcDbEntity
  8
STEMPEL
100
AcDbLine
 10
245.4082714120876
 20
216.1518513511148
 30
0.0
 11
244.9708280944578
 21
211.151851351112
 31
0.0
  0
LINE
  5
17F4
330
1E
100
AcDbEntity
  8
STEMPEL
100
AcDbLine
 10
245.4082714120875
 20
392.9923779198506
 30
0.0
 11
200.9582714120875
 21
346.1518513511119
 31
0.0
  0
LINE
  5
17F5
330
1E
100
AcDbEntity
  8
STEMPEL
100
AcDbLine
 10
200.9582714120875
 20
346.1518513511119
 30
0.0
 11
245.4082714120875
 21
303.9703763606356
 31
0.0
  0
LINE
  5
17F6
102
{ACAD_REACTORS
330
1859
102
}
330
1E
100
AcDbEntity
  8
STEMPEL
100
AcDbLine
 10
245.4082714120875
 20
303.9703763606355
 30
0.0
 11
245.4082714120876
 21
216.1518513511148
 31
0.0
  0
ARC
  5
1801
330
1E
100
AcDbEntity
  8
SCHRAFF
100
AcDbCircle
 10
247.4733351391688
 20
395.1685010328874
 30
0.0
 40
5.0
100
AcDbArc
 50
189.6301023541566
 51
263.3698976458441
  0
ARC
  5
1802
330
1E
100
AcDbEntity
  8
SCHRAFF
100
AcDbCircle
 10
244.0315622607
 20
391.541629177826
 30
0.0
 40
5.0
100
AcDbArc
 50
189.6301023541566
 51
263.3698976458441
  0
ARC
  5
1803
330
1E
100
AcDbEntity
  8
SCHRAFF
100
AcDbCircle
 10
240.5897893822313
 20
387.9147573227646
 30
0.0
 40
5.0
100
AcDbArc
 50
189.6301023541566
 51
263.3698976458441
  0
ARC
  5
1804
330
1E
100
AcDbEntity
  8
SCHRAFF
100
AcDbCircle
 10
237.1480165037625
 20
384.2878854677031
 30
0.0
 40
5.0
100
AcDbArc
 50
189.6301023541566
 51
263.3698976458441
  0
ARC
  5
1805
330
1E
100
AcDbEntity
  8
SCHRAFF
100
AcDbCircle
 10
233.7062436252937
 20
380.6610136126417
 30
0.0
 40
5.0
100
AcDbArc
 50
189.6301023541566
 51
263.3698976458441
  0
ARC
  5
1806
330
1E
100
AcDbEntity
  8
SCHRAFF
100
AcDbCircle
 10
230.2644707468249
 20
377.0341417575802
 30
0.0
 40
5.0
100
AcDbArc
 50
189.6301023541566
 51
263.3698976458441
  0
ARC
  5
1807
330
1E
100
AcDbEntity
  8
SCHRAFF
100
AcDbCircle
 10
226.8226978683561
 20
373.4072699025188
 30
0.0
 40
5.0
100
AcDbArc
 50
189.6301023541566
 51
263.3698976458441
  0
ARC
  5
1808
330
1E
100
AcDbEntity
  8
SCHRAFF
100
AcDbCircle
 10
223.3809249898873
 20
369.7803980474574
 30
0.0
 40
5.0
100
AcDbArc
 50
189.6301023541566
 51
263.3698976458441
  0
ARC
  5
1809
330
1E
100
AcDbEntity
  8
SCHRAFF
100
AcDbCircle
 10
219.9391521114186
 20
366.1535261923959
 30
0.0
 40
5.0
100
AcDbArc
 50
189.6301023541566
 51
263.3698976458441
  0
ARC
  5
180A
330
1E
100
AcDbEntity
  8
SCHRAFF
100
AcDbCircle
 10
216.4973792329498
 20
362.5266543373345
 30
0.0
 40
5.0
100
AcDbArc
 50
189.6301023541566
 51
263.3698976458441
  0
ARC
  5
180B
330
1E
100
AcDbEntity
  8
SCHRAFF
100
AcDbCircle
 10
213.055606354481
 20
358.899782482273
 30
0.0
 40
5.0
100
AcDbArc
 50
189.6301023541566
 51
263.3698976458441
  0
ARC
  5
180C
330
1E
100
AcDbEntity
  8
SCHRAFF
100
AcDbCircle
 10
209.6138334760122
 20
355.2729106272116
 30
0.0
 40
5.0
100
AcDbArc
 50
189.6301023541566
 51
263.3698976458441
  0
ARC
  5
180E
102
{ACAD_REACTORS
330
1859
102
}
330
1E
100
AcDbEntity
  8
SCHRAFF
100
AcDbCircle
 10
243.8311093266639
 20
391.3303958598845
 30
0.0
 40
6.223364139421606
100
AcDbArc
 50
17.68033640338026
 51
75.31966359662099
  0
ARC
  5
181B
330
1E
100
AcDbEntity
  8
SCHRAFF
100
AcDbCircle
 10
247.5843945251244
 20
301.9053126335543
 30
0.0
 40
5.0
100
AcDbArc
 50
99.63010235415573
 51
173.369897645844
  0
ARC
  5
181C
330
1E
100
AcDbEntity
  8
SCHRAFF
100
AcDbCircle
 10
243.9575226700629
 20
305.347085512023
 30
0.0
 40
5.0
100
AcDbArc
 50
99.63010235415573
 51
173.369897645844
  0
ARC
  5
181D
330
1E
100
AcDbEntity
  8
SCHRAFF
100
AcDbCircle
 10
240.3306508150015
 20
308.7888583904919
 30
0.0
 40
5.0
100
AcDbArc
 50
99.63010235415573
 51
173.369897645844
  0
ARC
  5
181E
330
1E
100
AcDbEntity
  8
SCHRAFF
100
AcDbCircle
 10
236.7037789599401
 20
312.2306312689606
 30
0.0
 40
5.0
100
AcDbArc
 50
99.63010235415573
 51
173.369897645844
  0
ARC
  5
181F
330
1E
100
AcDbEntity
  8
SCHRAFF
100
AcDbCircle
 10
233.0769071048786
 20
315.6724041474294
 30
0.0
 40
5.0
100
AcDbArc
 50
99.63010235415573
 51
173.369897645844
  0
ARC
  5
1820
330
1E
100
AcDbEntity
  8
SCHRAFF
100
AcDbCircle
 10
229.4500352498172
 20
319.1141770258981
 30
0.0
 40
5.0
100
AcDbArc
 50
99.63010235415573
 51
173.369897645844
  0
ARC
  5
1821
330
1E
100
AcDbEntity
  8
SCHRAFF
100
AcDbCircle
 10
225.8231633947557
 20
322.5559499043669
 30
0.0
 40
5.0
100
AcDbArc
 50
99.63010235415573
 51
173.369897645844
  0
ARC
  5
1822
330
1E
100
AcDbEntity
  8
SCHRAFF
100
AcDbCircle
 10
222.1962915396943
 20
325.9977227828357
 30
0.0
 40
5.0
100
AcDbArc
 50
99.63010235415573
 51
173.369897645844
  0
ARC
  5
1823
330
1E
100
AcDbEntity
  8
SCHRAFF
100
AcDbCircle
 10
218.5694196846328
 20
329.4394956613045
 30
0.0
 40
5.0
100
AcDbArc
 50
99.63010235415573
 51
173.369897645844
  0
ARC
  5
1824
330
1E
100
AcDbEntity
  8
SCHRAFF
100
AcDbCircle
 10
214.9425478295714
 20
332.8812685397732
 30
0.0
 40
5.0
100
AcDbArc
 50
99.63010235415573
 51
173.369897645844
  0
ARC
  5
1825
330
1E
100
AcDbEntity
  8
SCHRAFF
100
AcDbCircle
 10
211.3156759745099
 20
336.323041418242
 30
0.0
 40
5.0
100
AcDbArc
 50
99.63010235415573
 51
173.369897645844
  0
ARC
  5
1826
330
1E
100
AcDbEntity
  8
SCHRAFF
100
AcDbCircle
 10
207.6888041194485
 20
339.7648142967108
 30
0.0
 40
5.0
100
AcDbArc
 50
99.63010235415573
 51
173.369897645844
  0
ARC
  5
1833
330
1E
100
AcDbEntity
  8
SCHRAFF
100
AcDbCircle
 10
206.1720605975434
 20
351.6460387721502
 30
0.0
 40
5.0
100
AcDbArc
 50
189.6301023541566
 51
263.3698976458441
  0
ARC
  5
1834
102
{ACAD_REACTORS
330
1859
102
}
330
1E
100
AcDbEntity
  8
SCHRAFF
100
AcDbCircle
 10
243.3044444825183
 20
305.9668335712975
 30
0.0
 40
6.483101885044227
100
AcDbArc
 50
288.9358494368419
 51
344.0641505631566
  0
HATCH
  5
1859
330
1E
100
AcDbEntity
  8
SCHRAFF
100
AcDbHatch
 10
0.0
 20
0.0
 30
0.0
210
0.0
220
0.0
230
1.0
  2
_USER
 70
     0
 71
     1
 91
        2
 92
        7
 72
     1
 73
     1
 93
        3
 10
249.7605176381612
 20
393.2204694794521
 42
0.2569392780283625
 10
245.4082714120875
 20
397.3505969336145
 42
0.0
 10
245.4082714120875
 20
392.9923779198506
 42
0.0
 97
        3
330
17B9
330
163F
330
180E
 92
        7
 72
     1
 73
     1
 93
        3
 10
245.4082714120875
 20
299.8345809425905
 42
0.2452918643362409
 10
249.53839886625
 20
304.1868271686642
 42
0.0
 10
245.4082714120875
 20
303.9703763606355
 42
0.0
 97
        3
330
165E
330
17F6
330
1834
 75
     0
 76
     0
 52
0.0
 41
0.1
 77
     0
 78
     1
 53
0.0
 43
0.0
 44
0.0
 45
0.0
 46
0.1
 79
     0
 47
0.5415242092872671
 98
        2
 10
246.9294026772827
 20
394.2870941898182
 10
246.3874795953921
 20
302.7695017190708
  0
DIMENSION
  5
18E4
330
1E
100
AcDbEntity
  8
BEM
100
AcDbDimension
  2
*D4
 10
245.4082714120876
 20
190.4609660665999
 30
0.0
 11
200.9582714120876
 21
196.9609660665999
 31
0.0
 70
    32
  1
%%c<>
 71
     5
 42
88.90000000000004
  3
Standard
100
AcDbAlignedDimension
 13
156.5082714120875
 23
216.1518513511118
 33
0.0
 14
245.4082714120876
 24
216.1518513511148
 34
0.0
100
AcDbRotatedDimension
1001
ACAD
1000
DSTYLE
1002
{
1070
    40
1040
2.0
1070
    41
1040
3.5
1070
    42
1040
1.0
1070
    43
1040
7.0
1070
    44
1040
1.0
1070
    73
1070
     0
1070
    74
1070
     0
1070
    77
1070
     1
1070
    78
1070
     8
1070
    79
1070
     2
1070
   140
1040
3.5
1070
   141
1040
1.5
1070
   146
1040
0.5
1070
   147
1040
1.5
1070
   172
1070
     1
1070
   178
1070
     1
1070
   179
1070
     2
1070
   271
1070
     2
1070
   272
1070
     2
1070
   284
1070
     8
1070
   285
1070
     8
1070
   286
1070
     8
1002
}
  0
DIMENSION
  5
18FA
330
1E
100
AcDbEntity
  8
BEM
100
AcDbDimension
  2
*D5
 10
342.2113332402218
 20
287.6933911314015
 30
0.0
 11
272.9657116265769
 21
290.5733021265431
 31
0.0
 70
    32
 71
     5
 42
138.0000000000001
 51
357.0
  3
Standard
100
AcDbAlignedDimension
 13
200.9582714120875
 23
346.1518513511119
 33
0.0
 14
341.2421213006218
 24
306.187056630288
 34
0.0
 50
3.000000000000015
100
AcDbRotatedDimension
1001
ACAD
1000
DSTYLE
1002
{
1070
    40
1040
2.0
1070
    41
1040
3.5
1070
    42
1040
1.0
1070
    43
1040
7.0
1070
    44
1040
1.0
1070
    73
1070
     0
1070
    74
1070
     0
1070
    77
1070
     1
1070
    78
1070
     8
1070
    79
1070
     2
1070
   140
1040
3.5
1070
   141
1040
1.5
1070
   146
1040
0.5
1070
   147
1040
1.5
1070
   172
1070
     1
1070
   178
1070
     1
1070
   179
1070
     2
1070
   271
1070
     2
1070
   272
1070
     2
1070
   284
1070
     8
1070
   285
1070
     8
1070
   286
1070
     8
1002
}
  0
DIMENSION
  5
1907
330
1E
100
AcDbEntity
  8
BEM
100
AcDbDimension
  2
*D6
 10
200.9582714120875
 20
346.1518513511119
 30
0.0
 11
316.0349920158825
 21
467.4174124059012
 31
0.0
 70
    34
 71
     5
 42
1.518436449235066
  3
Standard
100
AcDb2LineAngularDimension
 13
200.9582714120875
 23
481.1551442554417
 33
0.0
 14
200.9582714120875
 24
206.151851351112
 34
0.0
 15
343.7622948819914
 25
353.6358930938529
 35
0.0
 16
337.2196859706479
 26
431.2974331565676
 36
0.0
1001
ACAD
1000
DSTYLE
1002
{
1070
    40
1040
2.0
1070
    41
1040
3.5
1070
    42
1040
1.0
1070
    43
1040
7.0
1070
    44
1040
1.0
1070
    73
1070
     0
1070
    74
1070
     0
1070
    77
1070
     1
1070
    78
1070
     8
1070
    79
1070
     2
1070
   140
1040
3.5
1070
   141
1040
1.5
1070
   146
1040
0.5
1070
   147
1040
1.5
1070
   172
1070
     1
1070
   178
1070
     1
1070
   179
1070
     2
1070
   271
1070
     2
1070
   272
1070
     2
1070
   284
1070
     8
1070
   285
1070
     8
1070
   286
1070
     8
1002
}
  0
TEXT
  5
1916
330
1E
100
AcDbEntity
  8
BEM
100
AcDbText
 10
416.5811541437437
 20
12.14804815338303
 30
0.0
 40
4.0
  1
Diese Zeichnung ist urheberrechtlich geschützt und bleibt unser Eigentum. Sie darf weder ganz noch teilweise vervielfältigt und nicht an Dritte weitergegeben werden.
 50
90.0
 41
0.8
  7
GREEKS
100
AcDbText
  0
TEXT
  5
1917
330
1E
100
AcDbEntity
  8
TEXT
100
AcDbText
 10
192.6882715247924
 20
89.06436657071457
 30
0.0
 40
4.0
  1
DIN EN1124-3
 41
0.8
  7
GREEKS
 72
     1
 11
209.6787477152686
 21
89.06436657071457
 31
0.0
100
AcDbText
  0
ENDSEC
  0
SECTION
  2
OBJECTS
  0
DICTIONARY
  5
C
330
0
100
AcDbDictionary
281
     1
  3
ACAD_COLOR
350
1470
  3
ACAD_GROUP
350
D
  3
ACAD_LAYOUT
350
19
  3
ACAD_MATERIAL
350
146F
  3
ACAD_MLINESTYLE
350
16
  3
ACAD_PLOTSETTINGS
350
18
  3
ACAD_PLOTSTYLENAME
350
E
  3
AcDbVariableDictionary
350
246
  0
DICTIONARY
  5
1470
102
{ACAD_REACTORS
330
C
102
}
330
C
100
AcDbDictionary
281
     1
  0
DICTIONARY
  5
D
102
{ACAD_REACTORS
330
C
102
}
330
C
100
AcDbDictionary
281
     1
  0
DICTIONARY
  5
19
102
{ACAD_REACTORS
330
C
102
}
330
C
100
AcDbDictionary
281
     1
  3
Layout1
350
1D
  3
Model
350
21
  0
DICTIONARY
  5
146F
102
{ACAD_REACTORS
330
C
102
}
330
C
100
AcDbDictionary
281
     1
  0
DICTIONARY
  5
16
102
{ACAD_REACTORS
330
C
102
}
330
C
100
AcDbDictionary
281
     1
  3
Standard
350
17
  0
DICTIONARY
  5
18
102
{ACAD_REACTORS
330
C
102
}
330
C
100
AcDbDictionary
281
     1
  0
ACDBDICTIONARYWDFLT
  5
E
102
{ACAD_REACTORS
330
C
102
}
330
C
100
AcDbDictionary
281
     1
  3
Normal
350
F
100
AcDbDictionaryWithDefault
340
F
  0
DICTIONARY
  5
246
102
{ACAD_REACTORS
330
C
102
}
330
C
100
AcDbDictionary
281
     1
  3
DIMASSOC
350
1CA9
  3
PROJECTNAME
350
1CAA
  3
SORTENTS
350
247
  0
LAYOUT
  5
1D
102
{ACAD_REACTORS
330
19
102
}
330
19
100
AcDbPlotSettings
  1

  2
Tektronix Phaser 740
  4

  6

 40
0.0
 41
0.0
 42
0.0
 43
0.0
 44
0.0
 45
0.0
 46
0.0
 47
0.0
 48
0.0
 49
0.0
140
0.0
141
0.0
142
1.0
143
1.0
 70
   688
 72
     0
 73
     0
 74
     5
  7
monochrome.ctb
 75
    16
147
1.0
 76
     0
 77
     2
 78
   300
148
0.0
149
0.0
100
AcDbLayout
  1
Layout1
 70
     0
 71
     1
 10
0.0
 20
0.0
 11
12.0
 21
9.0
 12
0.0
 22
0.0
 32
0.0
 14
1.000000000000000E+20
 24
1.000000000000000E+20
 34
1.000000000000000E+20
 15
-1.000000000000000E+20
 25
-1.000000000000000E+20
 35
-1.000000000000000E+20
146
0.0
 13
0.0
 23
0.0
 33
0.0
 16
1.0
 26
0.0
 36
0.0
 17
0.0
 27
1.0
 37
0.0
 76
     0
330
1A
  0
LAYOUT
  5
21
102
{ACAD_REACTORS
330
19
102
}
330
19
100
AcDbPlotSettings
  1

  2
Tektronix Phaser 740
  4
A4
  6

 40
5.873749732971191
 41
6.085414409637451
 42
5.577407836914062
 43
5.662078857421875
 44
209.9733276367187
 45
296.9683227539062
 46
0.0
 47
0.0
 48
0.0
 49
0.0
140
0.0
141
0.0
142
1.0
143
1.0
 70
 11952
 72
     0
 73
     1
 74
     0
  7
monochrome.ctb
 75
     0
147
1.0
 76
     0
 77
     2
 78
   300
148
1150.120678237584
149
45.30495740799864
100
AcDbLayout
  1
Model
 70
     1
 71
     0
 10
0.0
 20
0.0
 11
12.0
 21
9.0
 12
0.0
 22
0.0
 32
0.0
 14
0.0
 24
0.0
 34
0.0
 15
0.0
 25
0.0
 35
0.0
146
0.0
 13
0.0
 23
0.0
 33
0.0
 16
1.0
 26
0.0
 36
0.0
 17
0.0
 27
1.0
 37
0.0
 76
     0
330
1E
  0
MLINESTYLE
  5
17
102
{ACAD_REACTORS
330
16
102
}
330
16
100
AcDbMlineStyle
  2
STANDARD
 70
     0
  3

 62
   256
 51
90.0
 52
90.0
 71
     2
 49
0.5
 62
   256
  6
BYLAYER
 49
-0.5
 62
   256
  6
BYLAYER
  0
ACDBPLACEHOLDER
  5
F
102
{ACAD_REACTORS
330
E
102
}
330
E
  0
DICTIONARYVAR
  5
1CA9
102
{ACAD_REACTORS
330
246
102
}
330
246
100
DictionaryVariables
280
     0
  1
1
  0
DICTIONARYVAR
  5
1CAA
102
{ACAD_REACTORS
330
246
102
}
330
246
100
DictionaryVariables
280
     0
  1

  0
DICTIONARYVAR
  5
247
102
{ACAD_REACTORS
330
246
102
}
330
246
100
DictionaryVariables
280
     0
  1
96
  0
ENDSEC
  0
EOF
