  0
SECTION
  2
HEADER
  9
$ACADVER
  1
AC1018
  9
$ACADMAINTVER
 70
     2
  9
$DWGCODEPAGE
  3
ANSI_1252
  9
$INSBASE
 10
0.0
 20
0.0
 30
0.0
  9
$EXTMIN
 10
-0.0128083857493948
 20
-0.0090573584946014
 30
-0.0000000000112498
  9
$EXTMAX
 10
840.0128201211314
 20
594.0090656570851
 30
0.0000000000002956
  9
$LIMMIN
 10
0.0
 20
0.0
  9
$LIMMAX
 10
840.0000000000002
 20
593.9999999999998
  9
$ORTHOMODE
 70
     0
  9
$REGENMODE
 70
     1
  9
$FILLMODE
 70
     1
  9
$QTEXTMODE
 70
     0
  9
$MIRRTEXT
 70
     1
  9
$LTSCALE
 40
20.0
  9
$ATTMODE
 70
     1
  9
$TEXTSIZE
 40
3.5
  9
$TRACEWID
 40
1.0
  9
$TEXTSTYLE
  7
STANDARD
  9
$CLAYER
  8
SCHRAFF
  9
$CELTYPE
  6
ByLayer
  9
$CECOLOR
 62
   256
  9
$CELTSCALE
 40
1.0
  9
$DISPSILH
 70
     0
  9
$DIMSCALE
 40
2.0
  9
$DIMASZ
 40
3.5
  9
$DIMEXO
 40
1.0
  9
$DIMDLI
 40
7.0
  9
$DIMRND
 40
0.0
  9
$DIMDLE
 40
0.0
  9
$DIMEXE
 40
1.0
  9
$DIMTP
 40
0.0
  9
$DIMTM
 40
0.0
  9
$DIMTXT
 40
3.5
  9
$DIMCEN
 40
1.5
  9
$DIMTSZ
 40
0.0
  9
$DIMTOL
 70
     0
  9
$DIMLIM
 70
     0
  9
$DIMTIH
 70
     0
  9
$DIMTOH
 70
     0
  9
$DIMSE1
 70
     0
  9
$DIMSE2
 70
     0
  9
$DIMTAD
 70
     1
  9
$DIMZIN
 70
     8
  9
$DIMBLK
  1

  9
$DIMASO
 70
     1
  9
$DIMSHO
 70
     0
  9
$DIMPOST
  1

  9
$DIMAPOST
  1

  9
$DIMALT
 70
     0
  9
$DIMALTD
 70
     2
  9
$DIMALTF
 40
25.4
  9
$DIMLFAC
 40
1.0
  9
$DIMTOFL
 70
     1
  9
$DIMTVP
 40
0.0
  9
$DIMTIX
 70
     0
  9
$DIMSOXD
 70
     0
  9
$DIMSAH
 70
     0
  9
$DIMBLK1
  1

  9
$DIMBLK2
  1

  9
$DIMSTYLE
  2
Standard
  9
$DIMCLRD
 70
     0
  9
$DIMCLRE
 70
     0
  9
$DIMCLRT
 70
     1
  9
$DIMTFAC
 40
0.5142857142857144
  9
$DIMGAP
 40
1.5
  9
$DIMJUST
 70
     0
  9
$DIMSD1
 70
     0
  9
$DIMSD2
 70
     0
  9
$DIMTOLJ
 70
     1
  9
$DIMTZIN
 70
     8
  9
$DIMALTZ
 70
     8
  9
$DIMALTTZ
 70
     8
  9
$DIMUPT
 70
     0
  9
$DIMDEC
 70
     2
  9
$DIMTDEC
 70
     2
  9
$DIMALTU
 70
     2
  9
$DIMALTTD
 70
     2
  9
$DIMTXSTY
  7
STANDARD
  9
$DIMAUNIT
 70
     0
  9
$DIMADEC
 70
     2
  9
$DIMALTRND
 40
0.0
  9
$DIMAZIN
 70
     2
  9
$DIMDSEP
 70
    46
  9
$DIMATFIT
 70
     3
  9
$DIMFRAC
 70
     0
  9
$DIMLDRBLK
  1

  9
$DIMLUNIT
 70
     2
  9
$DIMLWD
 70
    -2
  9
$DIMLWE
 70
    -2
  9
$DIMTMOVE
 70
     0
  9
$LUNITS
 70
     2
  9
$LUPREC
 70
     2
  9
$SKETCHINC
 40
1.0
  9
$FILLETRAD
 40
0.0
  9
$AUNITS
 70
     0
  9
$AUPREC
 70
     0
  9
$MENU
  1
ACAD
  9
$ELEVATION
 40
0.0
  9
$PELEVATION
 40
0.0
  9
$THICKNESS
 40
0.0
  9
$LIMCHECK
 70
     0
  9
$CHAMFERA
 40
0.0
  9
$CHAMFERB
 40
0.0
  9
$CHAMFERC
 40
0.0
  9
$CHAMFERD
 40
0.0
  9
$SKPOLY
 70
     0
  9
$TDCREATE
 40
2455397.867059838
  9
$TDUCREATE
 40
2455397.783726505
  9
$TDUPDATE
 40
2455443.403030487
  9
$TDUUPDATE
 40
2455443.319697153
  9
$TDINDWG
 40
0.0972578125
  9
$TDUSRTIMER
 40
0.0972578125
  9
$USRTIMER
 70
     1
  9
$ANGBASE
 50
0.0
  9
$ANGDIR
 70
     0
  9
$PDMODE
 70
     0
  9
$PDSIZE
 40
0.0
  9
$PLINEWID
 40
0.0
  9
$SPLFRAME
 70
     0
  9
$SPLINETYPE
 70
     6
  9
$SPLINESEGS
 70
     8
  9
$HANDSEED
  5
19EB
  9
$SURFTAB1
 70
     6
  9
$SURFTAB2
 70
     6
  9
$SURFTYPE
 70
     6
  9
$SURFU
 70
     6
  9
$SURFV
 70
     6
  9
$UCSBASE
  2

  9
$UCSNAME
  2

  9
$UCSORG
 10
0.0
 20
0.0
 30
0.0
  9
$UCSXDIR
 10
1.0
 20
0.0
 30
0.0
  9
$UCSYDIR
 10
0.0
 20
1.0
 30
0.0
  9
$UCSORTHOREF
  2

  9
$UCSORTHOVIEW
 70
     0
  9
$UCSORGTOP
 10
0.0
 20
0.0
 30
0.0
  9
$UCSORGBOTTOM
 10
0.0
 20
0.0
 30
0.0
  9
$UCSORGLEFT
 10
0.0
 20
0.0
 30
0.0
  9
$UCSORGRIGHT
 10
0.0
 20
0.0
 30
0.0
  9
$UCSORGFRONT
 10
0.0
 20
0.0
 30
0.0
  9
$UCSORGBACK
 10
0.0
 20
0.0
 30
0.0
  9
$PUCSBASE
  2

  9
$PUCSNAME
  2

  9
$PUCSORG
 10
0.0
 20
0.0
 30
0.0
  9
$PUCSXDIR
 10
1.0
 20
0.0
 30
0.0
  9
$PUCSYDIR
 10
0.0
 20
1.0
 30
0.0
  9
$PUCSORTHOREF
  2

  9
$PUCSORTHOVIEW
 70
     0
  9
$PUCSORGTOP
 10
0.0
 20
0.0
 30
0.0
  9
$PUCSORGBOTTOM
 10
0.0
 20
0.0
 30
0.0
  9
$PUCSORGLEFT
 10
0.0
 20
0.0
 30
0.0
  9
$PUCSORGRIGHT
 10
0.0
 20
0.0
 30
0.0
  9
$PUCSORGFRONT
 10
0.0
 20
0.0
 30
0.0
  9
$PUCSORGBACK
 10
0.0
 20
0.0
 30
0.0
  9
$USERI1
 70
     0
  9
$USERI2
 70
     0
  9
$USERI3
 70
     0
  9
$USERI4
 70
     0
  9
$USERI5
 70
     0
  9
$USERR1
 40
0.0
  9
$USERR2
 40
0.0
  9
$USERR3
 40
0.0
  9
$USERR4
 40
0.0
  9
$USERR5
 40
0.0
  9
$WORLDVIEW
 70
     1
  9
$SHADEDGE
 70
     3
  9
$SHADEDIF
 70
    70
  9
$TILEMODE
 70
     1
  9
$MAXACTVP
 70
    16
  9
$PINSBASE
 10
0.0
 20
0.0
 30
0.0
  9
$PLIMCHECK
 70
     0
  9
$PEXTMIN
 10
1.000000000000000E+20
 20
1.000000000000000E+20
 30
1.000000000000000E+20
  9
$PEXTMAX
 10
-1.000000000000000E+20
 20
-1.000000000000000E+20
 30
-1.000000000000000E+20
  9
$PLIMMIN
 10
0.0
 20
0.0
  9
$PLIMMAX
 10
12.0
 20
9.0
  9
$UNITMODE
 70
     0
  9
$VISRETAIN
 70
     0
  9
$PLINEGEN
 70
     0
  9
$PSLTSCALE
 70
     0
  9
$TREEDEPTH
 70
  3020
  9
$CMLSTYLE
  2
Standard
  9
$CMLJUST
 70
     0
  9
$CMLSCALE
 40
1.0
  9
$PROXYGRAPHICS
 70
     1
  9
$MEASUREMENT
 70
     0
  9
$CELWEIGHT
370
    -1
  9
$ENDCAPS
280
     0
  9
$JOINSTYLE
280
     0
  9
$LWDISPLAY
290
     0
  9
$INSUNITS
 70
     0
  9
$HYPERLINKBASE
  1

  9
$STYLESHEET
  1
monochrome 1.ctb
  9
$XEDIT
290
     1
  9
$CEPSNTYPE
380
     0
  9
$PSTYLEMODE
290
     1
  9
$FINGERPRINTGUID
  2
{D68B0D0D-A558-11D7-B632-000102183313}
  9
$VERSIONGUID
  2
{58C15AC7-C3F6-4586-AF2C-B05B95348047}
  9
$EXTNAMES
290
     1
  9
$PSVPSCALE
 40
0.0
  9
$OLESTARTUP
290
     0
  9
$SORTENTS
280
   127
  9
$INDEXCTL
280
     0
  9
$HIDETEXT
280
     0
  9
$XCLIPFRAME
290
     0
  9
$HALOGAP
280
     0
  9
$OBSCOLOR
 70
   257
  9
$OBSLTYPE
280
     0
  9
$INTERSECTIONDISPLAY
280
     0
  9
$INTERSECTIONCOLOR
 70
   257
  9
$DIMASSOC
280
     1
  9
$PROJECTNAME
  1

  0
ENDSEC
  0
SECTION
  2
CLASSES
  0
CLASS
  1
ACDBDICTIONARYWDFLT
  2
AcDbDictionaryWithDefault
  3
ObjectDBX Classes
 90
        0
 91
        1
280
     0
281
     0
  0
CLASS
  1
DICTIONARYVAR
  2
AcDbDictionaryVar
  3
ObjectDBX Classes
 90
        0
 91
        2
280
     0
281
     0
  0
ENDSEC
  0
SECTION
  2
TABLES
  0
TABLE
  2
VPORT
  5
8
330
0
100
AcDbSymbolTable
 70
     2
  0
VPORT
  5
19EA
330
8
100
AcDbSymbolTableRecord
100
AcDbViewportTableRecord
  2
*Active
 70
     0
 10
0.0
 20
0.0
 11
1.0
 21
1.0
 12
420.0000058676909
 22
297.0000041492952
 13
0.0
 23
0.0
 14
1.0
 24
1.0
 15
10.0
 25
10.0
 16
0.0
 26
0.0
 36
1.0
 17
0.0
 27
0.0
 37
0.0
 40
632.1208630222709
 41
1.336927223719676
 42
50.0
 43
0.0
 44
0.0
 50
0.0
 51
0.0
 71
     0
 72
  1500
 73
     1
 74
     0
 75
     0
 76
     0
 77
     0
 78
     0
281
     0
 65
     1
110
0.0
120
0.0
130
0.0
111
1.0
121
0.0
131
0.0
112
0.0
122
1.0
132
0.0
 79
     0
146
0.0
  0
ENDTAB
  0
TABLE
  2
LTYPE
  5
5
330
0
100
AcDbSymbolTable
 70
     2
  0
LTYPE
  5
13
330
5
100
AcDbSymbolTableRecord
100
AcDbLinetypeTableRecord
  2
ByBlock
 70
     0
  3

 72
    65
 73
     0
 40
0.0
  0
LTYPE
  5
14
330
5
100
AcDbSymbolTableRecord
100
AcDbLinetypeTableRecord
  2
ByLayer
 70
     0
  3

 72
    65
 73
     0
 40
0.0
  0
LTYPE
  5
15
330
5
100
AcDbSymbolTableRecord
100
AcDbLinetypeTableRecord
  2
Continuous
 70
     0
  3
Solid line
 72
    65
 73
     0
 40
0.0
  0
LTYPE
  5
25
330
5
100
AcDbSymbolTableRecord
100
AcDbLinetypeTableRecord
  2
STRICHPUNKT
 70
     0
  3
__ . __ . __ . __ . __ . __ . __ . __ . __ . __
 72
    65
 73
     4
 40
1.0
 49
0.5
 74
     0
 49
-0.25
 74
     0
 49
0.0
 74
     0
 49
-0.25
 74
     0
  0
ENDTAB
  0
TABLE
  2
LAYER
  5
2
330
0
100
AcDbSymbolTable
 70
     9
  0
LAYER
  5
10
330
2
100
AcDbSymbolTableRecord
100
AcDbLayerTableRecord
  2
0
 70
     0
 62
     7
  6
Continuous
370
    -3
390
F
  0
LAYER
  5
2B
330
2
100
AcDbSymbolTableRecord
100
AcDbLayerTableRecord
  2
VOLL
 70
     0
 62
     1
  6
Continuous
370
    -3
390
F
  0
LAYER
  5
2C
330
2
100
AcDbSymbolTableRecord
100
AcDbLayerTableRecord
  2
HILF
 70
     0
 62
     2
  6
Continuous
370
    -3
390
F
  0
LAYER
  5
2D
330
2
100
AcDbSymbolTableRecord
100
AcDbLayerTableRecord
  2
MITTEL
 70
     0
 62
     2
  6
STRICHPUNKT
370
    -3
390
F
  0
LAYER
  5
2F
330
2
100
AcDbSymbolTableRecord
100
AcDbLayerTableRecord
  2
BEM
 70
     0
 62
     7
  6
Continuous
370
    -3
390
F
  0
LAYER
  5
30
330
2
100
AcDbSymbolTableRecord
100
AcDbLayerTableRecord
  2
STEMPEL
 70
     0
 62
     3
  6
Continuous
370
    -3
390
F
  0
LAYER
  5
33
330
2
100
AcDbSymbolTableRecord
100
AcDbLayerTableRecord
  2
TEXT
 70
     0
 62
     7
  6
Continuous
370
    -3
390
F
  0
LAYER
  5
23A
330
2
100
AcDbSymbolTableRecord
100
AcDbLayerTableRecord
  2
DEFPOINTS
 70
     0
 62
     7
  6
Continuous
290
     0
370
    -3
390
F
  0
LAYER
  5
19DA
330
2
100
AcDbSymbolTableRecord
100
AcDbLayerTableRecord
  2
SCHRAFF
 70
     0
 62
     7
  6
Continuous
370
    -3
390
F
  0
ENDTAB
  0
TABLE
  2
STYLE
  5
3
330
0
100
AcDbSymbolTable
 70
     2
  0
STYLE
  5
11
330
3
100
AcDbSymbolTableRecord
100
AcDbTextStyleTableRecord
  2
STANDARD
 70
     0
 40
0.0
 41
0.8
 50
0.0
 71
     0
 42
3.5
  3
simplex.shx
  4

  0
STYLE
  5
24
330
3
100
AcDbSymbolTableRecord
100
AcDbTextStyleTableRecord
  2
GREEKS
 70
     0
 40
0.0
 41
0.8
 50
0.0
 71
     0
 42
2.5
  3
SIMPLEX.shx
  4

  0
ENDTAB
  0
TABLE
  2
VIEW
  5
6
330
0
100
AcDbSymbolTable
 70
     0
  0
ENDTAB
  0
TABLE
  2
UCS
  5
7
330
0
100
AcDbSymbolTable
 70
     0
  0
ENDTAB
  0
TABLE
  2
APPID
  5
9
330
0
100
AcDbSymbolTable
 70
     1
  0
APPID
  5
12
330
9
100
AcDbSymbolTableRecord
100
AcDbRegAppTableRecord
  2
ACAD
 70
     0
  0
ENDTAB
  0
TABLE
  2
DIMSTYLE
  5
A
330
0
100
AcDbSymbolTable
 70
     1
100
AcDbDimStyleTable
 71
     1
340
A2
  0
DIMSTYLE
105
A2
102
{ACAD_REACTORS
330
E4C
330
D9D
330
12EC
102
}
330
A
100
AcDbSymbolTableRecord
100
AcDbDimStyleTableRecord
  2
Standard
 70
     0
340
11
  0
ENDTAB
  0
TABLE
  2
BLOCK_RECORD
  5
1
330
0
100
AcDbSymbolTable
 70
     5
  0
BLOCK_RECORD
  5
1E
102
{ACAD_XDICTIONARY
360
DB
102
}
330
1
100
AcDbSymbolTableRecord
100
AcDbBlockTableRecord
  2
*Model_Space
340
21
  0
BLOCK_RECORD
  5
1A
102
{ACAD_XDICTIONARY
360
DD
102
}
330
1
100
AcDbSymbolTableRecord
100
AcDbBlockTableRecord
  2
*Paper_Space
340
1D
  0
BLOCK_RECORD
  5
22
330
1
100
AcDbSymbolTableRecord
100
AcDbBlockTableRecord
  2
LOGO
340
0
102
{BLKREFS
331
56
102
}
  0
BLOCK_RECORD
  5
23
330
1
100
AcDbSymbolTableRecord
100
AcDbBlockTableRecord
  2
LORO
340
0
102
{BLKREFS
331
9B
102
}
  0
BLOCK_RECORD
  5
EAF
330
1
100
AcDbSymbolTableRecord
100
AcDbBlockTableRecord
  2
*D2
340
0
  0
BLOCK_RECORD
  5
EBC
330
1
100
AcDbSymbolTableRecord
100
AcDbBlockTableRecord
  2
*D3
340
0
  0
BLOCK_RECORD
  5
12ED
330
1
100
AcDbSymbolTableRecord
100
AcDbBlockTableRecord
  2
*D4
340
0
  0
ENDTAB
  0
ENDSEC
  0
SECTION
  2
BLOCKS
  0
BLOCK
  5
37
330
1E
100
AcDbEntity
  8
0
100
AcDbBlockBegin
  2
*Model_Space
 70
     0
 10
0.0
 20
0.0
 30
0.0
  3
*Model_Space
  1

  0
ENDBLK
  5
38
330
1E
100
AcDbEntity
  8
0
100
AcDbBlockEnd
  0
BLOCK
  5
35
330
1A
100
AcDbEntity
 67
     1
  8
0
100
AcDbBlockBegin
  2
*Paper_Space
 70
     0
 10
0.0
 20
0.0
 30
0.0
  3
*Paper_Space
  1

  0
ENDBLK
  5
36
330
1A
100
AcDbEntity
 67
     1
  8
0
100
AcDbBlockEnd
  0
BLOCK
  5
39
330
22
100
AcDbEntity
  8
0
100
AcDbBlockBegin
  2
LOGO
 70
     0
 10
0.0
 20
0.0
 30
0.0
  3
LOGO
  1

  0
ARC
  5
3A
330
22
100
AcDbEntity
  8
0
100
AcDbCircle
 10
11.59973089678112
 20
-9.271599258481501
 30
0.0
 40
4.5
100
AcDbArc
 50
270.0
 51
231.0575587310159
  0
LINE
  5
3B
330
22
100
AcDbEntity
  8
0
100
AcDbLine
 10
3.599730896781125
 20
-4.771599258481529
 30
0.0
 11
3.599730896781153
 21
-11.77159925848133
 31
0.0
  0
LINE
  5
3C
330
22
100
AcDbEntity
  8
0
100
AcDbLine
 10
2.599730896781125
 20
-4.771599258481529
 30
0.0
 11
2.599730896781153
 21
-11.77159925848133
 31
0.0
  0
CIRCLE
  5
3D
330
22
100
AcDbEntity
  8
0
100
AcDbCircle
 10
11.59973089678112
 20
-9.271599258481501
 30
0.0
 40
3.5
  0
ARC
  5
3E
330
22
100
AcDbEntity
  8
0
100
AcDbCircle
 10
31.59973089678115
 20
-9.271599258481472
 30
0.0
 40
4.5
100
AcDbArc
 50
270.0
 51
231.0575587310182
  0
LINE
  5
3F
330
22
100
AcDbEntity
  8
0
100
AcDbLine
 10
17.59973089678112
 20
-4.771599258481472
 30
0.0
 11
17.59973089678115
 21
-13.77159925848147
 31
0.0
  0
ARC
  5
40
330
22
100
AcDbEntity
  8
0
100
AcDbCircle
 10
22.59973089678116
 20
-7.271599258481472
 30
0.0
 40
2.5
100
AcDbArc
 50
293.1161887722295
 51
90.0
  0
CIRCLE
  5
41
330
22
100
AcDbEntity
  8
0
100
AcDbCircle
 10
31.59973089678115
 20
-9.271599258481472
 30
0.0
 40
3.5
  0
ARC
  5
42
330
22
100
AcDbEntity
  8
0
100
AcDbCircle
 10
4.599730896781153
 20
-11.77159925848133
 30
0.0
 40
1.0
100
AcDbArc
 50
180.0
 51
270.0
  0
ARC
  5
43
330
22
100
AcDbEntity
  8
0
100
AcDbCircle
 10
4.599730896781153
 20
-11.77159925848133
 30
0.0
 40
2.0
100
AcDbArc
 50
179.9999999999992
 51
270.0
  0
LINE
  5
44
330
22
100
AcDbEntity
  8
0
100
AcDbLine
 10
11.59973089678115
 20
-13.77159925848144
 30
0.0
 11
4.599730896781153
 21
-13.77159925848147
 31
0.0
  0
LINE
  5
45
330
22
100
AcDbEntity
  8
0
100
AcDbLine
 10
8.771303772034769
 20
-12.77159925848136
 30
0.0
 11
4.599730896781153
 21
-12.77159925848133
 31
0.0
  0
LINE
  5
46
330
22
100
AcDbEntity
  8
0
100
AcDbLine
 10
31.59973089678115
 20
-13.77159925848147
 30
0.0
 11
23.6715276665056
 21
-13.77159925848144
 31
0.0
  0
LINE
  5
47
330
22
100
AcDbEntity
  8
0
100
AcDbLine
 10
23.56565672307022
 20
-9.51278021337896
 30
0.0
 11
24.4388546544846
 21
-12.77159925848144
 31
0.0
  0
LINE
  5
48
330
22
100
AcDbEntity
  8
0
100
AcDbLine
 10
22.59973089678116
 20
-9.771599258481472
 30
0.0
 11
18.59973089678112
 21
-9.771599258481472
 31
0.0
  0
LINE
  5
49
330
22
100
AcDbEntity
  8
0
100
AcDbLine
 10
18.59973089678115
 20
-13.77159925848144
 30
0.0
 11
17.59973089678115
 21
-13.77159925848144
 31
0.0
  0
LINE
  5
4A
330
22
100
AcDbEntity
  8
0
100
AcDbLine
 10
18.59973089678115
 20
-9.771599258481472
 30
0.0
 11
18.59973089678115
 21
-13.77159925848144
 31
0.0
  0
LINE
  5
4B
330
22
100
AcDbEntity
  8
0
100
AcDbLine
 10
22.59973089678116
 20
-9.771599258481472
 30
0.0
 11
23.67152766650562
 21
-13.77159925848147
 31
0.0
  0
ARC
  5
4C
330
22
100
AcDbEntity
  8
0
100
AcDbCircle
 10
22.59973089678116
 20
-7.271599258481472
 30
0.0
 40
2.5
100
AcDbArc
 50
270.0
 51
270.0000000000007
  0
LINE
  5
4D
330
22
100
AcDbEntity
  8
0
100
AcDbLine
 10
28.77130377203494
 20
-12.77159925848147
 30
0.0
 11
24.43885465448463
 21
-12.77159925848144
 31
0.0
  0
LINE
  5
4E
330
22
100
AcDbEntity
  8
0
100
AcDbLine
 10
3.599730896781125
 20
-4.771599258481472
 30
0.0
 11
2.599730896781125
 21
-4.771599258481472
 31
0.0
  0
LINE
  5
4F
330
22
100
AcDbEntity
  8
0
100
AcDbLine
 10
22.59973089678116
 20
-8.771599258481472
 30
0.0
 11
18.59973089678115
 21
-8.771599258481472
 31
0.0
  0
LINE
  5
50
330
22
100
AcDbEntity
  8
0
100
AcDbLine
 10
22.59973089678116
 20
-5.771599258481472
 30
0.0
 11
18.59973089678115
 21
-5.771599258481472
 31
0.0
  0
LINE
  5
51
330
22
100
AcDbEntity
  8
0
100
AcDbLine
 10
22.59973089678116
 20
-4.771599258481472
 30
0.0
 11
17.59973089678115
 21
-4.771599258481472
 31
0.0
  0
LINE
  5
52
330
22
100
AcDbEntity
  8
0
100
AcDbLine
 10
18.59973089678115
 20
-5.771599258481472
 30
0.0
 11
18.59973089678115
 21
-8.771599258481472
 31
0.0
  0
ARC
  5
53
330
22
100
AcDbEntity
  8
0
100
AcDbCircle
 10
22.59973089678116
 20
-7.271599258481472
 30
0.0
 40
1.5
100
AcDbArc
 50
270.0
 51
90.0
  0
ENDBLK
  5
54
330
22
100
AcDbEntity
  8
0
100
AcDbBlockEnd
  0
BLOCK
  5
55
330
23
100
AcDbEntity
  8
0
100
AcDbBlockBegin
  2
LORO
 70
     0
 10
0.0
 20
0.0
 30
0.0
  3
LORO
  1

  0
INSERT
  5
56
330
23
100
AcDbEntity
  8
STEMPEL
100
AcDbBlockReference
  2
LOGO
 10
-1.748032802467321
 20
3.771489518552062
 30
0.0
  0
ENDBLK
  5
57
330
23
100
AcDbEntity
  8
0
100
AcDbBlockEnd
  0
BLOCK
  5
EBA
330
EAF
100
AcDbEntity
  8
0
100
AcDbBlockBegin
  2
*D2
 70
     1
 10
0.0
 20
0.0
 30
0.0
  3
*D2
  1

  0
LINE
  5
198B
330
EAF
100
AcDbEntity
  8
BEM
 62
     0
370
    -2
100
AcDbLine
 10
101.346300314601
 20
258.4277107477552
 30
0.0
 11
71.75181957789544
 21
258.4277107477552
 31
0.0
  0
LINE
  5
198C
330
EAF
100
AcDbEntity
  8
BEM
 62
     0
370
    -2
100
AcDbLine
 10
101.3463003146011
 20
391.4277107477555
 30
0.0
 11
71.75181957789547
 21
391.4277107477555
 31
0.0
  0
LINE
  5
198D
330
EAF
100
AcDbEntity
  8
BEM
 62
     0
370
    -2
100
AcDbLine
 10
73.75181957789544
 20
265.4277107477552
 30
0.0
 11
73.75181957789547
 21
384.4277107477554
 31
0.0
  0
SOLID
  5
198E
330
EAF
100
AcDbEntity
  8
BEM
 62
     0
100
AcDbTrace
 10
72.58515291122877
 20
265.4277107477552
 30
0.0
 11
74.91848624456212
 21
265.4277107477552
 31
0.0
 12
73.75181957789544
 22
258.4277107477552
 32
0.0
 13
73.75181957789544
 23
258.4277107477552
 33
0.0
  0
SOLID
  5
198F
330
EAF
100
AcDbEntity
  8
BEM
 62
     0
100
AcDbTrace
 10
72.5851529112288
 20
384.4277107477554
 30
0.0
 11
74.91848624456214
 21
384.4277107477554
 31
0.0
 12
73.75181957789547
 22
391.4277107477555
 32
0.0
 13
73.75181957789547
 23
391.4277107477555
 33
0.0
  0
MTEXT
  5
1990
330
EAF
100
AcDbEntity
  8
BEM
 62
     1
100
AcDbMText
 10
67.25181957789541
 20
324.9277107477553
 30
0.0
 40
7.0
 41
0.0
 71
     5
 72
     1
  1
\A1;%%c133
 11
0.0000000000000001
 21
1.0
 31
0.0
 73
     1
 44
1.0
  0
POINT
  5
1991
330
EAF
100
AcDbEntity
  8
DEFPOINTS
 62
     0
100
AcDbPoint
 10
103.346300314601
 20
258.4277107477552
 30
0.0
  0
POINT
  5
1992
330
EAF
100
AcDbEntity
  8
DEFPOINTS
 62
     0
100
AcDbPoint
 10
103.3463003146011
 20
391.4277107477555
 30
0.0
  0
POINT
  5
1993
330
EAF
100
AcDbEntity
  8
DEFPOINTS
 62
     0
100
AcDbPoint
 10
73.75181957789547
 20
391.4277107477555
 30
0.0
  0
ENDBLK
  5
EBB
330
EAF
100
AcDbEntity
  8
0
100
AcDbBlockEnd
  0
BLOCK
  5
EC7
330
EBC
100
AcDbEntity
  8
0
100
AcDbBlockBegin
  2
*D3
 70
     1
 10
0.0
 20
0.0
 30
0.0
  3
*D3
  1

  0
LINE
  5
1982
330
EBC
100
AcDbEntity
  8
BEM
 62
     0
370
    -2
100
AcDbLine
 10
787.6325599803772
 20
250.1692659503491
 30
0.0
 11
787.6325599803772
 21
208.2544311858892
 31
0.0
  0
LINE
  5
1983
330
EBC
100
AcDbEntity
  8
BEM
 62
     0
370
    -2
100
AcDbLine
 10
95.45545267187316
 20
257.1180704621047
 30
0.0
 11
95.45545267187316
 21
208.2544311858892
 31
0.0
  0
LINE
  5
1984
330
EBC
100
AcDbEntity
  8
BEM
 62
     0
370
    -2
100
AcDbLine
 10
780.6325599803772
 20
210.2544311858892
 30
0.0
 11
102.4554526718731
 21
210.2544311858892
 31
0.0
  0
SOLID
  5
1985
330
EBC
100
AcDbEntity
  8
BEM
 62
     0
100
AcDbTrace
 10
780.6325599803772
 20
211.4210978525558
 30
0.0
 11
780.6325599803772
 21
209.0877645192225
 31
0.0
 12
787.6325599803772
 22
210.2544311858892
 32
0.0
 13
787.6325599803772
 23
210.2544311858892
 33
0.0
  0
SOLID
  5
1986
330
EBC
100
AcDbEntity
  8
BEM
 62
     0
100
AcDbTrace
 10
102.4554526718731
 20
211.4210978525558
 30
0.0
 11
102.4554526718731
 21
209.0877645192225
 31
0.0
 12
95.45545267187316
 22
210.2544311858892
 32
0.0
 13
95.45545267187316
 23
210.2544311858892
 33
0.0
  0
MTEXT
  5
1987
330
EBC
100
AcDbEntity
  8
BEM
 62
     1
100
AcDbMText
 10
441.5440063261252
 20
216.7544311858892
 30
0.0
 40
7.0
 41
0.0
 71
     5
 72
     1
  1
\A1;1000
 73
     1
 44
1.0
  0
POINT
  5
1988
330
EBC
100
AcDbEntity
  8
DEFPOINTS
 62
     0
100
AcDbPoint
 10
787.6325599803772
 20
252.1692659503491
 30
0.0
  0
POINT
  5
1989
330
EBC
100
AcDbEntity
  8
DEFPOINTS
 62
     0
100
AcDbPoint
 10
95.45545267187316
 20
259.1180704621047
 30
0.0
  0
POINT
  5
198A
330
EBC
100
AcDbEntity
  8
DEFPOINTS
 62
     0
100
AcDbPoint
 10
95.45545267187316
 20
210.2544311858892
 30
0.0
  0
ENDBLK
  5
EC8
330
EBC
100
AcDbEntity
  8
0
100
AcDbBlockEnd
  0
BLOCK
  5
12F7
330
12ED
100
AcDbEntity
  8
0
100
AcDbBlockBegin
  2
*D4
 70
     1
 10
0.0
 20
0.0
 30
0.0
  3
*D4
  1

  0
LINE
  5
1979
330
12ED
100
AcDbEntity
  8
BEM
 62
     0
370
    -2
100
AcDbLine
 10
787.6325599803772
 20
250.1692659503491
 30
0.0
 11
787.6325599803772
 21
225.0746732188793
 31
0.0
  0
LINE
  5
197A
330
12ED
100
AcDbEntity
  8
BEM
 62
     0
370
    -2
100
AcDbLine
 10
627.6325599803771
 20
253.5443612477262
 30
0.0
 11
627.6325599803771
 21
225.0746732188793
 31
0.0
  0
LINE
  5
197B
330
12ED
100
AcDbEntity
  8
BEM
 62
     0
370
    -2
100
AcDbLine
 10
780.6325599803772
 20
227.0746732188793
 30
0.0
 11
634.6325599803772
 21
227.0746732188793
 31
0.0
  0
SOLID
  5
197C
330
12ED
100
AcDbEntity
  8
BEM
 62
     0
100
AcDbTrace
 10
780.6325599803772
 20
228.241339885546
 30
0.0
 11
780.6325599803772
 21
225.9080065522126
 31
0.0
 12
787.6325599803772
 22
227.0746732188793
 32
0.0
 13
787.6325599803772
 23
227.0746732188793
 33
0.0
  0
SOLID
  5
197D
330
12ED
100
AcDbEntity
  8
BEM
 62
     0
100
AcDbTrace
 10
634.6325599803772
 20
228.241339885546
 30
0.0
 11
634.6325599803772
 21
225.9080065522126
 31
0.0
 12
627.6325599803771
 22
227.0746732188793
 32
0.0
 13
627.6325599803771
 23
227.0746732188793
 33
0.0
  0
MTEXT
  5
197E
330
12ED
100
AcDbEntity
  8
BEM
 62
     1
100
AcDbMText
 10
707.6325599803772
 20
233.5746732188793
 30
0.0
 40
7.0
 41
0.0
 71
     5
 72
     1
  1
\A1;160
 73
     1
 44
1.0
  0
POINT
  5
197F
330
12ED
100
AcDbEntity
  8
DEFPOINTS
 62
     0
100
AcDbPoint
 10
787.6325599803772
 20
252.1692659503491
 30
0.0
  0
POINT
  5
1980
330
12ED
100
AcDbEntity
  8
DEFPOINTS
 62
     0
100
AcDbPoint
 10
627.6325599803771
 20
255.5443612477262
 30
0.0
  0
POINT
  5
1981
330
12ED
100
AcDbEntity
  8
DEFPOINTS
 62
     0
100
AcDbPoint
 10
627.6325599803771
 20
227.0746732188793
 30
0.0
  0
ENDBLK
  5
12F8
330
12ED
100
AcDbEntity
  8
0
100
AcDbBlockEnd
  0
ENDSEC
  0
SECTION
  2
ENTITIES
  0
LINE
  5
58
330
1E
100
AcDbEntity
  8
STEMPEL
100
AcDbLine
 10
830.0000000000004
 20
109.9999999999998
 30
0.0
 11
470.0000000000001
 21
109.9999999999999
 31
0.0
  0
LINE
  5
59
330
1E
100
AcDbEntity
  8
STEMPEL
100
AcDbLine
 10
470.0000000000001
 20
109.9999999999999
 30
0.0
 11
470.0000000000001
 21
9.999999999999886
 31
0.0
  0
LINE
  5
5A
330
1E
100
AcDbEntity
  8
STEMPEL
100
AcDbLine
 10
566.0000000000003
 20
109.9999999999997
 30
0.0
 11
566.0000000000001
 21
9.999999999999772
 31
0.0
  0
LINE
  5
5B
330
1E
100
AcDbEntity
  8
STEMPEL
100
AcDbLine
 10
650.0
 20
109.9999999999999
 30
0.0
 11
650.0
 21
9.999999999999886
 31
0.0
  0
LINE
  5
5C
330
1E
100
AcDbEntity
  8
STEMPEL
100
AcDbLine
 10
752.0000000000003
 20
109.9999999999995
 30
0.0
 11
752.0000000000003
 21
39.99999999999989
 31
0.0
  0
LINE
  5
5D
330
1E
100
AcDbEntity
  8
STEMPEL
100
AcDbLine
 10
566.0000000000001
 20
29.99999999999989
 30
0.0
 11
470.0000000000001
 21
29.99999999999989
 31
0.0
  0
LINE
  5
5E
330
1E
100
AcDbEntity
  8
STEMPEL
100
AcDbLine
 10
830.0000000000004
 20
39.99999999999989
 30
0.0
 11
566.0000000000001
 21
39.99999999999989
 31
0.0
  0
LINE
  5
5F
330
1E
100
AcDbEntity
  8
STEMPEL
100
AcDbLine
 10
830.0000000000004
 20
79.99999999999989
 30
0.0
 11
566.0000000000003
 21
79.99999999999989
 31
0.0
  0
LINE
  5
60
330
1E
100
AcDbEntity
  8
VOLL
100
AcDbLine
 10
484.0000000000002
 20
109.9999999999999
 30
0.0
 11
484.0000000000001
 21
9.999999999999886
 31
0.0
  0
LINE
  5
61
330
1E
100
AcDbEntity
  8
VOLL
100
AcDbLine
 10
524.0000000000001
 20
109.9999999999997
 30
0.0
 11
524.0
 21
9.999999999999772
 31
0.0
  0
LINE
  5
62
330
1E
100
AcDbEntity
  8
VOLL
100
AcDbLine
 10
544.0000000000002
 20
109.9999999999997
 30
0.0
 11
544.0
 21
9.999999999999772
 31
0.0
  0
LINE
  5
63
330
1E
100
AcDbEntity
  8
VOLL
100
AcDbLine
 10
584.0000000000003
 20
79.99999999999989
 30
0.0
 11
584.0000000000003
 21
39.99999999999989
 31
0.0
  0
LINE
  5
64
330
1E
100
AcDbEntity
  8
VOLL
100
AcDbLine
 10
610.0000000000003
 20
109.9999999999996
 30
0.0
 11
610.0000000000001
 21
39.99999999999989
 31
0.0
  0
LINE
  5
65
330
1E
100
AcDbEntity
  8
HILF
100
AcDbLine
 10
470.0000000000001
 20
99.99999999999989
 30
0.0
 11
566.0000000000003
 21
99.99999999999989
 31
0.0
  0
LINE
  5
66
330
1E
100
AcDbEntity
  8
HILF
100
AcDbLine
 10
470.0000000000001
 20
89.99999999999989
 30
0.0
 11
566.0000000000003
 21
89.99999999999989
 31
0.0
  0
LINE
  5
67
330
1E
100
AcDbEntity
  8
HILF
100
AcDbLine
 10
470.0000000000001
 20
79.99999999999989
 30
0.0
 11
566.0000000000003
 21
79.99999999999989
 31
0.0
  0
LINE
  5
68
330
1E
100
AcDbEntity
  8
HILF
100
AcDbLine
 10
470.0000000000001
 20
69.99999999999989
 30
0.0
 11
566.0000000000003
 21
69.99999999999989
 31
0.0
  0
LINE
  5
69
330
1E
100
AcDbEntity
  8
HILF
100
AcDbLine
 10
470.0000000000001
 20
59.99999999999989
 30
0.0
 11
566.0000000000003
 21
59.99999999999989
 31
0.0
  0
LINE
  5
6A
330
1E
100
AcDbEntity
  8
HILF
100
AcDbLine
 10
470.0000000000001
 20
49.99999999999989
 30
0.0
 11
566.0000000000003
 21
49.99999999999989
 31
0.0
  0
LINE
  5
6B
330
1E
100
AcDbEntity
  8
HILF
100
AcDbLine
 10
470.0000000000001
 20
39.99999999999989
 30
0.0
 11
566.0000000000003
 21
39.99999999999989
 31
0.0
  0
LINE
  5
6C
330
1E
100
AcDbEntity
  8
HILF
100
AcDbLine
 10
566.0000000000003
 20
69.99999999999989
 30
0.0
 11
650.0
 21
69.99999999999989
 31
0.0
  0
LINE
  5
6D
330
1E
100
AcDbEntity
  8
HILF
100
AcDbLine
 10
566.0000000000003
 20
59.99999999999989
 30
0.0
 11
650.0
 21
59.99999999999989
 31
0.0
  0
LINE
  5
6E
330
1E
100
AcDbEntity
  8
HILF
100
AcDbLine
 10
566.0000000000003
 20
49.99999999999989
 30
0.0
 11
650.0
 21
49.99999999999989
 31
0.0
  0
LINE
  5
6F
330
1E
100
AcDbEntity
  8
HILF
100
AcDbLine
 10
654.773680109695
 20
84.03758247564121
 30
0.0
 11
746.6297842514812
 21
84.03758247564121
 31
0.0
  0
LINE
  5
70
330
1E
100
AcDbEntity
  8
HILF
100
AcDbLine
 10
654.773680109695
 20
69.99999999999989
 30
0.0
 11
746.6297842514812
 21
69.99999999999989
 31
0.0
  0
LINE
  5
71
330
1E
100
AcDbEntity
  8
HILF
100
AcDbLine
 10
654.773680109695
 20
59.99999999999989
 30
0.0
 11
746.6297842514812
 21
59.99999999999989
 31
0.0
  0
LINE
  5
72
330
1E
100
AcDbEntity
  8
HILF
100
AcDbLine
 10
654.773680109695
 20
49.99999999999989
 30
0.0
 11
746.6297842514812
 21
49.99999999999989
 31
0.0
  0
LINE
  5
73
330
1E
100
AcDbEntity
  8
VOLL
100
AcDbLine
 10
752.0000000000003
 20
59.99999999999989
 30
0.0
 11
830.0000000000004
 21
59.99999999999989
 31
0.0
  0
LINE
  5
74
330
1E
100
AcDbEntity
  8
HILF
100
AcDbLine
 10
756.7238616296996
 20
83.77983636955809
 30
0.0
 11
824.8588839326732
 21
83.77983636955804
 31
0.0
  0
LINE
  5
75
330
1E
100
AcDbEntity
  8
HILF
100
AcDbLine
 10
654.773680109695
 20
14.89398258028291
 30
0.0
 11
824.8588839326732
 21
14.89398258028291
 31
0.0
  0
TEXT
  5
76
330
1E
100
AcDbEntity
  8
TEXT
100
AcDbText
 10
492.3998239263299
 20
18.67381894984115
 30
0.0
 40
4.0
  1
Änderung
 41
0.8
  7
GREEKS
 72
     1
 11
503.1426810691869
 21
18.67381894984115
 31
0.0
100
AcDbText
  0
TEXT
  5
78
330
1E
100
AcDbEntity
  8
TEXT
100
AcDbText
 10
573.5163572150376
 20
102.4620895087087
 30
0.0
 40
5.0
  1
Maßstab
 41
0.8
  7
GREEKS
100
AcDbText
  0
TEXT
  5
79
330
1E
100
AcDbEntity
  8
TEXT
100
AcDbText
 10
654.8779403809009
 20
102.5489328011778
 30
0.0
 40
5.0
  1
Benennung
 41
0.8
  7
GREEKS
100
AcDbText
  0
TEXT
  5
7A
330
1E
100
AcDbEntity
  8
TEXT
100
AcDbText
 10
756.1787549576343
 20
102.3132034537135
 30
0.0
 40
5.0
  1
Zeichnungs Nr.
 41
0.8
  7
GREEKS
100
AcDbText
  0
TEXT
  5
7B
330
1E
100
AcDbEntity
  8
TEXT
100
AcDbText
 10
654.7422383911359
 20
30.84560570193048
 30
0.0
 40
5.0
  1
Bauvorhaben
 41
0.8
  7
GREEKS
100
AcDbText
  0
TEXT
  5
7C
330
1E
100
AcDbEntity
  8
TEXT
100
AcDbText
 10
756.7238616296995
 20
73.18118237099949
 30
0.0
 40
5.0
  1
Ersatz für:
 41
0.8
  7
GREEKS
100
AcDbText
  0
TEXT
  5
7D
330
1E
100
AcDbEntity
  8
TEXT
100
AcDbText
 10
478.2664110704578
 20
13.6546584602718
 30
0.0
 40
4.0
  1
Index
 50
89.99999999999998
 41
0.8
  7
GREEKS
100
AcDbText
  0
TEXT
  5
7E
330
1E
100
AcDbEntity
  8
TEXT
100
AcDbText
 10
529.8990113186979
 20
18.67156269339799
 30
0.0
 40
4.0
  1
Tag
 41
0.8
  7
GREEKS
 72
     1
 11
533.6323446520313
 21
18.67156269339799
 31
0.0
100
AcDbText
  0
TEXT
  5
7F
330
1E
100
AcDbEntity
  8
TEXT
100
AcDbText
 10
548.9795678138292
 20
18.59324216966391
 30
0.0
 40
4.0
  1
Name
 41
0.8
  7
GREEKS
 72
     1
 11
555.3033773376387
 21
18.59324216966391
 31
0.0
100
AcDbText
  0
TEXT
  5
80
330
1E
100
AcDbEntity
  8
TEXT
100
AcDbText
 10
592.3311673153651
 20
73.31880501229909
 30
0.0
 40
4.0
  1
Tag
 41
0.8
  7
GREEKS
100
AcDbText
  0
TEXT
  5
81
330
1E
100
AcDbEntity
  8
TEXT
100
AcDbText
 10
622.4626584226296
 20
73.30961091915208
 30
0.0
 40
4.0
  1
Name
 41
0.8
  7
GREEKS
100
AcDbText
  0
TEXT
  5
82
330
1E
100
AcDbEntity
  8
TEXT
100
AcDbText
 10
567.5836127167615
 20
63.62990369617946
 30
0.0
 40
4.0
  1
Gez.
 41
0.8
  7
GREEKS
100
AcDbText
  0
TEXT
  5
83
330
1E
100
AcDbEntity
  8
TEXT
100
AcDbText
 10
567.5515086571672
 20
53.68926291428365
 30
0.0
 40
4.0
  1
Gepr.
 41
0.8
  7
GREEKS
100
AcDbText
  0
TEXT
  5
84
330
1E
100
AcDbEntity
  8
TEXT
100
AcDbText
 10
567.6006777387303
 20
43.52946389649789
 30
0.0
 40
4.0
  1
Norm.
 41
0.8
  7
GREEKS
100
AcDbText
  0
TEXT
  5
85
330
1E
100
AcDbEntity
  8
TEXT
100
AcDbText
 10
757.2400861497007
 20
52.07416177878585
 30
0.0
 40
5.0
  1
ersetzt durch:
 41
0.8
  7
GREEKS
100
AcDbText
  0
TEXT
  5
86
330
1E
100
AcDbEntity
  8
TEXT
100
AcDbText
 10
568.8693027807324
 20
72.96682596523718
 30
0.0
 40
4.0
  1
2009
 41
0.8
  7
GREEKS
100
AcDbText
  0
LINE
  5
87
330
1E
100
AcDbEntity
  8
HILF
100
AcDbLine
 10
0.0
 20
0.0
 30
0.0
 11
840.0000000000002
 21
-0.0000000000001137
 31
0.0
  0
LINE
  5
88
330
1E
100
AcDbEntity
  8
HILF
100
AcDbLine
 10
840.0000000000002
 20
-0.0000000000001137
 30
0.0
 11
840.0000000000002
 21
593.9999999999998
 31
0.0
  0
LINE
  5
89
330
1E
100
AcDbEntity
  8
HILF
100
AcDbLine
 10
840.0000000000002
 20
593.9999999999998
 30
0.0
 11
0.0000000000001705
 21
594.0
 31
0.0
  0
LINE
  5
8B
330
1E
100
AcDbEntity
  8
STEMPEL
100
AcDbLine
 10
830.0
 20
583.9999999999998
 30
0.0
 11
40.00000000000011
 21
584.0
 31
0.0
  0
LINE
  5
8D
330
1E
100
AcDbEntity
  8
STEMPEL
100
AcDbLine
 10
40.0
 20
10.0
 30
0.0
 11
830.0
 21
9.999999999999886
 31
0.0
  0
LINE
  5
8E
330
1E
100
AcDbEntity
  8
STEMPEL
100
AcDbLine
 10
830.0
 20
9.999999999999886
 30
0.0
 11
830.0
 21
583.9999999999998
 31
0.0
  0
TEXT
  5
8F
330
1E
100
AcDbEntity
  8
TEXT
 62
     1
100
AcDbText
 10
655.0390572473189
 20
87.3734307565253
 30
0.0
 40
7.0
  1
Regenstandrohr DN125
 41
0.75
  7
GREEKS
100
AcDbText
  0
TEXT
  5
90
330
1E
100
AcDbEntity
  8
TEXT
 62
     1
100
AcDbText
 10
766.6628088850802
 20
87.37343075652526
 30
0.0
 40
7.0
  1
45526125W
 41
0.8
  7
GREEKS
 72
     1
 11
790.1294755517469
 21
87.37343075652526
 31
0.0
100
AcDbText
  0
TEXT
  5
91
330
1E
100
AcDbEntity
  8
TEXT
100
AcDbText
 10
618.5090226415829
 20
102.8398961137899
 30
0.0
 40
5.0
  1
Zul.Abw.
 41
0.8
  7
GREEKS
100
AcDbText
  0
TEXT
  5
93
330
1E
100
AcDbEntity
  8
TEXT
100
AcDbText
 10
590.1565237511869
 20
63.15085876120213
 30
0.0
 40
4.0
  1
28.09.
 41
0.8
  7
GREEKS
 72
     1
 11
597.1660475607107
 21
63.15085876120213
 31
0.0
100
AcDbText
  0
TEXT
  5
94
330
1E
100
AcDbEntity
  8
TEXT
100
AcDbText
 10
624.0231753226609
 20
62.94297655165462
 30
0.0
 40
4.0
  1
Koeh
 41
0.8
  7
GREEKS
 72
     1
 11
629.2803181798038
 21
62.94297655165462
 31
0.0
100
AcDbText
  0
TEXT
  5
97
330
1E
100
AcDbEntity
  8
TEXT
100
AcDbText
 10
654.3410940884991
 20
52.59097337846049
 30
0.0
 40
5.0
  1
EDV-Art.Nr. 4.5526.125C
 41
0.8
  7
GREEKS
100
AcDbText
  0
TEXT
  5
98
330
1E
100
AcDbEntity
  8
TEXT
100
AcDbText
 10
654.1676050109347
 20
43.31127624791498
 30
0.0
 40
4.0
  1
45526125W.DWG
 41
0.8
  7
GREEKS
100
AcDbText
  0
TEXT
  5
99
330
1E
100
AcDbEntity
  8
TEXT
 62
     1
100
AcDbText
 10
582.703491203422
 20
87.47077088414959
 30
0.0
 40
7.0
  1
1:2
 41
0.8
  7
GREEKS
100
AcDbText
  0
TEXT
  5
9A
330
1E
100
AcDbEntity
  8
TEXT
100
AcDbText
 10
470.0441139350129
 20
114.1143585051042
 30
0.0
 40
5.0
  1
Erstellt mit AUTOCAD 2004
 41
0.8
  7
GREEKS
100
AcDbText
  0
INSERT
  5
9B
330
1E
100
AcDbEntity
  8
HILF
100
AcDbBlockReference
  2
LORO
 10
573.0624985962354
 20
36.98059300298954
 30
0.0
 41
2.0
 42
2.0
 43
2.0
  0
LINE
  5
9C
330
1E
100
AcDbEntity
  8
BEM
100
AcDbLine
 10
456.0
 20
-0.0000000000001137
 30
0.0
 11
456.0
 21
9.999999999999886
 31
0.0
  0
LINE
  5
13E
330
1E
100
AcDbEntity
  8
HILF
100
AcDbLine
 10
0.0
 20
0.0
 30
0.0
 11
0.0000000000001705
 21
594.0
 31
0.0
  0
LINE
  5
13F
330
1E
100
AcDbEntity
  8
STEMPEL
100
AcDbLine
 10
40.0
 20
10.0
 30
0.0
 11
40.00000000000011
 21
584.0
 31
0.0
  0
LINE
  5
14A
330
1E
100
AcDbEntity
  8
HILF
100
AcDbLine
 10
0.0000000000000568
 20
297.0
 30
0.0
 11
40.00000000000006
 21
297.0
 31
0.0
  0
TEXT
  5
15B
330
1E
100
AcDbEntity
  8
BEM
100
AcDbText
 10
837.3022923857165
 20
10.16790107998847
 30
0.0
 40
4.0
  1
Diese Zeichnung ist urheberrechtlich geschützt und bleibt unser Eigentum. Sie darf weder ganz noch teilweise verfielfältigt und nicht an Dritte weitergegeben werden.
 50
89.99999999999998
 41
0.8
  7
GREEKS
100
AcDbText
  0
TEXT
  5
ACA
330
1E
100
AcDbEntity
  8
TEXT
100
AcDbText
 10
612.2898419893275
 20
89.26643524492067
 30
0.0
 40
4.0
  1
DIN EN1124-3
 41
0.8
  7
GREEKS
 72
     1
 11
629.2803181798038
 21
89.26643524492067
 31
0.0
100
AcDbText
  0
TEXT
  5
AE3
330
1E
100
AcDbEntity
  8
TEXT
 62
     1
100
AcDbText
 10
664.6057658946469
 20
129.0783465745481
 30
0.0
 40
7.0
  1

 41
0.8
  7
GREEKS
100
AcDbText
  0
TEXT
  5
AE4
330
1E
100
AcDbEntity
  8
TEXT
 62
     1
100
AcDbText
 10
695.3514184640084
 20
124.6092719826923
 30
0.0
 40
7.0
  1
Werkstoff: 1.4404
 41
0.8
  7
GREEKS
100
AcDbText
  0
LINE
  5
D19
330
1E
100
AcDbEntity
  8
STEMPEL
100
AcDbLine
 10
787.6325599803772
 20
397.6861555451615
 30
0.0
 11
786.708730388134
 21
398.1169443588548
 31
0.0
  0
ARC
  5
D1A
330
1E
100
AcDbEntity
  8
STEMPEL
100
AcDbCircle
 10
774.0301825359128
 20
370.9277107477553
 30
0.0
 40
30.0
100
AcDbArc
 50
65.00000000000652
 51
89.99999999999998
  0
ARC
  5
D1C
330
1E
100
AcDbEntity
  8
STEMPEL
100
AcDbCircle
 10
754.923559980377
 20
370.9277107477553
 30
0.0
 40
29.99973625969209
100
AcDbArc
 50
89.99999999999998
 51
115.0071583365423
  0
ARC
  5
D1E
330
1E
100
AcDbEntity
  8
STEMPEL
100
AcDbCircle
 10
734.6325599803773
 20
414.4277107477553
 30
0.0
 40
18.0
100
AcDbArc
 50
270.0
 51
295.0071583365423
  0
LINE
  5
D1F
330
1E
100
AcDbEntity
  8
STEMPEL
100
AcDbLine
 10
774.0301825359129
 20
400.9277107477553
 30
0.0
 11
754.9235599803771
 21
400.9277107477553
 31
0.0
  0
LINE
  5
D21
330
1E
100
AcDbEntity
  8
STEMPEL
100
AcDbLine
 10
734.6325599803772
 20
396.4277107477553
 30
0.0
 11
636.1012794030482
 21
396.4277107477554
 31
0.0
  0
LINE
  5
D23
330
1E
100
AcDbEntity
  8
STEMPEL
100
AcDbLine
 10
787.6325599803772
 20
252.1692659503491
 30
0.0
 11
786.708730388134
 21
251.7384771366558
 31
0.0
  0
ARC
  5
D24
330
1E
100
AcDbEntity
  8
STEMPEL
100
AcDbCircle
 10
774.0301825359128
 20
278.9277107477553
 30
0.0
 40
30.0
100
AcDbArc
 50
270.0
 51
294.9999999999934
  0
ARC
  5
D25
330
1E
100
AcDbEntity
  8
STEMPEL
100
AcDbCircle
 10
734.6325599803771
 20
235.4277107477553
 30
0.0
 40
18.0
100
AcDbArc
 50
64.99284166345768
 51
89.99999999999998
  0
ARC
  5
D26
330
1E
100
AcDbEntity
  8
STEMPEL
100
AcDbCircle
 10
754.923559980377
 20
278.9277107477553
 30
0.0
 40
29.99973625969209
100
AcDbArc
 50
244.9928416634577
 51
270.0
  0
LINE
  5
D27
330
1E
100
AcDbEntity
  8
STEMPEL
100
AcDbLine
 10
774.0301825359129
 20
248.9277107477553
 30
0.0
 11
754.9235599803771
 21
248.9277107477553
 31
0.0
  0
LINE
  5
D28
330
1E
100
AcDbEntity
  8
STEMPEL
100
AcDbLine
 10
734.6325599803772
 20
253.4277107477553
 30
0.0
 11
636.1012794030482
 21
253.4277107477552
 31
0.0
  0
LINE
  5
D29
330
1E
100
AcDbEntity
  8
HILF
100
AcDbLine
 10
738.5295707990815
 20
394.3015261446338
 30
0.0
 11
738.5295707990815
 21
255.5538953508759
 31
0.0
  0
LINE
  5
D2A
330
1E
100
AcDbEntity
  8
STEMPEL
100
AcDbLine
 10
787.6325599803772
 20
397.6861555451615
 30
0.0
 11
787.6325599803772
 21
252.1692659503491
 31
0.0
  0
ARC
  5
D8B
330
1E
100
AcDbEntity
  8
STEMPEL
100
AcDbCircle
 10
620.1325599803772
 20
401.4277107477554
 30
0.0
 40
10.0
100
AcDbArc
 50
270.0
 51
304.771944031949
  0
ARC
  5
D8D
330
1E
100
AcDbEntity
  8
STEMPEL
100
AcDbCircle
 10
620.132559980377
 20
248.4277107477552
 30
0.0
 40
10.0
100
AcDbArc
 50
55.22805596805095
 51
89.99999999999998
  0
LINE
  5
D91
330
1E
100
AcDbEntity
  8
HILF
100
AcDbLine
 10
630.7227506610436
 20
392.9646096113877
 30
0.0
 11
630.7227506610436
 21
256.8908118841241
 31
0.0
  0
LINE
  5
D92
330
1E
100
AcDbEntity
  8
HILF
100
AcDbLine
 10
623.1206315037131
 20
389.2901068420663
 30
0.0
 11
623.1206315037131
 21
260.5653146534457
 31
0.0
  0
DIMENSION
  5
D9D
330
1E
100
AcDbEntity
  8
BEM
100
AcDbDimension
  2
*D2
 10
73.75181957789547
 20
391.4277107477555
 30
0.0
 11
67.25181957789541
 21
324.9277107477553
 31
0.0
 70
    32
  1
%%c<>
 71
     5
 42
133.0000000000002
  3
Standard
100
AcDbAlignedDimension
 13
103.346300314601
 23
258.4277107477552
 33
0.0
 14
103.3463003146011
 24
391.4277107477555
 34
0.0
 50
90.0
100
AcDbRotatedDimension
1001
ACAD
1000
DSTYLE
1002
{
1070
    40
1040
2.0
1070
    41
1040
3.5
1070
    42
1040
1.0
1070
    43
1040
7.0
1070
    44
1040
1.0
1070
    73
1070
     0
1070
    74
1070
     0
1070
    77
1070
     1
1070
    78
1070
     8
1070
    79
1070
     2
1070
   140
1040
3.5
1070
   141
1040
1.5
1070
   146
1040
0.5142857142857144
1070
   147
1040
1.5
1070
   172
1070
     1
1070
   178
1070
     1
1070
   179
1070
     2
1070
   271
1070
     2
1070
   272
1070
     2
1070
   284
1070
     8
1070
   285
1070
     8
1070
   286
1070
     8
1002
}
  0
LINE
  5
DC8
330
1E
100
AcDbEntity
  8
STEMPEL
100
AcDbLine
 10
620.1325599803772
 20
258.4277107477552
 30
0.0
 11
580.3181413114831
 21
258.4277107477551
 31
0.0
  0
LINE
  5
DC9
330
1E
100
AcDbEntity
  8
STEMPEL
100
AcDbLine
 10
620.1325599803772
 20
391.4277107477555
 30
0.0
 11
580.3181413114832
 21
391.4277107477555
 31
0.0
  0
DIMENSION
  5
E4C
330
1E
100
AcDbEntity
  8
BEM
100
AcDbDimension
  2
*D3
 10
95.45545267187316
 20
210.2544311858892
 30
0.0
 11
441.5440063261252
 21
216.7544311858892
 31
0.0
 70
    32
  1
1000
 71
     5
 42
692.1771073085039
  3
Standard
100
AcDbAlignedDimension
 13
787.6325599803772
 23
252.1692659503491
 33
0.0
 14
95.45545267187316
 24
259.1180704621047
 34
0.0
100
AcDbRotatedDimension
1001
ACAD
1000
DSTYLE
1002
{
1070
    40
1040
2.0
1070
    41
1040
3.5
1070
    42
1040
1.0
1070
    43
1040
7.0
1070
    44
1040
1.0
1070
    73
1070
     0
1070
    74
1070
     0
1070
    77
1070
     1
1070
    78
1070
     8
1070
    79
1070
     2
1070
   140
1040
3.5
1070
   141
1040
1.5
1070
   146
1040
0.5142857142857144
1070
   147
1040
1.5
1070
   172
1070
     1
1070
   178
1070
     1
1070
   179
1070
     2
1070
   271
1070
     2
1070
   272
1070
     2
1070
   284
1070
     8
1070
   285
1070
     8
1070
   286
1070
     8
1002
}
  0
LINE
  5
E4D
330
1E
100
AcDbEntity
  8
MITTEL
100
AcDbLine
 10
792.6325599803769
 20
324.9277107477552
 30
0.0
 11
90.45545267187321
 21
324.9277107477555
 31
0.0
  0
ARC
  5
E4F
330
1E
100
AcDbEntity
  8
STEMPEL
100
AcDbCircle
 10
636.1012794030482
 20
271.4277107477553
 30
0.0
 40
18.0
100
AcDbArc
 50
235.228055968051
 51
270.0
  0
ARC
  5
E50
330
1E
100
AcDbEntity
  8
STEMPEL
100
AcDbCircle
 10
636.1012794030482
 20
378.4277107477553
 30
0.0
 40
18.0
100
AcDbArc
 50
89.99999999999998
 51
124.771944031949
  0
LINE
  5
1002
330
1E
100
AcDbEntity
  8
STEMPEL
100
AcDbLine
 10
95.45545267187321
 20
259.1180704621047
 30
0.0
 11
95.45545267187321
 21
390.7373510334066
 31
0.0
  0
LINE
  5
1003
330
1E
100
AcDbEntity
  8
HILF
100
AcDbLine
 10
103.4554526718731
 20
260.9277107477556
 30
0.0
 11
103.4554526718731
 21
388.9277107477555
 31
0.0
  0
LINE
  5
1004
330
1E
100
AcDbEntity
  8
STEMPEL
100
AcDbLine
 10
103.3463003146054
 20
391.4277107477559
 30
0.0
 11
95.45545267187321
 21
390.7373510334066
 31
0.0
  0
LINE
  5
1005
330
1E
100
AcDbEntity
  8
STEMPEL
100
AcDbLine
 10
103.3463003146019
 20
258.4277107477557
 30
0.0
 11
95.45545267187321
 21
259.1180704621047
 31
0.0
  0
TEXT
  5
10F1
330
1E
100
AcDbEntity
  8
TEXT
 62
     1
100
AcDbText
 10
694.9847724206027
 20
329.7298250289803
 30
0.0
 40
7.0
  1
DN125
 41
0.8
  7
GREEKS
100
AcDbText
  0
TEXT
  5
11FC
330
1E
100
AcDbEntity
  8
TEXT
 62
     1
100
AcDbText
 10
289.448981866632
 20
111.1543080187042
 30
0.0
 40
7.0
  1
Rohrende leicht eingezogen
 41
0.8
  7
GREEKS
100
AcDbText
  0
LINE
  5
12C6
330
1E
100
AcDbEntity
  8
BEM
100
AcDbLine
 10
456.0
 20
593.9999999999998
 30
0.0
 11
456.0
 21
583.9999999999998
 31
0.0
  0
DIMENSION
  5
12EC
330
1E
100
AcDbEntity
  8
BEM
100
AcDbDimension
  2
*D4
 10
627.6325599803771
 20
227.0746732188793
 30
0.0
 11
707.6325599803772
 21
233.5746732188793
 31
0.0
 70
    32
 71
     5
 42
160.0
  3
Standard
100
AcDbAlignedDimension
 13
787.6325599803772
 23
252.1692659503491
 33
0.0
 14
627.6325599803771
 24
255.5443612477262
 34
0.0
100
AcDbRotatedDimension
1001
ACAD
1000
DSTYLE
1002
{
1070
    40
1040
2.0
1070
    41
1040
3.5
1070
    42
1040
1.0
1070
    43
1040
7.0
1070
    44
1040
1.0
1070
    73
1070
     0
1070
    74
1070
     0
1070
    77
1070
     1
1070
    78
1070
     8
1070
    79
1070
     2
1070
   140
1040
3.5
1070
   141
1040
1.5
1070
   146
1040
0.5142857142857144
1070
   147
1040
1.5
1070
   172
1070
     1
1070
   178
1070
     1
1070
   179
1070
     2
1070
   271
1070
     2
1070
   272
1070
     2
1070
   284
1070
     8
1070
   285
1070
     8
1070
   286
1070
     8
1002
}
  0
TEXT
  5
17CE
330
1E
100
AcDbEntity
  8
TEXT
100
AcDbText
 10
654.3410940884991
 20
72.59097337846049
 30
0.0
 40
5.0
  1

 41
0.8
  7
GREEKS
100
AcDbText
  0
POLYLINE
  5
1926
330
1E
100
AcDbEntity
  8
HILF
100
AcDb2dPolyline
 66
     1
 10
0.0
 20
0.0
 30
0.0
 70
     4
 75
     6
  0
VERTEX
  5
1927
330
1926
100
AcDbEntity
  8
HILF
100
AcDbVertex
100
AcDb2dVertex
 10
580.3181413114832
 20
258.4277107477552
 30
0.0
 70
    16
  0
VERTEX
  5
1928
330
1926
100
AcDbEntity
  8
HILF
100
AcDbVertex
100
AcDb2dVertex
 10
580.3181413114832
 20
258.4277107477552
 30
0.0
 70
     8
  0
VERTEX
  5
1929
330
1926
100
AcDbEntity
  8
HILF
100
AcDbVertex
100
AcDb2dVertex
 10
577.2419694364832
 20
270.1496345758802
 30
0.0
 70
     8
  0
VERTEX
  5
192A
330
1926
100
AcDbEntity
  8
HILF
100
AcDbVertex
100
AcDb2dVertex
 10
575.3962663114832
 20
280.5077888727552
 30
0.0
 70
     8
  0
VERTEX
  5
192B
330
1926
100
AcDbEntity
  8
HILF
100
AcDbVertex
100
AcDb2dVertex
 10
574.6052506864832
 20
289.6969978571302
 30
0.0
 70
     8
  0
VERTEX
  5
192C
330
1926
100
AcDbEntity
  8
HILF
100
AcDbVertex
100
AcDb2dVertex
 10
574.6931413114833
 20
297.9120857477552
 30
0.0
 70
     8
  0
VERTEX
  5
192D
330
1926
100
AcDbEntity
  8
HILF
100
AcDbVertex
100
AcDb2dVertex
 10
575.4841569364832
 20
305.3478767633802
 30
0.0
 70
     8
  0
VERTEX
  5
192E
330
1926
100
AcDbEntity
  8
HILF
100
AcDbVertex
100
AcDb2dVertex
 10
576.8025163114832
 20
312.1991951227552
 30
0.0
 70
     8
  0
VERTEX
  5
192F
330
1926
100
AcDbEntity
  8
HILF
100
AcDbVertex
100
AcDb2dVertex
 10
578.4724381864832
 20
318.6608650446302
 30
0.0
 70
     8
  0
VERTEX
  5
1930
330
1926
100
AcDbEntity
  8
HILF
100
AcDbVertex
100
AcDb2dVertex
 10
580.3181413114832
 20
324.9277107477553
 30
0.0
 70
     8
  0
VERTEX
  5
1931
330
1926
100
AcDbEntity
  8
HILF
100
AcDbVertex
100
AcDb2dVertex
 10
582.1638444364833
 20
331.1945564508803
 30
0.0
 70
     8
  0
VERTEX
  5
1932
330
1926
100
AcDbEntity
  8
HILF
100
AcDbVertex
100
AcDb2dVertex
 10
583.8337663114832
 20
337.6562263727554
 30
0.0
 70
     8
  0
VERTEX
  5
1933
330
1926
100
AcDbEntity
  8
HILF
100
AcDbVertex
100
AcDb2dVertex
 10
585.1521256864832
 20
344.5075447321304
 30
0.0
 70
     8
  0
VERTEX
  5
1934
330
1926
100
AcDbEntity
  8
HILF
100
AcDbVertex
100
AcDb2dVertex
 10
585.9431413114832
 20
351.9433357477554
 30
0.0
 70
     8
  0
VERTEX
  5
1935
330
1926
100
AcDbEntity
  8
HILF
100
AcDbVertex
100
AcDb2dVertex
 10
586.0310319364832
 20
360.1584236383804
 30
0.0
 70
     8
  0
VERTEX
  5
1936
330
1926
100
AcDbEntity
  8
HILF
100
AcDbVertex
100
AcDb2dVertex
 10
585.2400163114833
 20
369.3476326227555
 30
0.0
 70
     8
  0
VERTEX
  5
1937
330
1926
100
AcDbEntity
  8
HILF
100
AcDbVertex
100
AcDb2dVertex
 10
583.3943131864832
 20
379.7057869196305
 30
0.0
 70
     8
  0
VERTEX
  5
1938
330
1926
100
AcDbEntity
  8
HILF
100
AcDbVertex
100
AcDb2dVertex
 10
580.3181413114832
 20
391.4277107477555
 30
0.0
 70
     8
  0
VERTEX
  5
1939
330
1926
100
AcDbEntity
  8
HILF
100
AcDbVertex
100
AcDb2dVertex
 10
570.3181413114832
 20
291.6777107477553
 30
0.0
 70
    16
  0
VERTEX
  5
193A
330
1926
100
AcDbEntity
  8
HILF
100
AcDbVertex
100
AcDb2dVertex
 10
580.3181413114832
 20
324.9277107477553
 30
0.0
 70
    16
  0
VERTEX
  5
193B
330
1926
100
AcDbEntity
  8
HILF
100
AcDbVertex
100
AcDb2dVertex
 10
590.3181413114833
 20
358.1777107477555
 30
0.0
 70
    16
  0
VERTEX
  5
193C
330
1926
100
AcDbEntity
  8
HILF
100
AcDbVertex
100
AcDb2dVertex
 10
580.3181413114832
 20
391.4277107477555
 30
0.0
 70
    16
  0
SEQEND
  5
193D
330
1926
100
AcDbEntity
  8
HILF
  0
POLYLINE
  5
193E
330
1E
100
AcDbEntity
  8
HILF
100
AcDb2dPolyline
 66
     1
 10
0.0
 20
0.0
 30
0.0
 70
     4
 75
     6
  0
VERTEX
  5
193F
330
193E
100
AcDbEntity
  8
HILF
100
AcDbVertex
100
AcDb2dVertex
 10
575.3181413114832
 20
258.4277107477552
 30
0.0
 70
    16
  0
VERTEX
  5
1940
330
193E
100
AcDbEntity
  8
HILF
100
AcDbVertex
100
AcDb2dVertex
 10
575.3181413114832
 20
258.4277107477552
 30
0.0
 70
     8
  0
VERTEX
  5
1941
330
193E
100
AcDbEntity
  8
HILF
100
AcDbVertex
100
AcDb2dVertex
 10
572.2419694364832
 20
270.1496345758802
 30
0.0
 70
     8
  0
VERTEX
  5
1942
330
193E
100
AcDbEntity
  8
HILF
100
AcDbVertex
100
AcDb2dVertex
 10
570.3962663114833
 20
280.5077888727552
 30
0.0
 70
     8
  0
VERTEX
  5
1943
330
193E
100
AcDbEntity
  8
HILF
100
AcDbVertex
100
AcDb2dVertex
 10
569.6052506864832
 20
289.6969978571302
 30
0.0
 70
     8
  0
VERTEX
  5
1944
330
193E
100
AcDbEntity
  8
HILF
100
AcDbVertex
100
AcDb2dVertex
 10
569.6931413114832
 20
297.9120857477552
 30
0.0
 70
     8
  0
VERTEX
  5
1945
330
193E
100
AcDbEntity
  8
HILF
100
AcDbVertex
100
AcDb2dVertex
 10
570.4841569364832
 20
305.3478767633802
 30
0.0
 70
     8
  0
VERTEX
  5
1946
330
193E
100
AcDbEntity
  8
HILF
100
AcDbVertex
100
AcDb2dVertex
 10
571.8025163114832
 20
312.1991951227552
 30
0.0
 70
     8
  0
VERTEX
  5
1947
330
193E
100
AcDbEntity
  8
HILF
100
AcDbVertex
100
AcDb2dVertex
 10
573.4724381864833
 20
318.6608650446302
 30
0.0
 70
     8
  0
VERTEX
  5
1948
330
193E
100
AcDbEntity
  8
HILF
100
AcDbVertex
100
AcDb2dVertex
 10
575.3181413114832
 20
324.9277107477553
 30
0.0
 70
     8
  0
VERTEX
  5
1949
330
193E
100
AcDbEntity
  8
HILF
100
AcDbVertex
100
AcDb2dVertex
 10
577.1638444364832
 20
331.1945564508803
 30
0.0
 70
     8
  0
VERTEX
  5
194A
330
193E
100
AcDbEntity
  8
HILF
100
AcDbVertex
100
AcDb2dVertex
 10
578.8337663114832
 20
337.6562263727554
 30
0.0
 70
     8
  0
VERTEX
  5
194B
330
193E
100
AcDbEntity
  8
HILF
100
AcDbVertex
100
AcDb2dVertex
 10
580.1521256864832
 20
344.5075447321304
 30
0.0
 70
     8
  0
VERTEX
  5
194C
330
193E
100
AcDbEntity
  8
HILF
100
AcDbVertex
100
AcDb2dVertex
 10
580.9431413114833
 20
351.9433357477554
 30
0.0
 70
     8
  0
VERTEX
  5
194D
330
193E
100
AcDbEntity
  8
HILF
100
AcDbVertex
100
AcDb2dVertex
 10
581.0310319364832
 20
360.1584236383804
 30
0.0
 70
     8
  0
VERTEX
  5
194E
330
193E
100
AcDbEntity
  8
HILF
100
AcDbVertex
100
AcDb2dVertex
 10
580.2400163114832
 20
369.3476326227555
 30
0.0
 70
     8
  0
VERTEX
  5
194F
330
193E
100
AcDbEntity
  8
HILF
100
AcDbVertex
100
AcDb2dVertex
 10
578.3943131864832
 20
379.7057869196305
 30
0.0
 70
     8
  0
VERTEX
  5
1950
330
193E
100
AcDbEntity
  8
HILF
100
AcDbVertex
100
AcDb2dVertex
 10
575.3181413114832
 20
391.4277107477555
 30
0.0
 70
     8
  0
VERTEX
  5
1951
330
193E
100
AcDbEntity
  8
HILF
100
AcDbVertex
100
AcDb2dVertex
 10
565.3181413114833
 20
291.6777107477553
 30
0.0
 70
    16
  0
VERTEX
  5
1952
330
193E
100
AcDbEntity
  8
HILF
100
AcDbVertex
100
AcDb2dVertex
 10
575.3181413114832
 20
324.9277107477553
 30
0.0
 70
    16
  0
VERTEX
  5
1953
330
193E
100
AcDbEntity
  8
HILF
100
AcDbVertex
100
AcDb2dVertex
 10
585.3181413114832
 20
358.1777107477555
 30
0.0
 70
    16
  0
VERTEX
  5
1954
330
193E
100
AcDbEntity
  8
HILF
100
AcDbVertex
100
AcDb2dVertex
 10
575.3181413114832
 20
391.4277107477555
 30
0.0
 70
    16
  0
SEQEND
  5
1955
330
193E
100
AcDbEntity
  8
HILF
  0
LINE
  5
196E
330
1E
100
AcDbEntity
  8
STEMPEL
100
AcDbLine
 10
575.3181413114833
 20
391.4277107477553
 30
0.0
 11
103.3463003146011
 21
391.4277107477555
 31
0.0
  0
LINE
  5
196F
330
1E
100
AcDbEntity
  8
STEMPEL
100
AcDbLine
 10
575.3181413114833
 20
258.4277107477551
 30
0.0
 11
103.346300314606
 21
258.4277107477552
 31
0.0
  0
ENDSEC
  0
SECTION
  2
OBJECTS
  0
DICTIONARY
  5
C
330
0
100
AcDbDictionary
281
     1
  3
ACAD_COLOR
350
11A
  3
ACAD_GROUP
350
D
  3
ACAD_LAYOUT
350
19
  3
ACAD_MATERIAL
350
119
  3
ACAD_MLINESTYLE
350
16
  3
ACAD_PLOTSETTINGS
350
18
  3
ACAD_PLOTSTYLENAME
350
E
  3
AcDbVariableDictionary
350
125
  0
DICTIONARY
  5
DB
330
1E
100
AcDbDictionary
280
     1
281
     1
  3
ACAD_LAYOUTSELFREF
360
10F
  0
DICTIONARY
  5
DD
330
1A
100
AcDbDictionary
280
     1
281
     1
  3
ACAD_LAYOUTSELFREF
360
10E
  0
DICTIONARY
  5
11A
102
{ACAD_REACTORS
330
C
102
}
330
C
100
AcDbDictionary
281
     1
  0
DICTIONARY
  5
D
102
{ACAD_REACTORS
330
C
102
}
330
C
100
AcDbDictionary
281
     1
  0
DICTIONARY
  5
19
102
{ACAD_REACTORS
330
C
102
}
330
C
100
AcDbDictionary
281
     1
  3
Layout1
350
1D
  3
Model
350
21
  0
DICTIONARY
  5
119
102
{ACAD_REACTORS
330
C
102
}
330
C
100
AcDbDictionary
281
     1
  0
DICTIONARY
  5
16
102
{ACAD_REACTORS
330
C
102
}
330
C
100
AcDbDictionary
281
     1
  3
Standard
350
17
  0
DICTIONARY
  5
18
102
{ACAD_REACTORS
330
C
102
}
330
C
100
AcDbDictionary
281
     1
  0
ACDBDICTIONARYWDFLT
  5
E
102
{ACAD_REACTORS
330
C
102
}
330
C
100
AcDbDictionary
281
     1
  3
Normal
350
F
100
AcDbDictionaryWithDefault
340
F
  0
DICTIONARY
  5
125
102
{ACAD_REACTORS
330
C
102
}
330
C
100
AcDbDictionary
281
     1
  3
DIMASSOC
350
126
  3
PROJECTNAME
350
127
  0
XRECORD
  5
10F
102
{ACAD_REACTORS
330
DB
102
}
330
DB
100
AcDbXrecord
280
     1
340
1E
  0
XRECORD
  5
10E
102
{ACAD_REACTORS
330
DD
102
}
330
DD
100
AcDbXrecord
280
     1
340
1A
  0
LAYOUT
  5
1D
102
{ACAD_REACTORS
330
19
102
}
330
19
100
AcDbPlotSettings
  1

  2
\\NT_WORK01\HP LaserJet 5000 PCL 6
  4

  6

 40
0.0
 41
0.0
 42
0.0
 43
0.0
 44
0.0
 45
0.0
 46
0.0
 47
0.0
 48
0.0
 49
0.0
140
0.0
141
0.0
142
1.0
143
1.0
 70
   688
 72
     0
 73
     0
 74
     5
  7

 75
    16
147
1.0
 76
     0
 77
     2
 78
   300
148
0.0
149
0.0
100
AcDbLayout
  1
Layout1
 70
     0
 71
     1
 10
0.0
 20
0.0
 11
12.0
 21
9.0
 12
0.0
 22
0.0
 32
0.0
 14
1.000000000000000E+20
 24
1.000000000000000E+20
 34
1.000000000000000E+20
 15
-1.000000000000000E+20
 25
-1.000000000000000E+20
 35
-1.000000000000000E+20
146
0.0
 13
0.0
 23
0.0
 33
0.0
 16
1.0
 26
0.0
 36
0.0
 17
0.0
 27
1.0
 37
0.0
 76
     0
330
1A
  0
LAYOUT
  5
21
102
{ACAD_REACTORS
330
19
102
}
330
19
100
AcDbPlotSettings
  1

  2
none_device
  4
Letter_(8.50_x_11.00_Inches)
  6

 40
6.349999904632568
 41
6.349999904632568
 42
6.350006103515625
 43
6.350006103515625
 44
215.8999938964844
 45
279.3999938964844
 46
0.0
 47
0.0
 48
0.0
 49
0.0
140
0.0
141
0.0
142
1.0
143
1.0
 70
 11952
 72
     0
 73
     1
 74
     0
  7

 75
     0
147
1.0
 76
     0
 77
     2
 78
   300
148
-3122.158651940765
149
2.041348059236838
100
AcDbLayout
  1
Model
 70
     1
 71
     0
 10
0.0
 20
0.0
 11
12.0
 21
9.0
 12
0.0
 22
0.0
 32
0.0
 14
0.0
 24
0.0
 34
0.0
 15
0.0
 25
0.0
 35
0.0
146
0.0
 13
0.0
 23
0.0
 33
0.0
 16
1.0
 26
0.0
 36
0.0
 17
0.0
 27
1.0
 37
0.0
 76
     0
330
1E
  0
MLINESTYLE
  5
17
102
{ACAD_REACTORS
330
16
102
}
330
16
100
AcDbMlineStyle
  2
STANDARD
 70
     0
  3

 62
   256
 51
90.0
 52
90.0
 71
     2
 49
0.5
 62
   256
  6
BYLAYER
 49
-0.5
 62
   256
  6
BYLAYER
  0
ACDBPLACEHOLDER
  5
F
102
{ACAD_REACTORS
330
E
102
}
330
E
  0
DICTIONARYVAR
  5
126
102
{ACAD_REACTORS
330
125
102
}
330
125
100
DictionaryVariables
280
     0
  1
1
  0
DICTIONARYVAR
  5
127
102
{ACAD_REACTORS
330
125
102
}
330
125
100
DictionaryVariables
280
     0
  1

  0
ENDSEC
  0
EOF
